osu file format v14

[General]
AudioFilename: Audio.ogg
AudioLeadIn: 0
PreviewTime: 134371
Countdown: 0
SampleSet: Soft
StackLeniency: 0.7
Mode: 3
LetterboxInBreaks: 0
SpecialStyle: 0
WidescreenStoryboard: 1

[Editor]
Bookmarks: 10771,20371,30271,49171,58771,67171,70771,77971,82771,87571,97171,106771,116371,121171,125971,130771,135571,154771
DistanceSpacing: 0.8
BeatDivisor: 4
GridSize: 32
TimelineZoom: 2.1

[Metadata]
Title:T+ VS SHARK
TitleUnicode:T+ VS SHARK
Artist:t+pazolite
ArtistUnicode:t+pazolite
Creator:keksikosu
Version:CS' MASTER - FIGHT me or DIE
Source:
Tags:tpz t+pz electronic instrumental jcore j-core hardcore jumpstream js long notes ln hybrid novelty DenYi Critical_Star Ballistic
BeatmapID:3769283
BeatmapSetID:1835865

[Difficulty]
HPDrainRate:8
CircleSize:4
OverallDifficulty:7.5
ApproachRate:5
SliderMultiplier:1.4
SliderTickRate:1

[Events]
//Background and Video events
0,0,"BG.jpg",0,0
Video,-70,"Video.mp4"
//Break Periods
//Storyboard Layer 0 (Background)
//Storyboard Layer 1 (Fail)
//Storyboard Layer 2 (Pass)
//Storyboard Layer 3 (Foreground)
//Storyboard Layer 4 (Overlay)
//Storyboard Sound Samples

[TimingPoints]
1171,300,4,2,1,20,1,0
30271,-100,4,2,1,20,0,1
38371,-100,4,2,1,20,0,0
39571,-100,4,2,1,20,0,1
47971,-100,4,2,1,20,0,0
58771,-100,4,2,1,20,0,1
67171,-100,4,2,1,20,0,0
70771,-100,4,2,1,20,0,1
77971,-100,4,2,1,20,0,0
116371,-100,4,2,1,20,0,1
124771,-100,4,2,1,20,0,0
125971,-100,4,2,1,20,0,1
133171,-100,4,2,1,20,0,0
135571,-100,4,2,1,20,0,1
143971,-100,4,2,1,20,0,0
145171,-100,4,2,1,20,0,1
154771,-100,4,2,1,20,0,0

[HitObjects]
64,192,10771,128,0,12421:0:0:0:0:
448,192,10771,128,0,11971:0:0:0:0:
320,192,10771,1,0,0:0:0:0:
192,192,11971,128,0,12421:0:0:0:0:
320,192,11971,1,0,0:0:0:0:
448,192,12121,128,0,12421:0:0:0:0:
448,192,13171,128,0,14821:0:0:0:0:
64,192,13171,128,0,14371:0:0:0:0:
320,192,14371,128,0,14821:0:0:0:0:
192,192,14371,1,0,0:0:0:0:
64,192,14521,128,0,14821:0:0:0:0:
448,192,15571,128,0,16771:0:0:0:0:
64,192,15571,128,0,17221:0:0:0:0:
192,192,16771,128,0,17221:0:0:0:0:
320,192,16771,1,0,0:0:0:0:
448,192,16921,128,0,17221:0:0:0:0:
64,192,17971,128,0,19171:0:0:0:0:
448,192,17971,128,0,19171:0:0:0:0:
320,192,17971,1,0,0:0:0:0:
192,192,18271,1,0,0:0:0:0:
320,192,18571,1,0,0:0:0:0:
192,192,18871,1,0,0:0:0:0:
320,192,19171,1,0,0:0:0:0:
320,192,19321,1,0,0:0:0:0:
192,192,19396,1,0,0:0:0:0:
64,192,19471,1,0,0:0:0:0:
448,192,19471,1,0,0:0:0:0:
320,192,19621,1,0,0:0:0:0:
448,192,19696,1,0,0:0:0:0:
192,192,19771,1,0,0:0:0:0:
64,192,19846,1,0,0:0:0:0:
320,192,19921,1,0,0:0:0:0:
448,192,19921,1,0,0:0:0:0:
192,192,19996,1,0,0:0:0:0:
448,192,20071,1,0,0:0:0:0:
64,192,20071,1,0,0:0:0:0:
192,192,20221,1,0,0:0:0:0:
320,192,20296,1,0,0:0:0:0:
448,192,20371,1,0,0:0:0:0:
192,192,20371,1,0,0:0:0:0:
64,192,20371,128,0,20971:0:0:0:0:
192,192,20521,1,0,0:0:0:0:
448,192,20671,1,0,0:0:0:0:
320,192,20671,1,0,0:0:0:0:
448,192,20821,1,0,0:0:0:0:
192,192,20971,1,0,0:0:0:0:
320,192,20971,128,0,21571:0:0:0:0:
192,192,21121,1,0,0:0:0:0:
64,192,21271,1,0,0:0:0:0:
448,192,21271,1,0,0:0:0:0:
448,192,21421,1,0,0:0:0:0:
64,192,21571,128,0,22171:0:0:0:0:
192,192,21571,1,0,0:0:0:0:
192,192,21721,1,0,0:0:0:0:
320,192,21871,1,0,0:0:0:0:
448,192,21871,1,0,0:0:0:0:
448,192,22021,1,0,0:0:0:0:
320,192,22171,128,0,22771:0:0:0:0:
192,192,22171,1,0,0:0:0:0:
192,192,22321,1,0,0:0:0:0:
64,192,22471,1,0,0:0:0:0:
448,192,22471,1,0,0:0:0:0:
192,192,22621,1,0,0:0:0:0:
64,192,22621,1,0,0:0:0:0:
192,192,22771,128,0,23371:0:0:0:0:
448,192,22771,1,0,0:0:0:0:
64,192,22771,1,0,0:0:0:0:
448,192,22921,1,0,0:0:0:0:
320,192,23071,1,0,0:0:0:0:
64,192,23071,1,0,0:0:0:0:
64,192,23221,1,0,0:0:0:0:
448,192,23371,128,0,23971:0:0:0:0:
320,192,23371,1,0,0:0:0:0:
320,192,23521,1,0,0:0:0:0:
64,192,23671,1,0,0:0:0:0:
192,192,23671,1,0,0:0:0:0:
64,192,23821,1,0,0:0:0:0:
192,192,23821,1,0,0:0:0:0:
192,192,23971,128,0,24571:0:0:0:0:
64,192,23971,1,0,0:0:0:0:
320,192,23971,1,0,0:0:0:0:
320,192,24121,1,0,0:0:0:0:
64,192,24271,1,0,0:0:0:0:
448,192,24271,1,0,0:0:0:0:
64,192,24421,1,0,0:0:0:0:
448,192,24571,128,0,24871:0:0:0:0:
320,192,24571,1,0,0:0:0:0:
320,192,24721,1,0,0:0:0:0:
192,192,24871,1,0,0:0:0:0:
64,192,24871,1,0,0:0:0:0:
320,192,24946,1,0,0:0:0:0:
448,192,25021,1,0,0:0:0:0:
64,192,25021,1,0,0:0:0:0:
192,192,25096,1,0,0:0:0:0:
64,192,25171,128,0,25396:0:0:0:0:
448,192,25171,1,0,0:0:0:0:
320,192,25171,1,0,0:0:0:0:
320,192,25321,1,0,0:0:0:0:
448,192,25471,128,0,25696:0:0:0:0:
192,192,25471,1,0,0:0:0:0:
64,192,25471,1,0,0:0:0:0:
192,192,25621,1,0,0:0:0:0:
64,192,25771,128,0,25996:0:0:0:0:
448,192,25771,1,0,0:0:0:0:
320,192,25771,1,0,0:0:0:0:
320,192,25921,1,0,0:0:0:0:
448,192,26071,128,0,26296:0:0:0:0:
192,192,26071,1,0,0:0:0:0:
64,192,26071,1,0,0:0:0:0:
192,192,26221,1,0,0:0:0:0:
64,192,26371,128,0,26596:0:0:0:0:
448,192,26371,1,0,0:0:0:0:
320,192,26371,1,0,0:0:0:0:
448,192,26521,1,0,0:0:0:0:
448,192,26671,128,0,26896:0:0:0:0:
64,192,26671,1,0,0:0:0:0:
192,192,26671,1,0,0:0:0:0:
64,192,26821,1,0,0:0:0:0:
64,192,26971,128,0,27196:0:0:0:0:
320,192,26971,1,0,0:0:0:0:
448,192,26971,1,0,0:0:0:0:
448,192,27121,1,0,0:0:0:0:
448,192,27271,128,0,27496:0:0:0:0:
192,192,27271,1,0,0:0:0:0:
64,192,27271,1,0,0:0:0:0:
64,192,27421,1,0,0:0:0:0:
448,192,27571,1,0,0:0:0:0:
192,192,27571,1,0,0:0:0:0:
320,192,27646,1,0,0:0:0:0:
64,192,27721,1,0,0:0:0:0:
448,192,27721,1,0,0:0:0:0:
192,192,27796,1,0,0:0:0:0:
64,192,27871,1,0,0:0:0:0:
320,192,27871,1,0,0:0:0:0:
448,192,27946,1,0,0:0:0:0:
192,192,28021,1,0,0:0:0:0:
64,192,28021,1,0,0:0:0:0:
320,192,28096,1,0,0:0:0:0:
448,192,28171,1,0,0:0:0:0:
192,192,28171,1,0,0:0:0:0:
64,192,28246,1,0,0:0:0:0:
320,192,28321,1,0,0:0:0:0:
448,192,28321,1,0,0:0:0:0:
192,192,28396,1,0,0:0:0:0:
64,192,28471,1,0,0:0:0:0:
448,192,28471,1,0,0:0:0:0:
320,192,28546,1,0,0:0:0:0:
192,192,28621,1,0,0:0:0:0:
64,192,28621,1,0,0:0:0:0:
320,192,28696,1,0,0:0:0:0:
448,192,28771,1,0,0:0:0:0:
64,192,28771,128,0,28846:0:0:0:0:
192,192,28921,128,0,28996:0:0:0:0:
320,192,29071,128,0,29421:0:0:0:0:
448,192,29071,1,0,0:0:0:0:
64,192,29221,128,0,29321:0:0:0:0:
192,192,29271,128,0,29371:0:0:0:0:
448,192,29371,128,0,29471:0:0:0:0:
64,192,29521,1,0,0:0:0:0:
448,192,29671,1,0,0:0:0:0:
192,192,29671,1,0,0:0:0:0:
320,192,29746,1,0,0:0:0:0:
448,192,29821,1,0,0:0:0:0:
64,192,29821,1,0,0:0:0:0:
192,192,29896,1,0,0:0:0:0:
320,192,29971,128,0,30271:0:0:0:0:
448,192,30271,1,0,0:0:0:0:
192,192,30271,128,0,30496:0:0:0:0:
448,192,30421,128,0,30646:0:0:0:0:
64,192,30421,128,0,30496:0:0:0:0:
64,192,30571,1,0,0:0:0:0:
320,192,30571,128,0,30796:0:0:0:0:
64,192,30721,128,0,30946:0:0:0:0:
448,192,30721,128,0,30796:0:0:0:0:
448,192,30871,1,0,0:0:0:0:
192,192,30871,128,0,31096:0:0:0:0:
448,192,31021,128,0,31246:0:0:0:0:
64,192,31021,128,0,31096:0:0:0:0:
64,192,31171,1,0,0:0:0:0:
320,192,31171,128,0,31396:0:0:0:0:
448,192,31321,128,0,31396:0:0:0:0:
64,192,31321,128,0,31546:0:0:0:0:
448,192,31471,1,0,0:0:0:0:
192,192,31471,128,0,31696:0:0:0:0:
64,192,31621,128,0,31696:0:0:0:0:
448,192,31621,128,0,31846:0:0:0:0:
64,192,31771,1,0,0:0:0:0:
320,192,31771,128,0,31996:0:0:0:0:
64,192,31921,128,0,32146:0:0:0:0:
448,192,31921,128,0,31996:0:0:0:0:
192,192,32071,128,0,32296:0:0:0:0:
448,192,32071,1,0,0:0:0:0:
64,192,32221,128,0,32296:0:0:0:0:
448,192,32221,1,0,0:0:0:0:
64,192,32371,1,0,0:0:0:0:
448,192,32371,128,0,32521:0:0:0:0:
320,192,32446,1,0,0:0:0:0:
192,192,32521,1,0,0:0:0:0:
448,192,32596,1,0,0:0:0:0:
64,192,32671,128,0,32821:0:0:0:0:
320,192,32671,1,0,0:0:0:0:
448,192,32746,1,0,0:0:0:0:
192,192,32821,1,0,0:0:0:0:
320,192,32896,1,0,0:0:0:0:
448,192,32971,128,0,33121:0:0:0:0:
64,192,32971,1,0,0:0:0:0:
192,192,33046,1,0,0:0:0:0:
320,192,33121,1,0,0:0:0:0:
192,192,33196,1,0,0:0:0:0:
64,192,33271,128,0,33421:0:0:0:0:
448,192,33271,1,0,0:0:0:0:
320,192,33346,1,0,0:0:0:0:
192,192,33421,1,0,0:0:0:0:
320,192,33496,1,0,0:0:0:0:
448,192,33571,128,0,33721:0:0:0:0:
64,192,33571,1,0,0:0:0:0:
320,192,33646,1,0,0:0:0:0:
192,192,33721,1,0,0:0:0:0:
448,192,33796,1,0,0:0:0:0:
64,192,33871,128,0,34021:0:0:0:0:
320,192,33871,1,0,0:0:0:0:
192,192,33946,1,0,0:0:0:0:
448,192,34021,1,0,0:0:0:0:
192,192,34096,1,0,0:0:0:0:
448,192,34171,128,0,34321:0:0:0:0:
64,192,34171,1,0,0:0:0:0:
320,192,34246,1,0,0:0:0:0:
192,192,34321,1,0,0:0:0:0:
448,192,34396,1,0,0:0:0:0:
320,192,34471,1,0,0:0:0:0:
64,192,34471,128,0,34696:0:0:0:0:
192,192,34471,128,0,34696:0:0:0:0:
448,192,34771,128,0,34921:0:0:0:0:
64,192,34771,1,0,0:0:0:0:
320,192,34846,1,0,0:0:0:0:
192,192,34921,1,0,0:0:0:0:
448,192,34996,1,0,0:0:0:0:
320,192,35071,128,0,35221:0:0:0:0:
64,192,35071,1,0,0:0:0:0:
192,192,35146,1,0,0:0:0:0:
448,192,35221,1,0,0:0:0:0:
192,192,35296,1,0,0:0:0:0:
448,192,35371,128,0,35521:0:0:0:0:
64,192,35371,1,0,0:0:0:0:
320,192,35446,1,0,0:0:0:0:
192,192,35521,1,0,0:0:0:0:
448,192,35596,1,0,0:0:0:0:
320,192,35671,128,0,35821:0:0:0:0:
64,192,35671,1,0,0:0:0:0:
192,192,35746,1,0,0:0:0:0:
448,192,35821,1,0,0:0:0:0:
320,192,35896,1,0,0:0:0:0:
448,192,35971,1,0,0:0:0:0:
64,192,35971,128,0,36121:0:0:0:0:
192,192,36046,1,0,0:0:0:0:
320,192,36121,1,0,0:0:0:0:
64,192,36196,1,0,0:0:0:0:
448,192,36271,1,0,0:0:0:0:
192,192,36271,128,0,36421:0:0:0:0:
320,192,36346,1,0,0:0:0:0:
64,192,36421,1,0,0:0:0:0:
320,192,36496,1,0,0:0:0:0:
448,192,36571,1,0,0:0:0:0:
64,192,36571,128,0,36721:0:0:0:0:
192,192,36646,1,0,0:0:0:0:
320,192,36721,1,0,0:0:0:0:
64,192,36796,1,0,0:0:0:0:
448,192,36871,1,0,0:0:0:0:
192,192,36871,128,0,37021:0:0:0:0:
320,192,36946,1,0,0:0:0:0:
64,192,37021,1,0,0:0:0:0:
320,192,37096,1,0,0:0:0:0:
448,192,37171,128,0,37321:0:0:0:0:
192,192,37171,1,0,0:0:0:0:
64,192,37246,1,0,0:0:0:0:
320,192,37321,1,0,0:0:0:0:
192,192,37396,1,0,0:0:0:0:
64,192,37471,128,0,37621:0:0:0:0:
448,192,37471,1,0,0:0:0:0:
320,192,37546,1,0,0:0:0:0:
192,192,37621,1,0,0:0:0:0:
320,192,37696,1,0,0:0:0:0:
448,192,37771,128,0,37921:0:0:0:0:
64,192,37771,1,0,0:0:0:0:
192,192,37846,1,0,0:0:0:0:
320,192,37921,1,0,0:0:0:0:
192,192,37996,1,0,0:0:0:0:
64,192,38071,128,0,38221:0:0:0:0:
448,192,38071,1,0,0:0:0:0:
192,192,38146,1,0,0:0:0:0:
320,192,38221,1,0,0:0:0:0:
64,192,38296,1,0,0:0:0:0:
448,192,38371,128,0,38746:0:0:0:0:
192,192,38371,128,0,38596:0:0:0:0:
64,192,38521,128,0,38896:0:0:0:0:
192,192,38671,128,0,38896:0:0:0:0:
320,192,38821,128,0,38896:0:0:0:0:
448,192,38971,128,0,39046:0:0:0:0:
192,192,38971,1,0,0:0:0:0:
320,192,39121,128,0,39196:0:0:0:0:
64,192,39121,1,0,0:0:0:0:
448,192,39196,1,0,0:0:0:0:
192,192,39271,128,0,39346:0:0:0:0:
320,192,39271,1,0,0:0:0:0:
64,192,39421,128,0,39496:0:0:0:0:
192,192,39421,1,0,0:0:0:0:
320,192,39496,1,0,0:0:0:0:
448,192,39571,1,0,0:0:0:0:
192,192,39571,128,0,39796:0:0:0:0:
448,192,39721,128,0,39946:0:0:0:0:
64,192,39721,128,0,39796:0:0:0:0:
64,192,39871,1,0,0:0:0:0:
320,192,39871,128,0,40096:0:0:0:0:
64,192,40021,128,0,40246:0:0:0:0:
448,192,40021,128,0,40096:0:0:0:0:
448,192,40171,1,0,0:0:0:0:
192,192,40171,128,0,40396:0:0:0:0:
448,192,40321,128,0,40546:0:0:0:0:
64,192,40321,128,0,40396:0:0:0:0:
64,192,40471,1,0,0:0:0:0:
320,192,40471,128,0,40696:0:0:0:0:
448,192,40621,128,0,40696:0:0:0:0:
64,192,40621,128,0,40846:0:0:0:0:
448,192,40771,1,0,0:0:0:0:
192,192,40771,128,0,40996:0:0:0:0:
448,192,40921,128,0,41146:0:0:0:0:
64,192,40921,128,0,40996:0:0:0:0:
64,192,41071,1,0,0:0:0:0:
320,192,41071,128,0,41296:0:0:0:0:
64,192,41221,128,0,41446:0:0:0:0:
448,192,41221,128,0,41296:0:0:0:0:
448,192,41371,1,0,0:0:0:0:
192,192,41371,128,0,41596:0:0:0:0:
448,192,41521,128,0,41746:0:0:0:0:
64,192,41521,128,0,41596:0:0:0:0:
64,192,41671,1,0,0:0:0:0:
320,192,41671,128,0,41896:0:0:0:0:
448,192,41821,128,0,41896:0:0:0:0:
64,192,41821,1,0,0:0:0:0:
64,192,41971,128,0,42121:0:0:0:0:
320,192,41971,1,0,0:0:0:0:
448,192,42046,1,0,0:0:0:0:
192,192,42121,1,0,0:0:0:0:
320,192,42196,1,0,0:0:0:0:
448,192,42271,128,0,42421:0:0:0:0:
64,192,42271,1,0,0:0:0:0:
320,192,42346,1,0,0:0:0:0:
192,192,42421,1,0,0:0:0:0:
448,192,42496,1,0,0:0:0:0:
64,192,42571,128,0,42721:0:0:0:0:
192,192,42571,1,0,0:0:0:0:
320,192,42646,1,0,0:0:0:0:
448,192,42721,1,0,0:0:0:0:
192,192,42796,1,0,0:0:0:0:
448,192,42871,128,0,43021:0:0:0:0:
320,192,42871,1,0,0:0:0:0:
64,192,42946,1,0,0:0:0:0:
192,192,43021,1,0,0:0:0:0:
448,192,43096,1,0,0:0:0:0:
192,192,43171,128,0,43321:0:0:0:0:
64,192,43171,1,0,0:0:0:0:
320,192,43246,1,0,0:0:0:0:
448,192,43321,1,0,0:0:0:0:
64,192,43396,1,0,0:0:0:0:
320,192,43471,128,0,43621:0:0:0:0:
448,192,43471,1,0,0:0:0:0:
192,192,43546,1,0,0:0:0:0:
64,192,43621,1,0,0:0:0:0:
448,192,43696,1,0,0:0:0:0:
192,192,43771,128,0,43921:0:0:0:0:
64,192,43771,1,0,0:0:0:0:
320,192,43846,1,0,0:0:0:0:
448,192,43921,1,0,0:0:0:0:
192,192,43996,1,0,0:0:0:0:
64,192,44071,1,0,0:0:0:0:
320,192,44071,128,0,44296:0:0:0:0:
448,192,44071,128,0,44296:0:0:0:0:
64,192,44371,128,0,44596:0:0:0:0:
448,192,44371,1,0,0:0:0:0:
320,192,44521,1,0,0:0:0:0:
448,192,44521,1,0,0:0:0:0:
192,192,44596,1,0,0:0:0:0:
448,192,44671,128,0,44896:0:0:0:0:
64,192,44671,1,0,0:0:0:0:
64,192,44821,1,0,0:0:0:0:
192,192,44821,1,0,0:0:0:0:
320,192,44896,1,0,0:0:0:0:
448,192,44971,1,0,0:0:0:0:
64,192,44971,128,0,45196:0:0:0:0:
448,192,45121,1,0,0:0:0:0:
320,192,45121,1,0,0:0:0:0:
192,192,45196,1,0,0:0:0:0:
448,192,45271,128,0,45496:0:0:0:0:
64,192,45271,1,0,0:0:0:0:
64,192,45421,1,0,0:0:0:0:
192,192,45421,1,0,0:0:0:0:
320,192,45496,1,0,0:0:0:0:
64,192,45571,128,0,45796:0:0:0:0:
448,192,45571,1,0,0:0:0:0:
448,192,45721,1,0,0:0:0:0:
320,192,45721,128,0,45796:0:0:0:0:
192,192,45796,128,0,45871:0:0:0:0:
448,192,45871,128,0,46096:0:0:0:0:
64,192,45871,128,0,45946:0:0:0:0:
64,192,46021,1,0,0:0:0:0:
192,192,46021,128,0,46096:0:0:0:0:
320,192,46096,128,0,46171:0:0:0:0:
64,192,46171,128,0,46396:0:0:0:0:
448,192,46171,128,0,46246:0:0:0:0:
448,192,46321,1,0,0:0:0:0:
320,192,46321,128,0,46396:0:0:0:0:
192,192,46396,128,0,46471:0:0:0:0:
64,192,46471,128,0,46546:0:0:0:0:
448,192,46471,128,0,46696:0:0:0:0:
64,192,46621,1,0,0:0:0:0:
192,192,46621,128,0,46696:0:0:0:0:
320,192,46696,128,0,46771:0:0:0:0:
448,192,46771,128,0,46846:0:0:0:0:
64,192,46771,128,0,46996:0:0:0:0:
320,192,46921,128,0,46996:0:0:0:0:
448,192,46921,128,0,46996:0:0:0:0:
192,192,46996,128,0,47071:0:0:0:0:
448,192,47071,128,0,47296:0:0:0:0:
64,192,47071,128,0,47146:0:0:0:0:
64,192,47221,128,0,47296:0:0:0:0:
192,192,47221,128,0,47296:0:0:0:0:
320,192,47296,128,0,47371:0:0:0:0:
448,192,47371,128,0,47446:0:0:0:0:
64,192,47371,128,0,47596:0:0:0:0:
448,192,47521,128,0,47596:0:0:0:0:
320,192,47521,128,0,47596:0:0:0:0:
192,192,47596,128,0,47671:0:0:0:0:
64,192,47671,128,0,47746:0:0:0:0:
448,192,47671,128,0,47896:0:0:0:0:
64,192,47821,128,0,47896:0:0:0:0:
192,192,47821,128,0,47896:0:0:0:0:
320,192,47896,128,0,47971:0:0:0:0:
448,192,47971,128,0,48346:0:0:0:0:
64,192,47971,128,0,48046:0:0:0:0:
192,192,48121,128,0,48196:0:0:0:0:
320,192,48271,128,0,48346:0:0:0:0:
64,192,48271,128,0,48871:0:0:0:0:
448,192,48421,128,0,48496:0:0:0:0:
192,192,48496,1,0,0:0:0:0:
448,192,48571,1,0,0:0:0:0:
320,192,48721,1,0,0:0:0:0:
192,192,48871,1,0,0:0:0:0:
320,192,48946,1,0,0:0:0:0:
64,192,49021,1,0,0:0:0:0:
448,192,49021,1,0,0:0:0:0:
320,192,49171,1,0,0:0:0:0:
448,192,49171,1,0,0:0:0:0:
64,192,49171,1,0,0:0:0:0:
192,192,49471,1,0,0:0:0:0:
448,192,49621,1,0,0:0:0:0:
320,192,49771,1,0,0:0:0:0:
64,192,49921,1,0,0:0:0:0:
192,192,50071,1,0,0:0:0:0:
448,192,50071,1,0,0:0:0:0:
448,192,50371,1,0,0:0:0:0:
64,192,50371,128,0,51571:0:0:0:0:
448,192,50671,1,0,0:0:0:0:
448,192,50971,1,0,0:0:0:0:
448,192,51271,1,0,0:0:0:0:
192,192,51571,1,0,0:0:0:0:
448,192,51571,1,0,0:0:0:0:
64,192,51871,1,0,0:0:0:0:
448,192,51871,1,0,0:0:0:0:
192,192,52021,1,0,0:0:0:0:
448,192,52171,1,0,0:0:0:0:
320,192,52321,1,0,0:0:0:0:
192,192,52471,1,0,0:0:0:0:
64,192,52471,1,0,0:0:0:0:
448,192,52771,128,0,53971:0:0:0:0:
64,192,52771,1,0,0:0:0:0:
320,192,52771,1,0,0:0:0:0:
64,192,53071,1,0,0:0:0:0:
320,192,53071,1,0,0:0:0:0:
320,192,53371,1,0,0:0:0:0:
64,192,53371,1,0,0:0:0:0:
320,192,53671,1,0,0:0:0:0:
64,192,53671,1,0,0:0:0:0:
320,192,53971,1,0,0:0:0:0:
64,192,53971,1,0,0:0:0:0:
320,192,54121,1,0,0:0:0:0:
448,192,54121,1,0,0:0:0:0:
192,192,54271,1,0,0:0:0:0:
64,192,54271,1,0,0:0:0:0:
192,192,54421,1,0,0:0:0:0:
448,192,54421,1,0,0:0:0:0:
64,192,54571,1,0,0:0:0:0:
320,192,54571,1,0,0:0:0:0:
64,192,54721,1,0,0:0:0:0:
192,192,54721,1,0,0:0:0:0:
448,192,54871,1,0,0:0:0:0:
192,192,54871,1,0,0:0:0:0:
448,192,55021,1,0,0:0:0:0:
320,192,55021,1,0,0:0:0:0:
192,192,55171,1,0,0:0:0:0:
64,192,55171,1,0,0:0:0:0:
192,192,55321,1,0,0:0:0:0:
448,192,55321,1,0,0:0:0:0:
320,192,55471,1,0,0:0:0:0:
448,192,55471,1,0,0:0:0:0:
320,192,55621,1,0,0:0:0:0:
64,192,55621,1,0,0:0:0:0:
64,192,55771,1,0,0:0:0:0:
192,192,55771,1,0,0:0:0:0:
320,192,55921,1,0,0:0:0:0:
448,192,55921,1,0,0:0:0:0:
448,192,56071,1,0,0:0:0:0:
64,192,56071,1,0,0:0:0:0:
192,192,56221,1,0,0:0:0:0:
64,192,56221,1,0,0:0:0:0:
448,192,56371,1,0,0:0:0:0:
320,192,56371,1,0,0:0:0:0:
192,192,56446,1,0,0:0:0:0:
64,192,56521,1,0,0:0:0:0:
448,192,56521,1,0,0:0:0:0:
192,192,56596,1,0,0:0:0:0:
320,192,56671,1,0,0:0:0:0:
448,192,56671,1,0,0:0:0:0:
64,192,56746,1,0,0:0:0:0:
192,192,56821,1,0,0:0:0:0:
448,192,56821,1,0,0:0:0:0:
320,192,56896,1,0,0:0:0:0:
192,192,56971,1,0,0:0:0:0:
64,192,56971,1,0,0:0:0:0:
448,192,57046,1,0,0:0:0:0:
320,192,57121,1,0,0:0:0:0:
64,192,57121,1,0,0:0:0:0:
448,192,57196,1,0,0:0:0:0:
192,192,57271,1,0,0:0:0:0:
64,192,57271,1,0,0:0:0:0:
320,192,57346,1,0,0:0:0:0:
448,192,57421,1,0,0:0:0:0:
64,192,57421,1,0,0:0:0:0:
192,192,57496,1,0,0:0:0:0:
320,192,57571,128,0,57721:0:0:0:0:
448,192,57571,128,0,58021:0:0:0:0:
64,192,57721,1,0,0:0:0:0:
192,192,57871,1,0,0:0:0:0:
320,192,57871,128,0,58021:0:0:0:0:
448,192,58171,128,0,58321:0:0:0:0:
64,192,58171,128,0,58621:0:0:0:0:
192,192,58321,128,0,58621:0:0:0:0:
448,192,58471,128,0,58621:0:0:0:0:
320,192,58771,1,0,0:0:0:0:
448,192,58771,1,0,0:0:0:0:
192,192,58921,1,0,0:0:0:0:
64,192,59071,128,0,59171:0:0:0:0:
320,192,59121,128,0,59221:0:0:0:0:
448,192,59171,128,0,59271:0:0:0:0:
192,192,59271,1,0,0:0:0:0:
320,192,59321,1,0,0:0:0:0:
64,192,59371,1,0,0:0:0:0:
448,192,59371,1,0,0:0:0:0:
320,192,59521,128,0,59746:0:0:0:0:
64,192,59521,128,0,59596:0:0:0:0:
448,192,59671,128,0,59971:0:0:0:0:
64,192,59671,128,0,59746:0:0:0:0:
64,192,59821,128,0,59896:0:0:0:0:
320,192,59821,128,0,59971:0:0:0:0:
192,192,59971,1,0,0:0:0:0:
64,192,59971,1,0,0:0:0:0:
64,192,60121,128,0,60346:0:0:0:0:
448,192,60121,128,0,60196:0:0:0:0:
192,192,60271,128,0,60496:0:0:0:0:
448,192,60271,128,0,60346:0:0:0:0:
64,192,60421,128,0,60496:0:0:0:0:
448,192,60421,128,0,60496:0:0:0:0:
448,192,60571,1,0,0:0:0:0:
320,192,60571,128,0,60671:0:0:0:0:
192,192,60621,128,0,60721:0:0:0:0:
64,192,60671,128,0,60771:0:0:0:0:
448,192,60721,128,0,60796:0:0:0:0:
320,192,60871,128,0,60946:0:0:0:0:
64,192,60871,1,0,0:0:0:0:
192,192,61021,128,0,61171:0:0:0:0:
448,192,61171,1,0,0:0:0:0:
64,192,61171,1,0,0:0:0:0:
320,192,61321,128,0,61546:0:0:0:0:
448,192,61321,128,0,61396:0:0:0:0:
64,192,61471,128,0,61771:0:0:0:0:
448,192,61471,128,0,61546:0:0:0:0:
192,192,61621,128,0,61771:0:0:0:0:
448,192,61621,128,0,61696:0:0:0:0:
320,192,61771,1,0,0:0:0:0:
448,192,61771,1,0,0:0:0:0:
64,192,61921,128,0,61996:0:0:0:0:
192,192,61921,128,0,62146:0:0:0:0:
448,192,62071,128,0,62371:0:0:0:0:
64,192,62071,128,0,62146:0:0:0:0:
64,192,62221,128,0,62296:0:0:0:0:
320,192,62221,128,0,62371:0:0:0:0:
192,192,62371,1,0,0:0:0:0:
64,192,62371,1,0,0:0:0:0:
448,192,62521,128,0,62596:0:0:0:0:
64,192,62671,128,0,62896:0:0:0:0:
320,192,62671,1,0,0:0:0:0:
192,192,62671,128,0,62896:0:0:0:0:
192,192,62971,128,0,63196:0:0:0:0:
448,192,62971,1,0,0:0:0:0:
320,192,62971,128,0,63196:0:0:0:0:
320,192,63271,128,0,63496:0:0:0:0:
64,192,63271,1,0,0:0:0:0:
448,192,63271,128,0,63496:0:0:0:0:
448,192,63571,1,0,0:0:0:0:
64,192,63571,128,0,63796:0:0:0:0:
192,192,63671,128,0,63871:0:0:0:0:
320,192,63721,128,0,63946:0:0:0:0:
448,192,63771,128,0,64096:0:0:0:0:
64,192,64171,1,0,0:0:0:0:
448,192,64171,1,0,0:0:0:0:
320,192,64171,1,0,0:0:0:0:
192,192,64321,128,0,64546:0:0:0:0:
448,192,64321,128,0,64396:0:0:0:0:
64,192,64471,128,0,64771:0:0:0:0:
448,192,64471,128,0,64546:0:0:0:0:
448,192,64621,128,0,64696:0:0:0:0:
192,192,64621,128,0,64771:0:0:0:0:
320,192,64771,1,0,0:0:0:0:
448,192,64771,1,0,0:0:0:0:
448,192,64921,128,0,65146:0:0:0:0:
64,192,64921,128,0,64996:0:0:0:0:
320,192,65071,128,0,65296:0:0:0:0:
64,192,65071,128,0,65146:0:0:0:0:
448,192,65221,128,0,65296:0:0:0:0:
64,192,65221,128,0,65296:0:0:0:0:
64,192,65371,1,0,0:0:0:0:
192,192,65371,128,0,65471:0:0:0:0:
320,192,65421,128,0,65521:0:0:0:0:
448,192,65471,128,0,65571:0:0:0:0:
64,192,65521,128,0,65596:0:0:0:0:
192,192,65671,128,0,65746:0:0:0:0:
448,192,65671,1,0,0:0:0:0:
320,192,65821,128,0,65971:0:0:0:0:
64,192,65971,1,0,0:0:0:0:
448,192,65971,1,0,0:0:0:0:
192,192,66121,128,0,66346:0:0:0:0:
320,192,66121,128,0,66196:0:0:0:0:
448,192,66271,128,0,66496:0:0:0:0:
64,192,66271,128,0,66346:0:0:0:0:
320,192,66421,128,0,66496:0:0:0:0:
64,192,66421,128,0,66496:0:0:0:0:
64,192,66571,128,0,66646:0:0:0:0:
320,192,66571,1,0,0:0:0:0:
448,192,66571,1,0,0:0:0:0:
192,192,66721,128,0,66796:0:0:0:0:
448,192,66721,128,0,66946:0:0:0:0:
64,192,66871,128,0,67171:0:0:0:0:
320,192,66871,128,0,66946:0:0:0:0:
448,192,67021,128,0,67096:0:0:0:0:
192,192,67021,128,0,67171:0:0:0:0:
448,192,67171,1,0,0:0:0:0:
320,192,67171,128,0,67471:0:0:0:0:
64,192,67321,128,0,67771:0:0:0:0:
448,192,67471,1,0,0:0:0:0:
320,192,67621,1,0,0:0:0:0:
192,192,67771,1,0,0:0:0:0:
448,192,67771,128,0,68221:0:0:0:0:
64,192,68071,128,0,68371:0:0:0:0:
320,192,68371,128,0,69121:0:0:0:0:
192,192,68371,128,0,68821:0:0:0:0:
448,192,68371,128,0,69421:0:0:0:0:
64,192,68671,1,0,0:0:0:0:
64,192,68821,1,0,0:0:0:0:
192,192,68971,1,0,0:0:0:0:
192,192,69121,1,0,0:0:0:0:
320,192,69271,1,0,0:0:0:0:
320,192,69421,1,0,0:0:0:0:
448,192,69571,1,0,0:0:0:0:
64,192,69571,128,0,69721:0:0:0:0:
192,192,69646,1,0,0:0:0:0:
448,192,69721,1,0,0:0:0:0:
320,192,69796,1,0,0:0:0:0:
448,192,69871,1,0,0:0:0:0:
192,192,69871,128,0,70021:0:0:0:0:
64,192,69946,1,0,0:0:0:0:
320,192,70021,1,0,0:0:0:0:
64,192,70096,1,0,0:0:0:0:
192,192,70171,128,0,70621:0:0:0:0:
448,192,70171,128,0,70321:0:0:0:0:
448,192,70471,128,0,70621:0:0:0:0:
64,192,70471,128,0,70621:0:0:0:0:
320,192,70771,1,0,0:0:0:0:
64,192,70771,1,0,0:0:0:0:
448,192,70921,128,0,71146:0:0:0:0:
192,192,70921,128,0,70996:0:0:0:0:
320,192,71071,128,0,71146:0:0:0:0:
64,192,71071,128,0,71296:0:0:0:0:
192,192,71221,128,0,71296:0:0:0:0:
448,192,71221,128,0,71296:0:0:0:0:
192,192,71371,128,0,71596:0:0:0:0:
448,192,71371,128,0,71446:0:0:0:0:
64,192,71371,1,0,0:0:0:0:
64,192,71521,128,0,71746:0:0:0:0:
320,192,71521,128,0,71596:0:0:0:0:
192,192,71671,128,0,71746:0:0:0:0:
448,192,71671,128,0,71896:0:0:0:0:
64,192,71821,128,0,71896:0:0:0:0:
320,192,71821,128,0,72046:0:0:0:0:
192,192,71971,128,0,72196:0:0:0:0:
448,192,71971,128,0,72046:0:0:0:0:
64,192,72121,128,0,72196:0:0:0:0:
320,192,72271,128,0,72496:0:0:0:0:
448,192,72271,128,0,72496:0:0:0:0:
192,192,72271,1,0,0:0:0:0:
320,192,72571,128,0,72796:0:0:0:0:
192,192,72571,128,0,72796:0:0:0:0:
64,192,72571,1,0,0:0:0:0:
192,192,72871,128,0,73096:0:0:0:0:
64,192,72871,128,0,73096:0:0:0:0:
448,192,72871,1,0,0:0:0:0:
448,192,73171,128,0,73396:0:0:0:0:
192,192,73171,128,0,73246:0:0:0:0:
64,192,73171,1,0,0:0:0:0:
64,192,73321,128,0,73546:0:0:0:0:
320,192,73321,128,0,73396:0:0:0:0:
192,192,73471,128,0,73546:0:0:0:0:
448,192,73471,128,0,73696:0:0:0:0:
320,192,73621,128,0,73696:0:0:0:0:
64,192,73621,128,0,73696:0:0:0:0:
320,192,73771,128,0,73996:0:0:0:0:
64,192,73771,128,0,73846:0:0:0:0:
448,192,73771,1,0,0:0:0:0:
448,192,73921,128,0,74146:0:0:0:0:
192,192,73921,128,0,73996:0:0:0:0:
320,192,74071,128,0,74146:0:0:0:0:
64,192,74071,128,0,74296:0:0:0:0:
448,192,74221,128,0,74296:0:0:0:0:
192,192,74221,128,0,74371:0:0:0:0:
64,192,74371,1,0,0:0:0:0:
448,192,74371,1,0,0:0:0:0:
320,192,74521,128,0,74746:0:0:0:0:
192,192,74521,128,0,74596:0:0:0:0:
64,192,74671,128,0,74896:0:0:0:0:
448,192,74671,128,0,74746:0:0:0:0:
448,192,74821,128,0,74971:0:0:0:0:
192,192,74821,128,0,74896:0:0:0:0:
192,192,74971,128,0,75071:0:0:0:0:
64,192,74971,1,0,0:0:0:0:
320,192,75021,128,0,75121:0:0:0:0:
448,192,75071,128,0,75171:0:0:0:0:
64,192,75121,128,0,75196:0:0:0:0:
192,192,75271,128,0,75346:0:0:0:0:
448,192,75271,1,0,0:0:0:0:
320,192,75421,128,0,75571:0:0:0:0:
448,192,75571,1,0,0:0:0:0:
64,192,75571,1,0,0:0:0:0:
192,192,75721,128,0,75946:0:0:0:0:
448,192,75721,128,0,75796:0:0:0:0:
64,192,75871,128,0,76096:0:0:0:0:
320,192,75871,128,0,75946:0:0:0:0:
192,192,76021,128,0,76096:0:0:0:0:
448,192,76021,128,0,76246:0:0:0:0:
320,192,76171,128,0,76396:0:0:0:0:
64,192,76171,1,0,0:0:0:0:
448,192,76321,128,0,76546:0:0:0:0:
192,192,76321,128,0,76396:0:0:0:0:
320,192,76471,128,0,76546:0:0:0:0:
64,192,76471,128,0,76696:0:0:0:0:
448,192,76621,128,0,76696:0:0:0:0:
192,192,76621,128,0,76696:0:0:0:0:
64,192,76771,1,0,0:0:0:0:
192,192,76771,1,0,0:0:0:0:
192,192,76921,128,0,76996:0:0:0:0:
448,192,76921,128,0,77146:0:0:0:0:
320,192,77071,128,0,77146:0:0:0:0:
64,192,77071,128,0,77296:0:0:0:0:
448,192,77221,128,0,77296:0:0:0:0:
192,192,77221,128,0,77446:0:0:0:0:
320,192,77371,128,0,77596:0:0:0:0:
64,192,77371,128,0,77446:0:0:0:0:
448,192,77371,1,0,0:0:0:0:
192,192,77521,128,0,77596:0:0:0:0:
448,192,77521,128,0,77746:0:0:0:0:
320,192,77671,128,0,77746:0:0:0:0:
64,192,77671,1,0,0:0:0:0:
448,192,77821,128,0,77896:0:0:0:0:
192,192,77821,1,0,0:0:0:0:
320,192,77971,1,0,0:0:0:0:
448,192,77971,1,0,0:0:0:0:
64,192,77971,1,0,0:0:0:0:
192,192,78121,1,0,0:0:0:0:
448,192,78271,128,0,78346:0:0:0:0:
64,192,78271,1,0,0:0:0:0:
448,192,78421,1,0,0:0:0:0:
192,192,78421,128,0,78496:0:0:0:0:
64,192,78571,1,0,0:0:0:0:
320,192,78571,128,0,78646:0:0:0:0:
64,192,78721,128,0,78796:0:0:0:0:
448,192,78871,128,0,78946:0:0:0:0:
320,192,78871,1,0,0:0:0:0:
448,192,79021,1,0,0:0:0:0:
192,192,79021,128,0,79096:0:0:0:0:
64,192,79171,1,0,0:0:0:0:
448,192,79171,1,0,0:0:0:0:
320,192,79321,1,0,0:0:0:0:
64,192,79471,128,0,79546:0:0:0:0:
448,192,79471,1,0,0:0:0:0:
64,192,79621,1,0,0:0:0:0:
320,192,79621,128,0,79696:0:0:0:0:
448,192,79771,1,0,0:0:0:0:
192,192,79771,128,0,79846:0:0:0:0:
448,192,79921,128,0,79996:0:0:0:0:
64,192,80071,128,0,80146:0:0:0:0:
192,192,80071,1,0,0:0:0:0:
64,192,80221,1,0,0:0:0:0:
320,192,80221,128,0,80296:0:0:0:0:
64,192,80371,1,0,0:0:0:0:
448,192,80371,1,0,0:0:0:0:
192,192,80521,1,0,0:0:0:0:
64,192,80671,1,0,0:0:0:0:
448,192,80671,128,0,80746:0:0:0:0:
192,192,80821,128,0,80896:0:0:0:0:
448,192,80821,1,0,0:0:0:0:
320,192,80971,128,0,81046:0:0:0:0:
64,192,80971,1,0,0:0:0:0:
64,192,81121,128,0,81196:0:0:0:0:
320,192,81271,1,0,0:0:0:0:
448,192,81271,128,0,81346:0:0:0:0:
192,192,81421,128,0,81496:0:0:0:0:
448,192,81421,1,0,0:0:0:0:
64,192,81571,1,0,0:0:0:0:
448,192,81571,1,0,0:0:0:0:
320,192,81721,1,0,0:0:0:0:
64,192,81871,128,0,81946:0:0:0:0:
448,192,81871,1,0,0:0:0:0:
64,192,82021,1,0,0:0:0:0:
320,192,82021,128,0,82096:0:0:0:0:
448,192,82171,1,0,0:0:0:0:
192,192,82171,128,0,82396:0:0:0:0:
320,192,82321,1,0,0:0:0:0:
192,192,82471,1,0,0:0:0:0:
64,192,82471,1,0,0:0:0:0:
320,192,82621,1,0,0:0:0:0:
448,192,82771,1,0,0:0:0:0:
64,192,82771,128,0,83071:0:0:0:0:
448,192,82921,1,0,0:0:0:0:
320,192,83071,1,0,0:0:0:0:
448,192,83071,1,0,0:0:0:0:
192,192,83221,1,0,0:0:0:0:
320,192,83221,1,0,0:0:0:0:
64,192,83371,1,0,0:0:0:0:
448,192,83371,128,0,83671:0:0:0:0:
64,192,83521,1,0,0:0:0:0:
64,192,83671,1,0,0:0:0:0:
192,192,83671,1,0,0:0:0:0:
320,192,83821,1,0,0:0:0:0:
192,192,83821,1,0,0:0:0:0:
64,192,83971,128,0,84271:0:0:0:0:
448,192,83971,1,0,0:0:0:0:
448,192,84121,1,0,0:0:0:0:
448,192,84271,1,0,0:0:0:0:
320,192,84271,1,0,0:0:0:0:
320,192,84421,1,0,0:0:0:0:
192,192,84421,1,0,0:0:0:0:
64,192,84571,1,0,0:0:0:0:
192,192,84571,1,0,0:0:0:0:
64,192,84721,1,0,0:0:0:0:
320,192,84721,1,0,0:0:0:0:
448,192,84871,1,0,0:0:0:0:
320,192,84871,1,0,0:0:0:0:
192,192,85021,1,0,0:0:0:0:
448,192,85021,1,0,0:0:0:0:
192,192,85171,1,0,0:0:0:0:
64,192,85171,1,0,0:0:0:0:
320,192,85246,1,0,0:0:0:0:
448,192,85321,1,0,0:0:0:0:
192,192,85321,1,0,0:0:0:0:
64,192,85396,1,0,0:0:0:0:
320,192,85471,1,0,0:0:0:0:
448,192,85471,1,0,0:0:0:0:
192,192,85546,1,0,0:0:0:0:
64,192,85621,1,0,0:0:0:0:
448,192,85621,1,0,0:0:0:0:
320,192,85696,1,0,0:0:0:0:
192,192,85771,1,0,0:0:0:0:
64,192,85771,1,0,0:0:0:0:
320,192,85846,1,0,0:0:0:0:
448,192,85921,1,0,0:0:0:0:
64,192,85921,1,0,0:0:0:0:
192,192,85996,1,0,0:0:0:0:
320,192,86071,1,0,0:0:0:0:
448,192,86071,1,0,0:0:0:0:
192,192,86146,1,0,0:0:0:0:
64,192,86221,1,0,0:0:0:0:
320,192,86221,1,0,0:0:0:0:
448,192,86296,1,0,0:0:0:0:
192,192,86371,1,0,0:0:0:0:
64,192,86371,1,0,0:0:0:0:
320,192,86671,128,0,87496:0:0:0:0:
192,192,86971,128,0,87496:0:0:0:0:
192,192,87571,1,0,0:0:0:0:
64,192,87571,1,0,0:0:0:0:
448,192,87571,1,0,0:0:0:0:
448,192,87721,1,0,0:0:0:0:
192,192,87871,1,0,0:0:0:0:
320,192,88021,1,0,0:0:0:0:
64,192,88171,1,0,0:0:0:0:
64,192,88396,1,0,0:0:0:0:
64,192,88621,1,0,0:0:0:0:
320,192,88921,1,0,0:0:0:0:
192,192,89071,1,0,0:0:0:0:
448,192,89221,1,0,0:0:0:0:
64,192,89371,1,0,0:0:0:0:
64,192,89596,1,0,0:0:0:0:
64,192,89821,1,0,0:0:0:0:
448,192,89971,1,0,0:0:0:0:
448,192,90121,1,0,0:0:0:0:
192,192,90271,1,0,0:0:0:0:
320,192,90421,1,0,0:0:0:0:
64,192,90571,1,0,0:0:0:0:
64,192,90796,1,0,0:0:0:0:
64,192,91021,1,0,0:0:0:0:
320,192,91321,1,0,0:0:0:0:
192,192,91471,1,0,0:0:0:0:
448,192,91621,1,0,0:0:0:0:
64,192,91771,1,0,0:0:0:0:
448,192,91921,1,0,0:0:0:0:
320,192,91996,1,0,0:0:0:0:
64,192,92146,1,0,0:0:0:0:
192,192,92221,1,0,0:0:0:0:
64,192,92371,1,0,0:0:0:0:
64,192,92521,1,0,0:0:0:0:
320,192,92671,1,0,0:0:0:0:
192,192,92821,1,0,0:0:0:0:
448,192,92971,1,0,0:0:0:0:
448,192,93196,1,0,0:0:0:0:
448,192,93421,1,0,0:0:0:0:
192,192,93721,1,0,0:0:0:0:
320,192,93871,1,0,0:0:0:0:
64,192,94021,1,0,0:0:0:0:
448,192,94171,1,0,0:0:0:0:
448,192,94396,1,0,0:0:0:0:
448,192,94621,1,0,0:0:0:0:
64,192,94771,1,0,0:0:0:0:
64,192,94921,1,0,0:0:0:0:
320,192,95071,1,0,0:0:0:0:
192,192,95221,1,0,0:0:0:0:
448,192,95371,1,0,0:0:0:0:
448,192,95596,1,0,0:0:0:0:
448,192,95821,1,0,0:0:0:0:
192,192,96121,1,0,0:0:0:0:
320,192,96271,1,0,0:0:0:0:
64,192,96421,1,0,0:0:0:0:
448,192,96571,1,0,0:0:0:0:
320,192,96721,1,0,0:0:0:0:
64,192,96796,1,0,0:0:0:0:
192,192,96946,1,0,0:0:0:0:
448,192,97021,1,0,0:0:0:0:
64,192,97171,1,0,0:0:0:0:
64,192,97321,1,0,0:0:0:0:
320,192,97471,1,0,0:0:0:0:
448,192,97621,1,0,0:0:0:0:
192,192,97771,1,0,0:0:0:0:
192,192,97996,1,0,0:0:0:0:
192,192,98221,1,0,0:0:0:0:
64,192,98521,1,0,0:0:0:0:
320,192,98671,1,0,0:0:0:0:
448,192,98821,1,0,0:0:0:0:
192,192,98971,1,0,0:0:0:0:
192,192,99196,1,0,0:0:0:0:
192,192,99421,1,0,0:0:0:0:
64,192,99571,1,0,0:0:0:0:
64,192,99721,1,0,0:0:0:0:
320,192,99871,1,0,0:0:0:0:
448,192,100021,1,0,0:0:0:0:
192,192,100171,1,0,0:0:0:0:
192,192,100396,1,0,0:0:0:0:
192,192,100621,1,0,0:0:0:0:
64,192,100921,1,0,0:0:0:0:
320,192,101071,1,0,0:0:0:0:
448,192,101221,1,0,0:0:0:0:
192,192,101371,1,0,0:0:0:0:
64,192,101521,1,0,0:0:0:0:
192,192,101596,1,0,0:0:0:0:
448,192,101746,1,0,0:0:0:0:
320,192,101821,1,0,0:0:0:0:
448,192,101971,1,0,0:0:0:0:
448,192,102121,1,0,0:0:0:0:
192,192,102271,1,0,0:0:0:0:
64,192,102421,1,0,0:0:0:0:
320,192,102571,1,0,0:0:0:0:
320,192,102796,1,0,0:0:0:0:
320,192,103021,1,0,0:0:0:0:
448,192,103321,1,0,0:0:0:0:
192,192,103471,1,0,0:0:0:0:
64,192,103621,1,0,0:0:0:0:
320,192,103771,1,0,0:0:0:0:
320,192,103996,1,0,0:0:0:0:
320,192,104221,1,0,0:0:0:0:
448,192,104371,1,0,0:0:0:0:
448,192,104521,1,0,0:0:0:0:
192,192,104671,1,0,0:0:0:0:
320,192,104821,1,0,0:0:0:0:
64,192,104971,1,0,0:0:0:0:
64,192,105196,1,0,0:0:0:0:
64,192,105421,1,0,0:0:0:0:
448,192,105721,1,0,0:0:0:0:
192,192,105871,1,0,0:0:0:0:
64,192,106021,1,0,0:0:0:0:
320,192,106171,1,0,0:0:0:0:
448,192,106171,1,0,0:0:0:0:
192,192,106471,1,0,0:0:0:0:
64,192,106471,1,0,0:0:0:0:
64,192,106771,1,0,0:0:0:0:
320,192,106771,1,0,0:0:0:0:
448,192,106771,1,0,0:0:0:0:
320,192,106921,1,0,0:0:0:0:
64,192,107071,1,0,0:0:0:0:
448,192,107071,1,0,0:0:0:0:
192,192,107221,1,0,0:0:0:0:
448,192,107296,1,0,0:0:0:0:
64,192,107371,1,0,0:0:0:0:
192,192,107371,1,0,0:0:0:0:
320,192,107521,1,0,0:0:0:0:
448,192,107671,1,0,0:0:0:0:
64,192,107671,1,0,0:0:0:0:
192,192,107821,1,0,0:0:0:0:
320,192,107971,1,0,0:0:0:0:
448,192,107971,1,0,0:0:0:0:
320,192,108121,1,0,0:0:0:0:
192,192,108271,1,0,0:0:0:0:
64,192,108271,1,0,0:0:0:0:
320,192,108421,1,0,0:0:0:0:
192,192,108496,1,0,0:0:0:0:
64,192,108571,1,0,0:0:0:0:
448,192,108571,1,0,0:0:0:0:
320,192,108721,1,0,0:0:0:0:
448,192,108796,1,0,0:0:0:0:
192,192,108871,1,0,0:0:0:0:
64,192,108871,1,0,0:0:0:0:
320,192,109021,1,0,0:0:0:0:
192,192,109021,1,0,0:0:0:0:
448,192,109171,1,0,0:0:0:0:
64,192,109171,1,0,0:0:0:0:
448,192,109321,1,0,0:0:0:0:
64,192,109471,1,0,0:0:0:0:
320,192,109471,1,0,0:0:0:0:
192,192,109621,1,0,0:0:0:0:
320,192,109696,1,0,0:0:0:0:
64,192,109771,1,0,0:0:0:0:
448,192,109771,1,0,0:0:0:0:
192,192,109921,1,0,0:0:0:0:
64,192,109996,1,0,0:0:0:0:
320,192,110071,1,0,0:0:0:0:
448,192,110071,1,0,0:0:0:0:
64,192,110221,1,0,0:0:0:0:
192,192,110371,1,0,0:0:0:0:
448,192,110371,1,0,0:0:0:0:
192,192,110521,1,0,0:0:0:0:
448,192,110671,1,0,0:0:0:0:
64,192,110671,1,0,0:0:0:0:
448,192,110821,1,0,0:0:0:0:
320,192,110896,1,0,0:0:0:0:
192,192,110971,1,0,0:0:0:0:
64,192,110971,1,0,0:0:0:0:
448,192,111121,1,0,0:0:0:0:
192,192,111196,1,0,0:0:0:0:
64,192,111271,1,0,0:0:0:0:
448,192,111271,1,0,0:0:0:0:
320,192,111346,1,0,0:0:0:0:
192,192,111421,1,0,0:0:0:0:
64,192,111421,1,0,0:0:0:0:
320,192,111496,1,0,0:0:0:0:
448,192,111571,1,0,0:0:0:0:
64,192,111571,128,0,111646:0:0:0:0:
64,192,111721,128,0,111796:0:0:0:0:
320,192,111721,1,0,0:0:0:0:
448,192,111871,128,0,111946:0:0:0:0:
64,192,111871,1,0,0:0:0:0:
320,192,112021,128,0,112096:0:0:0:0:
192,192,112021,1,0,0:0:0:0:
64,192,112171,128,0,112246:0:0:0:0:
448,192,112171,1,0,0:0:0:0:
64,192,112321,128,0,112396:0:0:0:0:
320,192,112321,1,0,0:0:0:0:
448,192,112471,128,0,112546:0:0:0:0:
64,192,112471,1,0,0:0:0:0:
320,192,112621,128,0,112696:0:0:0:0:
192,192,112621,1,0,0:0:0:0:
64,192,112771,128,0,112846:0:0:0:0:
448,192,112771,1,0,0:0:0:0:
64,192,112921,128,0,112996:0:0:0:0:
320,192,112921,1,0,0:0:0:0:
448,192,113071,128,0,113146:0:0:0:0:
64,192,113071,1,0,0:0:0:0:
320,192,113221,128,0,113296:0:0:0:0:
192,192,113221,1,0,0:0:0:0:
64,192,113371,128,0,113446:0:0:0:0:
448,192,113371,1,0,0:0:0:0:
64,192,113521,128,0,113596:0:0:0:0:
320,192,113521,1,0,0:0:0:0:
448,192,113671,128,0,113746:0:0:0:0:
64,192,113671,1,0,0:0:0:0:
320,192,113821,128,0,113896:0:0:0:0:
192,192,113821,1,0,0:0:0:0:
64,192,113971,1,0,0:0:0:0:
448,192,113971,1,0,0:0:0:0:
192,192,114046,1,0,0:0:0:0:
320,192,114121,1,0,0:0:0:0:
448,192,114121,1,0,0:0:0:0:
192,192,114196,1,0,0:0:0:0:
448,192,114271,1,0,0:0:0:0:
64,192,114271,1,0,0:0:0:0:
320,192,114346,1,0,0:0:0:0:
64,192,114421,1,0,0:0:0:0:
192,192,114421,1,0,0:0:0:0:
320,192,114496,1,0,0:0:0:0:
448,192,114571,1,0,0:0:0:0:
64,192,114571,1,0,0:0:0:0:
192,192,114646,1,0,0:0:0:0:
320,192,114721,1,0,0:0:0:0:
448,192,114721,1,0,0:0:0:0:
192,192,114796,1,0,0:0:0:0:
448,192,114871,1,0,0:0:0:0:
64,192,114871,1,0,0:0:0:0:
320,192,114946,1,0,0:0:0:0:
64,192,115021,1,0,0:0:0:0:
192,192,115021,1,0,0:0:0:0:
320,192,115096,1,0,0:0:0:0:
448,192,115171,1,0,0:0:0:0:
192,192,115171,1,0,0:0:0:0:
64,192,115171,128,0,115321:0:0:0:0:
320,192,115471,128,0,115546:0:0:0:0:
192,192,115471,1,0,0:0:0:0:
320,192,115621,128,0,115696:0:0:0:0:
448,192,115771,128,0,115996:0:0:0:0:
64,192,115771,1,0,0:0:0:0:
192,192,115921,128,0,116071:0:0:0:0:
448,192,116071,1,0,0:0:0:0:
64,192,116071,1,0,0:0:0:0:
448,192,116371,1,0,0:0:0:0:
64,192,116371,1,0,0:0:0:0:
320,192,116371,128,0,116521:0:0:0:0:
192,192,116521,1,0,0:0:0:0:
320,192,116596,1,0,0:0:0:0:
448,192,116671,1,0,0:0:0:0:
64,192,116671,128,0,116821:0:0:0:0:
192,192,116671,1,0,0:0:0:0:
320,192,116821,1,0,0:0:0:0:
192,192,116896,1,0,0:0:0:0:
64,192,116971,1,0,0:0:0:0:
448,192,116971,128,0,117121:0:0:0:0:
320,192,116971,1,0,0:0:0:0:
192,192,117121,1,0,0:0:0:0:
320,192,117196,1,0,0:0:0:0:
448,192,117271,1,0,0:0:0:0:
64,192,117271,1,0,0:0:0:0:
192,192,117271,1,0,0:0:0:0:
64,192,117421,1,0,0:0:0:0:
448,192,117421,1,0,0:0:0:0:
448,192,117571,1,0,0:0:0:0:
192,192,117571,1,0,0:0:0:0:
320,192,117571,128,0,117721:0:0:0:0:
64,192,117721,1,0,0:0:0:0:
192,192,117796,1,0,0:0:0:0:
448,192,117871,128,0,118021:0:0:0:0:
320,192,117871,1,0,0:0:0:0:
64,192,117871,1,0,0:0:0:0:
192,192,118021,1,0,0:0:0:0:
320,192,118096,1,0,0:0:0:0:
448,192,118171,1,0,0:0:0:0:
64,192,118171,1,0,0:0:0:0:
192,192,118171,128,0,118321:0:0:0:0:
320,192,118321,1,0,0:0:0:0:
192,192,118396,1,0,0:0:0:0:
320,192,118471,1,0,0:0:0:0:
64,192,118471,1,0,0:0:0:0:
448,192,118471,128,0,118621:0:0:0:0:
192,192,118621,1,0,0:0:0:0:
448,192,118771,1,0,0:0:0:0:
64,192,118771,128,0,118921:0:0:0:0:
320,192,118771,1,0,0:0:0:0:
192,192,118921,1,0,0:0:0:0:
64,192,118996,1,0,0:0:0:0:
448,192,119071,1,0,0:0:0:0:
320,192,119071,128,0,119221:0:0:0:0:
192,192,119071,1,0,0:0:0:0:
64,192,119221,1,0,0:0:0:0:
320,192,119296,1,0,0:0:0:0:
192,192,119371,128,0,119521:0:0:0:0:
448,192,119371,1,0,0:0:0:0:
64,192,119371,1,0,0:0:0:0:
320,192,119521,1,0,0:0:0:0:
64,192,119596,1,0,0:0:0:0:
192,192,119671,1,0,0:0:0:0:
320,192,119671,1,0,0:0:0:0:
448,192,119671,1,0,0:0:0:0:
448,192,119821,1,0,0:0:0:0:
192,192,119821,1,0,0:0:0:0:
320,192,119971,1,0,0:0:0:0:
448,192,119971,1,0,0:0:0:0:
64,192,119971,1,0,0:0:0:0:
192,192,120196,1,0,0:0:0:0:
320,192,120196,1,0,0:0:0:0:
448,192,120196,1,0,0:0:0:0:
320,192,120421,1,0,0:0:0:0:
192,192,120421,1,0,0:0:0:0:
64,192,120421,1,0,0:0:0:0:
448,192,120571,128,0,120796:0:0:0:0:
320,192,120571,128,0,120796:0:0:0:0:
64,192,120571,128,0,120796:0:0:0:0:
64,192,120871,128,0,120946:0:0:0:0:
192,192,120871,128,0,121021:0:0:0:0:
320,192,120946,128,0,121096:0:0:0:0:
448,192,121021,128,0,121171:0:0:0:0:
192,192,121171,1,0,0:0:0:0:
64,192,121171,1,0,0:0:0:0:
320,192,121171,1,0,0:0:0:0:
192,192,121321,1,0,0:0:0:0:
64,192,121321,1,0,0:0:0:0:
320,192,121471,1,0,0:0:0:0:
448,192,121471,1,0,0:0:0:0:
64,192,121471,1,0,0:0:0:0:
448,192,121621,1,0,0:0:0:0:
320,192,121621,1,0,0:0:0:0:
192,192,121771,1,0,0:0:0:0:
64,192,121771,1,0,0:0:0:0:
320,192,121771,1,0,0:0:0:0:
192,192,121921,1,0,0:0:0:0:
448,192,121921,1,0,0:0:0:0:
320,192,122071,1,0,0:0:0:0:
448,192,122071,1,0,0:0:0:0:
64,192,122071,1,0,0:0:0:0:
64,192,122221,1,0,0:0:0:0:
192,192,122221,1,0,0:0:0:0:
192,192,122371,1,0,0:0:0:0:
320,192,122371,1,0,0:0:0:0:
448,192,122371,1,0,0:0:0:0:
320,192,122521,1,0,0:0:0:0:
64,192,122521,1,0,0:0:0:0:
192,192,122671,1,0,0:0:0:0:
64,192,122671,1,0,0:0:0:0:
320,192,122746,1,0,0:0:0:0:
448,192,122821,1,0,0:0:0:0:
192,192,122821,1,0,0:0:0:0:
320,192,122971,1,0,0:0:0:0:
64,192,122971,1,0,0:0:0:0:
192,192,123121,1,0,0:0:0:0:
448,192,123121,1,0,0:0:0:0:
320,192,123196,1,0,0:0:0:0:
192,192,123271,1,0,0:0:0:0:
64,192,123271,1,0,0:0:0:0:
320,192,123421,1,0,0:0:0:0:
448,192,123421,1,0,0:0:0:0:
192,192,123571,1,0,0:0:0:0:
64,192,123571,1,0,0:0:0:0:
320,192,123646,1,0,0:0:0:0:
192,192,123721,1,0,0:0:0:0:
448,192,123721,1,0,0:0:0:0:
64,192,123871,1,0,0:0:0:0:
448,192,123871,1,0,0:0:0:0:
320,192,124021,1,0,0:0:0:0:
64,192,124021,1,0,0:0:0:0:
192,192,124096,1,0,0:0:0:0:
320,192,124171,1,0,0:0:0:0:
448,192,124171,1,0,0:0:0:0:
192,192,124246,1,0,0:0:0:0:
64,192,124321,1,0,0:0:0:0:
448,192,124321,1,0,0:0:0:0:
320,192,124471,1,0,0:0:0:0:
448,192,124471,1,0,0:0:0:0:
192,192,124621,1,0,0:0:0:0:
64,192,124621,1,0,0:0:0:0:
320,192,124696,1,0,0:0:0:0:
192,192,124771,1,0,0:0:0:0:
64,192,124771,128,0,124996:0:0:0:0:
448,192,124771,128,0,125296:0:0:0:0:
192,192,125071,128,0,125296:0:0:0:0:
448,192,125371,128,0,125446:0:0:0:0:
192,192,125371,1,0,0:0:0:0:
64,192,125521,128,0,125596:0:0:0:0:
320,192,125671,1,0,0:0:0:0:
448,192,125671,1,0,0:0:0:0:
192,192,125971,1,0,0:0:0:0:
320,192,125971,1,0,0:0:0:0:
448,192,125971,1,0,0:0:0:0:
192,192,126121,1,0,0:0:0:0:
64,192,126121,1,0,0:0:0:0:
64,192,126271,1,0,0:0:0:0:
448,192,126271,1,0,0:0:0:0:
320,192,126271,128,0,126421:0:0:0:0:
192,192,126421,1,0,0:0:0:0:
320,192,126496,1,0,0:0:0:0:
448,192,126571,1,0,0:0:0:0:
192,192,126571,1,0,0:0:0:0:
64,192,126571,1,0,0:0:0:0:
64,192,126721,128,0,126871:0:0:0:0:
320,192,126871,1,0,0:0:0:0:
448,192,126871,1,0,0:0:0:0:
192,192,126871,1,0,0:0:0:0:
320,192,127021,1,0,0:0:0:0:
64,192,127021,1,0,0:0:0:0:
448,192,127171,1,0,0:0:0:0:
64,192,127171,1,0,0:0:0:0:
192,192,127171,128,0,127321:0:0:0:0:
320,192,127321,1,0,0:0:0:0:
192,192,127396,1,0,0:0:0:0:
448,192,127471,128,0,127621:0:0:0:0:
64,192,127471,1,0,0:0:0:0:
320,192,127471,1,0,0:0:0:0:
64,192,127621,1,0,0:0:0:0:
192,192,127696,1,0,0:0:0:0:
320,192,127771,1,0,0:0:0:0:
448,192,127771,1,0,0:0:0:0:
64,192,127771,128,0,127921:0:0:0:0:
192,192,127921,1,0,0:0:0:0:
448,192,127996,1,0,0:0:0:0:
192,192,128071,1,0,0:0:0:0:
64,192,128071,1,0,0:0:0:0:
320,192,128071,1,0,0:0:0:0:
448,192,128221,1,0,0:0:0:0:
320,192,128221,1,0,0:0:0:0:
64,192,128371,1,0,0:0:0:0:
448,192,128371,1,0,0:0:0:0:
192,192,128371,128,0,128521:0:0:0:0:
320,192,128521,1,0,0:0:0:0:
192,192,128596,1,0,0:0:0:0:
448,192,128671,128,0,128821:0:0:0:0:
64,192,128671,1,0,0:0:0:0:
320,192,128671,1,0,0:0:0:0:
192,192,128821,1,0,0:0:0:0:
64,192,128971,128,0,129121:0:0:0:0:
320,192,128971,1,0,0:0:0:0:
448,192,128971,1,0,0:0:0:0:
192,192,129121,1,0,0:0:0:0:
64,192,129196,1,0,0:0:0:0:
192,192,129271,1,0,0:0:0:0:
448,192,129271,1,0,0:0:0:0:
320,192,129271,1,0,0:0:0:0:
320,192,129421,1,0,0:0:0:0:
64,192,129421,1,0,0:0:0:0:
192,192,129571,1,0,0:0:0:0:
64,192,129571,1,0,0:0:0:0:
448,192,129571,1,0,0:0:0:0:
320,192,129796,1,0,0:0:0:0:
448,192,129796,1,0,0:0:0:0:
192,192,129796,1,0,0:0:0:0:
320,192,130021,1,0,0:0:0:0:
192,192,130021,1,0,0:0:0:0:
64,192,130021,1,0,0:0:0:0:
192,192,130171,128,0,130396:0:0:0:0:
64,192,130171,128,0,130396:0:0:0:0:
448,192,130171,128,0,130396:0:0:0:0:
448,192,130471,128,0,130546:0:0:0:0:
320,192,130471,128,0,130621:0:0:0:0:
192,192,130546,128,0,130696:0:0:0:0:
64,192,130621,128,0,130771:0:0:0:0:
320,192,130771,1,0,0:0:0:0:
448,192,130771,1,0,0:0:0:0:
192,192,130846,1,0,0:0:0:0:
448,192,130921,1,0,0:0:0:0:
64,192,130921,1,0,0:0:0:0:
192,192,131071,1,0,0:0:0:0:
64,192,131071,1,0,0:0:0:0:
192,192,131221,1,0,0:0:0:0:
448,192,131221,1,0,0:0:0:0:
320,192,131371,1,0,0:0:0:0:
64,192,131371,1,0,0:0:0:0:
320,192,131521,1,0,0:0:0:0:
448,192,131521,1,0,0:0:0:0:
64,192,131596,1,0,0:0:0:0:
192,192,131671,1,0,0:0:0:0:
320,192,131671,1,0,0:0:0:0:
448,192,131821,1,0,0:0:0:0:
320,192,131858,1,0,0:0:0:0:
64,192,131896,1,0,0:0:0:0:
192,192,131933,1,0,0:0:0:0:
320,192,131971,1,0,0:0:0:0:
448,192,131971,1,0,0:0:0:0:
64,192,132046,1,0,0:0:0:0:
448,192,132121,1,0,0:0:0:0:
320,192,132121,1,0,0:0:0:0:
192,192,132196,1,0,0:0:0:0:
64,192,132271,1,0,0:0:0:0:
448,192,132271,1,0,0:0:0:0:
320,192,132346,1,0,0:0:0:0:
192,192,132421,1,0,0:0:0:0:
64,192,132421,1,0,0:0:0:0:
448,192,132496,1,0,0:0:0:0:
192,192,132571,1,0,0:0:0:0:
64,192,132571,1,0,0:0:0:0:
320,192,132646,1,0,0:0:0:0:
448,192,132721,1,0,0:0:0:0:
64,192,132721,1,0,0:0:0:0:
192,192,132796,1,0,0:0:0:0:
320,192,132871,1,0,0:0:0:0:
448,192,132871,1,0,0:0:0:0:
64,192,132946,1,0,0:0:0:0:
192,192,133021,1,0,0:0:0:0:
320,192,133021,1,0,0:0:0:0:
448,192,133096,1,0,0:0:0:0:
192,192,133171,1,0,0:0:0:0:
64,192,133171,1,0,0:0:0:0:
320,192,133246,1,0,0:0:0:0:
192,192,133321,1,0,0:0:0:0:
448,192,133396,1,0,0:0:0:0:
64,192,133471,1,0,0:0:0:0:
320,192,133546,1,0,0:0:0:0:
64,192,133621,1,0,0:0:0:0:
448,192,133696,1,0,0:0:0:0:
192,192,133771,1,0,0:0:0:0:
320,192,133846,1,0,0:0:0:0:
192,192,133921,1,0,0:0:0:0:
448,192,133996,1,0,0:0:0:0:
64,192,134071,1,0,0:0:0:0:
320,192,134146,1,0,0:0:0:0:
64,192,134221,1,0,0:0:0:0:
448,192,134296,1,0,0:0:0:0:
192,192,134371,1,0,0:0:0:0:
64,192,134371,1,0,0:0:0:0:
320,192,134521,1,0,0:0:0:0:
448,192,134671,1,0,0:0:0:0:
192,192,134671,1,0,0:0:0:0:
64,192,134821,1,0,0:0:0:0:
320,192,134971,1,0,0:0:0:0:
448,192,134971,1,0,0:0:0:0:
192,192,135121,1,0,0:0:0:0:
64,192,135271,1,0,0:0:0:0:
448,192,135271,1,0,0:0:0:0:
320,192,135271,1,0,0:0:0:0:
320,192,135571,1,0,0:0:0:0:
448,192,135571,1,0,0:0:0:0:
64,192,135571,1,0,0:0:0:0:
448,192,135721,1,0,0:0:0:0:
192,192,135721,1,0,0:0:0:0:
320,192,135871,1,0,0:0:0:0:
64,192,135871,1,0,0:0:0:0:
320,192,136021,1,0,0:0:0:0:
448,192,136021,1,0,0:0:0:0:
192,192,136171,1,0,0:0:0:0:
64,192,136171,1,0,0:0:0:0:
448,192,136246,1,0,0:0:0:0:
192,192,136321,1,0,0:0:0:0:
320,192,136396,1,0,0:0:0:0:
448,192,136396,1,0,0:0:0:0:
192,192,136471,1,0,0:0:0:0:
64,192,136471,1,0,0:0:0:0:
448,192,136546,1,0,0:0:0:0:
192,192,136621,1,0,0:0:0:0:
64,192,136621,1,0,0:0:0:0:
320,192,136696,1,0,0:0:0:0:
64,192,136771,1,0,0:0:0:0:
448,192,136771,1,0,0:0:0:0:
448,192,136921,1,0,0:0:0:0:
320,192,136921,1,0,0:0:0:0:
192,192,137071,1,0,0:0:0:0:
64,192,137071,1,0,0:0:0:0:
64,192,137221,1,0,0:0:0:0:
320,192,137221,1,0,0:0:0:0:
320,192,137371,1,0,0:0:0:0:
448,192,137371,1,0,0:0:0:0:
64,192,137446,1,0,0:0:0:0:
192,192,137521,1,0,0:0:0:0:
448,192,137596,1,0,0:0:0:0:
320,192,137596,1,0,0:0:0:0:
64,192,137671,1,0,0:0:0:0:
192,192,137671,1,0,0:0:0:0:
448,192,137746,1,0,0:0:0:0:
192,192,137821,1,0,0:0:0:0:
64,192,137821,1,0,0:0:0:0:
320,192,137896,1,0,0:0:0:0:
448,192,137971,1,0,0:0:0:0:
64,192,137971,1,0,0:0:0:0:
320,192,138121,1,0,0:0:0:0:
448,192,138121,1,0,0:0:0:0:
192,192,138271,1,0,0:0:0:0:
448,192,138271,1,0,0:0:0:0:
64,192,138421,1,0,0:0:0:0:
192,192,138421,1,0,0:0:0:0:
320,192,138571,1,0,0:0:0:0:
448,192,138571,1,0,0:0:0:0:
64,192,138646,1,0,0:0:0:0:
192,192,138721,1,0,0:0:0:0:
320,192,138796,1,0,0:0:0:0:
448,192,138796,1,0,0:0:0:0:
192,192,138871,1,0,0:0:0:0:
64,192,138871,1,0,0:0:0:0:
320,192,138946,1,0,0:0:0:0:
448,192,139021,1,0,0:0:0:0:
64,192,139021,1,0,0:0:0:0:
192,192,139096,1,0,0:0:0:0:
320,192,139171,1,0,0:0:0:0:
448,192,139171,1,0,0:0:0:0:
320,192,139321,1,0,0:0:0:0:
64,192,139321,1,0,0:0:0:0:
192,192,139471,1,0,0:0:0:0:
64,192,139471,1,0,0:0:0:0:
192,192,139621,1,0,0:0:0:0:
448,192,139621,1,0,0:0:0:0:
448,192,139771,128,0,139846:0:0:0:0:
320,192,139771,1,0,0:0:0:0:
192,192,139921,128,0,139996:0:0:0:0:
448,192,139921,1,0,0:0:0:0:
64,192,139996,128,0,140071:0:0:0:0:
448,192,140071,1,0,0:0:0:0:
192,192,140071,1,0,0:0:0:0:
320,192,140146,128,0,140221:0:0:0:0:
448,192,140221,128,0,140296:0:0:0:0:
64,192,140221,1,0,0:0:0:0:
448,192,140371,1,0,0:0:0:0:
192,192,140371,1,0,0:0:0:0:
192,192,140521,1,0,0:0:0:0:
64,192,140521,1,0,0:0:0:0:
448,192,140671,1,0,0:0:0:0:
320,192,140671,1,0,0:0:0:0:
448,192,140821,1,0,0:0:0:0:
192,192,140821,1,0,0:0:0:0:
192,192,140971,1,0,0:0:0:0:
64,192,140971,1,0,0:0:0:0:
448,192,141046,1,0,0:0:0:0:
320,192,141121,1,0,0:0:0:0:
192,192,141196,1,0,0:0:0:0:
64,192,141196,1,0,0:0:0:0:
448,192,141271,1,0,0:0:0:0:
320,192,141271,1,0,0:0:0:0:
64,192,141346,1,0,0:0:0:0:
192,192,141421,1,0,0:0:0:0:
448,192,141421,1,0,0:0:0:0:
320,192,141496,1,0,0:0:0:0:
192,192,141571,1,0,0:0:0:0:
64,192,141571,1,0,0:0:0:0:
64,192,141721,1,0,0:0:0:0:
320,192,141721,1,0,0:0:0:0:
192,192,141871,1,0,0:0:0:0:
320,192,141871,1,0,0:0:0:0:
192,192,142021,1,0,0:0:0:0:
448,192,142021,1,0,0:0:0:0:
320,192,142171,1,0,0:0:0:0:
64,192,142171,1,0,0:0:0:0:
448,192,142246,1,0,0:0:0:0:
192,192,142321,1,0,0:0:0:0:
448,192,142396,1,0,0:0:0:0:
320,192,142396,1,0,0:0:0:0:
192,192,142471,1,0,0:0:0:0:
64,192,142471,1,0,0:0:0:0:
448,192,142546,1,0,0:0:0:0:
320,192,142621,1,0,0:0:0:0:
192,192,142621,1,0,0:0:0:0:
64,192,142696,1,0,0:0:0:0:
448,192,142771,1,0,0:0:0:0:
320,192,142771,1,0,0:0:0:0:
192,192,142921,1,0,0:0:0:0:
448,192,142921,1,0,0:0:0:0:
192,192,143071,1,0,0:0:0:0:
64,192,143071,1,0,0:0:0:0:
320,192,143221,1,0,0:0:0:0:
64,192,143221,1,0,0:0:0:0:
192,192,143371,1,0,0:0:0:0:
448,192,143371,1,0,0:0:0:0:
320,192,143446,1,0,0:0:0:0:
64,192,143521,1,0,0:0:0:0:
320,192,143596,1,0,0:0:0:0:
448,192,143596,1,0,0:0:0:0:
192,192,143671,1,0,0:0:0:0:
64,192,143671,1,0,0:0:0:0:
320,192,143746,1,0,0:0:0:0:
448,192,143821,1,0,0:0:0:0:
64,192,143821,1,0,0:0:0:0:
192,192,143896,1,0,0:0:0:0:
448,192,143971,1,0,0:0:0:0:
320,192,143971,1,0,0:0:0:0:
64,192,144121,128,0,144196:0:0:0:0:
320,192,144271,128,0,144346:0:0:0:0:
192,192,144421,128,0,144496:0:0:0:0:
448,192,144571,128,0,144646:0:0:0:0:
192,192,144646,1,0,0:0:0:0:
320,192,144721,128,0,144796:0:0:0:0:
64,192,144796,1,0,0:0:0:0:
448,192,144871,1,0,0:0:0:0:
192,192,144871,128,0,144946:0:0:0:0:
64,192,145021,128,0,145096:0:0:0:0:
448,192,145021,1,0,0:0:0:0:
320,192,145096,1,0,0:0:0:0:
192,192,145171,1,0,0:0:0:0:
64,192,145171,1,0,0:0:0:0:
448,192,145171,1,0,0:0:0:0:
64,192,145321,1,0,0:0:0:0:
320,192,145321,1,0,0:0:0:0:
320,192,145471,1,0,0:0:0:0:
448,192,145471,1,0,0:0:0:0:
448,192,145621,1,0,0:0:0:0:
192,192,145621,1,0,0:0:0:0:
320,192,145771,1,0,0:0:0:0:
64,192,145771,1,0,0:0:0:0:
192,192,145846,1,0,0:0:0:0:
448,192,145921,1,0,0:0:0:0:
320,192,145996,1,0,0:0:0:0:
64,192,145996,1,0,0:0:0:0:
192,192,146071,1,0,0:0:0:0:
448,192,146071,1,0,0:0:0:0:
320,192,146146,1,0,0:0:0:0:
192,192,146221,1,0,0:0:0:0:
64,192,146221,1,0,0:0:0:0:
320,192,146296,1,0,0:0:0:0:
448,192,146371,1,0,0:0:0:0:
64,192,146371,1,0,0:0:0:0:
320,192,146521,1,0,0:0:0:0:
448,192,146521,1,0,0:0:0:0:
320,192,146671,1,0,0:0:0:0:
64,192,146671,1,0,0:0:0:0:
192,192,146821,1,0,0:0:0:0:
64,192,146821,1,0,0:0:0:0:
192,192,146971,1,0,0:0:0:0:
448,192,146971,1,0,0:0:0:0:
320,192,147046,1,0,0:0:0:0:
64,192,147121,1,0,0:0:0:0:
192,192,147196,1,0,0:0:0:0:
448,192,147196,1,0,0:0:0:0:
320,192,147271,1,0,0:0:0:0:
64,192,147271,1,0,0:0:0:0:
192,192,147346,1,0,0:0:0:0:
320,192,147421,1,0,0:0:0:0:
448,192,147421,1,0,0:0:0:0:
192,192,147496,1,0,0:0:0:0:
64,192,147571,1,0,0:0:0:0:
448,192,147571,1,0,0:0:0:0:
64,192,147721,1,0,0:0:0:0:
192,192,147721,1,0,0:0:0:0:
192,192,147871,1,0,0:0:0:0:
448,192,147871,1,0,0:0:0:0:
320,192,148021,1,0,0:0:0:0:
448,192,148021,1,0,0:0:0:0:
320,192,148171,1,0,0:0:0:0:
64,192,148171,1,0,0:0:0:0:
448,192,148246,1,0,0:0:0:0:
192,192,148321,1,0,0:0:0:0:
64,192,148396,1,0,0:0:0:0:
320,192,148396,1,0,0:0:0:0:
448,192,148471,1,0,0:0:0:0:
192,192,148471,1,0,0:0:0:0:
320,192,148546,1,0,0:0:0:0:
64,192,148621,1,0,0:0:0:0:
448,192,148621,1,0,0:0:0:0:
192,192,148696,1,0,0:0:0:0:
320,192,148771,1,0,0:0:0:0:
448,192,148771,1,0,0:0:0:0:
320,192,148921,1,0,0:0:0:0:
64,192,148921,1,0,0:0:0:0:
192,192,149071,1,0,0:0:0:0:
64,192,149071,1,0,0:0:0:0:
448,192,149221,1,0,0:0:0:0:
192,192,149221,1,0,0:0:0:0:
64,192,149371,128,0,149446:0:0:0:0:
448,192,149371,1,0,0:0:0:0:
64,192,149521,1,0,0:0:0:0:
320,192,149521,128,0,149596:0:0:0:0:
448,192,149596,128,0,149671:0:0:0:0:
320,192,149671,1,0,0:0:0:0:
64,192,149671,1,0,0:0:0:0:
192,192,149746,128,0,149821:0:0:0:0:
448,192,149821,1,0,0:0:0:0:
64,192,149821,128,0,149896:0:0:0:0:
192,192,149971,1,0,0:0:0:0:
448,192,149971,1,0,0:0:0:0:
192,192,150121,1,0,0:0:0:0:
320,192,150121,1,0,0:0:0:0:
448,192,150271,1,0,0:0:0:0:
320,192,150271,1,0,0:0:0:0:
64,192,150421,1,0,0:0:0:0:
320,192,150421,1,0,0:0:0:0:
64,192,150571,1,0,0:0:0:0:
448,192,150571,1,0,0:0:0:0:
320,192,150646,1,0,0:0:0:0:
192,192,150721,1,0,0:0:0:0:
64,192,150796,1,0,0:0:0:0:
448,192,150796,1,0,0:0:0:0:
320,192,150871,1,0,0:0:0:0:
192,192,150871,1,0,0:0:0:0:
448,192,150946,1,0,0:0:0:0:
192,192,151021,1,0,0:0:0:0:
64,192,151021,1,0,0:0:0:0:
320,192,151096,1,0,0:0:0:0:
448,192,151171,1,0,0:0:0:0:
64,192,151171,1,0,0:0:0:0:
192,192,151246,1,0,0:0:0:0:
64,192,151321,1,0,0:0:0:0:
320,192,151321,1,0,0:0:0:0:
448,192,151471,1,0,0:0:0:0:
192,192,151471,1,0,0:0:0:0:
64,192,151546,1,0,0:0:0:0:
320,192,151621,1,0,0:0:0:0:
64,192,151696,1,0,0:0:0:0:
192,192,151696,1,0,0:0:0:0:
448,192,151771,1,0,0:0:0:0:
320,192,151771,1,0,0:0:0:0:
192,192,151921,1,0,0:0:0:0:
64,192,151921,1,0,0:0:0:0:
448,192,151996,1,0,0:0:0:0:
320,192,152071,1,0,0:0:0:0:
64,192,152071,1,0,0:0:0:0:
192,192,152146,1,0,0:0:0:0:
448,192,152221,1,0,0:0:0:0:
320,192,152221,1,0,0:0:0:0:
448,192,152371,1,0,0:0:0:0:
64,192,152371,1,0,0:0:0:0:
192,192,152521,1,0,0:0:0:0:
64,192,152521,1,0,0:0:0:0:
320,192,152671,1,0,0:0:0:0:
448,192,152671,1,0,0:0:0:0:
320,192,152821,1,0,0:0:0:0:
64,192,152821,1,0,0:0:0:0:
192,192,152971,1,0,0:0:0:0:
64,192,152971,1,0,0:0:0:0:
448,192,153121,1,0,0:0:0:0:
320,192,153121,1,0,0:0:0:0:
320,192,153271,1,0,0:0:0:0:
64,192,153271,1,0,0:0:0:0:
192,192,153421,1,0,0:0:0:0:
64,192,153421,1,0,0:0:0:0:
448,192,153571,1,0,0:0:0:0:
320,192,153571,1,0,0:0:0:0:
64,192,153646,1,0,0:0:0:0:
192,192,153721,1,0,0:0:0:0:
448,192,153721,1,0,0:0:0:0:
320,192,153796,1,0,0:0:0:0:
192,192,153871,1,0,0:0:0:0:
64,192,153871,1,0,0:0:0:0:
320,192,153946,1,0,0:0:0:0:
448,192,154021,1,0,0:0:0:0:
64,192,154021,1,0,0:0:0:0:
192,192,154096,1,0,0:0:0:0:
320,192,154171,1,0,0:0:0:0:
64,192,154171,1,0,0:0:0:0:
448,192,154246,1,0,0:0:0:0:
192,192,154321,1,0,0:0:0:0:
320,192,154321,1,0,0:0:0:0:
64,192,154396,1,0,0:0:0:0:
192,192,154471,1,0,0:0:0:0:
448,192,154471,1,0,0:0:0:0:
320,192,154546,1,0,0:0:0:0:
192,192,154621,1,0,0:0:0:0:
64,192,154621,1,0,0:0:0:0:
320,192,154696,1,0,0:0:0:0:
448,192,154771,1,0,0:0:0:0:
64,192,154771,1,0,0:0:0:0:
192,192,155071,1,0,0:0:0:0:
448,192,155221,1,0,0:0:0:0:
192,192,155371,1,0,0:0:0:0:
448,192,155671,1,0,0:0:0:0:
192,192,155671,1,0,0:0:0:0:
320,192,156121,1,0,0:0:0:0:
448,192,156121,1,0,0:0:0:0:
64,192,156421,1,0,0:0:0:0:
320,192,156571,1,0,0:0:0:0:
448,192,156571,1,0,0:0:0:0:
64,192,156721,1,0,0:0:0:0:
448,192,156871,1,0,0:0:0:0:
192,192,157021,1,0,0:0:0:0:
448,192,157171,1,0,0:0:0:0:
64,192,157171,1,0,0:0:0:0:
64,192,157621,1,0,0:0:0:0:
320,192,158071,1,0,0:0:0:0:
192,192,158071,1,0,0:0:0:0:
448,192,158521,1,0,0:0:0:0:
320,192,158821,1,0,0:0:0:0:
64,192,158971,1,0,0:0:0:0:
192,192,158971,1,0,0:0:0:0:
448,192,159121,1,0,0:0:0:0:
192,192,159271,1,0,0:0:0:0:
64,192,159271,1,0,0:0:0:0:
320,192,159421,1,0,0:0:0:0:
448,192,159571,1,0,0:0:0:0:
64,192,159571,1,0,0:0:0:0:
320,192,160021,1,0,0:0:0:0:
64,192,160021,1,0,0:0:0:0:
192,192,160471,1,0,0:0:0:0:
448,192,160471,1,0,0:0:0:0:
448,192,160921,1,0,0:0:0:0:
64,192,160921,1,0,0:0:0:0:
192,192,161221,1,0,0:0:0:0:
448,192,161371,1,0,0:0:0:0:
320,192,161371,1,0,0:0:0:0:
64,192,161521,1,0,0:0:0:0:
192,192,161671,1,0,0:0:0:0:
64,192,161821,1,0,0:0:0:0:
192,192,161971,1,0,0:0:0:0:
448,192,161971,1,0,0:0:0:0:
448,192,162271,1,0,0:0:0:0:
192,192,162421,1,0,0:0:0:0:
64,192,162421,1,0,0:0:0:0:
448,192,162571,1,0,0:0:0:0:
320,192,162721,1,0,0:0:0:0:
64,192,162871,1,0,0:0:0:0:
448,192,162871,1,0,0:0:0:0:
192,192,163021,1,0,0:0:0:0:
320,192,163171,1,0,0:0:0:0:
192,192,163321,1,0,0:0:0:0:
448,192,163321,1,0,0:0:0:0:
64,192,163471,1,0,0:0:0:0:
320,192,163621,1,0,0:0:0:0:
192,192,163771,1,0,0:0:0:0:
64,192,163771,1,0,0:0:0:0:
448,192,163921,1,0,0:0:0:0:
320,192,164071,1,0,0:0:0:0:
192,192,164071,1,0,0:0:0:0:
64,192,164221,1,0,0:0:0:0:
320,192,164371,128,0,165571:0:0:0:0:
448,192,164371,128,0,165571:0:0:0:0:
192,192,164446,128,0,165571:0:0:0:0:
64,192,164446,128,0,165571:0:0:0:0:
