osu file format v14

[General]
AudioFilename: t+pazolite - Seedy Try.mp3
AudioLeadIn: 0
PreviewTime: -1
Countdown: 1
SampleSet: Normal
StackLeniency: 0.7
Mode: 0
LetterboxInBreaks: 0
WidescreenStoryboard: 0

[Editor]
DistanceSpacing: 2
BeatDivisor: 4
GridSize: 8
TimelineZoom: 2.2

[Metadata]
Title:Seedy Try
TitleUnicode:Seedy Try
Artist:t+pazolite
ArtistUnicode:t+pazolite
Creator:Shiny Gliscor
Version:Extra
Source:
Tags:
BeatmapID:789206
BeatmapSetID:358931

[Difficulty]
HPDrainRate:5
CircleSize:4
OverallDifficulty:8.5
ApproachRate:9.3
SliderMultiplier:1.4
SliderTickRate:1

[Events]
//Background and Video events
0,0,"112131.jpg",0,0
//Break Periods
//Storyboard Layer 0 (Background)
//Storyboard Layer 1 (Fail)
//Storyboard Layer 2 (Pass)
//Storyboard Layer 3 (Foreground)
//Storyboard Sound Samples

[TimingPoints]
9244,285.714285714286,4,1,0,100,1,0
27529,-50,4,1,0,100,0,0
64101,-66.6666666666667,4,1,0,100,0,0

[HitObjects]
80,160,9243,5,0,0:0:0:0:
184,80,9386,1,0,0:0:0:0:
456,192,9672,1,0,0:0:0:0:
240,344,9958,5,0,0:0:0:0:
176,264,10101,2,0,P|152:208|128:184,1,70
288,184,10386,2,0,P|304:136|320:112,1,70
208,80,10672,1,0,0:0:0:0:
96,136,10815,1,0,0:0:0:0:
96,256,10958,2,0,P|128:320|192:360,1,140
384,296,11529,5,0,0:0:0:0:
448,184,11672,1,0,0:0:0:0:
144,72,11958,1,0,0:0:0:0:
144,336,12243,5,0,0:0:0:0:
128,216,12386,2,0,P|152:176|152:144,1,70
248,64,12672,1,0,0:0:0:0:
384,80,12815,2,0,L|416:56,2,35
312,192,13101,1,0,0:0:0:0:
208,144,13243,2,0,P|176:120|136:112,1,70
112,240,13529,2,0,P|72:256|32:248,1,70
224,344,13815,6,0,P|248:304|280:288,1,70
144,128,14244,1,0,0:0:0:0:
384,56,14529,1,0,0:0:0:0:
416,160,14672,1,0,0:0:0:0:
384,264,14815,1,0,0:0:0:0:
288,192,14958,2,0,P|272:152|248:128,1,70
176,224,15244,2,0,P|192:272|208:288,1,70
320,312,15529,5,0,0:0:0:0:
488,336,15672,1,0,0:0:0:0:
416,216,15815,1,0,0:0:0:0:
336,64,16101,5,0,0:0:0:0:
224,120,16244,1,0,0:0:0:0:
448,328,16529,1,0,0:0:0:0:
80,288,16815,1,0,0:0:0:0:
120,176,16958,2,0,P|128:128|112:104,1,70
232,144,17244,1,0,0:0:0:0:
336,128,17386,1,0,0:0:0:0:
336,163,17457,1,0,0:0:0:0:
336,198,17528,1,0,0:0:0:0:
448,224,17672,1,0,0:0:0:0:
336,320,17815,2,0,P|288:296|256:296,1,70
232,208,18101,2,0,P|216:160|192:144,1,70
56,240,18386,6,0,L|56:320,1,70
192,240,18672,2,0,L|192:320,1,70
304,216,18958,1,0,0:0:0:0:
392,112,19101,1,0,0:0:0:0:
352,240,19244,1,0,0:0:0:0:
344,88,19386,1,0,0:0:0:0:
184,64,20672,5,0,0:0:0:0:
312,136,20815,1,0,0:0:0:0:
144,184,20958,1,0,0:0:0:0:
320,264,21101,1,0,0:0:0:0:
472,160,21244,2,0,P|464:112|440:88,1,70
376,288,21529,2,0,P|392:336|416:360,1,70
160,72,22958,6,0,L|80:72,1,70
352,72,23244,2,0,L|432:72,1,70
216,168,23529,1,0,0:0:0:0:
320,208,23672,1,0,0:0:0:0:
176,264,23815,1,0,0:0:0:0:
352,288,23958,1,0,0:0:0:0:
352,72,24101,6,0,L|432:72,1,70
160,72,24387,2,0,L|80:72,1,70
296,168,24672,1,0,0:0:0:0:
192,208,24815,1,0,0:0:0:0:
336,264,24958,1,0,0:0:0:0:
160,288,25101,1,0,0:0:0:0:
440,144,25244,6,0,P|464:176|472:208,1,70
360,232,25529,2,0,P|336:184|312:160,1,70
120,144,25815,1,0,0:0:0:0:
184,208,25910,1,0,0:0:0:0:
104,240,26005,1,0,0:0:0:0:
168,304,26100,1,0,0:0:0:0:
248,296,26386,5,0,0:0:0:0:
278,312,26457,1,0,0:0:0:0:
312,320,26528,1,0,0:0:0:0:
347,319,26600,1,0,0:0:0:0:
381,309,26671,1,0,0:0:0:0:
328,208,26815,1,0,0:0:0:0:
344,80,26958,1,0,0:0:0:0:
144,344,27529,6,0,P|78:273|74:222,1,140
80,128,27815,1,0,0:0:0:0:
160,48,27958,1,0,0:0:0:0:
248,112,28101,2,0,B|256:32|264:0|320:32,1,140
320,208,28386,2,0,B|386:252|410:275|355:309,1,140
192,216,28672,2,0,B|138:275|112:295|87:236,1,140
56,144,28958,5,0,0:0:0:0:
88,64,29101,1,0,0:0:0:0:
168,40,29244,1,0,0:0:0:0:
152,128,29386,2,0,L|184:200,2,70
248,80,29672,1,0,0:0:0:0:
376,344,29815,6,0,P|440:256|448:216,1,140
440,120,30101,1,0,0:0:0:0:
352,176,30244,1,0,0:0:0:0:
240,144,30386,2,0,B|293:83|310:55|249:36,1,140
120,192,30671,2,0,B|58:141|29:124|12:186,1,140
216,264,30957,2,0,B|245:339|262:368|306:321,1,140
408,304,31244,1,0,0:0:0:0:
472,240,31386,1,0,0:0:0:0:
432,152,31529,5,0,0:0:0:0:
394,133,31600,1,0,0:0:0:0:
361,108,31671,1,0,0:0:0:0:
333,76,31743,1,0,0:0:0:0:
311,41,31814,1,0,0:0:0:0:
224,120,31958,1,0,0:0:0:0:
240,240,32101,6,0,P|160:232|104:192,1,140
80,104,32386,1,0,0:0:0:0:
176,64,32529,1,0,0:0:0:0:
272,112,32672,2,0,B|323:49|340:22|277:5,1,140
336,232,32957,2,0,B|381:298|404:322|438:267,1,140
192,216,33244,2,0,B|122:256|96:276|148:315,1,140
472,208,33529,6,0,L|472:352,1,140
376,288,33815,1,0,0:0:0:0:
288,336,33958,1,0,0:0:0:0:
272,304,34029,1,0,0:0:0:0:
256,272,34101,2,0,P|208:192|160:152,1,140
224,56,34386,5,0,0:0:0:0:
320,48,34529,2,0,P|280:136|232:160,1,140
432,176,34815,5,0,0:0:0:0:
336,168,34958,2,0,P|376:256|424:280,1,140
232,184,35244,6,0,P|160:152|120:96,1,140
232,80,35529,1,0,0:0:0:0:
288,144,35672,2,0,L|320:176,1,35
328,72,35815,1,0,0:0:0:0:
376,136,35958,2,0,L|408:168,1,35
480,64,36101,2,0,L|480:352,1,280
232,336,36672,6,0,P|192:256|144:208,1,140
112,128,36958,1,0,0:0:0:0:
176,56,37101,1,0,0:0:0:0:
320,152,37244,2,0,B|384:120|384:120|448:168,1,140
248,240,37529,2,0,B|242:311|242:311|168:341,1,140
200,144,37815,2,0,B|140:104|140:104|149:25,1,140
296,56,38101,6,0,L|432:128,1,140
304,176,38386,1,0,0:0:0:0:
376,232,38529,1,0,0:0:0:0:
366,272,38600,1,0,0:0:0:0:
356,313,38671,1,0,0:0:0:0:
264,336,38815,1,0,0:0:0:0:
208,224,38958,6,0,P|288:176|336:112,1,140
392,72,39244,1,0,0:0:0:0:
448,144,39386,1,0,0:0:0:0:
432,256,39529,2,0,B|368:288|368:288|304:240,1,140
176,240,39814,2,0,B|181:168|181:168|255:138,1,140
368,136,40101,6,0,L|464:96,2,93.3333333333333
312,88,40386,2,0,L|216:136,2,93.3333333333333
224,40,40672,2,0,B|152:96|96:112|96:112|64:248,1,280
256,192,41244,12,0,41672,0:0:0:0:
200,128,41815,6,0,P|144:72|128:16,1,140
96,160,42101,2,0,P|72:240|32:288,1,140
200,240,42386,1,0,0:0:0:0:
304,144,42529,1,0,0:0:0:0:
280,288,42672,1,0,0:0:0:0:
240,88,42815,1,0,0:0:0:0:
376,56,42958,5,0,0:0:0:0:
401,89,43029,1,0,0:0:0:0:
417,127,43100,1,0,0:0:0:0:
422,169,43172,1,0,0:0:0:0:
415,211,43243,1,0,0:0:0:0:
304,224,43386,1,0,0:0:0:0:
216,120,43529,6,0,B|128:72|128:72|80:104,1,140
136,184,43815,6,0,B|201:260|201:260|179:313,1,140
272,200,44101,6,0,B|343:129|343:129|327:74,1,140
392,208,44386,6,0,B|427:301|427:301|388:344,1,140,0|0,0:3|0:0,0:0:0:0:
256,192,44672,12,0,45529,0:0:0:0:
176,56,45815,6,0,B|104:120|104:120|128:184,1,140
200,144,46101,2,0,B|227:236|227:236|172:277,1,140
288,320,46386,1,0,0:0:0:0:
304,281,46457,1,0,0:0:0:0:
321,243,46528,1,0,0:0:0:0:
338,204,46600,1,0,0:0:0:0:
355,166,46671,1,0,0:0:0:0:
280,48,46958,6,0,P|264:144|224:216,1,140
176,88,47244,1,0,0:0:0:0:
144,176,47386,2,0,P|176:256|224:304,1,140
275,211,47672,1,0,0:0:0:0:
298,176,47743,1,0,0:0:0:0:
321,141,47814,1,0,0:0:0:0:
416,96,47958,1,0,0:0:0:0:
440,216,48101,6,0,B|440:296|440:296|376:352,1,140
344,248,48386,1,0,0:0:0:0:
280,320,48529,1,0,0:0:0:0:
248,224,48672,2,0,B|272:144|272:144|224:96,1,140
189,164,48958,2,0,B|161:243|161:243|207:293,1,140
336,288,49244,6,0,P|376:192|416:160,1,140
472,112,49529,1,0,0:0:0:0:
384,72,49672,1,0,0:0:0:0:
296,120,49815,2,0,B|224:80|192:32|192:32|104:96|144:160,1,280
232,336,50386,6,0,P|272:264|288:200,1,140
224,144,50672,1,0,0:0:0:0:
328,114,50815,1,0,0:0:0:0:
400,192,50958,2,0,B|448:264|448:264|432:320,1,140
352,272,51244,2,0,B|304:200|304:200|320:144,1,140
408,80,51529,6,0,P|336:40|280:40,1,140
184,64,51815,1,0,0:0:0:0:
120,136,51958,1,0,0:0:0:0:
136,232,52101,1,0,0:0:0:0:
224,160,52244,1,0,0:0:0:0:
224,160,52315,1,0,0:0:0:0:
224,160,52386,2,0,P|256:232|240:288,1,140
392,304,52672,6,0,B|440:216|440:216|424:176,1,140
352,208,52958,1,0,0:0:0:0:
264,232,53101,2,0,B|216:144|216:144|232:104,1,140
304,136,53387,1,0,0:0:0:0:
392,120,53529,2,0,B|424:48|424:48|376:0,1,140
200,64,53815,2,0,L|64:128,1,140
208,168,54101,2,0,L|360:224,1,140
104,288,54386,5,0,0:0:0:0:
384,80,54672,5,0,0:0:0:0:
464,328,54958,6,0,P|400:288|368:224,1,140
472,200,55244,1,0,0:0:0:0:
376,136,55386,1,0,0:0:0:0:
272,200,55529,2,0,B|200:136|200:136|152:152,1,140
184,240,55815,2,0,B|184:312|184:312|240:360,1,140
288,288,56101,2,0,B|368:264|368:264|376:200,1,140
376,64,56386,5,0,0:0:0:0:
272,32,56529,1,0,0:0:0:0:
224,128,56672,1,0,0:0:0:0:
144,64,56815,1,0,0:0:0:0:
144,64,56887,1,0,0:0:0:0:
144,64,56958,2,0,B|88:136|88:136|104:192,1,140
216,312,57244,6,0,P|176:184|176:152,1,140
240,104,57529,1,0,0:0:0:0:
280,192,57672,1,0,0:0:0:0:
344,112,57815,2,0,B|400:48|400:48|368:0,1,140
448,136,58101,2,0,B|504:200|504:200|472:248,1,140
320,264,58386,1,0,0:0:0:0:
277,264,58482,1,0,0:0:0:0:
235,264,58577,1,0,0:0:0:0:
208,296,58672,1,0,0:0:0:0:
170,277,58767,1,0,0:0:0:0:
132,259,58863,1,0,0:0:0:0:
104,224,58958,2,0,B|56:152|72:136|32:104|32:104|168:24,1,280
256,192,59529,12,0,59958,0:0:0:0:
208,128,60101,6,0,B|176:56|176:56|112:32,1,140
280,192,60386,2,0,B|312:120|312:120|376:96,1,140
184,224,60672,2,0,P|240:296|312:288,1,140
368,240,60958,1,0,0:0:0:0:
448,304,61101,1,0,0:0:0:0:
464,208,61244,1,0,0:0:0:0:
384,144,61386,1,0,0:0:0:0:
384,144,61458,1,0,0:0:0:0:
384,144,61529,2,0,B|288:112|288:112|256:56,1,140
96,96,61815,5,0,0:0:0:0:
96,96,61958,2,0,B|80:176|80:176|96:240,1,140
264,232,62244,5,0,0:0:0:0:
264,232,62387,2,0,B|280:152|280:152|264:88,1,140
384,56,62672,5,0,0:0:0:0:
472,128,62815,1,0,0:0:0:0:
256,192,62958,12,0,63815,0:0:0:0:
80,160,64101,6,0,P|128:120|144:72,1,105.000004005432
432,224,64386,2,0,P|384:264|368:312,1,105.000004005432
304,96,64672,1,0,0:0:0:0:
176,304,64815,1,0,0:0:0:0:
240,80,64958,1,0,0:0:0:0:
240,328,65101,1,0,0:0:0:0:
128,224,65244,6,0,L|8:264,1,105.000004005432
208,120,65529,2,0,L|320:72,1,105.000004005432
248,216,65815,1,0,0:0:0:0:
384,136,65958,2,0,L|384:184,1,26.2500010013581
480,232,66101,2,0,L|480:272,1,26.2500010013581
360,312,66244,2,0,L|360:344,1,26.2500010013581
88,232,66529,1,0,0:0:0:0:
72,80,66672,6,0,B|128:56|128:56|160:16,1,105.000004005432
312,104,66958,2,0,B|328:168|328:168|360:200,1,105.000004005432
208,256,67244,2,0,B|152:208|152:208|104:224,1,105.000004005432
48,152,67529,5,0,0:0:0:0:
168,80,67672,1,0,0:0:0:0:
192,192,67815,1,0,0:0:0:0:
312,120,67958,1,0,0:0:0:0:
400,288,68101,6,0,B|352:232|352:232|368:168,1,105.000004005432
224,168,68386,2,0,B|192:224|192:224|128:248,1,105.000004005432
88,112,68672,6,0,B|120:64|120:64|120:16,1,105.000004005432
304,64,68958,2,0,B|320:128|320:128|344:160,1,105.000004005432
208,160,69244,1,0,0:0:0:0:
120,232,69386,1,0,0:0:0:0:
240,256,69529,1,0,0:0:0:0:
320,312,69672,1,0,0:0:0:0:
336,208,69815,6,0,B|376:152|376:152|416:120,1,105.000004005432
256,104,70101,2,0,B|192:136|192:136|152:144,1,105.000004005432
168,280,70386,1,0,0:0:0:0:
336,248,70529,2,0,L|328:216,1,26.2500010013581
456,184,70672,2,0,L|464:152,1,26.2500010013581
344,96,70815,2,0,L|336:64,1,26.2500010013581
136,88,71244,6,0,P|136:160|160:192,1,105.000004005432
224,120,71529,2,0,P|224:56|200:16,1,105.000004005432
312,64,71815,2,0,P|376:40|432:40,1,105.000004005432
384,144,72101,1,0,0:0:0:0:
448,248,72244,1,0,0:0:0:0:
448,248,72315,1,0,0:0:0:0:
448,248,72386,1,0,0:0:0:0:
312,248,72529,1,0,0:0:0:0:
304,32,72672,5,0,0:0:0:0:
120,352,72958,1,0,0:0:0:0:
384,304,73244,5,0,0:0:0:0:
384,168,73386,1,0,0:0:0:0:
384,168,73458,1,0,0:0:0:0:
384,168,73529,1,0,0:0:0:0:
248,88,73672,1,0,0:0:0:0:
128,176,73815,1,0,0:0:0:0:
240,232,73958,5,0,0:0:0:0:
448,256,74101,1,0,0:0:0:0:
256,336,74244,1,0,0:0:0:0:
168,288,74386,1,0,0:0:0:0:
80,200,74529,1,0,0:0:0:0:
80,200,74601,1,0,0:0:0:0:
80,200,74672,1,0,0:0:0:0:
136,104,74815,1,0,0:0:0:0:
224,48,74958,1,0,0:0:0:0:
432,96,75101,5,0,0:0:0:0:
264,208,75244,1,0,0:0:0:0:
432,336,75386,1,0,0:0:0:0:
80,56,75815,6,0,L|80:184,1,105.000004005432
208,144,76101,2,0,L|208:272,1,105.000004005432
328,32,76386,2,0,L|328:152,1,105.000004005432
424,208,76672,1,0,0:0:0:0:
304,280,76815,1,0,0:0:0:0:
304,280,76886,1,0,0:0:0:0:
304,280,76958,1,0,0:0:0:0:
168,248,77101,1,0,0:0:0:0:
168,248,77172,1,0,0:0:0:0:
168,248,77244,2,0,P|136:184|96:152,1,105.000004005432
240,120,77529,2,0,P|240:64|256:16,1,105.000004005432
256,192,77744,12,0,78244,0:0:0:0:
448,120,78386,5,0,0:0:0:0:
448,120,78529,2,0,B|416:192|416:192|424:240,1,105.000004005432
448,312,78815,1,0,0:0:0:0:
304,256,78958,6,0,B|288:176|288:176|256:168,1,105.000004005432
192,256,79244,1,0,0:0:0:0:
144,168,79386,1,0,0:0:0:0:
200,88,79529,1,0,0:0:0:0:
328,144,79672,5,0,0:0:0:0:
328,144,79744,1,0,0:0:0:0:
328,144,79815,1,0,0:0:0:0:
416,64,79958,1,0,0:0:0:0:
440,200,80101,2,0,P|448:272|464:320,1,105.000004005432
344,320,80386,2,0,P|328:256|304:208,1,105.000004005432
192,232,80672,2,0,P|208:296|208:336,1,105.000004005432
72,328,80958,2,0,P|72:256|72:216,1,105.000004005432
96,48,81244,5,0,0:0:0:0:
141,74,81315,1,0,0:0:0:0:
189,94,81386,1,0,0:0:0:0:
240,107,81458,1,0,0:0:0:0:
292,112,81529,1,0,0:0:0:0:
72,328,81815,1,0,0:0:0:0:
