osu file format v14

[General]
AudioFilename: audio.mp3
AudioLeadIn: 0
PreviewTime: 45827
Countdown: 0
SampleSet: Normal
StackLeniency: 0.7
Mode: 1
LetterboxInBreaks: 0
WidescreenStoryboard: 0

[Editor]
Bookmarks: 577,3243,13910,24577,35243,45910,66577,67243,77910,88577,99243,109910,128577,131243,141910,152577,163243,173910,192577,195243,205910,212577,223243,229910,240577,247243,257910,264577,275243,285910
DistanceSpacing: 0.8
BeatDivisor: 4
GridSize: 32
TimelineZoom: 2.6

[Metadata]
Title:Scream out! (t+pazolite feat. Nanahira Ver.)
TitleUnicode:Scream out! (t+pazolite feat. ななひら Ver.)
Artist:t+pazolite
ArtistUnicode:t+pazolite
Creator:eiri-
Version:Oni
Source:東方風神録 ~ Mountain of Faith.
Tags:Ayyri 東方Project ZUN Team Shanghai Alice Touhou Suwako Moriya TH10 TH 10 洩矢 諏訪子 Fuujinroku Wind God Chronicles Video Game Japanese ELEMENTAS Yassie 越田Rute隆人 Reitaisai 15 Koshida Rute Takahito 明日ハレの日、ケの昨日 Tomorrow will be Special, Yesterday was not ネイティブフェイス Native Faith RTS15 RTS TOHO EUROBEAT VOL. 7 A-One ~Tribute Party~ Confetto C.H.S CHS tpz
BeatmapID:1897625
BeatmapSetID:909381

[Difficulty]
HPDrainRate:5
CircleSize:2
OverallDifficulty:5
ApproachRate:10
SliderMultiplier:1.4
SliderTickRate:1

[Events]
//Background and Video events
0,0,"Suwako 486.jpg",0,15
//Break Periods
//Storyboard Layer 0 (Background)
//Storyboard Layer 1 (Fail)
//Storyboard Layer 2 (Pass)
//Storyboard Layer 3 (Foreground)
//Storyboard Sound Samples

[TimingPoints]
3244,333.333333333333,4,1,0,75,1,0
45910,-100,4,1,0,75,0,1
66577,-100,4,1,0,75,0,0
67243,-100,4,1,0,75,0,1
77910,-100,4,1,0,75,0,0
109910,-100,4,1,0,75,0,1
128577,-100,4,1,0,75,0,0
131243,-100,4,1,0,75,0,1
141910,-100,4,1,0,75,0,0
173910,-100,4,1,0,75,0,1
192577,-100,4,1,0,75,0,0
195243,-100,4,1,0,75,0,1
205910,-100,4,1,0,75,0,0
212577,-100,4,1,0,75,0,1
223243,-100,4,1,0,75,0,0
229910,-100,4,1,0,75,0,1
240577,-100,4,1,0,75,0,0
247243,-100,4,1,0,75,0,1
257910,-100,4,1,0,75,0,0
264577,-100,4,1,0,75,0,1
275243,-100,4,1,0,75,0,0
276577,-100,4,1,0,65,0,0
277910,-100,4,1,0,55,0,0
279243,-100,4,1,0,45,0,0
280577,-100,4,1,0,35,0,0
281910,-100,4,1,0,25,0,0
283243,-100,4,1,0,15,0,0
284577,-100,4,1,0,10,0,0
285910,-100,4,1,0,5,0,0

[HitObjects]
256,192,577,8,0,3077,0:0:0:0:
256,192,3243,5,12,0:0:0:0:
256,192,3410,1,0,0:0:0:0:
256,192,3493,1,8,0:0:0:0:
256,192,3660,1,0,0:0:0:0:
256,192,3743,1,8,0:0:0:0:
256,192,3910,1,0,0:0:0:0:
256,192,4077,1,8,0:0:0:0:
256,192,4160,1,8,0:0:0:0:
256,192,4410,1,8,0:0:0:0:
256,192,4577,1,0,0:0:0:0:
256,192,4743,1,8,0:0:0:0:
256,192,4827,1,0,0:0:0:0:
256,192,4993,1,0,0:0:0:0:
256,192,5077,1,8,0:0:0:0:
256,192,5243,1,0,0:0:0:0:
256,192,5410,1,0,0:0:0:0:
256,192,5493,1,0,0:0:0:0:
256,192,5743,1,8,0:0:0:0:
256,192,5910,1,8,0:0:0:0:
256,192,6077,1,0,0:0:0:0:
256,192,6160,1,8,0:0:0:0:
256,192,6327,1,0,0:0:0:0:
256,192,6410,1,8,0:0:0:0:
256,192,6577,1,0,0:0:0:0:
256,192,6743,1,8,0:0:0:0:
256,192,6827,1,8,0:0:0:0:
256,192,7077,1,8,0:0:0:0:
256,192,7243,1,0,0:0:0:0:
256,192,7410,1,8,0:0:0:0:
256,192,7493,1,0,0:0:0:0:
256,192,7743,1,8,0:0:0:0:
256,192,7910,1,0,0:0:0:0:
256,192,8243,1,8,0:0:0:0:
256,192,8577,1,0,0:0:0:0:
256,192,8743,1,0,0:0:0:0:
256,192,8827,1,8,0:0:0:0:
256,192,8993,1,0,0:0:0:0:
256,192,9077,1,8,0:0:0:0:
256,192,9243,1,0,0:0:0:0:
256,192,9410,1,8,0:0:0:0:
256,192,9493,1,8,0:0:0:0:
256,192,9743,1,8,0:0:0:0:
256,192,9910,1,0,0:0:0:0:
256,192,10077,1,8,0:0:0:0:
256,192,10160,1,0,0:0:0:0:
256,192,10327,1,0,0:0:0:0:
256,192,10410,1,8,0:0:0:0:
256,192,10577,1,0,0:0:0:0:
256,192,10743,1,0,0:0:0:0:
256,192,10827,1,0,0:0:0:0:
256,192,11077,1,8,0:0:0:0:
256,192,11243,1,8,0:0:0:0:
256,192,11410,1,0,0:0:0:0:
256,192,11493,1,8,0:0:0:0:
256,192,11660,1,0,0:0:0:0:
256,192,11743,1,8,0:0:0:0:
256,192,11910,1,0,0:0:0:0:
256,192,12077,1,8,0:0:0:0:
256,192,12160,1,8,0:0:0:0:
256,192,12410,1,12,0:0:0:0:
256,192,12743,1,12,0:0:0:0:
256,192,13077,1,12,0:0:0:0:
256,192,13243,1,12,0:0:0:0:
256,192,13577,1,4,0:0:0:0:
256,192,13910,1,12,0:0:0:0:
256,192,14160,1,8,0:0:0:0:
256,192,14243,1,0,0:0:0:0:
256,192,14410,1,0,0:0:0:0:
256,192,14577,1,8,0:0:0:0:
256,192,14743,1,0,0:0:0:0:
256,192,14910,1,12,0:0:0:0:
256,192,15243,1,0,0:0:0:0:
256,192,15493,1,8,0:0:0:0:
256,192,15577,1,0,0:0:0:0:
256,192,15743,1,8,0:0:0:0:
256,192,15910,1,0,0:0:0:0:
256,192,16077,1,12,0:0:0:0:
256,192,16243,1,12,0:0:0:0:
256,192,16410,1,0,0:0:0:0:
256,192,16577,1,8,0:0:0:0:
256,192,16827,1,8,0:0:0:0:
256,192,16910,1,0,0:0:0:0:
256,192,17077,1,0,0:0:0:0:
256,192,17243,1,8,0:0:0:0:
256,192,17410,1,0,0:0:0:0:
256,192,17577,1,12,0:0:0:0:
256,192,17743,1,0,0:0:0:0:
256,192,18077,1,8,0:0:0:0:
256,192,18160,1,8,0:0:0:0:
256,192,18243,1,0,0:0:0:0:
256,192,18410,1,8,0:0:0:0:
256,192,18577,1,0,0:0:0:0:
256,192,18743,1,12,0:0:0:0:
256,192,18910,1,12,0:0:0:0:
256,192,19077,1,0,0:0:0:0:
256,192,19243,1,8,0:0:0:0:
256,192,19493,1,8,0:0:0:0:
256,192,19577,1,0,0:0:0:0:
256,192,19743,1,0,0:0:0:0:
256,192,19910,1,8,0:0:0:0:
256,192,20077,1,0,0:0:0:0:
256,192,20243,1,12,0:0:0:0:
256,192,20577,1,0,0:0:0:0:
256,192,20827,1,8,0:0:0:0:
256,192,20910,1,0,0:0:0:0:
256,192,21077,1,8,0:0:0:0:
256,192,21243,1,0,0:0:0:0:
256,192,21410,1,12,0:0:0:0:
256,192,21577,1,12,0:0:0:0:
256,192,21743,1,0,0:0:0:0:
256,192,21910,1,8,0:0:0:0:
256,192,22160,1,8,0:0:0:0:
256,192,22243,1,0,0:0:0:0:
256,192,22410,1,0,0:0:0:0:
256,192,22577,1,8,0:0:0:0:
256,192,22743,1,0,0:0:0:0:
256,192,22910,1,12,0:0:0:0:
256,192,23077,1,4,0:0:0:0:
256,192,23410,1,4,0:0:0:0:
256,192,23743,1,4,0:0:0:0:
256,192,23910,1,12,0:0:0:0:
256,192,24243,1,12,0:0:0:0:
256,192,24577,1,4,0:0:0:0:
256,192,24743,1,8,0:0:0:0:
256,192,24910,1,0,0:0:0:0:
256,192,25077,1,8,0:0:0:0:
256,192,25243,1,0,0:0:0:0:
256,192,25327,1,0,0:0:0:0:
256,192,25410,1,0,0:0:0:0:
256,192,25577,1,8,0:0:0:0:
256,192,25743,1,0,0:0:0:0:
256,192,26077,1,0,0:0:0:0:
256,192,26243,1,8,0:0:0:0:
256,192,26410,1,0,0:0:0:0:
256,192,26493,1,0,0:0:0:0:
256,192,26577,1,0,0:0:0:0:
256,192,26743,1,0,0:0:0:0:
256,192,26910,1,8,0:0:0:0:
256,192,27243,1,8,0:0:0:0:
256,192,27327,1,8,0:0:0:0:
256,192,27410,1,0,0:0:0:0:
256,192,27577,1,8,0:0:0:0:
256,192,27743,1,0,0:0:0:0:
256,192,27910,1,8,0:0:0:0:
256,192,28077,1,8,0:0:0:0:
256,192,28243,1,0,0:0:0:0:
256,192,28410,1,8,0:0:0:0:
256,192,28743,1,0,0:0:0:0:
256,192,28910,1,0,0:0:0:0:
256,192,29077,1,8,0:0:0:0:
256,192,29243,1,0,0:0:0:0:
256,192,29410,1,8,0:0:0:0:
256,192,29493,1,8,0:0:0:0:
256,192,29577,1,0,0:0:0:0:
256,192,29743,1,0,0:0:0:0:
256,192,29910,1,8,0:0:0:0:
256,192,30077,1,0,0:0:0:0:
256,192,30160,1,8,0:0:0:0:
256,192,30243,1,0,0:0:0:0:
256,192,30410,1,0,0:0:0:0:
256,192,30577,1,8,0:0:0:0:
256,192,30743,1,0,0:0:0:0:
256,192,30910,1,8,0:0:0:0:
256,192,31077,1,0,0:0:0:0:
256,192,31160,1,0,0:0:0:0:
256,192,31243,1,8,0:0:0:0:
256,192,31410,1,0,0:0:0:0:
256,192,31577,1,8,0:0:0:0:
256,192,31743,1,8,0:0:0:0:
256,192,31827,1,8,0:0:0:0:
256,192,31910,1,0,0:0:0:0:
256,192,32077,1,0,0:0:0:0:
256,192,32243,1,8,0:0:0:0:
256,192,32410,1,0,0:0:0:0:
256,192,32577,1,8,0:0:0:0:
256,192,32910,1,8,0:0:0:0:
256,192,33077,1,0,0:0:0:0:
256,192,33160,1,0,0:0:0:0:
256,192,33243,1,8,0:0:0:0:
256,192,33410,1,8,0:0:0:0:
256,192,33577,1,0,0:0:0:0:
256,192,33743,1,12,0:0:0:0:
256,192,34077,1,4,0:0:0:0:
256,192,34410,1,12,0:0:0:0:
256,192,34743,1,4,0:0:0:0:
256,192,35243,1,12,0:0:0:0:
256,192,35493,1,8,0:0:0:0:
256,192,35577,1,0,0:0:0:0:
256,192,35743,1,8,0:0:0:0:
256,192,36077,1,0,0:0:0:0:
256,192,36243,1,8,0:0:0:0:
256,192,36327,1,0,0:0:0:0:
256,192,36410,1,8,0:0:0:0:
256,192,36577,1,8,0:0:0:0:
256,192,36827,1,8,0:0:0:0:
256,192,36910,1,0,0:0:0:0:
256,192,37077,1,8,0:0:0:0:
256,192,37410,1,8,0:0:0:0:
256,192,37577,1,8,0:0:0:0:
256,192,37743,1,8,0:0:0:0:
256,192,37910,1,0,0:0:0:0:
256,192,37993,1,0,0:0:0:0:
256,192,38077,1,0,0:0:0:0:
256,192,38243,1,8,0:0:0:0:
256,192,38577,1,0,0:0:0:0:
256,192,38743,1,8,0:0:0:0:
256,192,39077,1,8,0:0:0:0:
256,192,39243,1,0,0:0:0:0:
256,192,39410,1,8,0:0:0:0:
256,192,39577,1,0,0:0:0:0:
256,192,39743,1,8,0:0:0:0:
256,192,39827,1,8,0:0:0:0:
256,192,39910,1,0,0:0:0:0:
256,192,40077,1,8,0:0:0:0:
256,192,40243,1,0,0:0:0:0:
256,192,40577,1,0,0:0:0:0:
256,192,40827,1,8,0:0:0:0:
256,192,41077,1,0,0:0:0:0:
256,192,41410,1,0,0:0:0:0:
256,192,41577,1,8,0:0:0:0:
256,192,41743,1,0,0:0:0:0:
256,192,41910,1,8,0:0:0:0:
256,192,42077,1,0,0:0:0:0:
256,192,42160,1,8,0:0:0:0:
256,192,42243,1,0,0:0:0:0:
256,192,42410,1,8,0:0:0:0:
256,192,42577,1,0,0:0:0:0:
256,192,42743,1,8,0:0:0:0:
256,192,42827,1,0,0:0:0:0:
256,192,42910,1,8,0:0:0:0:
256,192,43077,1,0,0:0:0:0:
256,192,43243,1,8,0:0:0:0:
256,192,43327,1,8,0:0:0:0:
256,192,43410,1,0,0:0:0:0:
256,192,43577,1,8,0:0:0:0:
256,192,43743,1,0,0:0:0:0:
256,192,43910,1,8,0:0:0:0:
256,192,44077,1,8,0:0:0:0:
256,192,44160,1,8,0:0:0:0:
256,192,44243,1,0,0:0:0:0:
256,192,44410,1,12,0:0:0:0:
256,192,44743,1,4,0:0:0:0:
256,192,44910,1,12,0:0:0:0:
256,192,45077,1,12,0:0:0:0:
256,192,45910,1,12,0:0:0:0:
256,192,46077,1,0,0:0:0:0:
256,192,46243,1,8,0:0:0:0:
256,192,46410,1,0,0:0:0:0:
256,192,46577,1,8,0:0:0:0:
256,192,46660,1,8,0:0:0:0:
256,192,46743,1,0,0:0:0:0:
256,192,46910,1,0,0:0:0:0:
256,192,47077,1,8,0:0:0:0:
256,192,47243,1,0,0:0:0:0:
256,192,47493,1,8,0:0:0:0:
256,192,47577,1,0,0:0:0:0:
256,192,47743,1,0,0:0:0:0:
256,192,47910,1,8,0:0:0:0:
256,192,48243,1,8,0:0:0:0:
256,192,48410,1,0,0:0:0:0:
256,192,48493,1,0,0:0:0:0:
256,192,48577,1,8,0:0:0:0:
256,192,48743,1,0,0:0:0:0:
256,192,48910,1,8,0:0:0:0:
256,192,48993,1,0,0:0:0:0:
256,192,49077,1,8,0:0:0:0:
256,192,49243,1,0,0:0:0:0:
256,192,49410,1,8,0:0:0:0:
256,192,49577,1,0,0:0:0:0:
256,192,49743,1,8,0:0:0:0:
256,192,49827,1,8,0:0:0:0:
256,192,49910,1,0,0:0:0:0:
256,192,50077,1,12,0:0:0:0:
256,192,50410,1,12,0:0:0:0:
256,192,50743,1,12,0:0:0:0:
256,192,50910,1,12,0:0:0:0:
256,192,51077,1,0,0:0:0:0:
256,192,51243,1,8,0:0:0:0:
256,192,51327,1,8,0:0:0:0:
256,192,51410,1,0,0:0:0:0:
256,192,51577,1,0,0:0:0:0:
256,192,51743,1,0,0:0:0:0:
256,192,51827,1,0,0:0:0:0:
256,192,51910,1,8,0:0:0:0:
256,192,52077,1,8,0:0:0:0:
256,192,52243,1,0,0:0:0:0:
256,192,52410,1,0,0:0:0:0:
256,192,52577,1,8,0:0:0:0:
256,192,52660,1,0,0:0:0:0:
256,192,52743,1,8,0:0:0:0:
256,192,52910,1,0,0:0:0:0:
256,192,53077,1,8,0:0:0:0:
256,192,53410,1,8,0:0:0:0:
256,192,53577,1,0,0:0:0:0:
256,192,53743,1,8,0:0:0:0:
256,192,53910,1,0,0:0:0:0:
256,192,54077,1,8,0:0:0:0:
256,192,54160,1,8,0:0:0:0:
256,192,54243,1,0,0:0:0:0:
256,192,54410,1,0,0:0:0:0:
256,192,54577,1,8,0:0:0:0:
256,192,54660,1,0,0:0:0:0:
256,192,54743,1,8,0:0:0:0:
256,192,54910,1,0,0:0:0:0:
256,192,55077,1,0,0:0:0:0:
256,192,55243,1,12,0:0:0:0:
256,192,55493,1,12,0:0:0:0:
256,192,55743,1,12,0:0:0:0:
256,192,55910,1,0,0:0:0:0:
256,192,55993,1,0,0:0:0:0:
256,192,56077,1,0,0:0:0:0:
256,192,56243,1,12,0:0:0:0:
256,192,56577,1,12,0:0:0:0:
256,192,56743,1,0,0:0:0:0:
256,192,56910,1,8,0:0:0:0:
256,192,57077,1,0,0:0:0:0:
256,192,57243,1,8,0:0:0:0:
256,192,57327,1,8,0:0:0:0:
256,192,57410,1,0,0:0:0:0:
256,192,57577,1,8,0:0:0:0:
256,192,57743,1,0,0:0:0:0:
256,192,57910,1,8,0:0:0:0:
256,192,58160,1,8,0:0:0:0:
256,192,58243,1,0,0:0:0:0:
256,192,58410,1,8,0:0:0:0:
256,192,58577,1,0,0:0:0:0:
256,192,58910,1,8,0:0:0:0:
256,192,59077,1,0,0:0:0:0:
256,192,59160,1,0,0:0:0:0:
256,192,59243,1,8,0:0:0:0:
256,192,59410,1,0,0:0:0:0:
256,192,59577,1,8,0:0:0:0:
256,192,59660,1,0,0:0:0:0:
256,192,59743,1,8,0:0:0:0:
256,192,59910,1,0,0:0:0:0:
256,192,60077,1,8,0:0:0:0:
256,192,60243,1,8,0:0:0:0:
256,192,60410,1,0,0:0:0:0:
256,192,60493,1,8,0:0:0:0:
256,192,60577,1,0,0:0:0:0:
256,192,60743,1,12,0:0:0:0:
256,192,61077,1,12,0:0:0:0:
256,192,61410,1,12,0:0:0:0:
256,192,61577,1,12,0:0:0:0:
256,192,61743,1,0,0:0:0:0:
256,192,61910,1,8,0:0:0:0:
256,192,61993,1,8,0:0:0:0:
256,192,62077,1,0,0:0:0:0:
256,192,62243,1,0,0:0:0:0:
256,192,62410,1,0,0:0:0:0:
256,192,62493,1,0,0:0:0:0:
256,192,62577,1,8,0:0:0:0:
256,192,62743,1,8,0:0:0:0:
256,192,62910,1,0,0:0:0:0:
256,192,63077,1,0,0:0:0:0:
256,192,63243,1,8,0:0:0:0:
256,192,63327,1,0,0:0:0:0:
256,192,63410,1,8,0:0:0:0:
256,192,63577,1,8,0:0:0:0:
256,192,63743,1,8,0:0:0:0:
256,192,63827,1,8,0:0:0:0:
256,192,63910,1,0,0:0:0:0:
256,192,64077,1,8,0:0:0:0:
256,192,64243,1,0,0:0:0:0:
256,192,64577,1,8,0:0:0:0:
256,192,64743,1,0,0:0:0:0:
256,192,64910,1,8,0:0:0:0:
256,192,65077,1,0,0:0:0:0:
256,192,65243,1,8,0:0:0:0:
256,192,65410,1,8,0:0:0:0:
256,192,65577,1,0,0:0:0:0:
256,192,65743,1,0,0:0:0:0:
256,192,65910,1,12,0:0:0:0:
256,192,66160,1,12,0:0:0:0:
256,192,66410,1,12,0:0:0:0:
256,192,66577,1,4,0:0:0:0:
256,192,66910,1,4,0:0:0:0:
256,192,67243,1,12,0:0:0:0:
256,192,67493,1,12,0:0:0:0:
256,192,67743,1,12,0:0:0:0:
256,192,68077,1,8,0:0:0:0:
256,192,68243,1,8,0:0:0:0:
256,192,68410,1,0,0:0:0:0:
256,192,68577,1,12,0:0:0:0:
256,192,68827,1,12,0:0:0:0:
256,192,69077,1,12,0:0:0:0:
256,192,69410,1,8,0:0:0:0:
256,192,69577,1,8,0:0:0:0:
256,192,69743,1,0,0:0:0:0:
256,192,69910,1,12,0:0:0:0:
256,192,70160,1,12,0:0:0:0:
256,192,70410,1,12,0:0:0:0:
256,192,70743,1,8,0:0:0:0:
256,192,70910,1,0,0:0:0:0:
256,192,71077,1,8,0:0:0:0:
256,192,71243,1,4,0:0:0:0:
256,192,71410,1,12,0:0:0:0:
256,192,71743,1,12,0:0:0:0:
256,192,71910,1,4,0:0:0:0:
256,192,72243,1,4,0:0:0:0:
256,192,72577,1,12,0:0:0:0:
256,192,72827,1,12,0:0:0:0:
256,192,73077,1,12,0:0:0:0:
256,192,73410,1,8,0:0:0:0:
256,192,73577,1,8,0:0:0:0:
256,192,73743,1,0,0:0:0:0:
256,192,73910,1,12,0:0:0:0:
256,192,74160,1,12,0:0:0:0:
256,192,74410,1,12,0:0:0:0:
256,192,74743,1,8,0:0:0:0:
256,192,74910,1,8,0:0:0:0:
256,192,75077,1,0,0:0:0:0:
256,192,75243,1,12,0:0:0:0:
256,192,75493,1,12,0:0:0:0:
256,192,75743,1,12,0:0:0:0:
256,192,76077,1,8,0:0:0:0:
256,192,76243,1,8,0:0:0:0:
256,192,76410,1,0,0:0:0:0:
256,192,76577,1,12,0:0:0:0:
256,192,76743,1,0,0:0:0:0:
256,192,76827,1,8,0:0:0:0:
256,192,76910,1,0,0:0:0:0:
256,192,77077,1,8,0:0:0:0:
256,192,77243,1,4,0:0:0:0:
256,192,77577,1,4,0:0:0:0:
256,192,77910,1,12,0:0:0:0:
256,192,78160,1,8,0:0:0:0:
256,192,78243,1,0,0:0:0:0:
256,192,78410,1,0,0:0:0:0:
256,192,78577,1,8,0:0:0:0:
256,192,78743,1,0,0:0:0:0:
256,192,78910,1,12,0:0:0:0:
256,192,79243,1,0,0:0:0:0:
256,192,79493,1,8,0:0:0:0:
256,192,79577,1,0,0:0:0:0:
256,192,79743,1,8,0:0:0:0:
256,192,79910,1,0,0:0:0:0:
256,192,80077,1,12,0:0:0:0:
256,192,80243,1,12,0:0:0:0:
256,192,80410,1,0,0:0:0:0:
256,192,80577,1,8,0:0:0:0:
256,192,80827,1,8,0:0:0:0:
256,192,80910,1,0,0:0:0:0:
256,192,81077,1,0,0:0:0:0:
256,192,81243,1,8,0:0:0:0:
256,192,81410,1,0,0:0:0:0:
256,192,81577,1,12,0:0:0:0:
256,192,81743,1,0,0:0:0:0:
256,192,82077,1,8,0:0:0:0:
256,192,82160,1,8,0:0:0:0:
256,192,82243,1,0,0:0:0:0:
256,192,82410,1,8,0:0:0:0:
256,192,82577,1,0,0:0:0:0:
256,192,82743,1,12,0:0:0:0:
256,192,82910,1,12,0:0:0:0:
256,192,83077,1,0,0:0:0:0:
256,192,83243,1,8,0:0:0:0:
256,192,83493,1,8,0:0:0:0:
256,192,83577,1,0,0:0:0:0:
256,192,83743,1,0,0:0:0:0:
256,192,83910,1,8,0:0:0:0:
256,192,84077,1,0,0:0:0:0:
256,192,84243,1,12,0:0:0:0:
256,192,84577,1,0,0:0:0:0:
256,192,84827,1,8,0:0:0:0:
256,192,84910,1,0,0:0:0:0:
256,192,85077,1,8,0:0:0:0:
256,192,85243,1,0,0:0:0:0:
256,192,85410,1,12,0:0:0:0:
256,192,85577,1,12,0:0:0:0:
256,192,85743,1,0,0:0:0:0:
256,192,85910,1,8,0:0:0:0:
256,192,86160,1,8,0:0:0:0:
256,192,86243,1,0,0:0:0:0:
256,192,86410,1,0,0:0:0:0:
256,192,86577,1,8,0:0:0:0:
256,192,86743,1,0,0:0:0:0:
256,192,86910,1,12,0:0:0:0:
256,192,87077,1,4,0:0:0:0:
256,192,87410,1,4,0:0:0:0:
256,192,87743,1,4,0:0:0:0:
256,192,87910,1,12,0:0:0:0:
256,192,88243,1,12,0:0:0:0:
256,192,88577,1,4,0:0:0:0:
256,192,88910,1,0,0:0:0:0:
256,192,89077,1,8,0:0:0:0:
256,192,89243,1,0,0:0:0:0:
256,192,89410,1,8,0:0:0:0:
256,192,89577,1,0,0:0:0:0:
256,192,89743,1,8,0:0:0:0:
256,192,89827,1,8,0:0:0:0:
256,192,89910,1,8,0:0:0:0:
256,192,90077,1,0,0:0:0:0:
256,192,90243,1,8,0:0:0:0:
256,192,90410,1,0,0:0:0:0:
256,192,90743,1,0,0:0:0:0:
256,192,90910,1,8,0:0:0:0:
256,192,91077,1,0,0:0:0:0:
256,192,91243,1,8,0:0:0:0:
256,192,91327,1,8,0:0:0:0:
256,192,91410,1,0,0:0:0:0:
256,192,91577,1,8,0:0:0:0:
256,192,91743,1,0,0:0:0:0:
256,192,91910,1,8,0:0:0:0:
256,192,92243,1,8,0:0:0:0:
256,192,92410,1,8,0:0:0:0:
256,192,92493,1,8,0:0:0:0:
256,192,92577,1,0,0:0:0:0:
256,192,92743,1,8,0:0:0:0:
256,192,92910,1,0,0:0:0:0:
256,192,93077,1,8,0:0:0:0:
256,192,93410,1,0,0:0:0:0:
256,192,93493,1,8,0:0:0:0:
256,192,93577,1,0,0:0:0:0:
256,192,93743,1,0,0:0:0:0:
256,192,93910,1,8,0:0:0:0:
256,192,94077,1,0,0:0:0:0:
256,192,94160,1,0,0:0:0:0:
256,192,94243,1,0,0:0:0:0:
256,192,94410,1,8,0:0:0:0:
256,192,94577,1,0,0:0:0:0:
256,192,94660,1,0,0:0:0:0:
256,192,94743,1,8,0:0:0:0:
256,192,94910,1,0,0:0:0:0:
256,192,95077,1,8,0:0:0:0:
256,192,95410,1,8,0:0:0:0:
256,192,95577,1,0,0:0:0:0:
256,192,95743,1,8,0:0:0:0:
256,192,95827,1,8,0:0:0:0:
256,192,95910,1,0,0:0:0:0:
256,192,96077,1,0,0:0:0:0:
256,192,96243,1,8,0:0:0:0:
256,192,96327,1,0,0:0:0:0:
256,192,96410,1,8,0:0:0:0:
256,192,96577,1,8,0:0:0:0:
256,192,96660,1,8,0:0:0:0:
256,192,96743,1,0,0:0:0:0:
256,192,96910,1,8,0:0:0:0:
256,192,97243,1,8,0:0:0:0:
256,192,97410,1,8,0:0:0:0:
256,192,97577,1,0,0:0:0:0:
256,192,97743,1,8,0:0:0:0:
256,192,97827,1,8,0:0:0:0:
256,192,97910,1,0,0:0:0:0:
256,192,98077,1,8,0:0:0:0:
256,192,98160,1,8,0:0:0:0:
256,192,98243,1,8,0:0:0:0:
256,192,98410,1,4,0:0:0:0:
256,192,98743,1,12,0:0:0:0:
256,192,98910,1,0,0:0:0:0:
256,192,99077,1,0,0:0:0:0:
256,192,99243,1,12,0:0:0:0:
256,192,99493,1,8,0:0:0:0:
256,192,99577,1,0,0:0:0:0:
256,192,99743,1,8,0:0:0:0:
256,192,100077,1,0,0:0:0:0:
256,192,100243,1,8,0:0:0:0:
256,192,100327,1,0,0:0:0:0:
256,192,100410,1,8,0:0:0:0:
256,192,100577,1,8,0:0:0:0:
256,192,100743,1,8,0:0:0:0:
256,192,100827,1,8,0:0:0:0:
256,192,100910,1,0,0:0:0:0:
256,192,101077,1,8,0:0:0:0:
256,192,101410,1,8,0:0:0:0:
256,192,101577,1,0,0:0:0:0:
256,192,101743,1,8,0:0:0:0:
256,192,101910,1,0,0:0:0:0:
256,192,101993,1,0,0:0:0:0:
256,192,102077,1,0,0:0:0:0:
256,192,102243,1,8,0:0:0:0:
256,192,102577,1,0,0:0:0:0:
256,192,102743,1,8,0:0:0:0:
256,192,103077,1,8,0:0:0:0:
256,192,103243,1,0,0:0:0:0:
256,192,103410,1,8,0:0:0:0:
256,192,103577,1,0,0:0:0:0:
256,192,103743,1,8,0:0:0:0:
256,192,103827,1,8,0:0:0:0:
256,192,103910,1,0,0:0:0:0:
256,192,104077,1,8,0:0:0:0:
256,192,104243,1,0,0:0:0:0:
256,192,104577,1,0,0:0:0:0:
256,192,104827,1,8,0:0:0:0:
256,192,105077,1,0,0:0:0:0:
256,192,105410,1,0,0:0:0:0:
256,192,105577,1,8,0:0:0:0:
256,192,105743,1,0,0:0:0:0:
256,192,105910,1,8,0:0:0:0:
256,192,106077,1,0,0:0:0:0:
256,192,106160,1,8,0:0:0:0:
256,192,106243,1,0,0:0:0:0:
256,192,106410,1,8,0:0:0:0:
256,192,106577,1,0,0:0:0:0:
256,192,106743,1,8,0:0:0:0:
256,192,106827,1,0,0:0:0:0:
256,192,106910,1,8,0:0:0:0:
256,192,107077,1,0,0:0:0:0:
256,192,107243,1,8,0:0:0:0:
256,192,107327,1,8,0:0:0:0:
256,192,107410,1,0,0:0:0:0:
256,192,107577,1,8,0:0:0:0:
256,192,107743,1,0,0:0:0:0:
256,192,107827,1,0,0:0:0:0:
256,192,107910,1,8,0:0:0:0:
256,192,108077,1,8,0:0:0:0:
256,192,108160,1,8,0:0:0:0:
256,192,108243,1,0,0:0:0:0:
256,192,108410,1,12,0:0:0:0:
256,192,108743,1,4,0:0:0:0:
256,192,108910,1,12,0:0:0:0:
256,192,109077,1,12,0:0:0:0:
256,192,109910,1,12,0:0:0:0:
256,192,110077,1,0,0:0:0:0:
256,192,110243,1,8,0:0:0:0:
256,192,110410,1,0,0:0:0:0:
256,192,110577,1,8,0:0:0:0:
256,192,110660,1,8,0:0:0:0:
256,192,110743,1,0,0:0:0:0:
256,192,110827,1,0,0:0:0:0:
256,192,110910,1,8,0:0:0:0:
256,192,111077,1,8,0:0:0:0:
256,192,111243,1,0,0:0:0:0:
256,192,111493,1,8,0:0:0:0:
256,192,111577,1,0,0:0:0:0:
256,192,111743,1,0,0:0:0:0:
256,192,111910,1,8,0:0:0:0:
256,192,112243,1,8,0:0:0:0:
256,192,112410,1,0,0:0:0:0:
256,192,112493,1,0,0:0:0:0:
256,192,112577,1,8,0:0:0:0:
256,192,112743,1,0,0:0:0:0:
256,192,112910,1,8,0:0:0:0:
256,192,112993,1,0,0:0:0:0:
256,192,113077,1,8,0:0:0:0:
256,192,113243,1,0,0:0:0:0:
256,192,113410,1,8,0:0:0:0:
256,192,113577,1,0,0:0:0:0:
256,192,113743,1,8,0:0:0:0:
256,192,113827,1,8,0:0:0:0:
256,192,113910,1,0,0:0:0:0:
256,192,114077,1,12,0:0:0:0:
256,192,114410,1,12,0:0:0:0:
256,192,114743,1,12,0:0:0:0:
256,192,114910,1,12,0:0:0:0:
256,192,115077,1,0,0:0:0:0:
256,192,115243,1,8,0:0:0:0:
256,192,115327,1,8,0:0:0:0:
256,192,115410,1,0,0:0:0:0:
256,192,115493,1,0,0:0:0:0:
256,192,115577,1,8,0:0:0:0:
256,192,115743,1,0,0:0:0:0:
256,192,115827,1,0,0:0:0:0:
256,192,115910,1,8,0:0:0:0:
256,192,116077,1,8,0:0:0:0:
256,192,116243,1,0,0:0:0:0:
256,192,116410,1,0,0:0:0:0:
256,192,116577,1,8,0:0:0:0:
256,192,116660,1,0,0:0:0:0:
256,192,116743,1,8,0:0:0:0:
256,192,116910,1,8,0:0:0:0:
256,192,117077,1,8,0:0:0:0:
256,192,117160,1,8,0:0:0:0:
256,192,117243,1,0,0:0:0:0:
256,192,117410,1,8,0:0:0:0:
256,192,117577,1,0,0:0:0:0:
256,192,117743,1,8,0:0:0:0:
256,192,117910,1,0,0:0:0:0:
256,192,118077,1,8,0:0:0:0:
256,192,118160,1,8,0:0:0:0:
256,192,118243,1,0,0:0:0:0:
256,192,118410,1,0,0:0:0:0:
256,192,118577,1,8,0:0:0:0:
256,192,118660,1,0,0:0:0:0:
256,192,118743,1,8,0:0:0:0:
256,192,118910,1,0,0:0:0:0:
256,192,119077,1,0,0:0:0:0:
256,192,119243,1,12,0:0:0:0:
256,192,119493,1,12,0:0:0:0:
256,192,119743,1,12,0:0:0:0:
256,192,119910,1,0,0:0:0:0:
256,192,119993,1,0,0:0:0:0:
256,192,120077,1,0,0:0:0:0:
256,192,120243,1,12,0:0:0:0:
256,192,120577,1,12,0:0:0:0:
256,192,120743,1,0,0:0:0:0:
256,192,120910,1,8,0:0:0:0:
256,192,121077,1,0,0:0:0:0:
256,192,121243,1,8,0:0:0:0:
256,192,121327,1,8,0:0:0:0:
256,192,121410,1,0,0:0:0:0:
256,192,121493,1,0,0:0:0:0:
256,192,121577,1,8,0:0:0:0:
256,192,121743,1,0,0:0:0:0:
256,192,121910,1,8,0:0:0:0:
256,192,122160,1,8,0:0:0:0:
256,192,122243,1,0,0:0:0:0:
256,192,122410,1,8,0:0:0:0:
256,192,122577,1,0,0:0:0:0:
256,192,122910,1,8,0:0:0:0:
256,192,123077,1,0,0:0:0:0:
256,192,123160,1,0,0:0:0:0:
256,192,123243,1,8,0:0:0:0:
256,192,123410,1,0,0:0:0:0:
256,192,123577,1,8,0:0:0:0:
256,192,123660,1,0,0:0:0:0:
256,192,123743,1,8,0:0:0:0:
256,192,123910,1,0,0:0:0:0:
256,192,124077,1,8,0:0:0:0:
256,192,124243,1,8,0:0:0:0:
256,192,124410,1,0,0:0:0:0:
256,192,124493,1,8,0:0:0:0:
256,192,124577,1,0,0:0:0:0:
256,192,124743,1,12,0:0:0:0:
256,192,125077,1,12,0:0:0:0:
256,192,125410,1,12,0:0:0:0:
256,192,125577,1,12,0:0:0:0:
256,192,125743,1,0,0:0:0:0:
256,192,125910,1,8,0:0:0:0:
256,192,125993,1,8,0:0:0:0:
256,192,126077,1,0,0:0:0:0:
256,192,126160,1,0,0:0:0:0:
256,192,126243,1,8,0:0:0:0:
256,192,126410,1,0,0:0:0:0:
256,192,126493,1,0,0:0:0:0:
256,192,126577,1,8,0:0:0:0:
256,192,126743,1,8,0:0:0:0:
256,192,126910,1,0,0:0:0:0:
256,192,127077,1,0,0:0:0:0:
256,192,127243,1,8,0:0:0:0:
256,192,127327,1,0,0:0:0:0:
256,192,127410,1,8,0:0:0:0:
256,192,127577,1,8,0:0:0:0:
256,192,127743,1,8,0:0:0:0:
256,192,127827,1,8,0:0:0:0:
256,192,127910,1,0,0:0:0:0:
256,192,127993,1,0,0:0:0:0:
256,192,128077,1,8,0:0:0:0:
256,192,128243,1,0,0:0:0:0:
256,192,128577,1,12,0:0:0:0:
256,192,128743,1,0,0:0:0:0:
256,192,128910,1,8,0:0:0:0:
256,192,129077,1,0,0:0:0:0:
256,192,129243,1,8,0:0:0:0:
256,192,129577,1,0,0:0:0:0:
256,192,129743,1,0,0:0:0:0:
256,192,129910,1,12,0:0:0:0:
256,192,130160,1,12,0:0:0:0:
256,192,130410,1,12,0:0:0:0:
256,192,130577,1,4,0:0:0:0:
256,192,130910,1,4,0:0:0:0:
256,192,131243,1,12,0:0:0:0:
256,192,131493,1,12,0:0:0:0:
256,192,131743,1,12,0:0:0:0:
256,192,131910,1,0,0:0:0:0:
256,192,132077,1,8,0:0:0:0:
256,192,132160,1,8,0:0:0:0:
256,192,132243,1,0,0:0:0:0:
256,192,132410,1,0,0:0:0:0:
256,192,132577,1,12,0:0:0:0:
256,192,132827,1,12,0:0:0:0:
256,192,133077,1,12,0:0:0:0:
256,192,133243,1,0,0:0:0:0:
256,192,133410,1,8,0:0:0:0:
256,192,133493,1,8,0:0:0:0:
256,192,133577,1,0,0:0:0:0:
256,192,133743,1,0,0:0:0:0:
256,192,133910,1,12,0:0:0:0:
256,192,134160,1,12,0:0:0:0:
256,192,134410,1,12,0:0:0:0:
256,192,134577,1,0,0:0:0:0:
256,192,134743,1,8,0:0:0:0:
256,192,134827,1,8,0:0:0:0:
256,192,134910,1,0,0:0:0:0:
256,192,135077,1,0,0:0:0:0:
256,192,135243,1,12,0:0:0:0:
256,192,135410,1,0,0:0:0:0:
256,192,135493,1,8,0:0:0:0:
256,192,135577,1,0,0:0:0:0:
256,192,135743,1,8,0:0:0:0:
256,192,135910,1,4,0:0:0:0:
256,192,136243,1,4,0:0:0:0:
256,192,136577,1,12,0:0:0:0:
256,192,136827,1,12,0:0:0:0:
256,192,137077,1,12,0:0:0:0:
256,192,137243,1,0,0:0:0:0:
256,192,137410,1,8,0:0:0:0:
256,192,137493,1,8,0:0:0:0:
256,192,137577,1,0,0:0:0:0:
256,192,137743,1,0,0:0:0:0:
256,192,137910,1,12,0:0:0:0:
256,192,138160,1,12,0:0:0:0:
256,192,138410,1,12,0:0:0:0:
256,192,138577,1,0,0:0:0:0:
256,192,138743,1,8,0:0:0:0:
256,192,138827,1,8,0:0:0:0:
256,192,138910,1,0,0:0:0:0:
256,192,139077,1,0,0:0:0:0:
256,192,139243,1,12,0:0:0:0:
256,192,139493,1,12,0:0:0:0:
256,192,139743,1,12,0:0:0:0:
256,192,139910,1,0,0:0:0:0:
256,192,140077,1,8,0:0:0:0:
256,192,140160,1,8,0:0:0:0:
256,192,140243,1,0,0:0:0:0:
256,192,140410,1,0,0:0:0:0:
256,192,140577,1,12,0:0:0:0:
256,192,140743,1,0,0:0:0:0:
256,192,140827,1,8,0:0:0:0:
256,192,140910,1,0,0:0:0:0:
256,192,141077,1,8,0:0:0:0:
256,192,141243,1,4,0:0:0:0:
256,192,141577,1,4,0:0:0:0:
256,192,141910,1,12,0:0:0:0:
256,192,142743,1,0,0:0:0:0:
256,192,142827,1,8,0:0:0:0:
256,192,142910,1,0,0:0:0:0:
256,192,143077,1,8,0:0:0:0:
256,192,144077,1,0,0:0:0:0:
256,192,144160,1,8,0:0:0:0:
256,192,144243,1,0,0:0:0:0:
256,192,144410,1,8,0:0:0:0:
256,192,145410,1,0,0:0:0:0:
256,192,145493,1,8,0:0:0:0:
256,192,145577,1,0,0:0:0:0:
256,192,145743,1,8,0:0:0:0:
256,192,146077,1,0,0:0:0:0:
256,192,146160,1,8,0:0:0:0:
256,192,146243,1,0,0:0:0:0:
256,192,146410,1,8,0:0:0:0:
256,192,146577,1,0,0:0:0:0:
256,192,146743,1,8,0:0:0:0:
256,192,146827,1,8,0:0:0:0:
256,192,146910,1,0,0:0:0:0:
256,192,147077,1,8,0:0:0:0:
256,192,147243,1,0,0:0:0:0:
256,192,147577,1,0,0:0:0:0:
256,192,147910,1,8,0:0:0:0:
256,192,148243,1,0,0:0:0:0:
256,192,148410,1,8,0:0:0:0:
256,192,148577,1,0,0:0:0:0:
256,192,148743,1,8,0:0:0:0:
256,192,148910,1,0,0:0:0:0:
256,192,149243,1,8,0:0:0:0:
256,192,149577,1,0,0:0:0:0:
256,192,149743,1,8,0:0:0:0:
256,192,149910,1,0,0:0:0:0:
256,192,150243,1,0,0:0:0:0:
256,192,150577,1,8,0:0:0:0:
256,192,150910,1,0,0:0:0:0:
256,192,151077,1,12,0:0:0:0:
256,192,151410,1,12,0:0:0:0:
256,192,151743,1,12,0:0:0:0:
256,192,151910,1,12,0:0:0:0:
256,192,152243,1,4,0:0:0:0:
256,192,152577,1,12,0:0:0:0:
256,192,152827,1,8,0:0:0:0:
256,192,152910,1,0,0:0:0:0:
256,192,153077,1,0,0:0:0:0:
256,192,153243,1,8,0:0:0:0:
256,192,153410,1,0,0:0:0:0:
256,192,153577,1,12,0:0:0:0:
256,192,153910,1,0,0:0:0:0:
256,192,154160,1,8,0:0:0:0:
256,192,154243,1,0,0:0:0:0:
256,192,154410,1,8,0:0:0:0:
256,192,154577,1,0,0:0:0:0:
256,192,154743,1,12,0:0:0:0:
256,192,154910,1,12,0:0:0:0:
256,192,155077,1,0,0:0:0:0:
256,192,155243,1,8,0:0:0:0:
256,192,155493,1,8,0:0:0:0:
256,192,155577,1,0,0:0:0:0:
256,192,155743,1,0,0:0:0:0:
256,192,155910,1,8,0:0:0:0:
256,192,156077,1,0,0:0:0:0:
256,192,156243,1,12,0:0:0:0:
256,192,156410,1,0,0:0:0:0:
256,192,156743,1,8,0:0:0:0:
256,192,156827,1,8,0:0:0:0:
256,192,156910,1,0,0:0:0:0:
256,192,157077,1,8,0:0:0:0:
256,192,157243,1,0,0:0:0:0:
256,192,157410,1,12,0:0:0:0:
256,192,157577,1,12,0:0:0:0:
256,192,157743,1,0,0:0:0:0:
256,192,157910,1,8,0:0:0:0:
256,192,158160,1,8,0:0:0:0:
256,192,158243,1,0,0:0:0:0:
256,192,158410,1,0,0:0:0:0:
256,192,158577,1,8,0:0:0:0:
256,192,158743,1,0,0:0:0:0:
256,192,158910,1,12,0:0:0:0:
256,192,159243,1,0,0:0:0:0:
256,192,159493,1,8,0:0:0:0:
256,192,159577,1,0,0:0:0:0:
256,192,159743,1,8,0:0:0:0:
256,192,159910,1,0,0:0:0:0:
256,192,160077,1,12,0:0:0:0:
256,192,160243,1,12,0:0:0:0:
256,192,160410,1,0,0:0:0:0:
256,192,160577,1,8,0:0:0:0:
256,192,160827,1,8,0:0:0:0:
256,192,160910,1,0,0:0:0:0:
256,192,161077,1,0,0:0:0:0:
256,192,161243,1,8,0:0:0:0:
256,192,161410,1,0,0:0:0:0:
256,192,161577,1,12,0:0:0:0:
256,192,161743,1,4,0:0:0:0:
256,192,162077,1,4,0:0:0:0:
256,192,162410,1,4,0:0:0:0:
256,192,162577,1,12,0:0:0:0:
256,192,162910,1,12,0:0:0:0:
256,192,163243,1,12,0:0:0:0:
256,192,163493,1,8,0:0:0:0:
256,192,163577,1,0,0:0:0:0:
256,192,163743,1,8,0:0:0:0:
256,192,164077,1,0,0:0:0:0:
256,192,164243,1,8,0:0:0:0:
256,192,164327,1,0,0:0:0:0:
256,192,164410,1,8,0:0:0:0:
256,192,164577,1,8,0:0:0:0:
256,192,164743,1,8,0:0:0:0:
256,192,164827,1,8,0:0:0:0:
256,192,164910,1,0,0:0:0:0:
256,192,165077,1,8,0:0:0:0:
256,192,165243,1,0,0:0:0:0:
256,192,165410,1,8,0:0:0:0:
256,192,165577,1,0,0:0:0:0:
256,192,165743,1,8,0:0:0:0:
256,192,165910,1,0,0:0:0:0:
256,192,165993,1,0,0:0:0:0:
256,192,166077,1,0,0:0:0:0:
256,192,166243,1,8,0:0:0:0:
256,192,166577,1,0,0:0:0:0:
256,192,166743,1,8,0:0:0:0:
256,192,167077,1,8,0:0:0:0:
256,192,167243,1,0,0:0:0:0:
256,192,167410,1,8,0:0:0:0:
256,192,167577,1,0,0:0:0:0:
256,192,167743,1,8,0:0:0:0:
256,192,167827,1,8,0:0:0:0:
256,192,167910,1,0,0:0:0:0:
256,192,168077,1,8,0:0:0:0:
256,192,168243,1,0,0:0:0:0:
256,192,168577,1,0,0:0:0:0:
256,192,168827,1,8,0:0:0:0:
256,192,169077,1,0,0:0:0:0:
256,192,169410,1,0,0:0:0:0:
256,192,169577,1,8,0:0:0:0:
256,192,169743,1,0,0:0:0:0:
256,192,169910,1,8,0:0:0:0:
256,192,170077,1,0,0:0:0:0:
256,192,170160,1,8,0:0:0:0:
256,192,170243,1,0,0:0:0:0:
256,192,170410,1,8,0:0:0:0:
256,192,170577,1,0,0:0:0:0:
256,192,170743,1,8,0:0:0:0:
256,192,170827,1,0,0:0:0:0:
256,192,170910,1,8,0:0:0:0:
256,192,171077,1,0,0:0:0:0:
256,192,171243,1,8,0:0:0:0:
256,192,171327,1,8,0:0:0:0:
256,192,171410,1,0,0:0:0:0:
256,192,171493,1,0,0:0:0:0:
256,192,171577,1,8,0:0:0:0:
256,192,171743,1,0,0:0:0:0:
256,192,171827,1,0,0:0:0:0:
256,192,171910,1,8,0:0:0:0:
256,192,172077,1,8,0:0:0:0:
256,192,172160,1,8,0:0:0:0:
256,192,172243,1,0,0:0:0:0:
256,192,172410,1,12,0:0:0:0:
256,192,172743,1,4,0:0:0:0:
256,192,172910,1,12,0:0:0:0:
256,192,173077,1,12,0:0:0:0:
256,192,173910,1,12,0:0:0:0:
256,192,174077,1,0,0:0:0:0:
256,192,174160,1,0,0:0:0:0:
256,192,174243,1,8,0:0:0:0:
256,192,174410,1,0,0:0:0:0:
256,192,174577,1,8,0:0:0:0:
256,192,174660,1,8,0:0:0:0:
256,192,174743,1,0,0:0:0:0:
256,192,174827,1,0,0:0:0:0:
256,192,174910,1,8,0:0:0:0:
256,192,175077,1,8,0:0:0:0:
256,192,175243,1,0,0:0:0:0:
256,192,175493,1,8,0:0:0:0:
256,192,175577,1,0,0:0:0:0:
256,192,175743,1,0,0:0:0:0:
256,192,175910,1,8,0:0:0:0:
256,192,176243,1,8,0:0:0:0:
256,192,176410,1,0,0:0:0:0:
256,192,176493,1,0,0:0:0:0:
256,192,176577,1,8,0:0:0:0:
256,192,176660,1,8,0:0:0:0:
256,192,176743,1,0,0:0:0:0:
256,192,176910,1,8,0:0:0:0:
256,192,176993,1,0,0:0:0:0:
256,192,177077,1,8,0:0:0:0:
256,192,177243,1,0,0:0:0:0:
256,192,177410,1,8,0:0:0:0:
256,192,177577,1,0,0:0:0:0:
256,192,177743,1,8,0:0:0:0:
256,192,177827,1,8,0:0:0:0:
256,192,177910,1,0,0:0:0:0:
256,192,178077,1,12,0:0:0:0:
256,192,178410,1,12,0:0:0:0:
256,192,178743,1,12,0:0:0:0:
256,192,178910,1,12,0:0:0:0:
256,192,179077,1,0,0:0:0:0:
256,192,179243,1,8,0:0:0:0:
256,192,179327,1,8,0:0:0:0:
256,192,179410,1,0,0:0:0:0:
256,192,179493,1,0,0:0:0:0:
256,192,179577,1,8,0:0:0:0:
256,192,179743,1,0,0:0:0:0:
256,192,179827,1,0,0:0:0:0:
256,192,179910,1,8,0:0:0:0:
256,192,180077,1,8,0:0:0:0:
256,192,180160,1,8,0:0:0:0:
256,192,180243,1,0,0:0:0:0:
256,192,180410,1,0,0:0:0:0:
256,192,180577,1,8,0:0:0:0:
256,192,180660,1,0,0:0:0:0:
256,192,180743,1,8,0:0:0:0:
256,192,180910,1,8,0:0:0:0:
256,192,181077,1,8,0:0:0:0:
256,192,181160,1,8,0:0:0:0:
256,192,181243,1,0,0:0:0:0:
256,192,181410,1,8,0:0:0:0:
256,192,181577,1,0,0:0:0:0:
256,192,181743,1,8,0:0:0:0:
256,192,181910,1,0,0:0:0:0:
256,192,182077,1,8,0:0:0:0:
256,192,182160,1,8,0:0:0:0:
256,192,182243,1,0,0:0:0:0:
256,192,182327,1,0,0:0:0:0:
256,192,182410,1,8,0:0:0:0:
256,192,182577,1,8,0:0:0:0:
256,192,182660,1,0,0:0:0:0:
256,192,182743,1,8,0:0:0:0:
256,192,182910,1,0,0:0:0:0:
256,192,183077,1,0,0:0:0:0:
256,192,183243,1,12,0:0:0:0:
256,192,183493,1,12,0:0:0:0:
256,192,183743,1,12,0:0:0:0:
256,192,183910,1,0,0:0:0:0:
256,192,183993,1,0,0:0:0:0:
256,192,184077,1,0,0:0:0:0:
256,192,184243,1,12,0:0:0:0:
256,192,184577,1,12,0:0:0:0:
256,192,184743,1,0,0:0:0:0:
256,192,184827,1,0,0:0:0:0:
256,192,184910,1,8,0:0:0:0:
256,192,185077,1,0,0:0:0:0:
256,192,185243,1,8,0:0:0:0:
256,192,185327,1,8,0:0:0:0:
256,192,185410,1,0,0:0:0:0:
256,192,185493,1,0,0:0:0:0:
256,192,185577,1,8,0:0:0:0:
256,192,185743,1,0,0:0:0:0:
256,192,185910,1,8,0:0:0:0:
256,192,186160,1,8,0:0:0:0:
256,192,186243,1,0,0:0:0:0:
256,192,186410,1,8,0:0:0:0:
256,192,186577,1,0,0:0:0:0:
256,192,186910,1,8,0:0:0:0:
256,192,187077,1,0,0:0:0:0:
256,192,187160,1,0,0:0:0:0:
256,192,187243,1,8,0:0:0:0:
256,192,187410,1,0,0:0:0:0:
256,192,187577,1,8,0:0:0:0:
256,192,187660,1,0,0:0:0:0:
256,192,187743,1,8,0:0:0:0:
256,192,187910,1,0,0:0:0:0:
256,192,187993,1,0,0:0:0:0:
256,192,188077,1,8,0:0:0:0:
256,192,188243,1,8,0:0:0:0:
256,192,188410,1,0,0:0:0:0:
256,192,188493,1,8,0:0:0:0:
256,192,188577,1,0,0:0:0:0:
256,192,188743,1,12,0:0:0:0:
256,192,189077,1,12,0:0:0:0:
256,192,189410,1,12,0:0:0:0:
256,192,189577,1,12,0:0:0:0:
256,192,189743,1,0,0:0:0:0:
256,192,189910,1,8,0:0:0:0:
256,192,189993,1,8,0:0:0:0:
256,192,190077,1,0,0:0:0:0:
256,192,190160,1,0,0:0:0:0:
256,192,190243,1,8,0:0:0:0:
256,192,190410,1,0,0:0:0:0:
256,192,190493,1,0,0:0:0:0:
256,192,190577,1,8,0:0:0:0:
256,192,190743,1,8,0:0:0:0:
256,192,190910,1,0,0:0:0:0:
256,192,191077,1,0,0:0:0:0:
256,192,191160,1,0,0:0:0:0:
256,192,191243,1,8,0:0:0:0:
256,192,191327,1,0,0:0:0:0:
256,192,191410,1,8,0:0:0:0:
256,192,191577,1,8,0:0:0:0:
256,192,191743,1,8,0:0:0:0:
256,192,191827,1,8,0:0:0:0:
256,192,191910,1,0,0:0:0:0:
256,192,191993,1,0,0:0:0:0:
256,192,192077,1,8,0:0:0:0:
256,192,192243,1,0,0:0:0:0:
256,192,192577,1,12,0:0:0:0:
256,192,192743,1,0,0:0:0:0:
256,192,192910,1,8,0:0:0:0:
256,192,193077,1,0,0:0:0:0:
256,192,193243,1,8,0:0:0:0:
256,192,193577,1,0,0:0:0:0:
256,192,193743,1,0,0:0:0:0:
256,192,193910,1,12,0:0:0:0:
256,192,194160,1,12,0:0:0:0:
256,192,194410,1,12,0:0:0:0:
256,192,194577,1,4,0:0:0:0:
256,192,194910,1,4,0:0:0:0:
256,192,195243,1,12,0:0:0:0:
256,192,195493,1,12,0:0:0:0:
256,192,195743,1,12,0:0:0:0:
256,192,196077,1,8,0:0:0:0:
256,192,196243,1,8,0:0:0:0:
256,192,196410,1,0,0:0:0:0:
256,192,196577,1,12,0:0:0:0:
256,192,196827,1,12,0:0:0:0:
256,192,197077,1,12,0:0:0:0:
256,192,197410,1,8,0:0:0:0:
256,192,197577,1,8,0:0:0:0:
256,192,197743,1,0,0:0:0:0:
256,192,197910,1,12,0:0:0:0:
256,192,198160,1,12,0:0:0:0:
256,192,198410,1,12,0:0:0:0:
256,192,198743,1,8,0:0:0:0:
256,192,198910,1,0,0:0:0:0:
256,192,199077,1,8,0:0:0:0:
256,192,199243,1,4,0:0:0:0:
256,192,199410,1,12,0:0:0:0:
256,192,199743,1,12,0:0:0:0:
256,192,199910,1,4,0:0:0:0:
256,192,200243,1,4,0:0:0:0:
256,192,200577,1,12,0:0:0:0:
256,192,200827,1,12,0:0:0:0:
256,192,201077,1,12,0:0:0:0:
256,192,201410,1,8,0:0:0:0:
256,192,201577,1,8,0:0:0:0:
256,192,201743,1,0,0:0:0:0:
256,192,201910,1,12,0:0:0:0:
256,192,202160,1,12,0:0:0:0:
256,192,202410,1,12,0:0:0:0:
256,192,202743,1,8,0:0:0:0:
256,192,202910,1,8,0:0:0:0:
256,192,203077,1,0,0:0:0:0:
256,192,203243,1,12,0:0:0:0:
256,192,203493,1,12,0:0:0:0:
256,192,203743,1,12,0:0:0:0:
256,192,204077,1,8,0:0:0:0:
256,192,204243,1,8,0:0:0:0:
256,192,204410,1,0,0:0:0:0:
256,192,204577,1,12,0:0:0:0:
256,192,204743,1,0,0:0:0:0:
256,192,204827,1,8,0:0:0:0:
256,192,204910,1,0,0:0:0:0:
256,192,205077,1,8,0:0:0:0:
256,192,205243,1,4,0:0:0:0:
256,192,205577,1,4,0:0:0:0:
256,192,205910,1,12,0:0:0:0:
256,192,206077,8,0,209743,0:0:0:0:
256,192,209910,5,4,0:0:0:0:
256,192,211243,1,12,0:0:0:0:
256,192,211493,1,12,0:0:0:0:
256,192,211743,1,12,0:0:0:0:
256,192,211910,1,4,0:0:0:0:
256,192,212243,1,4,0:0:0:0:
256,192,212577,1,12,0:0:0:0:
256,192,212827,1,12,0:0:0:0:
256,192,213077,1,12,0:0:0:0:
256,192,213243,1,0,0:0:0:0:
256,192,213410,1,8,0:0:0:0:
256,192,213493,1,8,0:0:0:0:
256,192,213577,1,0,0:0:0:0:
256,192,213743,1,0,0:0:0:0:
256,192,213910,1,12,0:0:0:0:
256,192,214160,1,12,0:0:0:0:
256,192,214410,1,12,0:0:0:0:
256,192,214577,1,0,0:0:0:0:
256,192,214743,1,8,0:0:0:0:
256,192,214827,1,8,0:0:0:0:
256,192,214910,1,0,0:0:0:0:
256,192,215077,1,0,0:0:0:0:
256,192,215243,1,12,0:0:0:0:
256,192,215493,1,12,0:0:0:0:
256,192,215743,1,12,0:0:0:0:
256,192,215910,1,0,0:0:0:0:
256,192,216077,1,8,0:0:0:0:
256,192,216160,1,8,0:0:0:0:
256,192,216243,1,0,0:0:0:0:
256,192,216410,1,0,0:0:0:0:
256,192,216577,1,12,0:0:0:0:
256,192,216743,1,0,0:0:0:0:
256,192,216827,1,8,0:0:0:0:
256,192,216910,1,0,0:0:0:0:
256,192,217077,1,8,0:0:0:0:
256,192,217243,1,4,0:0:0:0:
256,192,217577,1,4,0:0:0:0:
256,192,217910,1,12,0:0:0:0:
256,192,218160,1,12,0:0:0:0:
256,192,218410,1,12,0:0:0:0:
256,192,218577,1,0,0:0:0:0:
256,192,218743,1,8,0:0:0:0:
256,192,218827,1,8,0:0:0:0:
256,192,218910,1,0,0:0:0:0:
256,192,219077,1,0,0:0:0:0:
256,192,219243,1,12,0:0:0:0:
256,192,219493,1,12,0:0:0:0:
256,192,219743,1,12,0:0:0:0:
256,192,219910,1,0,0:0:0:0:
256,192,220077,1,8,0:0:0:0:
256,192,220160,1,8,0:0:0:0:
256,192,220243,1,0,0:0:0:0:
256,192,220410,1,0,0:0:0:0:
256,192,220577,1,12,0:0:0:0:
256,192,220827,1,12,0:0:0:0:
256,192,221077,1,12,0:0:0:0:
256,192,221243,1,0,0:0:0:0:
256,192,221410,1,8,0:0:0:0:
256,192,221493,1,8,0:0:0:0:
256,192,221577,1,0,0:0:0:0:
256,192,221743,1,0,0:0:0:0:
256,192,221910,1,12,0:0:0:0:
256,192,222077,1,0,0:0:0:0:
256,192,222160,1,8,0:0:0:0:
256,192,222243,1,0,0:0:0:0:
256,192,222410,1,8,0:0:0:0:
256,192,222577,1,4,0:0:0:0:
256,192,222910,1,4,0:0:0:0:
256,192,223243,1,12,0:0:0:0:
256,192,223410,8,0,227077,0:0:0:0:
256,192,227243,5,4,0:0:0:0:
256,192,228577,1,12,0:0:0:0:
256,192,228827,1,12,0:0:0:0:
256,192,229077,1,12,0:0:0:0:
256,192,229243,1,4,0:0:0:0:
256,192,229577,1,4,0:0:0:0:
256,192,229910,1,12,0:0:0:0:
256,192,230160,1,12,0:0:0:0:
256,192,230410,1,12,0:0:0:0:
256,192,230577,1,0,0:0:0:0:
256,192,230743,1,8,0:0:0:0:
256,192,230827,1,8,0:0:0:0:
256,192,230910,1,0,0:0:0:0:
256,192,230993,1,0,0:0:0:0:
256,192,231077,1,8,0:0:0:0:
256,192,231243,1,12,0:0:0:0:
256,192,231493,1,12,0:0:0:0:
256,192,231743,1,12,0:0:0:0:
256,192,231910,1,0,0:0:0:0:
256,192,232077,1,8,0:0:0:0:
256,192,232160,1,8,0:0:0:0:
256,192,232243,1,0,0:0:0:0:
256,192,232327,1,0,0:0:0:0:
256,192,232410,1,8,0:0:0:0:
256,192,232577,1,12,0:0:0:0:
256,192,232827,1,12,0:0:0:0:
256,192,233077,1,12,0:0:0:0:
256,192,233243,1,0,0:0:0:0:
256,192,233410,1,8,0:0:0:0:
256,192,233493,1,8,0:0:0:0:
256,192,233577,1,0,0:0:0:0:
256,192,233660,1,0,0:0:0:0:
256,192,233743,1,8,0:0:0:0:
256,192,233910,1,12,0:0:0:0:
256,192,234077,1,0,0:0:0:0:
256,192,234160,1,8,0:0:0:0:
256,192,234243,1,0,0:0:0:0:
256,192,234410,1,8,0:0:0:0:
256,192,234577,1,4,0:0:0:0:
256,192,234910,1,4,0:0:0:0:
256,192,235243,1,12,0:0:0:0:
256,192,235493,1,12,0:0:0:0:
256,192,235743,1,12,0:0:0:0:
256,192,235910,1,0,0:0:0:0:
256,192,236077,1,8,0:0:0:0:
256,192,236160,1,8,0:0:0:0:
256,192,236243,1,0,0:0:0:0:
256,192,236327,1,0,0:0:0:0:
256,192,236410,1,8,0:0:0:0:
256,192,236577,1,12,0:0:0:0:
256,192,236827,1,12,0:0:0:0:
256,192,237077,1,12,0:0:0:0:
256,192,237243,1,0,0:0:0:0:
256,192,237410,1,8,0:0:0:0:
256,192,237493,1,8,0:0:0:0:
256,192,237577,1,0,0:0:0:0:
256,192,237660,1,0,0:0:0:0:
256,192,237743,1,8,0:0:0:0:
256,192,237910,1,12,0:0:0:0:
256,192,238160,1,12,0:0:0:0:
256,192,238410,1,12,0:0:0:0:
256,192,238577,1,0,0:0:0:0:
256,192,238743,1,8,0:0:0:0:
256,192,238827,1,8,0:0:0:0:
256,192,238910,1,0,0:0:0:0:
256,192,238993,1,0,0:0:0:0:
256,192,239077,1,8,0:0:0:0:
256,192,239243,1,12,0:0:0:0:
256,192,239410,1,0,0:0:0:0:
256,192,239493,1,8,0:0:0:0:
256,192,239577,1,0,0:0:0:0:
256,192,239743,1,8,0:0:0:0:
256,192,239910,1,4,0:0:0:0:
256,192,240243,1,4,0:0:0:0:
256,192,240577,1,12,0:0:0:0:
256,192,240743,8,0,244410,0:0:0:0:
256,192,244577,5,4,0:0:0:0:
256,192,245910,1,12,0:0:0:0:
256,192,246160,1,12,0:0:0:0:
256,192,246410,1,12,0:0:0:0:
256,192,246577,1,4,0:0:0:0:
256,192,246910,1,4,0:0:0:0:
256,192,247243,1,12,0:0:0:0:
256,192,247493,1,12,0:0:0:0:
256,192,247743,1,12,0:0:0:0:
256,192,247910,1,0,0:0:0:0:
256,192,248077,1,0,0:0:0:0:
256,192,248160,1,0,0:0:0:0:
256,192,248243,1,8,0:0:0:0:
256,192,248327,1,8,0:0:0:0:
256,192,248410,1,0,0:0:0:0:
256,192,248577,1,12,0:0:0:0:
256,192,248827,1,12,0:0:0:0:
256,192,249077,1,12,0:0:0:0:
256,192,249243,1,0,0:0:0:0:
256,192,249410,1,0,0:0:0:0:
256,192,249493,1,0,0:0:0:0:
256,192,249577,1,8,0:0:0:0:
256,192,249660,1,8,0:0:0:0:
256,192,249743,1,0,0:0:0:0:
256,192,249910,1,12,0:0:0:0:
256,192,250160,1,12,0:0:0:0:
256,192,250410,1,12,0:0:0:0:
256,192,250577,1,0,0:0:0:0:
256,192,250743,1,0,0:0:0:0:
256,192,250827,1,0,0:0:0:0:
256,192,250910,1,8,0:0:0:0:
256,192,250993,1,8,0:0:0:0:
256,192,251077,1,0,0:0:0:0:
256,192,251243,1,12,0:0:0:0:
256,192,251410,1,0,0:0:0:0:
256,192,251493,1,8,0:0:0:0:
256,192,251577,1,0,0:0:0:0:
256,192,251743,1,8,0:0:0:0:
256,192,251910,1,4,0:0:0:0:
256,192,252243,1,4,0:0:0:0:
256,192,252577,1,12,0:0:0:0:
256,192,252827,1,12,0:0:0:0:
256,192,253077,1,12,0:0:0:0:
256,192,253243,1,0,0:0:0:0:
256,192,253410,1,0,0:0:0:0:
256,192,253493,1,0,0:0:0:0:
256,192,253577,1,8,0:0:0:0:
256,192,253660,1,8,0:0:0:0:
256,192,253743,1,0,0:0:0:0:
256,192,253910,1,12,0:0:0:0:
256,192,254160,1,12,0:0:0:0:
256,192,254410,1,12,0:0:0:0:
256,192,254577,1,0,0:0:0:0:
256,192,254743,1,0,0:0:0:0:
256,192,254827,1,0,0:0:0:0:
256,192,254910,1,8,0:0:0:0:
256,192,254993,1,8,0:0:0:0:
256,192,255077,1,0,0:0:0:0:
256,192,255243,1,12,0:0:0:0:
256,192,255493,1,12,0:0:0:0:
256,192,255743,1,12,0:0:0:0:
256,192,255910,1,0,0:0:0:0:
256,192,256077,1,0,0:0:0:0:
256,192,256160,1,0,0:0:0:0:
256,192,256243,1,8,0:0:0:0:
256,192,256327,1,8,0:0:0:0:
256,192,256410,1,0,0:0:0:0:
256,192,256577,1,12,0:0:0:0:
256,192,256743,1,0,0:0:0:0:
256,192,256827,1,8,0:0:0:0:
256,192,256910,1,0,0:0:0:0:
256,192,257077,1,8,0:0:0:0:
256,192,257243,1,4,0:0:0:0:
256,192,257577,1,4,0:0:0:0:
256,192,257910,1,12,0:0:0:0:
256,192,258077,8,0,261743,0:0:0:0:
256,192,261910,5,4,0:0:0:0:
256,192,263243,1,12,0:0:0:0:
256,192,263493,1,12,0:0:0:0:
256,192,263743,1,12,0:0:0:0:
256,192,263910,1,4,0:0:0:0:
256,192,264243,1,4,0:0:0:0:
256,192,264577,1,12,0:0:0:0:
256,192,264827,1,12,0:0:0:0:
256,192,265077,1,12,0:0:0:0:
256,192,265243,1,0,0:0:0:0:
256,192,265410,1,8,0:0:0:0:
256,192,265493,1,8,0:0:0:0:
256,192,265577,1,0,0:0:0:0:
256,192,265660,1,0,0:0:0:0:
256,192,265743,1,8,0:0:0:0:
256,192,265910,1,12,0:0:0:0:
256,192,266160,1,12,0:0:0:0:
256,192,266410,1,12,0:0:0:0:
256,192,266577,1,0,0:0:0:0:
256,192,266743,1,8,0:0:0:0:
256,192,266827,1,8,0:0:0:0:
256,192,266910,1,0,0:0:0:0:
256,192,266993,1,0,0:0:0:0:
256,192,267077,1,8,0:0:0:0:
256,192,267243,1,12,0:0:0:0:
256,192,267493,1,12,0:0:0:0:
256,192,267743,1,12,0:0:0:0:
256,192,267910,1,0,0:0:0:0:
256,192,268077,1,8,0:0:0:0:
256,192,268160,1,8,0:0:0:0:
256,192,268243,1,0,0:0:0:0:
256,192,268327,1,0,0:0:0:0:
256,192,268410,1,8,0:0:0:0:
256,192,268577,1,12,0:0:0:0:
256,192,268743,1,0,0:0:0:0:
256,192,268827,1,8,0:0:0:0:
256,192,268910,1,0,0:0:0:0:
256,192,269077,1,8,0:0:0:0:
256,192,269243,1,4,0:0:0:0:
256,192,269577,1,4,0:0:0:0:
256,192,269910,1,12,0:0:0:0:
256,192,270160,1,12,0:0:0:0:
256,192,270410,1,12,0:0:0:0:
256,192,270577,1,0,0:0:0:0:
256,192,270743,1,8,0:0:0:0:
256,192,270827,1,8,0:0:0:0:
256,192,270910,1,0,0:0:0:0:
256,192,270993,1,0,0:0:0:0:
256,192,271077,1,8,0:0:0:0:
256,192,271243,1,12,0:0:0:0:
256,192,271493,1,12,0:0:0:0:
256,192,271743,1,12,0:0:0:0:
256,192,271910,1,0,0:0:0:0:
256,192,272077,1,8,0:0:0:0:
256,192,272160,1,8,0:0:0:0:
256,192,272243,1,0,0:0:0:0:
256,192,272327,1,0,0:0:0:0:
256,192,272410,1,8,0:0:0:0:
256,192,272577,1,8,0:0:0:0:
256,192,272743,1,0,0:0:0:0:
256,192,272910,1,8,0:0:0:0:
256,192,272993,1,0,0:0:0:0:
256,192,273077,1,8,0:0:0:0:
256,192,273243,1,8,0:0:0:0:
256,192,273327,1,0,0:0:0:0:
256,192,273493,1,0,0:0:0:0:
256,192,273577,1,8,0:0:0:0:
256,192,273743,1,8,0:0:0:0:
256,192,273827,1,8,0:0:0:0:
256,192,273910,1,0,0:0:0:0:
256,192,274077,1,0,0:0:0:0:
256,192,274160,1,8,0:0:0:0:
256,192,274243,1,0,0:0:0:0:
256,192,274410,1,8,0:0:0:0:
256,192,274577,1,4,0:0:0:0:
256,192,274910,1,4,0:0:0:0:
256,192,275243,1,12,0:0:0:0:
256,192,275410,12,0,285910,0:0:0:0:
