osu file format v14

[General]
AudioFilename: audio.mp3
AudioLeadIn: 0
PreviewTime: 199980
Countdown: 0
SampleSet: None
StackLeniency: 0.7
Mode: 0
LetterboxInBreaks: 0
WidescreenStoryboard: 1

[Editor]
Bookmarks: 6699,7793,17793,30293,40293,50293,60293,70293,90293,100293,110293,120293,130293,140293,160293,170293,180293,190293,200293,210293,220293,240293,250293,262793,271386
DistanceSpacing: 1.7
BeatDivisor: 4
GridSize: 32
TimelineZoom: 3.199999

[Metadata]
Title:Say Hello to HOLLOWood feat. Akagawa Nene
TitleUnicode:Say Hello to HOLLOWood feat. 赤川ねね
Artist:t+pazolite
ArtistUnicode:t+pazolite
Creator:eiri-
Version:INSane
Source:
Tags:Ayyri Japanese Novelty See you again, HOLLOWood Comiket 94 C94 CHS-0033 tpz
BeatmapID:1934216
BeatmapSetID:926041

[Difficulty]
HPDrainRate:5
CircleSize:3.5
OverallDifficulty:8
ApproachRate:9
SliderMultiplier:1.4
SliderTickRate:1

[Events]
//Background and Video events
0,0,"Say Hello to HOLLOWood.jpg",0,0
//Break Periods
2,200493,207793
//Storyboard Layer 0 (Background)
//Storyboard Layer 1 (Fail)
//Storyboard Layer 2 (Pass)
//Storyboard Layer 3 (Foreground)
//Storyboard Sound Samples

[TimingPoints]
7793,312.5,4,2,1,70,1,0
7793,-66.6666666666667,4,2,1,80,0,0
10293,-80,4,2,1,80,0,0
17793,-66.6666666666667,4,2,1,80,0,0
20293,-80,4,2,1,80,0,0
27793,-200,4,2,1,75,0,0
29199,-200,4,2,1,80,0,0
29511,-200,4,2,1,85,0,0
29824,-200,4,2,1,90,0,0
30136,-200,4,2,1,95,0,0
30293,-100,4,2,1,100,0,0
32793,-100,4,2,1,75,0,0
40293,-100,4,2,1,85,0,0
42793,-66.6666666666667,4,2,1,85,0,0
45293,-80,4,2,1,85,0,0
47793,-66.6666666666667,4,2,1,85,0,0
50293,-125,4,2,1,85,0,0
50371,-125,4,2,1,75,0,0
65293,-125,4,2,1,80,0,0
66543,-125,4,2,1,90,0,0
67793,-125,4,2,1,95,0,0
69043,-125,4,2,1,5,0,0
69980,-125,4,2,1,80,0,0
70293,-66.6666666666667,4,2,1,100,0,1
90293,-66.6666666666667,4,2,1,80,0,0
92793,-80,4,2,1,80,0,0
100293,-100,4,2,1,75,0,0
107793,-100,4,2,1,80,0,0
110293,-100,4,2,1,85,0,0
112793,-66.6666666666667,4,2,1,85,0,0
115293,-80,4,2,1,85,0,0
117793,-66.6666666666667,4,2,1,85,0,0
120293,-125,4,2,1,85,0,0
120371,-125,4,2,1,100,0,0
135293,-125,4,2,1,80,0,0
136543,-125,4,2,1,90,0,0
137793,-125,4,2,1,95,0,0
139043,-125,4,2,1,5,0,0
139980,-125,4,2,1,80,0,0
140293,-66.6666666666667,4,2,1,100,0,1
160293,-125,4,2,1,85,0,0
169043,-100,4,2,1,87,0,0
170293,-80,4,2,1,90,0,0
180293,-125,4,2,1,80,0,0
190293,-100,4,2,1,85,0,0
195293,-100,4,2,1,90,0,0
197793,-100,4,2,1,95,0,0
198105,-100,4,2,1,96,0,0
198418,-100,4,2,1,97,0,0
198574,-100,4,2,1,98,0,0
198730,-100,4,2,1,99,0,0
198886,-100,4,2,1,100,0,0
199980,-100,4,2,1,50,0,0
200214,-100,4,2,1,5,0,0
200293,-100,4,2,1,75,0,0
209043,-100,4,2,1,80,0,0
209668,-100,4,2,1,90,0,0
209980,-100,4,2,1,85,0,0
210136,-100,4,2,1,83,0,0
210293,-100,4,2,1,80,0,0
215293,-100,4,2,1,85,0,0
216543,-100,4,2,1,90,0,0
217168,-100,4,2,1,95,0,0
219980,-100,4,2,1,80,0,0
220293,-66.6666666666667,4,2,1,100,0,1
240293,-66.6666666666667,4,2,1,80,0,0
242793,-80,4,2,1,80,0,0
250293,-66.6666666666667,4,2,1,80,0,0
252793,-80,4,2,1,80,0,0
260293,-200,4,2,1,75,0,0
261699,-200,4,2,1,80,0,0
262011,-200,4,2,1,85,0,0
262324,-200,4,2,1,90,0,0
262636,-200,4,2,1,95,0,0
262793,-200,4,2,1,100,0,0
265293,-200,4,2,1,75,0,0
267793,-100,4,2,1,80,0,0
269043,-100,4,2,1,90,0,0
270293,-100,4,2,1,75,0,0
271386,-100,4,2,1,80,0,0

[Colours]
Combo1 : 0,96,191
Combo2 : 200,243,167
Combo3 : 87,174,23
Combo4 : 250,226,154
Combo5 : 243,186,12
Combo6 : 203,150,150
Combo7 : 155,77,77
Combo8 : 151,203,255

[HitObjects]
59,152,6699,5,4,0:3:0:0:
95,115,6855,1,4,0:3:0:0:
146,103,7011,1,4,0:3:0:0:
195,118,7168,1,4,0:3:0:0:
231,156,7324,1,4,0:3:0:0:
300,281,7480,1,4,0:0:0:0:
300,281,7793,6,0,L|312:148,1,105.000004005432,4|0,1:0|0:0,0:0:0:0:
184,321,8105,2,0,L|172:188,1,105.000004005432,8|0,0:0|0:0,0:0:0:0:
162,104,8418,5,0,1:0:0:0:
329,188,8574,1,0,0:0:0:0:
379,77,8730,5,8,0:0:0:0:
211,188,8886,1,0,0:0:0:0:
270,40,9043,6,0,P|298:106|314:166,1,105.000004005432,0|0,1:0|0:0,0:0:0:0:
475,79,9355,2,0,P|447:145|431:205,1,105.000004005432,8|0,0:0|0:0,0:0:0:0:
398,285,9668,5,0,1:0:0:0:
294,166,9824,1,0,0:0:0:0:
228,292,9980,5,8,0:0:0:0:
445,199,10136,1,0,0:0:0:0:
319,366,10293,6,0,L|294:169,1,175,4|0,1:2|0:0,0:0:0:0:
235,322,10761,1,4,1:2:0:0:
235,322,11074,2,0,L|129:308,1,87.5,4|0,1:2|0:0,0:0:0:0:
0,292,11386,1,4,1:0:0:0:
114,127,11855,6,0,P|161:95|202:81,1,87.5,0|0,1:0|0:0,0:0:0:0:
291,95,12168,2,0,P|247:94|205:103,1,87.5,0|0,1:0|0:0,0:0:0:0:
304,73,12480,2,0,P|346:83|386:103,1,87.5,8|0,0:0|0:0,0:0:0:0:
510,216,12793,6,0,P|427:208|385:280,1,175,4|8,1:0|0:0,0:0:0:0:
310,194,13261,1,0,0:0:0:0:
402,114,13418,2,0,L|409:223,1,87.5,0|0,1:0|0:0,0:0:0:0:
417,332,13730,2,0,L|312:328,1,87.5,8|0,0:0|0:0,0:0:0:0:
195,320,14043,6,0,P|164:274|200:154,1,175,0|8,1:0|0:0,0:0:0:0:
285,97,14511,1,0,0:0:0:0:
285,97,14668,2,0,L|275:-17,1,87.5,0|0,1:0|0:0,0:0:0:0:
392,67,14980,1,8,0:0:0:0:
293,139,15136,1,0,0:0:0:0:
122,6,15293,6,0,P|128:85|124:201,1,175,0|8,1:0|0:0,0:0:0:0:
101,288,15761,1,0,0:0:0:0:
101,288,15918,2,0,P|179:263|208:262,1,87.5,0|0,1:0|0:0,0:0:0:0:
336,339,16230,2,0,P|275:283|250:270,1,87.5,8|0,0:0|0:0,0:0:0:0:
125,180,16543,6,0,P|215:159|309:130,1,175,4|0,1:2|0:0,0:0:0:0:
372,50,17011,1,4,1:2:0:0:
393,79,17324,1,4,1:2:0:0:
414,108,17636,1,4,1:2:0:0:
501,240,17793,6,0,P|440:238|378:259,1,105.000004005432,4|0,1:0|0:0,0:0:0:0:
230,338,18105,2,0,P|283:341|334:329,1,105.000004005432,8|0,0:0|0:0,0:0:0:0:
409,210,18418,5,0,1:0:0:0:
341,357,18574,1,0,0:0:0:0:
271,215,18730,5,8,0:0:0:0:
458,334,18886,1,0,0:0:0:0:
395,181,19043,6,0,L|264:170,1,105.000004005432,0|0,1:0|0:0,0:0:0:0:
173,294,19355,2,0,L|304:305,1,105.000004005432,8|0,0:0|0:0,0:0:0:0:
422,316,19668,5,0,1:0:0:0:
409,165,19824,1,0,0:0:0:0:
279,352,19980,5,8,0:0:0:0:
305,202,20136,1,0,0:0:0:0:
438,347,20293,6,0,P|481:293|474:158,1,175,4|0,1:2|0:0,0:0:0:0:
452,95,20761,1,4,1:2:0:0:
452,95,21074,2,0,L|334:81,1,87.5,4|0,1:2|0:0,0:0:0:0:
271,69,21386,1,4,1:0:0:0:
241,315,21699,1,0,0:0:0:0:
241,315,21855,6,0,L|359:301,2,87.5,12|0|0,0:0|0:0|1:0,0:0:0:0:
171,244,22324,1,0,0:0:0:0:
106,336,22480,1,8,0:0:0:0:
41,279,22636,1,0,0:0:0:0:
183,216,22793,6,0,P|153:169|54:71,1,175,4|8,1:0|0:0,0:0:0:0:
200,41,23261,2,0,P|172:94|157:142,1,87.5,0|0,0:0|1:0,0:0:0:0:
126,229,23574,1,0,0:0:0:0:
188,308,23730,2,0,L|300:297,1,87.5,8|0,0:0|0:0,0:0:0:0:
416,288,24043,6,0,P|453:247|442:111,1,175,0|8,1:0|0:0,0:0:0:0:
328,91,24511,1,0,0:0:0:0:
328,91,24668,2,0,L|444:98,1,87.5,0|0,1:0|0:0,0:0:0:0:
512,176,24980,1,8,0:0:0:0:
395,272,25136,1,0,0:0:0:0:
256,156,25293,6,0,L|272:352,1,175,0|8,1:0|0:0,0:0:0:0:
156,271,25761,1,0,0:0:0:0:
156,271,25918,2,0,L|166:144,1,87.5,0|0,1:0|0:0,0:0:0:0:
293,57,26230,2,0,L|283:184,1,87.5,8|0,0:0|0:0,0:0:0:0:
267,289,26543,6,0,P|321:314|443:283,1,175,4|0,1:2|0:0,0:0:0:0:
491,201,27011,2,0,L|487:121,2,43.75,4|0|0,1:2|0:0|0:0,0:0:0:0:
500,334,27324,1,4,1:2:0:0:
245,268,27636,1,4,1:2:0:0:
245,268,27793,6,0,B|213:238|213:238|458:221,1,280,4|0,0:1|0:0,0:0:0:0:
512,299,29199,5,4,0:3:0:0:
470,384,29355,1,4,0:3:0:0:
330,264,29511,5,4,0:3:0:0:
359,370,29667,1,4,0:3:0:0:
485,278,29824,5,4,0:3:0:0:
296,250,29980,1,4,0:3:0:0:
385,384,30136,5,4,0:3:0:0:
443,142,30292,1,6,1:2:0:0:
443,142,32793,5,2,0:0:0:0:
443,142,34980,5,2,0:0:0:0:
485,278,35293,1,2,0:0:0:0:
443,142,36543,5,2,0:0:0:0:
443,142,37793,5,2,0:0:0:0:
256,192,38886,5,2,0:0:0:0:
256,192,40293,6,0,B|273:130|273:130|260:65,1,105,4|0,1:0|0:0,0:0:0:0:
234,43,40605,2,0,L|153:40,1,70,2|0,1:2|0:0,0:0:0:0:
95,119,40918,2,0,L|14:116,1,70,2|0,0:0|0:0,0:0:0:0:
125,214,41230,1,2,1:2:0:0:
236,87,41386,1,2,0:0:0:0:
300,265,41543,6,0,P|348:245|388:146,1,140,2|0,0:0|1:0,0:0:0:0:
385,72,42011,2,0,P|434:59|473:57,1,70,2|0,0:0|0:0,0:0:0:0:
301,17,42324,2,0,P|252:4|213:2,1,70,2|0,0:0|1:0,0:0:0:0:
119,20,42636,1,2,0:0:0:0:
119,20,42714,1,2,0:0:0:0:
119,20,42793,6,0,B|133:85|133:85|111:130|111:130|130:223,1,210.000008010865,6|0,1:2|0:0,0:0:0:0:
161,347,43261,2,0,L|311:318,1,105.000004005432,6|0,1:2|0:0,0:0:0:0:
412,367,43574,2,0,L|262:338,1,105.000004005432,6|0,1:2|0:0,0:0:0:0:
482,278,43886,6,0,P|479:192|356:164,1,210.000008010865,4|0,1:0|1:0,0:0:0:0:
397,55,44355,1,2,1:2:0:0:
291,20,44511,1,2,0:0:0:0:
191,123,44668,2,0,L|74:114,1,105.000004005432,2|0,0:0|1:0,0:0:0:0:
56,138,44902,1,0,1:0:0:0:
56,138,44980,2,0,L|47:255,1,105.000004005432,0|0,1:0|1:0,0:0:0:0:
31,357,45293,6,0,P|84:368|165:299,1,131.25,4|0,1:0|0:0,0:0:0:0:
166,281,45605,2,0,P|220:272|268:281,1,87.5,2|2,1:2|0:0,0:0:0:0:
356,326,45918,1,0,0:0:0:0:
459,207,46074,2,0,P|416:216|372:212,1,87.5,2|2,0:0|1:2,0:0:0:0:
269,163,46386,1,0,0:0:0:0:
416,44,46543,6,0,L|412:132,1,87.5,2|0,0:0|0:0,0:0:0:0:
404,254,46855,2,0,L|510:241,2,87.5,2|2|0,1:2|0:0|0:0,0:0:0:0:
277,271,47324,1,2,0:0:0:0:
221,352,47480,1,0,1:0:0:0:
183,199,47636,1,2,0:0:0:0:
378,284,47793,6,0,P|383:199|367:52,1,210.000008010865,6|0,1:2|0:0,0:0:0:0:
193,100,48261,2,0,P|204:168|267:90,1,210.000008010865,6|0,1:2|1:0,0:0:0:0:
187,1,48730,1,2,0:0:0:0:
0,88,48886,1,4,1:0:0:0:
0,88,49199,6,0,L|14:204,2,105.000004005432,2|2|2,1:2|1:2|1:2,0:0:0:0:
146,33,49668,6,0,P|132:82|126:120,2,70.0000026702882,8|8|8,0:3|0:3|0:3,0:0:0:0:
215,107,49980,6,0,P|229:156|235:194,2,70.0000026702882,4|4|4,0:3|0:3|0:3,0:0:0:0:
124,196,50293,6,0,L|-8:191,2,112,6|0|8,0:0|1:0|0:0,0:0:0:0:
236,312,51230,1,0,0:0:0:0:
284,225,51386,1,0,1:0:0:0:
245,105,51543,1,2,0:0:0:0:
245,105,51699,6,0,L|370:93,1,112,0|0,1:0|0:0,0:0:0:0:
463,83,52168,1,8,0:0:0:0:
391,292,52480,5,0,0:0:0:0:
306,251,52636,1,0,0:0:0:0:
230,308,52793,2,0,L|96:302,2,112,2|0|8,1:2|1:0|0:0,0:0:0:0:
195,140,53730,5,0,0:0:0:0:
293,189,53886,1,0,1:0:0:0:
406,109,54043,1,2,0:0:0:0:
406,109,54355,2,0,L|403:236,2,112,0|8|0,1:0|0:0|0:0,0:0:0:0:
412,0,55293,5,2,1:2:0:0:
302,63,55605,1,0,1:0:0:0:
140,14,55918,2,0,L|151:141,1,112,8|0,0:0|0:0,0:0:0:0:
162,228,56386,1,0,1:0:0:0:
284,297,56543,5,2,0:0:0:0:
284,297,56699,2,0,P|304:248|297:166,1,112,0|0,1:0|0:0,0:0:0:0:
277,96,57168,2,0,L|355:84,1,56,8|0,0:0|0:0,0:0:0:0:
449,72,57480,1,0,0:0:0:0:
449,72,57793,6,0,L|436:203,1,112,2|0,1:2|1:0,0:0:0:0:
414,297,58261,2,0,L|312:213,1,112,0|0,0:0|0:0,0:0:0:0:
244,139,58730,2,0,L|370:101,1,112,0|2,0:0|0:0,0:0:0:0:
462,74,59355,5,0,1:0:0:0:
462,74,59668,2,0,L|455:0,2,56,8|8|4,0:0|0:3|0:3,0:0:0:0:
508,170,60136,1,4,0:3:0:0:
399,241,60293,6,0,L|278:232,2,112,6|0|8,0:0|1:0|0:0,0:0:0:0:
302,355,61230,1,0,0:0:0:0:
251,269,61386,1,0,1:0:0:0:
317,143,61543,1,2,0:0:0:0:
317,143,61699,6,0,P|258:136|193:114,1,112,0|0,1:0|0:0,0:0:0:0:
127,52,62168,1,8,0:0:0:0:
40,186,62480,5,0,0:0:0:0:
134,158,62636,1,0,0:0:0:0:
215,214,62793,2,0,L|226:339,2,112,2|0|8,1:2|1:0|0:0,0:0:0:0:
201,65,63730,2,0,L|278:57,1,56,0|0,0:0|1:0,0:0:0:0:
356,50,64043,1,2,0:0:0:0:
449,192,64355,2,0,P|466:153|467:67,2,112,0|8|0,1:0|0:0|0:0,0:0:0:0:
302,284,65293,6,0,L|226:281,1,56,6|0,1:2|0:0,0:0:0:0:
339,191,65605,2,0,L|283:188,1,56,2|0,0:0|0:0,0:0:0:0:
376,98,65918,2,0,L|320:95,1,56,2|0,0:0|0:0,0:0:0:0:
413,5,66230,2,0,L|337:2,1,56,2|0,0:0|0:0,0:0:0:0:
456,141,66543,5,6,0:0:0:0:
428,280,66699,1,0,0:0:0:0:
263,163,66855,5,2,0:0:0:0:
317,320,67011,1,0,0:0:0:0:
447,104,67168,5,2,0:0:0:0:
406,278,67324,1,0,0:0:0:0:
264,80,67480,5,2,0:0:0:0:
305,254,67636,1,0,0:0:0:0:
486,203,67793,5,6,1:2:0:0:
486,203,67871,1,0,1:0:0:0:
486,203,67949,2,0,L|478:254,1,28,0|0,1:0|1:0,0:0:0:0:
392,300,68105,2,0,L|400:249,1,28,0|0,1:0|1:0,0:0:0:0:
353,149,68261,2,0,L|345:200,1,28,0|0,1:0|1:0,0:0:0:0:
276,280,68418,1,0,1:0:0:0:
250,291,68496,1,0,1:0:0:0:
223,293,68574,1,0,1:0:0:0:
197,283,68652,1,0,1:0:0:0:
176,264,68730,1,0,1:0:0:0:
165,239,68808,1,0,1:0:0:0:
165,211,68886,2,0,P|117:190|90:185,1,56,2|0,1:2|0:0,0:0:0:0:
113,189,69980,1,4,0:0:0:0:
84,219,70293,6,0,L|65:78,1,105.000004005432,6|0,1:2|0:0,0:0:0:0:
0,239,70605,1,10,0:0:0:0:
88,333,70761,2,0,P|163:353|209:355,1,105.000004005432,2|0,0:0|1:0,0:0:0:0:
289,346,71074,1,0,0:0:0:0:
367,232,71230,1,10,0:0:0:0:
367,232,71386,1,0,0:0:0:0:
498,341,71543,6,0,P|469:222|456:102,1,210.000008010865,2|8,1:2|0:0,0:0:0:0:
348,247,72011,2,0,P|377:128|390:8,1,210.000008010865,2|0,0:0|0:0,0:0:0:0:
279,111,72480,2,0,P|223:98|175:74,1,105.000004005432,10|0,0:0|0:0,0:0:0:0:
56,12,72793,6,0,P|83:78|112:218,1,210.000008010865,2|8,1:2|0:0,0:0:0:0:
184,353,73261,2,0,P|211:287|240:147,1,210.000008010865,2|0,0:0|0:0,0:0:0:0:
312,12,73730,2,0,P|339:78|368:218,1,210.000008010865,10|2,0:0|1:2,0:0:0:0:
441,103,74199,1,0,0:0:0:0:
287,45,74355,1,10,0:0:0:0:
410,5,74511,1,0,0:0:0:0:
460,137,74668,6,0,L|451:269,1,105.000004005432,2|0,1:2|0:0,0:0:0:0:
349,336,74980,2,0,L|358:204,1,105.000004005432,10|0,0:0|0:0,0:0:0:0:
363,86,75293,6,0,P|296:48|241:160,1,210.000008010865,6|8,1:2|0:0,0:0:0:0:
192,263,75761,2,0,P|128:240|75:247,1,105.000004005432,2|0,0:0|1:0,0:0:0:0:
122,354,76074,1,0,0:0:0:0:
234,334,76230,2,0,P|303:327|361:325,1,105.000004005432,10|0,0:0|0:0,0:0:0:0:
482,337,76543,6,0,P|497:230|478:98,1,210.000008010865,2|8,1:2|0:0,0:0:0:0:
363,35,77011,2,0,P|348:142|367:274,1,210.000008010865,2|0,0:0|0:0,0:0:0:0:
397,336,77480,1,10,0:0:0:0:
465,227,77636,1,0,0:0:0:0:
316,157,77793,6,0,P|233:145|85:118,1,210.000008010865,2|8,1:2|0:0,0:0:0:0:
12,231,78261,2,0,P|95:219|243:192,1,210.000008010865,2|0,0:0|0:0,0:0:0:0:
365,142,78730,2,0,P|380:245|399:349,1,210.000008010865,10|0,0:0|1:0,0:0:0:0:
479,266,79199,5,2,0:0:0:0:
332,217,79355,1,10,0:0:0:0:
493,138,79511,1,2,0:0:0:0:
386,280,79667,5,2,1:2:0:0:
363,93,79824,1,0,0:0:0:0:
487,202,79980,1,10,0:0:0:0:
297,305,80136,1,0,0:0:0:0:
84,194,80293,6,0,P|185:178|325:178,1,210.000008010865,6|8,1:2|0:0,0:0:0:0:
432,193,80761,2,0,P|471:124|397:16,1,210.000008010865,2|0,0:0|0:0,0:0:0:0:
269,94,81230,2,0,L|373:113,1,105.000004005432,8|0,0:0|0:0,0:0:0:0:
512,144,81543,2,0,P|479:223|455:367,1,210.000008010865,2|8,1:2|0:0,0:0:0:0:
349,384,82011,2,0,P|316:305|292:161,1,210.000008010865,2|0,0:0|0:0,0:0:0:0:
301,69,82480,1,8,0:0:0:0:
301,69,82636,1,0,0:0:0:0:
70,113,82793,6,0,L|111:329,1,210.000008010865,2|8,1:2|0:0,0:0:0:0:
219,350,83261,2,0,L|260:134,1,210.000008010865,2|0,0:0|0:0,0:0:0:0:
283,28,83730,2,0,P|357:15|414:133,1,210.000008010865,10|2,0:0|1:2,0:0:0:0:
486,16,84199,1,0,0:0:0:0:
512,203,84355,1,10,0:0:0:0:
396,146,84511,1,0,0:0:0:0:
356,307,84668,6,0,P|289:318|284:183,1,210.000008010865,2|10,1:2|0:0,0:0:0:0:
315,122,85136,1,0,0:0:0:0:
122,0,85293,6,0,P|146:91|165:216,1,210.000008010865,6|8,1:2|0:0,0:0:0:0:
150,348,85761,2,0,P|252:322|356:307,1,210.000008010865,2|0,0:0|0:0,0:0:0:0:
478,309,86230,1,10,0:0:0:0:
442,172,86386,1,0,0:0:0:0:
267,238,86543,6,0,L|274:109,1,105.000004005432,6|0,1:2|0:0,0:0:0:0:
186,7,86855,2,0,P|185:70|204:120,1,105.000004005432,10|0,0:0|0:0,0:0:0:0:
346,109,87168,2,0,P|361:59|359:7,1,105.000004005432,2|0,1:2|0:0,0:0:0:0:
259,157,87480,1,10,0:0:0:0:
382,121,87636,1,0,0:0:0:0:
434,275,87793,6,0,L|300:301,1,105.000004005432,6|2,1:2|1:2,0:0:0:0:
330,295,88027,1,2,1:2:0:0:
330,295,88105,1,10,1:2:0:0:
78,275,88261,2,0,L|212:301,1,105.000004005432,6|2,1:2|1:2,0:0:0:0:
181,295,88495,1,2,1:2:0:0:
181,295,88573,1,2,1:2:0:0:
270,193,88730,1,10,1:2:0:0:
408,366,88886,1,6,1:2:0:0:
408,366,89199,6,0,L|396:290,1,52.5000020027161,8|8,1:2|0:0,0:0:0:0:
428,273,89355,2,0,L|419:221,3,52.5000020027161,8|8|8|8,1:2|0:0|0:0|0:0,0:0:0:0:
448,180,89668,1,8,1:2:0:0:
314,44,89980,6,2,P|243:57|247:129,1,157.500006008148,2|0,0:0|0:0,0:1:0:0:
278,171,90293,6,0,L|153:159,1,105.000004005432,4|0,1:0|0:0,0:0:0:0:
245,268,90605,2,0,L|370:256,1,105.000004005432,8|0,0:0|0:0,0:0:0:0:
136,148,90918,5,0,1:0:0:0:
218,295,91074,1,0,0:0:0:0:
247,129,91230,5,8,0:0:0:0:
128,291,91386,1,0,0:0:0:0:
111,163,91543,6,0,P|84:93|58:56,1,105.000004005432,0|0,1:0|0:0,0:0:0:0:
203,223,91855,2,0,P|220:174|247:129,1,105.000004005432,8|0,0:0|0:0,0:0:0:0:
327,48,92168,5,0,1:0:0:0:
404,188,92324,1,0,0:0:0:0:
440,49,92480,5,8,0:0:0:0:
319,201,92636,1,0,0:0:0:0:
181,66,92793,6,0,L|198:240,1,175,4|0,1:2|0:0,0:0:0:0:
209,340,93261,1,4,1:2:0:0:
209,340,93574,2,0,L|302:334,1,87.5,4|0,1:2|0:0,0:0:0:0:
413,327,93886,1,4,1:0:0:0:
350,184,94199,1,0,0:0:0:0:
350,184,94355,6,0,L|257:178,2,87.5,12|0|0,0:0|0:0|1:0,0:0:0:0:
468,193,94824,1,0,0:0:0:0:
384,285,94980,1,8,0:0:0:0:
246,209,95136,1,0,0:0:0:0:
133,341,95293,6,0,P|67:327|83:212,1,175,4|8,1:0|0:0,0:0:0:0:
133,147,95761,1,0,0:0:0:0:
253,245,95918,2,0,L|238:134,1,87.5,0|0,1:0|0:0,0:0:0:0:
395,93,96230,2,0,L|384:180,1,87.5,8|0,0:0|0:0,0:0:0:0:
478,243,96543,6,0,P|406:292|306:264,1,175,0|8,1:0|0:0,0:0:0:0:
220,192,97011,1,0,0:0:0:0:
220,192,97168,2,0,L|113:187,1,87.5,0|0,1:0|0:0,0:0:0:0:
18,178,97480,1,8,0:0:0:0:
88,86,97636,1,0,0:0:0:0:
244,217,97793,6,0,P|269:149|285:24,1,175,0|8,1:0|0:0,0:0:0:0:
402,137,98261,1,0,0:0:0:0:
402,137,98418,2,0,L|528:118,1,87.5,0|0,1:0|0:0,0:0:0:0:
512,250,98730,2,0,P|462:243|417:220,1,87.5,8|0,0:0|0:0,0:0:0:0:
313,160,99043,6,0,L|333:367,1,175,4|0,1:2|0:0,0:0:0:0:
214,282,99511,2,0,L|220:201,2,43.75,4|0|0,1:2|0:0|0:0,0:0:0:0:
205,384,99824,1,4,1:2:0:0:
150,148,100136,1,4,1:2:0:0:
150,148,100293,6,0,P|197:137|237:119,1,70,6|0,1:2|0:0,0:0:0:0:
306,71,100605,1,2,1:2:0:0:
356,187,100761,1,2,0:0:0:0:
475,123,100918,1,2,1:2:0:0:
475,123,101074,6,0,L|486:287,1,140,2|0,0:0|0:0,0:0:0:0:
434,349,101543,2,0,P|392:345|355:333,1,70,2|0,1:2|0:0,0:0:0:0:
270,277,101855,1,2,1:2:0:0:
270,277,102011,2,0,P|310:265|345:247,1,70,2|0,0:0|1:0,0:0:0:0:
412,189,102324,2,0,L|414:103,2,70,2|0|2,0:0|1:0|0:0,0:0:0:0:
455,288,102793,6,0,P|503:250|511:230,1,70,2|0,1:2|0:0,0:0:0:0:
412,189,103105,1,2,1:2:0:0:
465,100,103261,2,0,P|429:78|396:69,1,70,2|0,0:0|1:0,0:0:0:0:
319,126,103574,2,0,P|283:148|250:157,1,70,2|0,0:0|1:0,0:0:0:0:
154,131,103886,6,0,L|152:212,2,70,2|2|0,0:0|1:2|0:0,0:0:0:0:
158,31,104355,1,2,1:2:0:0:
158,31,104511,1,0,0:0:0:0:
53,78,104668,1,2,1:2:0:0:
53,78,104824,1,2,0:0:0:0:
25,188,104980,2,0,L|37:262,1,70,2|0,1:2|0:0,0:0:0:0:
55,363,105293,6,0,P|107:354|131:342,1,70,2|0,1:2|0:0,0:0:0:0:
199,285,105605,1,2,1:2:0:0:
199,285,105761,1,2,0:0:0:0:
308,347,105918,2,0,P|330:299|334:272,1,70,2|0,1:2|0:0,0:0:0:0:
326,184,106230,1,2,1:2:0:0:
326,184,106386,1,2,0:0:0:0:
209,175,106543,6,0,L|121:170,1,70,2|0,1:2|0:0,0:0:0:0:
26,165,106855,1,2,1:2:0:0:
105,81,107011,2,0,P|149:64|183:57,1,70,2|0,0:0|1:0,0:0:0:0:
251,0,107324,2,0,P|294:19|323:38,1,70,2|0,0:0|1:0,0:0:0:0:
387,122,107636,1,2,0:0:0:0:
312,261,107793,6,0,L|170:252,1,140,6|0,1:2|0:0,0:0:0:0:
62,242,108261,2,0,P|49:204|45:158,1,70,2|0,1:2|1:0,0:0:0:0:
0,85,108574,2,0,P|17:48|47:13,1,70,2|0,1:2|1:0,0:0:0:0:
118,128,108886,1,6,1:2:0:0:
118,128,109199,5,0,1:0:0:0:
203,116,109355,1,0,1:0:0:0:
288,105,109511,1,0,1:0:0:0:
373,94,109668,1,0,1:0:0:0:
469,87,109824,1,0,1:0:0:0:
469,87,109902,1,0,1:0:0:0:
469,87,109980,1,0,1:0:0:0:
436,205,110136,2,0,L|439:232,2,23.3333333333333,0|0|0,1:0|1:0|1:0,0:0:0:0:
439,160,110293,6,0,P|395:160|325:194,1,105,4|0,1:0|0:0,0:0:0:0:
299,218,110605,2,0,P|246:213|205:202,1,70,2|0,1:2|0:0,0:0:0:0:
130,129,110918,2,0,P|77:134|36:145,1,70,2|0,0:0|0:0,0:0:0:0:
173,53,111230,1,2,1:2:0:0:
229,209,111386,1,2,0:0:0:0:
293,117,111543,6,0,P|338:104|421:177,1,140,2|0,0:0|1:0,0:0:0:0:
464,269,112011,2,0,L|385:264,1,70,2|0,0:0|0:0,0:0:0:0:
295,320,112324,2,0,L|216:325,1,70,2|0,0:0|1:0,0:0:0:0:
97,337,112636,1,2,0:0:0:0:
97,337,112714,1,2,0:0:0:0:
97,337,112793,6,0,B|61:205|137:268|102:125,1,210.000008010865,6|0,1:2|0:0,0:0:0:0:
86,25,113261,2,0,P|151:13|192:14,1,105.000004005432,6|0,1:2|0:0,0:0:0:0:
290,153,113574,2,0,P|225:165|184:164,1,105.000004005432,6|0,1:2|0:0,0:0:0:0:
376,79,113886,6,0,P|403:157|311:266,1,210.000008010865,4|0,1:0|1:0,0:0:0:0:
226,249,114355,1,2,1:2:0:0:
292,117,114511,1,2,0:0:0:0:
214,56,114668,2,0,P|155:37|106:29,1,105.000004005432,2|0,0:0|1:0,0:0:0:0:
77,50,114902,1,0,1:0:0:0:
77,50,114980,2,0,L|99:172,1,105.000004005432,0|0,1:0|1:0,0:0:0:0:
117,276,115293,6,0,P|175:282|227:211,1,131.25,4|0,1:0|0:0,0:0:0:0:
238,181,115605,2,0,L|357:170,1,87.5,2|2,1:2|0:0,0:0:0:0:
448,161,115918,1,0,0:0:0:0:
387,274,116074,1,2,0:0:0:0:
297,92,116230,1,2,1:2:0:0:
297,92,116386,1,0,0:0:0:0:
187,171,116543,6,0,P|167:121|163:58,1,87.5,2|0,0:0|0:0,0:0:0:0:
103,225,116855,1,2,1:2:0:0:
253,315,117011,2,0,L|261:217,1,87.5,2|0,0:0|0:0,0:0:0:0:
374,334,117324,2,0,L|366:236,1,87.5,2|0,0:0|1:0,0:0:0:0:
359,143,117636,1,2,0:0:0:0:
501,146,117793,6,0,P|469:54|374:2,1,210.000008010865,6|0,1:2|0:0,0:0:0:0:
242,114,118261,2,0,B|205:156|205:156|359:143,1,210.000008010865,6|0,1:2|1:0,0:0:0:0:
501,127,118730,1,2,0:0:0:0:
350,4,118886,1,4,1:0:0:0:
350,4,119199,6,0,L|359:117,2,105.000004005432,2|2|2,1:2|1:2|1:2,0:0:0:0:
286,190,119668,6,0,P|240:169|205:160,2,70.0000026702882,8|8|8,0:3|0:3|0:3,0:0:0:0:
354,251,119980,6,0,P|400:230|435:221,2,70.0000026702882,4|4|4,0:3|0:3|0:3,0:0:0:0:
272,333,120293,6,0,L|145:323,2,112,6|0|8,0:0|1:0|0:0,0:0:0:0:
435,346,121230,1,0,0:0:0:0:
387,259,121386,1,0,1:0:0:0:
426,139,121543,1,2,0:0:0:0:
426,139,121699,6,0,L|301:127,1,112,0|0,1:0|0:0,0:0:0:0:
208,117,122168,1,8,0:0:0:0:
68,259,122480,5,0,0:0:0:0:
153,300,122636,1,0,0:0:0:0:
229,243,122793,2,0,L|363:249,2,112,2|0|8,1:2|1:0|0:0,0:0:0:0:
103,97,123730,5,0,0:0:0:0:
201,48,123886,1,0,1:0:0:0:
314,128,124043,1,2,0:0:0:0:
314,128,124355,2,0,L|309:1,2,112,0|8|0,1:0|0:0|0:0,0:0:0:0:
317,253,125293,5,2,1:2:0:0:
207,316,125605,1,0,1:0:0:0:
45,267,125918,2,0,L|56:394,1,112,8|0,0:0|0:0,0:0:0:0:
135,271,126386,1,0,1:0:0:0:
97,151,126543,5,2,0:0:0:0:
97,151,126699,2,0,P|146:171|228:164,1,112,0|0,1:0|0:0,0:0:0:0:
298,144,127168,2,0,L|306:226,1,56,8|0,0:0|0:0,0:0:0:0:
315,311,127480,1,0,0:0:0:0:
315,311,127793,6,0,L|303:199,1,112,2|0,1:2|1:0,0:0:0:0:
282,85,128261,2,0,L|180:169,1,112,0|0,0:0|0:0,0:0:0:0:
112,243,128730,2,0,L|238:281,1,112,0|2,0:0|0:0,0:0:0:0:
351,317,129355,5,0,1:0:0:0:
351,317,129668,2,0,L|344:391,2,56,8|8|4,0:0|0:3|0:3,0:0:0:0:
397,221,130136,1,4,0:3:0:0:
277,140,130293,6,0,L|268:19,2,112,6|0|8,0:0|1:0|0:0,0:0:0:0:
284,250,131230,1,0,0:0:0:0:
198,301,131386,1,0,1:0:0:0:
72,235,131543,1,2,0:0:0:0:
72,235,131699,6,0,P|55:181|49:125,1,112,0|0,1:0|0:0,0:0:0:0:
58,27,132168,1,8,0:0:0:0:
195,152,132480,5,0,0:0:0:0:
282,196,132636,1,0,0:0:0:0:
372,155,132793,2,0,L|361:27,2,112,2|0|8,1:2|1:0|0:0,0:0:0:0:
391,306,133730,2,0,L|314:298,1,56,0|0,0:0|1:0,0:0:0:0:
236,291,134043,1,2,0:0:0:0:
195,152,134355,2,0,P|212:113|213:27,2,112,0|8|0,1:0|0:0|0:0,0:0:0:0:
97,279,135293,6,0,L|173:282,1,56,6|0,1:2|0:0,0:0:0:0:
261,189,135605,2,0,L|205:186,1,56,2|0,0:0|0:0,0:0:0:0:
335,296,135918,2,0,L|411:299,1,56,2|0,0:0|0:0,0:0:0:0:
512,192,136230,2,0,L|456:189,1,56,2|0,0:0|0:0,0:0:0:0:
311,184,136543,5,6,0:0:0:0:
367,55,136699,1,0,0:0:0:0:
464,229,136855,5,2,0:0:0:0:
407,43,137011,1,0,0:0:0:0:
512,111,137168,5,2,0:0:0:0:
334,93,137324,1,0,0:0:0:0:
497,26,137480,5,2,0:0:0:0:
295,208,137636,1,0,0:0:0:0:
238,33,137793,5,6,1:2:0:0:
238,33,137871,1,0,1:0:0:0:
238,33,137949,2,0,L|246:84,1,28,0|0,1:0|1:0,0:0:0:0:
186,176,138105,2,0,L|178:125,1,28,0|0,1:0|1:0,0:0:0:0:
101,63,138261,2,0,L|93:114,1,28,0|0,1:0|1:0,0:0:0:0:
70,259,138418,1,0,1:0:0:0:
95,248,138496,1,0,1:0:0:0:
123,244,138574,1,0,1:0:0:0:
151,247,138652,1,0,1:0:0:0:
177,257,138730,1,0,1:0:0:0:
201,272,138808,1,0,1:0:0:0:
219,293,138886,2,0,P|239:340|244:368,1,56,2|0,1:2|0:0,0:0:0:0:
240,345,139980,1,4,0:0:0:0:
269,375,140293,6,0,L|288:234,1,105.000004005432,6|0,1:2|0:0,0:0:0:0:
295,156,140605,1,10,0:0:0:0:
421,213,140761,2,0,P|448:124|502:-2,1,210.000008010865,2|0,0:0|0:0,0:0:0:0:
408,95,141230,1,10,0:0:0:0:
320,0,141386,1,0,0:0:0:0:
206,125,141543,6,0,L|181:11,1,105.000004005432,2|0,1:2|0:0,0:0:0:0:
114,168,141855,1,8,0:0:0:0:
279,266,142011,2,0,L|304:152,1,105.000004005432,2|0,0:0|1:0,0:0:0:0:
371,309,142323,1,0,0:0:0:0:
459,228,142480,2,0,P|482:174|485:105,1,105.000004005432,10|0,0:0|0:0,0:0:0:0:
345,14,142793,6,0,L|362:228,1,210.000008010865,2|8,1:2|0:0,0:0:0:0:
371,336,143261,2,0,B|239:380|291:269|132:334,1,210.000008010865,2|0,0:0|0:0,0:0:0:0:
64,358,143730,2,0,P|22:303|1:245,1,105.000004005432,10|0,0:0|0:0,0:0:0:0:
166,345,144043,5,2,1:2:0:0:
191,201,144199,1,0,0:0:0:0:
281,362,144355,1,10,0:0:0:0:
281,362,144511,1,0,0:0:0:0:
351,254,144668,2,0,L|334:136,1,105.000004005432,2|0,1:2|0:0,0:0:0:0:
462,285,144980,2,0,L|479:167,1,105.000004005432,10|0,0:0|0:0,0:0:0:0:
498,46,145293,6,0,P|438:67|279:31,1,210.000008010865,6|8,1:2|0:0,0:0:0:0:
336,150,145761,2,0,P|276:129|117:165,1,210.000008010865,2|0,0:0|0:0,0:0:0:0:
49,226,146230,1,10,0:0:0:0:
124,120,146386,1,0,0:0:0:0:
178,301,146543,6,0,L|395:279,1,210.000008010865,2|8,1:2|0:0,0:0:0:0:
497,270,147011,2,0,P|496:193|414:89,1,210.000008010865,2|0,0:0|0:0,0:0:0:0:
277,71,147480,2,0,P|207:147|195:190,1,105.000004005432,10|0,0:0|0:0,0:0:0:0:
53,93,147793,2,0,P|122:169|123:300,1,210.000008010865,2|8,1:2|0:0,0:0:0:0:
96,374,148261,2,0,L|238:362,1,105.000004005432,2|0,0:0|1:0,0:0:0:0:
301,357,148574,1,0,0:0:0:0:
397,217,148730,2,0,P|326:249|225:168,1,210.000008010865,10|0,0:0|1:0,0:0:0:0:
206,66,149199,5,2,0:0:0:0:
148,182,149355,1,10,0:0:0:0:
92,32,149511,1,2,0:0:0:0:
40,165,149668,5,2,1:2:0:0:
177,121,149824,1,0,0:0:0:0:
231,260,149980,1,10,0:0:0:0:
381,211,150136,1,0,0:0:0:0:
271,364,150293,6,0,P|256:256|209:138,1,210.000008010865,6|8,1:2|0:0,0:0:0:0:
103,276,150761,2,0,P|118:168|165:50,1,210.000008010865,2|0,0:0|0:0,0:0:0:0:
18,0,151230,2,0,P|33:69|38:118,1,105.000004005432,10|0,0:0|0:0,0:0:0:0:
7,228,151543,6,0,L|144:203,1,105.000004005432,2|0,1:2|0:0,0:0:0:0:
223,192,151855,1,8,0:0:0:0:
88,321,152011,2,0,L|225:346,1,105.000004005432,2|0,0:0|1:0,0:0:0:0:
304,357,152323,1,0,0:0:0:0:
321,242,152480,2,0,P|313:179|290:98,1,105.000004005432,10|0,0:0|0:0,0:0:0:0:
256,22,152793,6,0,P|346:25|491:63,1,210.000008010865,2|8,1:2|0:0,0:0:0:0:
437,181,153261,2,0,P|347:178|202:140,1,210.000008010865,2|0,0:0|0:0,0:0:0:0:
107,117,153730,2,0,P|139:183|154:232,1,105.000004005432,10|0,0:0|0:0,0:0:0:0:
159,343,154043,5,2,1:2:0:0:
49,267,154199,1,0,0:0:0:0:
242,206,154355,1,10,0:0:0:0:
242,206,154511,1,0,0:0:0:0:
319,369,154668,6,0,P|326:299|349:222,1,105.000004005432,2|0,1:2|0:0,0:0:0:0:
437,164,154980,2,0,P|447:215|451:267,1,105.000004005432,10|0,0:0|0:0,0:0:0:0:
319,369,155293,6,0,B|282:326|282:326|116:301,1,210.000008010865,6|8,1:2|0:0,0:0:0:0:
0,357,155761,2,0,B|43:320|43:320|68:154,1,210.000008010865,2|0,0:0|0:0,0:0:0:0:
80,54,156230,1,10,0:0:0:0:
80,54,156386,1,0,0:0:0:0:
250,11,156543,6,0,P|229:84|219:148,1,105.000004005432,6|0,1:2|0:0,0:0:0:0:
195,224,156855,2,0,L|324:207,1,105.000004005432,10|0,0:0|0:0,0:0:0:0:
413,110,157168,2,0,L|284:127,1,105.000004005432,2|0,1:2|0:0,0:0:0:0:
180,250,157480,1,10,0:0:0:0:
114,136,157636,1,0,0:0:0:0:
169,0,157793,6,0,L|203:99,1,105.000004005432,6|2,1:2|1:2,0:0:0:0:
203,99,158027,1,2,1:2:0:0:
203,99,158105,1,10,1:2:0:0:
343,0,158261,2,0,L|308:99,1,105.000004005432,6|2,1:2|1:2,0:0:0:0:
308,98,158496,1,2,1:2:0:0:
308,98,158573,1,2,1:2:0:0:
263,223,158730,1,10,1:2:0:0:
400,333,158886,1,6,1:2:0:0:
400,333,159199,6,0,L|388:257,1,52.5000020027161,8|8,1:2|0:0,0:0:0:0:
420,240,159355,2,0,L|411:188,3,52.5000020027161,8|8|8|8,1:2|0:0|0:0|0:0,0:0:0:0:
440,147,159668,1,8,1:2:0:0:
314,44,159824,1,2,0:0:0:0:
314,44,159980,6,2,P|243:57|247:129,1,157.500006008148,2|0,0:0|0:0,0:1:0:0:
278,171,160293,6,0,P|220:168|149:160,1,112,6|8,1:2|0:0,0:0:0:0:
98,289,160918,2,0,P|155:286|227:278,1,112,2|8,1:2|0:0,0:0:0:0:
367,251,161543,6,0,P|354:195|333:125,1,112,2|10,1:2|0:0,0:0:0:0:
212,213,162011,1,2,0:0:0:0:
212,213,162168,2,0,P|224:157|245:87,1,112,2|8,1:2|0:0,0:0:0:0:
284,12,162636,1,2,0:0:0:0:
284,12,162793,6,0,P|341:9|413:1,1,112,2|8,1:2|0:0,0:0:0:0:
474,122,163261,2,0,P|417:119|345:111,2,112,2|2|0,0:0|0:0|0:0,0:0:0:0:
409,234,164043,5,2,1:2:0:0:
464,95,164355,1,8,0:0:0:0:
394,260,164668,5,2,1:2:0:0:
479,69,164980,1,8,0:0:0:0:
510,340,165293,6,0,P|447:313|344:311,1,168,6|0,1:2|0:0,0:0:0:0:
256,345,165918,2,0,L|259:289,2,56,2|2|10,1:2|0:0|0:0,0:0:0:0:
157,289,166386,2,0,L|153:233,1,56,2|0,0:0|1:0,0:0:0:0:
144,138,166699,1,2,0:0:0:0:
257,152,166855,1,10,0:0:0:0:
375,88,167011,2,0,P|266:57|158:9,1,224,2|0,0:0|0:0,0:0:0:0:
260,181,167793,5,6,1:2:0:0:
374,54,168105,1,8,0:0:0:0:
239,205,168418,5,6,1:2:0:0:
395,30,168730,1,8,0:0:0:0:
416,6,169043,6,0,P|430:51|433:82,1,70,6|0,1:2|0:0,0:0:0:0:
379,159,169355,2,0,P|365:204|362:235,1,70,10|0,1:2|0:0,0:0:0:0:
394,337,169668,1,6,1:2:0:0:
207,269,169824,1,0,1:0:0:0:
207,269,169902,1,0,1:0:0:0:
207,269,169980,1,0,1:0:0:0:
207,269,170058,1,0,1:0:0:0:
207,269,170136,1,0,1:0:0:0:
207,269,170214,1,0,1:0:0:0:
207,269,170293,6,0,B|113:237|140:309|32:275,1,175,6|8,1:2|0:0,0:0:0:0:
169,361,170761,1,2,0:0:0:0:
292,214,170918,2,0,P|304:281|338:364,2,131.25,2|2|2,1:2|0:0|0:0,0:0:0:0:
450,127,171543,2,0,L|437:326,1,175,2|8,1:2|0:0,0:0:0:0:
340,104,172011,2,0,P|366:50|488:20,1,175,2|0,0:0|0:0,0:0:0:0:
450,127,172480,1,10,0:0:0:0:
318,83,172636,1,0,0:0:0:0:
249,221,172793,6,0,B|187:227|187:227|160:196|160:196|69:203,1,175,2|8,1:2|0:0,0:0:0:0:
116,315,173261,1,2,0:0:0:0:
272,219,173418,2,0,P|263:129|245:67,2,131.25,2|2|2,1:2|0:0|0:0,0:0:0:0:
262,349,174043,2,0,P|311:317|459:319,1,175,2|10,1:2|0:0,0:0:0:0:
434,176,174511,5,2,0:0:0:0:
434,176,174589,1,2,0:0:0:0:
434,176,174668,2,0,P|358:218|272:219,1,175,2|8,1:2|0:0,0:0:0:0:
163,185,175136,1,0,0:0:0:0:
47,312,175293,6,0,P|29:227|15:98,1,175,6|8,1:2|0:0,0:0:0:0:
26,39,175761,1,0,0:0:0:0:
165,6,175918,2,0,P|218:30|251:57,1,87.5,2|0,1:2|0:0,0:0:0:0:
289,59,176152,2,0,P|309:113|313:155,1,87.5,2|0,0:0|0:0,0:0:0:0:
296,200,176386,1,2,0:0:0:0:
182,336,176543,6,0,B|229:322|229:322|268:281,1,87.5,6|0,1:2|0:0,0:0:0:0:
306,283,176777,2,0,B|329:239|329:239|327:183,1,87.5,2|0,0:0|0:0,0:0:0:0:
313,142,177011,1,2,0:0:0:0:
276,18,177168,2,0,B|340:11|340:11|368:44|368:44|464:39,1,175,2|8,1:2|0:0,0:0:0:0:
300,116,177636,1,0,0:0:0:0:
386,214,177793,6,0,P|362:272|338:296,1,87.5,6|2,1:2|1:2,0:0:0:0:
345,289,178027,1,2,1:2:0:0:
345,289,178105,1,10,1:2:0:0:
126,214,178261,2,0,P|150:272|174:296,1,87.5,6|2,1:2|1:2,0:0:0:0:
166,289,178495,1,2,1:2:0:0:
166,289,178573,1,2,1:2:0:0:
256,192,178730,1,10,1:2:0:0:
384,320,178886,1,6,1:2:0:0:
384,320,179199,6,0,L|373:247,1,43.75,8|8,1:2|0:0,0:0:0:0:
404,227,179355,2,0,L|393:154,3,43.75,8|8|8|8,1:2|0:0|0:0|0:0,0:0:0:0:
424,134,179668,1,8,1:2:0:0:
314,44,179980,6,2,P|243:57|245:125,1,131.25,2|0,0:0|0:0,0:1:0:0:
251,157,180293,5,6,1:2:0:0:
434,260,180605,2,0,P|444:204|449:149,2,112,2|2|2,0:0|1:2|0:0,0:0:0:0:
264,203,181543,2,0,P|208:193|153:188,1,112,2|0,0:0|0:0,0:0:0:0:
137,281,182011,2,0,P|193:291|248:296,1,112,2|0,0:0|0:0,0:0:0:0:
348,286,182480,1,0,0:0:0:0:
419,208,182636,1,2,0:0:0:0:
419,208,182714,1,2,0:0:0:0:
419,208,182793,6,0,L|412:138,1,56,2|0,0:0|0:0,0:0:0:0:
405,40,183105,2,0,P|442:63|497:110,2,112,2|0|2,0:0|1:0|0:0,0:0:0:0:
257,94,184043,2,0,P|236:146|224:200,1,112,2|2,0:0|0:0,0:0:0:0:
205,300,184511,2,0,P|257:320|311:332,2,112,2|2|2,0:0|0:0|0:0,0:0:0:0:
134,212,185293,6,0,P|81:191|27:179,1,112,2|0,0:0|0:0,0:0:0:0:
241,84,185918,2,0,P|188:104|134:116,1,112,2|0,1:2|0:0,0:0:0:0:
35,102,186386,1,0,0:0:0:0:
35,102,186543,2,0,L|23:37,1,56,2|0,0:0|0:0,0:0:0:0:
134,116,186855,2,0,L|146:51,1,56,0|0,0:0|0:0,0:0:0:0:
242,0,187168,2,0,P|262:52|274:106,1,112,2|0,1:2|0:0,0:0:0:0:
298,220,187636,1,2,0:0:0:0:
298,220,187714,1,2,0:0:0:0:
298,220,187793,6,0,P|344:184|410:148,1,112,2|2,0:0|0:0,0:0:0:0:
483,123,188261,1,0,0:0:0:0:
483,123,188418,2,0,P|490:173|486:200,1,56,2|0,1:2|0:0,0:0:0:0:
447,268,188730,2,0,P|447:295|453:323,1,56,0|0,0:0|0:0,0:0:0:0:
365,362,189043,5,8,0:3:0:0:
365,362,189199,1,8,0:3:0:0:
269,327,189355,1,8,0:3:0:0:
269,327,189511,1,8,0:3:0:0:
199,382,189668,1,4,1:3:0:0:
199,382,189824,1,4,0:3:0:0:
130,337,189980,1,4,0:3:0:0:
130,337,190136,1,4,0:3:0:0:
20,382,190293,6,0,L|2:218,1,140,6|2,0:0|0:0,0:0:0:0:
38,148,190761,1,2,0:0:0:0:
38,148,190918,2,0,P|87:133|112:133,1,70,2|0,1:2|0:0,0:0:0:0:
203,216,191230,2,0,P|154:231|129:231,1,70,2|0,0:0|0:0,0:0:0:0:
245,139,191543,2,0,P|224:79|222:-7,1,140,2|0,0:0|0:0,0:0:0:0:
360,45,192011,2,0,P|357:114|335:180,1,140,2|0,0:0|0:0,0:0:0:0:
264,250,192480,1,2,0:0:0:0:
145,214,192636,1,2,0:0:0:0:
145,214,192714,1,2,0:0:0:0:
145,214,192793,6,0,P|129:285|115:364,1,140,2|2,0:0|0:0,0:0:0:0:
39,271,193261,1,2,0:0:0:0:
39,271,193418,2,0,P|24:190|1:124,1,140,2|2,1:2|0:0,0:0:0:0:
116,170,193886,1,2,0:0:0:0:
116,170,194043,6,0,L|212:154,1,70,2|0,0:0|0:0,0:0:0:0:
292,240,194355,1,2,0:0:0:0:
292,240,194512,2,0,L|196:256,1,70,0|0,0:0|1:2,0:0:0:0:
111,271,194824,1,2,0:0:0:0:
162,181,194980,1,0,0:0:0:0:
105,75,195136,1,2,0:0:0:0:
105,75,195214,1,2,0:0:0:0:
105,75,195293,6,0,P|144:68|205:54,1,70,6|0,1:2|0:0,0:0:0:0:
217,166,195605,2,0,P|256:172|317:187,1,70,2|0,0:0|0:0,0:0:0:0:
332,61,195918,6,0,P|371:54|432:40,1,70,2|0,1:2|0:0,0:0:0:0:
444,168,196230,2,0,P|483:174|544:189,1,70,2|0,0:0|0:0,0:0:0:0:
443,305,196543,6,0,P|404:311|343:326,1,70,2|0,1:2|0:0,0:0:0:0:
305,194,196855,2,0,P|266:187|205:173,1,70,2|0,0:0|0:0,0:0:0:0:
185,324,197168,6,0,P|146:330|85:345,1,70,2|0,1:2|0:0,0:0:0:0:
68,179,197480,2,0,P|29:172|-32:158,1,70,2|0,1:2|0:0,0:0:0:0:
145,24,197793,6,0,P|151:63|166:124,1,70,2|0,1:2|0:0,0:0:0:0:
324,0,198105,2,0,P|317:39|303:100,1,70,2|0,1:2|0:0,0:0:0:0:
236,224,198418,5,2,1:2:0:0:
345,255,198574,1,2,1:2:0:0:
446,177,198730,1,2,1:2:0:0:
468,0,198886,1,2,1:2:0:0:
468,0,199980,2,0,L|477:120,1,105,2|0,0:0|0:0,0:0:0:0:
478,155,200293,5,2,0:0:0:0:
481,177,209043,5,2,0:0:0:0:
471,203,209668,1,2,0:0:0:0:
506,313,209980,1,2,0:0:0:0:
506,313,210136,1,2,0:0:0:0:
506,313,210293,6,0,P|460:299|422:295,1,70,6|0,1:2|0:0,0:0:0:0:
330,366,210605,2,0,P|376:380|414:384,1,70,0|0,1:0|0:0,0:0:0:0:
312,271,210918,1,0,1:0:0:0:
312,271,211074,1,0,0:0:0:0:
226,357,211230,1,0,1:0:0:0:
226,357,211386,1,0,0:0:0:0:
131,259,211543,6,0,L|134:162,1,70,6|0,1:2|0:0,0:0:0:0:
236,92,211855,2,0,L|233:189,1,70,0|0,1:0|0:0,0:0:0:0:
233,278,212168,1,0,1:0:0:0:
233,278,212324,1,0,0:0:0:0:
333,270,212480,2,0,L|434:266,1,70,0|0,1:0|0:0,0:0:0:0:
483,159,212793,6,0,P|443:130|411:122,1,70,6|0,1:2|0:0,0:0:0:0:
305,167,213105,1,0,1:0:0:0:
305,167,213261,2,0,P|334:127|342:95,1,70,0|6,0:0|1:2,0:0:0:0:
350,7,213574,1,0,0:0:0:0:
230,45,213730,2,0,L|128:39,1,70,0|0,1:0|0:0,0:0:0:0:
23,32,214043,5,6,1:2:0:0:
23,32,214199,1,0,0:0:0:0:
85,152,214355,1,0,1:0:0:0:
85,152,214511,1,0,0:0:0:0:
14,301,214668,2,0,L|-2:216,1,70,6|0,1:2|0:0,0:0:0:0:
113,313,214980,2,0,L|129:398,1,70,0|0,1:0|0:0,0:0:0:0:
207,224,215293,5,6,1:2:0:0:
302,127,215449,2,0,L|359:122,1,35,0|0,1:0|1:0,0:0:0:0:
321,149,215605,1,2,1:2:0:0:
188,63,215761,2,0,L|131:58,1,35,0|0,1:0|1:0,0:0:0:0:
169,85,215917,1,2,1:2:0:0:
56,176,216074,2,0,L|113:171,1,35,0|0,1:0|1:0,0:0:0:0:
75,198,216230,1,2,1:2:0:0:
202,265,216386,2,0,L|145:260,1,35,0|0,1:0|1:0,0:0:0:0:
183,287,216542,5,6,1:2:0:0:
319,113,216699,2,0,L|376:108,1,35,0|0,1:0|1:0,0:0:0:0:
338,135,216855,1,2,1:2:0:0:
428,343,217011,1,0,1:0:0:0:
428,343,217089,1,0,1:0:0:0:
428,343,217168,6,0,L|421:301,1,35,6|0,1:2|1:0,0:0:0:0:
494,239,217324,2,0,L|501:197,1,35,0|0,1:0|1:0,0:0:0:0:
389,139,217480,1,0,1:0:0:0:
383,104,217558,1,0,1:0:0:0:
377,69,217636,1,0,1:0:0:0:
371,35,217714,1,0,1:0:0:0:
365,0,217792,1,6,1:2:0:0:
365,0,219980,1,4,0:0:0:0:
376,34,220293,6,0,L|149:20,1,210.000008010865,6|10,1:2|0:0,0:0:0:0:
57,114,220761,2,0,P|127:149|248:102,1,210.000008010865,2|0,0:0|0:0,0:0:0:0:
302,25,221230,1,10,0:0:0:0:
374,164,221386,1,0,0:0:0:0:
459,51,221543,6,0,P|402:17|224:9,1,210.000008010865,2|8,1:2|0:0,0:0:0:0:
176,112,222011,2,0,P|233:146|411:154,1,210.000008010865,2|0,0:0|0:0,0:0:0:0:
471,167,222480,2,0,L|435:294,1,105.000004005432,10|0,0:0|0:0,0:0:0:0:
392,365,222793,6,0,B|275:400|318:315|174:352,1,210.000008010865,2|8,1:2|0:0,0:0:0:0:
78,379,223261,2,0,P|31:320|36:165,1,210.000008010865,2|0,0:0|0:0,0:0:0:0:
137,102,223730,2,0,P|184:161|179:316,1,210.000008010865,10|2,0:0|1:2,0:0:0:0:
145,381,224199,1,0,0:0:0:0:
237,214,224355,1,10,0:0:0:0:
314,319,224511,1,0,0:0:0:0:
421,176,224668,6,0,L|279:156,1,105.000004005432,2|0,1:2|0:0,0:0:0:0:
231,281,224980,2,0,L|373:301,1,105.000004005432,10|0,0:0|0:0,0:0:0:0:
176,198,225293,2,0,P|136:252|198:375,1,210.000008010865,6|8,1:2|0:0,0:0:0:0:
362,296,225761,2,0,P|346:238|312:168,1,105.000004005432,2|0,0:0|1:0,0:0:0:0:
267,119,226074,1,0,0:0:0:0:
190,209,226230,1,10,0:0:0:0:
128,60,226386,1,0,0:0:0:0:
43,193,226543,6,0,P|131:186|253:139,1,210.000008010865,2|8,1:2|0:0,0:0:0:0:
347,69,227011,2,0,P|354:157|401:279,1,210.000008010865,2|0,0:0|0:0,0:0:0:0:
468,360,227480,2,0,L|343:353,1,105.000004005432,10|0,0:0|0:0,0:0:0:0:
224,346,227793,2,0,P|259:255|324:147,1,210.000008010865,2|8,1:2|0:0,0:0:0:0:
399,80,228261,2,0,P|434:171|499:279,1,210.000008010865,2|0,0:0|0:0,0:0:0:0:
402,348,228730,2,0,L|169:330,1,210.000008010865,10|0,0:0|1:0,0:0:0:0:
67,321,229199,5,2,0:0:0:0:
179,226,229355,1,10,0:0:0:0:
254,384,229511,1,2,0:0:0:0:
85,241,229668,5,2,1:2:0:0:
277,208,229824,1,0,0:0:0:0:
213,384,229980,1,10,0:0:0:0:
256,176,230136,1,0,0:0:0:0:
391,349,230293,6,0,P|468:301|431:156,1,210.000008010865,6|8,1:2|0:0,0:0:0:0:
363,114,230761,2,0,P|292:105|224:108,1,105.000004005432,2|0,0:0|1:0,0:0:0:0:
166,141,231074,1,0,0:0:0:0:
265,247,231230,2,0,P|194:255|126:252,1,105.000004005432,10|0,0:0|0:0,0:0:0:0:
34,243,231543,6,0,P|60:191|179:89,1,210.000008010865,2|8,1:2|0:0,0:0:0:0:
259,18,232011,2,0,P|342:79|397:168,1,210.000008010865,2|0,0:0|0:0,0:0:0:0:
428,281,232480,2,0,L|309:274,1,105.000004005432,10|0,0:0|0:0,0:0:0:0:
197,268,232793,6,0,L|166:47,1,210.000008010865,2|8,1:2|0:0,0:0:0:0:
90,207,233261,2,0,L|121:-14,1,210.000008010865,2|0,0:0|0:0,0:0:0:0:
235,116,233730,2,0,P|315:115|424:24,1,210.000008010865,10|2,0:0|1:2,0:0:0:0:
441,189,234199,1,0,0:0:0:0:
492,64,234355,1,10,0:0:0:0:
353,137,234511,1,0,0:0:0:0:
511,259,234668,6,0,L|388:244,1,105.000004005432,2|0,1:2|0:0,0:0:0:0:
339,327,234980,2,0,L|216:342,1,105.000004005432,10|0,0:0|0:0,0:0:0:0:
102,358,235293,6,0,P|69:282|-5:146,1,210.000008010865,6|8,1:2|0:0,0:0:0:0:
107,260,235761,2,0,P|140:184|214:48,1,210.000008010865,2|0,0:0|0:0,0:0:0:0:
269,0,236230,1,10,0:0:0:0:
356,98,236386,1,0,0:0:0:0:
501,9,236543,6,0,P|511:75|493:132,1,105.000004005432,6|0,1:2|0:0,0:0:0:0:
427,222,236855,2,0,L|314:212,1,105.000004005432,10|0,0:0|0:0,0:0:0:0:
468,329,237168,2,0,L|355:339,1,105.000004005432,2|0,1:2|0:0,0:0:0:0:
450,188,237480,1,10,0:0:0:0:
450,188,237636,1,0,0:0:0:0:
347,357,237793,6,0,L|310:249,1,105.000004005432,6|2,1:2|1:2,0:0:0:0:
312,257,238027,1,2,1:2:0:0:
312,257,238105,1,10,1:2:0:0:
165,357,238261,2,0,L|202:249,1,105.000004005432,6|2,1:2|1:2,0:0:0:0:
199,257,238495,1,2,1:2:0:0:
199,257,238573,1,2,1:2:0:0:
254,160,238730,1,10,1:2:0:0:
436,228,238886,1,6,1:2:0:0:
436,228,239199,6,0,L|424:152,1,52.5000020027161,8|8,1:2|0:0,0:0:0:0:
456,135,239355,2,0,L|447:83,3,52.5000020027161,8|8|8|8,1:2|0:0|0:0|0:0,0:0:0:0:
476,42,239668,1,8,1:2:0:0:
308,0,239980,6,2,P|237:11|241:84,1,157.500006008148,2|0,0:0|0:0,0:1:0:0:
273,127,240293,6,0,L|148:115,1,105.000004005432,4|0,1:0|0:0,0:0:0:0:
94,237,240605,2,0,L|219:225,1,105.000004005432,8|0,0:0|0:0,0:0:0:0:
324,215,240918,5,0,1:0:0:0:
278,353,241074,1,0,0:0:0:0:
194,276,241230,5,8,0:0:0:0:
372,313,241386,1,0,0:0:0:0:
259,151,241543,6,0,P|287:217|303:277,1,105.000004005432,0|0,1:0|0:0,0:0:0:0:
428,123,241855,2,0,P|400:189|384:249,1,105.000004005432,8|0,0:0|0:0,0:0:0:0:
415,333,242168,5,0,1:0:0:0:
311,214,242324,1,0,0:0:0:0:
462,247,242480,5,8,0:0:0:0:
245,340,242636,1,0,0:0:0:0:
327,188,242793,6,0,L|302:-9,1,175,4|0,1:2|0:0,0:0:0:0:
243,144,243261,1,4,1:2:0:0:
243,144,243574,2,0,L|138:130,1,87.5,4|0,1:2|0:0,0:0:0:0:
8,114,243886,1,4,1:0:0:0:
38,270,244355,6,0,P|85:302|126:316,1,87.5,0|0,1:0|0:0,0:0:0:0:
215,302,244668,2,0,P|171:303|129:294,1,87.5,0|0,1:0|0:0,0:0:0:0:
228,324,244980,2,0,P|270:314|310:294,1,87.5,8|0,0:0|0:0,0:0:0:0:
417,196,245293,6,0,P|312:152|244:88,1,175,4|8,1:0|0:0,0:0:0:0:
211,29,245761,1,0,0:0:0:0:
141,122,245918,2,0,L|28:116,1,87.5,0|0,1:0|0:0,0:0:0:0:
0,231,246230,2,0,L|113:225,1,87.5,8|0,0:0|0:0,0:0:0:0:
211,219,246543,6,0,P|241:283|164:358,1,175,0|8,1:0|0:0,0:0:0:0:
85,248,247011,1,0,0:0:0:0:
85,248,247168,2,0,L|77:160,1,87.5,0|0,1:0|0:0,0:0:0:0:
65,61,247480,1,8,0:0:0:0:
189,99,247636,1,0,0:0:0:0:
162,0,247793,6,0,P|156:79|160:195,1,175,0|8,1:0|0:0,0:0:0:0:
186,275,248261,1,0,0:0:0:0:
186,275,248418,2,0,P|264:250|293:249,1,87.5,0|0,1:0|0:0,0:0:0:0:
421,326,248730,2,0,P|360:270|335:257,1,87.5,8|0,0:0|0:0,0:0:0:0:
215,172,249043,6,0,P|305:151|399:122,1,175,4|0,1:2|0:0,0:0:0:0:
462,42,249511,1,4,1:2:0:0:
483,71,249824,1,4,1:2:0:0:
504,100,250136,1,4,1:2:0:0:
444,247,250293,6,0,P|383:249|321:228,1,105.000004005432,4|0,1:0|0:0,0:0:0:0:
173,149,250605,2,0,P|226:146|277:158,1,105.000004005432,8|0,0:0|0:0,0:0:0:0:
371,225,250918,5,0,1:0:0:0:
303,372,251074,1,0,0:0:0:0:
233,230,251230,5,8,0:0:0:0:
420,349,251386,1,0,0:0:0:0:
319,149,251543,6,0,L|330:280,1,105.000004005432,0|0,1:0|0:0,0:0:0:0:
443,97,251855,2,0,L|432:228,1,105.000004005432,8|0,0:0|0:0,0:0:0:0:
421,316,252168,5,0,1:0:0:0:
337,169,252324,1,0,0:0:0:0:
290,365,252480,5,8,0:0:0:0:
451,227,252636,1,0,0:0:0:0:
385,100,252793,6,0,P|331:57|196:64,1,175,4|0,1:2|0:0,0:0:0:0:
133,86,253261,1,4,1:2:0:0:
133,86,253574,2,0,L|251:72,1,87.5,4|0,1:2|0:0,0:0:0:0:
314,60,253886,1,4,1:0:0:0:
271,260,254199,1,0,0:0:0:0:
271,260,254355,6,0,L|153:246,2,87.5,12|0|0,0:0|0:0|1:0,0:0:0:0:
341,189,254824,1,0,0:0:0:0:
406,281,254980,1,8,0:0:0:0:
471,224,255136,1,0,0:0:0:0:
329,161,255293,6,0,P|359:114|458:16,1,175,4|8,1:0|0:0,0:0:0:0:
506,182,255761,2,0,P|446:174|398:159,1,87.5,0|0,0:0|1:0,0:0:0:0:
309,134,256074,1,0,0:0:0:0:
232,268,256230,2,0,L|344:257,1,87.5,8|0,0:0|0:0,0:0:0:0:
449,250,256543,6,0,P|486:209|475:73,1,175,0|8,1:0|0:0,0:0:0:0:
365,14,257011,1,0,0:0:0:0:
365,14,257168,2,0,L|371:136,1,87.5,0|0,1:0|0:0,0:0:0:0:
379,203,257480,1,8,0:0:0:0:
262,299,257636,1,0,0:0:0:0:
123,183,257793,6,0,L|139:379,1,175,0|8,1:0|0:0,0:0:0:0:
293,276,258261,1,0,0:0:0:0:
293,276,258418,2,0,L|283:149,1,87.5,0|0,1:0|0:0,0:0:0:0:
156,62,258730,2,0,L|166:189,1,87.5,8|0,0:0|0:0,0:0:0:0:
168,285,259043,6,0,P|222:310|344:279,1,175,4|0,1:2|0:0,0:0:0:0:
392,197,259511,2,0,L|388:117,2,43.75,4|0|0,1:2|0:0|0:0,0:0:0:0:
401,330,259824,1,4,1:2:0:0:
146,264,260136,1,4,1:2:0:0:
146,264,260293,6,0,B|241:324|347:254|347:254|270:227,1,280,4|0,0:1|0:0,0:0:0:0:
183,183,261699,5,4,0:3:0:0:
224,91,261855,1,4,0:3:0:0:
361,189,262011,5,4,0:3:0:0:
304,62,262167,1,4,0:3:0:0:
153,161,262324,5,4,0:3:0:0:
341,105,262480,1,4,0:3:0:0:
272,259,262636,5,4,0:3:0:0:
213,22,262793,1,6,1:2:0:0:
213,22,265293,5,2,0:0:0:0:
213,22,267480,5,2,0:0:0:0:
246,202,267793,2,0,L|260:289,1,70,2|0,1:2|0:0,0:0:0:0:
277,384,268105,1,2,0:0:0:0:
277,384,268261,1,2,0:0:0:0:
376,344,268418,2,0,P|422:340|457:348,1,70,2|0,0:0|0:0,0:0:0:0:
358,251,268730,1,2,0:0:0:0:
358,251,268886,1,2,0:0:0:0:
426,158,269043,6,0,P|443:113|444:75,1,70,2|0,1:2|1:0,0:0:0:0:
337,16,269355,1,2,1:2:0:0:
337,16,269511,2,0,L|346:93,1,70,2|2,1:2|1:2,0:0:0:0:
197,1,269824,2,0,L|188:77,1,70,2|2,1:2|1:2,0:0:0:0:
164,197,270136,1,2,1:2:0:0:
1,140,270293,5,2,0:0:0:0:
13,168,270605,5,2,0:0:0:0:
105,125,270761,2,0,P|154:110|178:109,1,70,2|0,0:0|0:0,0:0:0:0:
301,131,271074,1,2,0:0:0:0:
390,3,271386,5,2,0:0:0:0:
