osu file format v14

[General]
AudioFilename: audio.mp3
AudioLeadIn: 0
PreviewTime: 202933
Countdown: 1
SampleSet: Normal
StackLeniency: 0.7
Mode: 1
LetterboxInBreaks: 0
WidescreenStoryboard: 0

[Editor]
Bookmarks: 10,4933,24625,44317,64010,83702,98471,104625,124317,144010,163702,173548,183394,242471,252317,262163,281856
DistanceSpacing: 2.1
BeatDivisor: 4
GridSize: 8
TimelineZoom: 2

[Metadata]
Title:Satisfiction (uncut edition)
TitleUnicode:Satisfiction (uncut edition)
Artist:t+pazolite
ArtistUnicode:t+pazolite
Creator:Nepuri
Version:Oni
Source:GROOVE COASTER
Tags:instrumental electronic chs c.h.s ponko2 girlish comiket 89 c89 rhythmvaders taito gc tpz グルーヴコースター
BeatmapID:1736565
BeatmapSetID:828877

[Difficulty]
HPDrainRate:5
CircleSize:5
OverallDifficulty:6
ApproachRate:5
SliderMultiplier:1.4
SliderTickRate:1

[Events]
//Background and Video events
0,0,"Konachan.com - 267745 chi@ki dress flowers hatsune_miku long_hair polychromatic summer_dress twintails vocaloid.jpg",0,30
//Break Periods
//Storyboard Layer 0 (Background)
//Storyboard Layer 1 (Fail)
//Storyboard Layer 2 (Pass)
//Storyboard Layer 3 (Foreground)
//Storyboard Layer 4 (Overlay)
//Storyboard Sound Samples

[TimingPoints]
10,307.692307692308,4,1,0,100,1,0
104625,-90.9090909090909,4,1,0,100,0,1
144010,-90.9090909090909,4,1,0,100,0,0
144163,-100,4,1,0,100,0,0
202702,-100,4,1,0,100,0,0
203086,-90.9090909090909,4,1,0,100,0,1
242471,-90.9090909090909,4,1,0,100,0,0
242625,-92.5925925925926,4,1,0,100,0,0
242779,-94.3396226415094,4,1,0,100,0,0
242933,-96.1538461538461,4,1,0,100,0,0
243086,-98.0392156862745,4,1,0,100,0,0
243240,-100,4,1,0,100,0,0

[HitObjects]
340,124,10,5,8,0:0:0:0:
220,56,163,1,0,0:0:0:0:
220,56,317,1,0,0:0:0:0:
220,56,471,1,8,0:0:0:0:
60,140,779,1,0,0:0:0:0:
476,104,1240,1,8,0:0:0:0:
368,112,1394,1,8,0:0:0:0:
276,120,1548,1,0,0:0:0:0:
104,136,1702,1,8,0:0:0:0:
328,116,2010,1,0,0:0:0:0:
256,228,2471,1,8,0:0:0:0:
256,228,2625,1,0,0:0:0:0:
256,228,2779,1,0,0:0:0:0:
256,228,2933,1,8,0:0:0:0:
256,228,3240,1,0,0:0:0:0:
256,228,3548,1,8,0:0:0:0:
124,24,3856,1,0,0:0:0:0:
232,188,4010,1,8,0:0:0:0:
232,188,4163,1,0,0:0:0:0:
232,188,4317,1,8,0:0:0:0:
232,188,4625,1,12,0:0:0:0:
136,140,4933,1,4,0:0:0:0:
232,188,5240,1,0,0:0:0:0:
232,188,5394,1,8,0:0:0:0:
232,188,5548,1,0,0:0:0:0:
232,188,5702,1,8,0:0:0:0:
232,188,5856,1,0,0:0:0:0:
232,188,6010,1,8,0:0:0:0:
232,188,6163,1,8,0:0:0:0:
280,220,6240,1,8,0:0:0:0:
320,244,6317,1,0,0:0:0:0:
428,316,6471,1,0,0:0:0:0:
340,256,6625,1,8,0:0:0:0:
368,276,6702,1,0,0:0:0:0:
368,276,6779,1,0,0:0:0:0:
368,276,6933,1,0,0:0:0:0:
368,276,7086,1,8,0:0:0:0:
320,228,7163,1,8,0:0:0:0:
264,180,7240,1,8,0:0:0:0:
368,276,7394,1,8,0:0:0:0:
172,124,7702,1,0,0:0:0:0:
276,204,7856,1,8,0:0:0:0:
228,188,7933,1,8,0:0:0:0:
276,204,8010,1,0,0:0:0:0:
276,204,8163,1,0,0:0:0:0:
276,204,8317,1,8,0:0:0:0:
276,204,8471,1,8,0:0:0:0:
276,204,8625,1,8,0:0:0:0:
356,268,8702,1,0,0:0:0:0:
312,232,8779,1,0,0:0:0:0:
400,304,8933,1,0,0:0:0:0:
340,252,9086,1,8,0:0:0:0:
292,220,9163,1,8,0:0:0:0:
340,252,9240,1,0,0:0:0:0:
248,196,9394,1,0,0:0:0:0:
248,200,9548,1,8,0:0:0:0:
172,148,9625,1,8,0:0:0:0:
168,148,9702,1,8,0:0:0:0:
172,148,9856,1,0,0:0:0:0:
232,188,10163,1,0,0:0:0:0:
232,188,10317,1,8,0:0:0:0:
232,188,10471,1,0,0:0:0:0:
232,188,10625,1,8,0:0:0:0:
232,188,10779,1,0,0:0:0:0:
232,188,10933,1,8,0:0:0:0:
232,188,11086,1,8,0:0:0:0:
280,220,11163,1,8,0:0:0:0:
320,244,11240,1,0,0:0:0:0:
428,316,11394,1,0,0:0:0:0:
340,256,11548,1,8,0:0:0:0:
368,276,11625,1,0,0:0:0:0:
368,276,11702,1,0,0:0:0:0:
368,276,11856,1,0,0:0:0:0:
368,276,12009,1,8,0:0:0:0:
320,228,12086,1,8,0:0:0:0:
264,180,12163,1,8,0:0:0:0:
368,276,12317,1,8,0:0:0:0:
172,124,12625,1,0,0:0:0:0:
276,204,12779,1,8,0:0:0:0:
228,188,12856,1,8,0:0:0:0:
276,204,12933,1,0,0:0:0:0:
276,204,13086,1,0,0:0:0:0:
276,204,13240,1,8,0:0:0:0:
276,204,13394,1,8,0:0:0:0:
276,204,13548,1,8,0:0:0:0:
356,268,13625,1,8,0:0:0:0:
312,232,13702,1,0,0:0:0:0:
192,132,13856,1,8,0:0:0:0:
132,84,13933,1,8,0:0:0:0:
192,132,14010,1,8,0:0:0:0:
132,84,14086,1,8,0:0:0:0:
72,36,14163,1,4,0:0:0:0:
204,264,14471,1,8,0:0:0:0:
96,84,14625,1,0,0:0:0:0:
168,200,14779,1,12,0:0:0:0:
232,188,15086,1,0,0:0:0:0:
232,188,15240,1,8,0:0:0:0:
232,188,15394,1,0,0:0:0:0:
232,188,15548,1,8,0:0:0:0:
232,188,15702,1,0,0:0:0:0:
232,188,15856,1,8,0:0:0:0:
232,188,16009,1,8,0:0:0:0:
280,220,16086,1,8,0:0:0:0:
320,244,16163,1,0,0:0:0:0:
428,316,16317,1,0,0:0:0:0:
340,256,16471,1,8,0:0:0:0:
368,276,16548,1,0,0:0:0:0:
368,276,16625,1,0,0:0:0:0:
368,276,16779,1,0,0:0:0:0:
368,276,16932,1,8,0:0:0:0:
320,228,17009,1,8,0:0:0:0:
264,180,17086,1,8,0:0:0:0:
368,276,17240,1,8,0:0:0:0:
172,124,17548,1,0,0:0:0:0:
276,204,17702,1,8,0:0:0:0:
228,188,17779,1,8,0:0:0:0:
276,204,17856,1,0,0:0:0:0:
276,204,18009,1,0,0:0:0:0:
276,204,18163,1,8,0:0:0:0:
276,204,18317,1,8,0:0:0:0:
276,204,18471,1,8,0:0:0:0:
356,268,18548,1,0,0:0:0:0:
312,232,18625,1,0,0:0:0:0:
400,304,18779,1,0,0:0:0:0:
340,252,18932,1,8,0:0:0:0:
292,220,19009,1,8,0:0:0:0:
340,252,19086,1,0,0:0:0:0:
248,196,19240,1,0,0:0:0:0:
248,200,19394,1,8,0:0:0:0:
172,148,19471,1,8,0:0:0:0:
168,148,19548,1,8,0:0:0:0:
172,148,19702,1,0,0:0:0:0:
232,188,20009,1,0,0:0:0:0:
232,188,20163,1,8,0:0:0:0:
232,188,20317,1,0,0:0:0:0:
232,188,20471,1,8,0:0:0:0:
232,188,20625,1,0,0:0:0:0:
232,188,20779,1,8,0:0:0:0:
232,188,20932,1,8,0:0:0:0:
280,220,21009,1,8,0:0:0:0:
320,244,21086,1,0,0:0:0:0:
428,316,21240,1,0,0:0:0:0:
340,256,21394,1,8,0:0:0:0:
368,276,21471,1,0,0:0:0:0:
368,276,21548,1,0,0:0:0:0:
368,276,21702,1,0,0:0:0:0:
368,276,21855,1,8,0:0:0:0:
320,228,21932,1,8,0:0:0:0:
264,180,22009,1,8,0:0:0:0:
368,276,22163,1,8,0:0:0:0:
172,124,22471,1,0,0:0:0:0:
276,204,22625,1,8,0:0:0:0:
228,188,22702,1,8,0:0:0:0:
276,204,22779,1,0,0:0:0:0:
276,204,22932,1,8,0:0:0:0:
160,84,23086,1,0,0:0:0:0:
224,148,23163,1,0,0:0:0:0:
156,80,23240,1,8,0:0:0:0:
216,144,23317,1,8,0:0:0:0:
168,92,23394,1,0,0:0:0:0:
180,236,23548,1,8,0:0:0:0:
188,92,23702,1,0,0:0:0:0:
192,36,23856,1,8,0:0:0:0:
192,36,24010,1,4,0:0:0:0:
192,36,24317,1,12,0:0:0:0:
168,200,24625,1,4,0:0:0:0:
232,188,24933,1,0,0:0:0:0:
232,188,25087,1,8,0:0:0:0:
232,188,25241,1,0,0:0:0:0:
201,75,25317,1,0,0:0:0:0:
232,188,25395,1,8,0:0:0:0:
232,188,25549,1,0,0:0:0:0:
232,188,25703,1,8,0:0:0:0:
232,188,25856,1,8,0:0:0:0:
280,220,25933,1,8,0:0:0:0:
320,244,26010,1,0,0:0:0:0:
428,316,26164,1,0,0:0:0:0:
340,256,26318,1,8,0:0:0:0:
368,276,26395,1,0,0:0:0:0:
368,276,26472,1,0,0:0:0:0:
368,276,26626,1,0,0:0:0:0:
368,276,26779,1,8,0:0:0:0:
320,228,26856,1,8,0:0:0:0:
264,180,26933,1,8,0:0:0:0:
368,276,27087,1,8,0:0:0:0:
94,145,27240,1,0,0:0:0:0:
172,124,27395,1,0,0:0:0:0:
276,204,27549,1,8,0:0:0:0:
228,188,27626,1,8,0:0:0:0:
276,204,27703,1,0,0:0:0:0:
276,204,27856,1,0,0:0:0:0:
276,204,28010,1,8,0:0:0:0:
276,204,28164,1,8,0:0:0:0:
276,204,28318,1,8,0:0:0:0:
356,268,28395,1,0,0:0:0:0:
312,232,28472,1,0,0:0:0:0:
400,304,28626,1,0,0:0:0:0:
340,252,28779,1,8,0:0:0:0:
292,220,28856,1,8,0:0:0:0:
340,252,28933,1,0,0:0:0:0:
248,196,29087,1,0,0:0:0:0:
248,200,29241,1,8,0:0:0:0:
172,148,29318,1,8,0:0:0:0:
168,148,29395,1,8,0:0:0:0:
172,148,29549,1,0,0:0:0:0:
232,188,29856,1,0,0:0:0:0:
232,188,30010,1,8,0:0:0:0:
232,188,30164,1,0,0:0:0:0:
203,78,30240,1,0,0:0:0:0:
232,188,30318,1,8,0:0:0:0:
232,188,30472,1,0,0:0:0:0:
232,188,30626,1,8,0:0:0:0:
232,188,30779,1,8,0:0:0:0:
280,220,30856,1,8,0:0:0:0:
320,244,30933,1,0,0:0:0:0:
428,316,31087,1,0,0:0:0:0:
340,256,31241,1,8,0:0:0:0:
368,276,31318,1,0,0:0:0:0:
368,276,31395,1,0,0:0:0:0:
368,276,31549,1,0,0:0:0:0:
368,276,31702,1,8,0:0:0:0:
320,228,31779,1,8,0:0:0:0:
264,180,31856,1,8,0:0:0:0:
368,276,32010,1,8,0:0:0:0:
140,52,32163,1,8,0:0:0:0:
172,124,32318,1,0,0:0:0:0:
276,204,32472,1,8,0:0:0:0:
228,188,32549,1,8,0:0:0:0:
276,204,32626,1,0,0:0:0:0:
276,204,32779,1,0,0:0:0:0:
276,204,32933,1,8,0:0:0:0:
276,204,33087,1,8,0:0:0:0:
276,204,33241,1,8,0:0:0:0:
356,268,33318,1,8,0:0:0:0:
312,232,33395,1,0,0:0:0:0:
192,132,33549,1,8,0:0:0:0:
132,84,33626,1,8,0:0:0:0:
192,132,33703,1,8,0:0:0:0:
132,84,33779,1,8,0:0:0:0:
72,36,33856,1,0,0:0:0:0:
192,132,34010,1,0,0:0:0:0:
192,132,34086,1,0,0:0:0:0:
204,264,34164,1,8,0:0:0:0:
96,84,34318,1,0,0:0:0:0:
168,200,34472,1,12,0:0:0:0:
232,188,34779,1,0,0:0:0:0:
232,188,34933,1,8,0:0:0:0:
232,188,35087,1,0,0:0:0:0:
240,116,35163,1,0,0:0:0:0:
232,188,35241,1,8,0:0:0:0:
232,188,35395,1,0,0:0:0:0:
240,116,35471,1,0,0:0:0:0:
232,188,35549,1,8,0:0:0:0:
232,188,35702,1,8,0:0:0:0:
280,220,35779,1,8,0:0:0:0:
320,244,35856,1,0,0:0:0:0:
240,116,35933,1,0,0:0:0:0:
428,316,36010,1,0,0:0:0:0:
340,256,36164,1,8,0:0:0:0:
368,276,36240,1,8,0:0:0:0:
368,276,36317,1,8,0:0:0:0:
288,224,36394,1,0,0:0:0:0:
368,276,36472,1,0,0:0:0:0:
368,276,36625,1,8,0:0:0:0:
320,228,36702,1,8,0:0:0:0:
264,180,36779,1,8,0:0:0:0:
368,276,36933,1,8,0:0:0:0:
172,124,37241,1,0,0:0:0:0:
276,204,37395,1,8,0:0:0:0:
228,188,37472,1,8,0:0:0:0:
276,204,37549,1,0,0:0:0:0:
276,204,37702,1,0,0:0:0:0:
208,192,37779,1,0,0:0:0:0:
276,204,37856,1,8,0:0:0:0:
276,204,38010,1,8,0:0:0:0:
276,204,38164,1,8,0:0:0:0:
356,268,38241,1,8,0:0:0:0:
312,232,38318,1,0,0:0:0:0:
240,208,38394,1,0,0:0:0:0:
400,304,38472,1,0,0:0:0:0:
340,252,38625,1,8,0:0:0:0:
292,220,38702,1,8,0:0:0:0:
340,252,38779,1,8,0:0:0:0:
288,232,38856,1,0,0:0:0:0:
248,196,38933,1,0,0:0:0:0:
248,200,39087,1,8,0:0:0:0:
172,148,39164,1,8,0:0:0:0:
168,148,39241,1,8,0:0:0:0:
172,148,39395,1,0,0:0:0:0:
172,148,39702,1,0,0:0:0:0:
232,188,39856,1,8,0:0:0:0:
344,224,40010,1,0,0:0:0:0:
232,188,40164,1,8,0:0:0:0:
344,224,40317,1,0,0:0:0:0:
232,188,40472,1,8,0:0:0:0:
232,188,40625,1,4,0:0:0:0:
344,224,40933,1,0,0:0:0:0:
344,224,41086,1,8,0:0:0:0:
344,224,41394,1,8,0:0:0:0:
344,224,41548,1,0,0:0:0:0:
344,224,41856,1,4,0:0:0:0:
344,224,42010,1,8,0:0:0:0:
344,224,42163,1,0,0:0:0:0:
344,224,42317,1,8,0:0:0:0:
344,224,42471,1,4,0:0:0:0:
344,224,42625,1,8,0:0:0:0:
344,224,42779,1,0,0:0:0:0:
344,224,42933,1,8,0:0:0:0:
344,224,43086,1,4,0:0:0:0:
240,88,43240,1,8,0:0:0:0:
344,220,43394,1,8,0:0:0:0:
240,88,43548,1,8,0:0:0:0:
328,204,43702,1,4,0:0:0:0:
260,120,44010,1,12,0:0:0:0:
396,236,44317,1,4,0:0:0:0:
256,192,44471,12,0,45548,0:0:0:0:
416,304,46933,5,8,0:0:0:0:
240,200,48163,1,0,0:0:0:0:
192,224,49240,1,0,0:0:0:0:
192,224,49702,1,8,0:0:0:0:
192,224,50010,1,0,0:0:0:0:
192,224,50471,1,0,0:0:0:0:
192,224,50933,1,8,0:0:0:0:
192,224,51240,1,0,0:0:0:0:
192,224,51702,1,0,0:0:0:0:
192,224,52163,1,8,0:0:0:0:
192,224,52471,1,8,0:0:0:0:
176,160,52779,1,0,0:0:0:0:
176,160,53086,1,8,0:0:0:0:
176,160,53240,1,0,0:0:0:0:
308,140,53394,1,8,0:0:0:0:
100,144,53548,1,0,0:0:0:0:
220,136,54163,1,0,0:0:0:0:
220,136,54471,1,8,0:0:0:0:
220,136,54625,1,0,0:0:0:0:
220,136,54933,1,8,0:0:0:0:
220,136,55394,1,0,0:0:0:0:
220,136,55702,1,8,0:0:0:0:
220,136,55856,1,0,0:0:0:0:
220,136,56163,1,8,0:0:0:0:
220,136,56625,1,0,0:0:0:0:
220,136,56933,1,8,0:0:0:0:
220,136,57086,1,0,0:0:0:0:
220,136,57394,1,8,0:0:0:0:
220,136,57702,1,8,0:0:0:0:
220,136,58010,1,0,0:0:0:0:
220,136,58163,1,8,0:0:0:0:
220,136,58317,1,0,0:0:0:0:
220,136,58471,1,0,0:0:0:0:
220,136,58779,1,8,0:0:0:0:
280,120,59086,1,0,0:0:0:0:
280,120,59394,1,8,0:0:0:0:
280,120,59548,1,0,0:0:0:0:
280,120,59856,1,0,0:0:0:0:
280,120,60317,1,0,0:0:0:0:
280,120,60625,1,8,0:0:0:0:
280,120,60779,1,0,0:0:0:0:
280,120,61086,1,0,0:0:0:0:
280,120,61548,1,0,0:0:0:0:
280,120,61856,1,8,0:0:0:0:
280,120,62010,1,0,0:0:0:0:
280,120,62317,1,0,0:0:0:0:
280,120,62625,5,0,0:0:0:0:
280,120,62933,1,8,0:0:0:0:
280,120,63086,1,0,0:0:0:0:
280,120,63240,1,8,0:0:0:0:
280,120,63394,1,0,0:0:0:0:
256,112,63702,5,12,0:0:0:0:
36,284,64010,1,4,0:0:0:0:
228,216,64163,1,0,0:0:0:0:
344,168,64317,1,8,0:0:0:0:
216,220,64471,1,0,0:0:0:0:
464,120,64779,1,0,0:0:0:0:
308,108,64933,1,8,0:0:0:0:
128,304,65240,1,0,0:0:0:0:
204,220,65394,1,0,0:0:0:0:
288,132,65548,1,8,0:0:0:0:
216,208,65702,1,0,0:0:0:0:
232,188,66010,1,0,0:0:0:0:
232,188,66163,1,8,0:0:0:0:
240,120,66471,1,0,0:0:0:0:
240,120,66625,1,0,0:0:0:0:
240,120,66779,1,8,0:0:0:0:
240,120,66933,1,0,0:0:0:0:
240,120,67240,1,0,0:0:0:0:
240,120,67394,1,8,0:0:0:0:
240,120,67548,1,0,0:0:0:0:
264,188,67856,1,0,0:0:0:0:
264,188,68010,1,8,0:0:0:0:
264,188,68163,1,8,0:0:0:0:
264,188,68317,1,0,0:0:0:0:
128,112,68471,1,0,0:0:0:0:
264,188,68625,1,8,0:0:0:0:
388,212,68933,1,0,0:0:0:0:
388,212,69086,1,0,0:0:0:0:
388,212,69240,1,8,0:0:0:0:
388,212,69394,1,0,0:0:0:0:
388,212,69702,1,0,0:0:0:0:
388,212,69856,1,8,0:0:0:0:
388,212,70010,1,0,0:0:0:0:
388,212,70163,1,0,0:0:0:0:
160,144,70317,1,0,0:0:0:0:
344,204,70471,1,8,0:0:0:0:
212,232,70625,1,0,0:0:0:0:
508,164,70933,1,0,0:0:0:0:
348,200,71086,1,8,0:0:0:0:
232,224,71240,1,0,0:0:0:0:
72,264,71394,1,0,0:0:0:0:
204,232,71548,1,0,0:0:0:0:
324,200,71702,1,8,0:0:0:0:
212,232,71856,1,0,0:0:0:0:
232,224,72163,1,0,0:0:0:0:
232,224,72317,1,8,0:0:0:0:
232,224,72471,1,0,0:0:0:0:
232,224,72779,1,0,0:0:0:0:
232,224,72933,1,8,0:0:0:0:
232,224,73086,1,0,0:0:0:0:
232,224,73240,1,8,0:0:0:0:
312,92,73394,1,0,0:0:0:0:
332,60,73471,1,0,0:0:0:0:
232,224,73548,1,8,0:0:0:0:
312,92,73702,1,0,0:0:0:0:
312,92,73856,1,4,0:0:0:0:
280,256,74010,1,0,0:0:0:0:
316,80,74163,1,8,0:0:0:0:
280,236,74317,1,0,0:0:0:0:
304,132,74625,1,0,0:0:0:0:
304,132,74779,1,8,0:0:0:0:
192,36,74933,1,0,0:0:0:0:
304,132,75086,1,0,0:0:0:0:
304,132,75240,1,0,0:0:0:0:
304,132,75394,1,8,0:0:0:0:
304,132,75548,1,0,0:0:0:0:
304,132,75856,1,0,0:0:0:0:
304,132,76010,1,8,0:0:0:0:
304,132,76163,1,8,0:0:0:0:
304,132,76317,1,0,0:0:0:0:
304,132,76471,1,0,0:0:0:0:
304,132,76625,1,8,0:0:0:0:
304,132,76779,1,0,0:0:0:0:
24,148,77086,1,0,0:0:0:0:
148,140,77240,1,8,0:0:0:0:
284,140,77394,1,0,0:0:0:0:
4,140,77702,1,0,0:0:0:0:
128,140,77856,1,8,0:0:0:0:
260,140,78010,1,0,0:0:0:0:
132,140,78163,1,8,0:0:0:0:
272,140,78317,1,0,0:0:0:0:
132,140,78471,1,8,0:0:0:0:
268,140,78625,1,8,0:0:0:0:
124,140,78779,1,0,0:0:0:0:
276,140,78933,1,0,0:0:0:0:
112,140,79086,1,8,0:0:0:0:
272,140,79240,1,0,0:0:0:0:
172,140,79548,1,0,0:0:0:0:
172,140,79702,1,8,0:0:0:0:
136,48,79856,1,0,0:0:0:0:
172,140,80010,1,0,0:0:0:0:
172,140,80163,1,0,0:0:0:0:
172,140,80317,1,8,0:0:0:0:
172,140,80471,1,0,0:0:0:0:
172,140,80779,1,0,0:0:0:0:
172,140,80933,1,8,0:0:0:0:
172,140,81086,1,8,0:0:0:0:
172,140,81240,1,0,0:0:0:0:
172,140,81394,1,0,0:0:0:0:
172,140,81548,1,8,0:0:0:0:
172,140,81702,1,0,0:0:0:0:
172,140,82010,1,0,0:0:0:0:
172,140,82163,1,8,0:0:0:0:
172,140,82317,1,0,0:0:0:0:
172,140,82625,1,0,0:0:0:0:
200,124,82933,1,8,0:0:0:0:
172,140,83086,1,0,0:0:0:0:
300,92,83702,1,4,0:0:0:0:
224,184,86163,1,0,0:0:0:0:
224,184,86779,1,8,0:0:0:0:
224,184,87240,1,0,0:0:0:0:
224,184,87702,1,0,0:0:0:0:
224,184,88010,1,8,0:0:0:0:
224,184,88317,1,0,0:0:0:0:
224,184,88625,1,8,0:0:0:0:
224,184,88933,1,0,0:0:0:0:
224,184,89086,1,0,0:0:0:0:
224,184,89240,1,8,0:0:0:0:
224,184,89548,1,8,0:0:0:0:
224,184,89702,1,0,0:0:0:0:
224,184,90010,1,0,0:0:0:0:
224,184,90163,1,8,0:0:0:0:
224,184,90471,1,8,0:0:0:0:
224,184,90779,1,8,0:0:0:0:
224,184,90933,1,0,0:0:0:0:
224,184,91086,1,8,0:0:0:0:
224,184,91394,1,0,0:0:0:0:
224,184,91702,1,8,0:0:0:0:
224,184,92010,1,8,0:0:0:0:
224,184,92163,1,0,0:0:0:0:
224,184,92471,1,0,0:0:0:0:
224,184,92625,1,8,0:0:0:0:
224,184,92933,1,8,0:0:0:0:
224,184,93086,1,0,0:0:0:0:
224,184,93240,1,0,0:0:0:0:
224,184,93394,1,8,0:0:0:0:
224,184,93548,1,0,0:0:0:0:
340,252,93702,1,0,0:0:0:0:
276,256,93779,1,0,0:0:0:0:
484,340,93856,1,8,0:0:0:0:
372,272,94010,1,0,0:0:0:0:
388,280,94163,1,8,0:0:0:0:
388,280,94317,1,0,0:0:0:0:
388,280,94471,1,8,0:0:0:0:
388,280,94625,1,8,0:0:0:0:
220,52,94933,1,0,0:0:0:0:
312,176,95086,1,8,0:0:0:0:
312,176,95240,1,0,0:0:0:0:
248,188,95317,1,0,0:0:0:0:
312,176,95394,1,8,0:0:0:0:
312,176,95548,1,0,0:0:0:0:
312,176,95702,1,8,0:0:0:0:
312,176,95856,1,0,0:0:0:0:
204,124,96010,1,0,0:0:0:0:
156,180,96086,1,0,0:0:0:0:
60,72,96163,1,0,0:0:0:0:
228,132,96317,1,8,0:0:0:0:
76,76,96471,1,0,0:0:0:0:
236,132,96625,1,8,0:0:0:0:
64,72,96779,1,0,0:0:0:0:
232,132,96933,1,8,0:0:0:0:
76,76,97086,1,8,0:0:0:0:
356,176,97394,1,0,0:0:0:0:
212,124,97548,1,8,0:0:0:0:
72,188,97702,1,0,0:0:0:0:
180,112,97856,1,8,0:0:0:0:
108,236,98010,1,0,0:0:0:0:
176,108,98086,1,0,0:0:0:0:
180,112,98163,1,8,0:0:0:0:
416,280,98471,1,8,0:0:0:0:
176,108,98779,1,8,0:0:0:0:
120,236,98933,1,0,0:0:0:0:
420,284,99086,1,8,0:0:0:0:
264,216,99240,1,0,0:0:0:0:
240,68,99394,1,8,0:0:0:0:
176,108,99548,1,8,0:0:0:0:
400,272,99856,1,8,0:0:0:0:
164,96,100010,1,8,0:0:0:0:
144,268,100163,1,0,0:0:0:0:
404,276,100317,1,8,0:0:0:0:
260,216,100471,1,0,0:0:0:0:
160,92,100625,1,8,0:0:0:0:
400,272,100933,1,0,0:0:0:0:
256,228,101086,1,0,0:0:0:0:
152,88,101240,1,0,0:0:0:0:
256,228,101394,1,0,0:0:0:0:
404,272,101548,1,0,0:0:0:0:
256,228,101702,1,0,0:0:0:0:
256,228,101779,1,0,0:0:0:0:
256,228,101856,1,8,0:0:0:0:
256,228,101933,1,0,0:0:0:0:
256,228,102010,1,8,0:0:0:0:
256,228,102086,1,8,0:0:0:0:
256,228,102779,1,0,0:0:0:0:
320,200,103394,1,4,0:0:0:0:
268,216,104010,1,0,0:0:0:0:
320,200,104317,1,12,0:0:0:0:
320,200,104625,1,4,0:0:0:0:
172,224,104779,1,0,0:0:0:0:
248,216,104856,1,0,0:0:0:0:
172,220,104933,1,8,0:0:0:0:
328,212,105086,1,0,0:0:0:0:
180,220,105240,1,8,0:0:0:0:
248,216,105317,1,8,0:0:0:0:
184,220,105394,1,0,0:0:0:0:
316,212,105548,1,8,0:0:0:0:
256,216,105625,1,0,0:0:0:0:
192,220,105702,1,8,0:0:0:0:
248,216,105779,1,8,0:0:0:0:
192,220,105856,1,0,0:0:0:0:
324,200,106010,1,8,0:0:0:0:
260,208,106086,1,0,0:0:0:0:
208,220,106163,1,8,0:0:0:0:
208,220,106317,1,0,0:0:0:0:
256,216,106471,1,8,0:0:0:0:
256,216,106625,1,0,0:0:0:0:
316,232,106702,1,0,0:0:0:0:
240,224,106779,1,8,0:0:0:0:
400,240,106933,1,0,0:0:0:0:
264,228,107086,1,0,0:0:0:0:
380,304,107240,1,0,0:0:0:0:
328,268,107317,1,0,0:0:0:0:
388,312,107394,1,8,0:0:0:0:
268,224,107548,1,0,0:0:0:0:
380,304,107702,1,8,0:0:0:0:
332,272,107779,1,8,0:0:0:0:
384,308,107856,1,0,0:0:0:0:
324,272,107933,1,0,0:0:0:0:
268,228,108010,1,8,0:0:0:0:
384,308,108163,1,8,0:0:0:0:
316,272,108240,1,8,0:0:0:0:
372,300,108317,1,0,0:0:0:0:
252,252,108471,1,8,0:0:0:0:
372,300,108625,1,8,0:0:0:0:
320,240,108702,1,8,0:0:0:0:
232,244,108779,1,0,0:0:0:0:
368,300,108933,1,8,0:0:0:0:
368,300,109010,1,0,0:0:0:0:
368,300,109086,1,0,0:0:0:0:
368,300,109163,1,0,0:0:0:0:
368,300,109240,1,8,0:0:0:0:
368,300,109317,1,0,0:0:0:0:
368,300,109394,1,8,0:0:0:0:
368,300,109548,1,4,0:0:0:0:
392,172,109856,1,8,0:0:0:0:
392,172,109933,1,8,0:0:0:0:
392,172,110010,1,0,0:0:0:0:
392,172,110163,1,8,0:0:0:0:
392,172,110317,1,0,0:0:0:0:
392,172,110394,1,0,0:0:0:0:
392,172,110471,1,8,0:0:0:0:
392,172,110548,1,0,0:0:0:0:
392,172,110625,1,8,0:0:0:0:
392,172,110779,1,0,0:0:0:0:
392,172,110933,1,8,0:0:0:0:
392,172,111010,1,0,0:0:0:0:
392,172,111086,1,8,0:0:0:0:
392,172,111240,1,0,0:0:0:0:
392,172,111394,1,8,0:0:0:0:
392,172,111471,1,8,0:0:0:0:
392,172,111548,1,0,0:0:0:0:
392,172,111702,1,8,0:0:0:0:
392,172,111856,1,0,0:0:0:0:
392,172,112010,1,0,0:0:0:0:
248,216,112163,1,0,0:0:0:0:
248,216,112317,1,8,0:0:0:0:
248,216,112394,1,8,0:0:0:0:
248,216,112471,1,0,0:0:0:0:
248,216,112625,1,8,0:0:0:0:
248,216,112779,1,0,0:0:0:0:
248,216,112856,1,0,0:0:0:0:
248,216,112933,1,8,0:0:0:0:
248,216,113086,1,8,0:0:0:0:
248,216,113240,1,0,0:0:0:0:
248,216,113317,1,0,0:0:0:0:
248,216,113394,1,0,0:0:0:0:
248,216,113548,1,0,0:0:0:0:
248,216,113625,1,0,0:0:0:0:
248,216,113702,1,0,0:0:0:0:
248,216,113856,1,8,0:0:0:0:
248,216,114010,1,0,0:0:0:0:
248,216,114163,1,8,0:0:0:0:
248,216,114215,1,8,0:0:0:0:
208,184,114266,1,8,0:0:0:0:
248,216,114317,1,8,0:0:0:0:
248,216,114471,1,4,0:0:0:0:
172,220,114779,1,8,0:0:0:0:
328,212,114932,1,0,0:0:0:0:
180,220,115086,1,8,0:0:0:0:
248,216,115163,1,8,0:0:0:0:
184,220,115240,1,0,0:0:0:0:
316,212,115394,1,8,0:0:0:0:
256,216,115471,1,0,0:0:0:0:
192,220,115548,1,8,0:0:0:0:
248,216,115625,1,8,0:0:0:0:
192,220,115702,1,0,0:0:0:0:
324,200,115856,1,8,0:0:0:0:
260,208,115932,1,0,0:0:0:0:
208,220,116009,1,8,0:0:0:0:
208,220,116163,1,0,0:0:0:0:
256,216,116317,1,8,0:0:0:0:
256,216,116471,1,0,0:0:0:0:
316,232,116548,1,0,0:0:0:0:
240,224,116625,1,8,0:0:0:0:
400,240,116779,1,0,0:0:0:0:
264,228,116933,1,0,0:0:0:0:
380,304,117086,1,0,0:0:0:0:
328,268,117163,1,0,0:0:0:0:
388,312,117240,1,8,0:0:0:0:
268,224,117394,1,0,0:0:0:0:
380,304,117548,1,8,0:0:0:0:
332,272,117625,1,8,0:0:0:0:
384,308,117702,1,0,0:0:0:0:
324,272,117779,1,0,0:0:0:0:
268,228,117856,1,8,0:0:0:0:
384,308,118009,1,8,0:0:0:0:
316,272,118086,1,8,0:0:0:0:
372,300,118163,1,0,0:0:0:0:
252,252,118317,1,8,0:0:0:0:
372,300,118471,1,8,0:0:0:0:
320,240,118548,1,8,0:0:0:0:
232,244,118625,1,0,0:0:0:0:
328,132,118779,1,8,0:0:0:0:
328,132,118933,1,0,0:0:0:0:
328,132,119010,1,0,0:0:0:0:
328,132,119086,1,8,0:0:0:0:
328,132,119163,1,8,0:0:0:0:
328,132,119240,1,8,0:0:0:0:
260,92,119394,1,4,0:0:0:0:
392,172,119702,1,8,0:0:0:0:
392,172,119779,1,8,0:0:0:0:
392,172,119856,1,0,0:0:0:0:
392,172,120009,1,8,0:0:0:0:
392,172,120163,1,0,0:0:0:0:
392,172,120317,1,8,0:0:0:0:
392,172,120368,1,8,0:0:0:0:
392,172,120420,1,8,0:0:0:0:
344,160,120471,1,8,0:0:0:0:
392,172,120625,1,0,0:0:0:0:
392,172,120779,1,8,0:0:0:0:
392,172,120856,1,0,0:0:0:0:
392,172,120932,1,8,0:0:0:0:
392,172,121086,1,0,0:0:0:0:
392,172,121240,1,8,0:0:0:0:
392,172,121317,1,8,0:0:0:0:
392,172,121394,1,0,0:0:0:0:
392,172,121548,1,0,0:0:0:0:
316,160,121599,1,0,0:0:0:0:
288,116,121651,1,0,0:0:0:0:
392,172,121702,1,0,0:0:0:0:
392,172,121856,1,0,0:0:0:0:
248,216,122009,1,8,0:0:0:0:
248,216,122086,1,8,0:0:0:0:
248,216,122163,1,0,0:0:0:0:
248,216,122317,1,8,0:0:0:0:
248,216,122394,1,8,0:0:0:0:
248,216,122471,1,0,0:0:0:0:
248,216,122625,1,0,0:0:0:0:
163,37,122702,1,0,0:0:0:0:
248,216,122779,1,8,0:0:0:0:
248,216,122932,1,0,0:0:0:0:
248,216,123086,1,8,0:0:0:0:
248,216,123163,1,0,0:0:0:0:
248,216,123240,1,8,0:0:0:0:
248,216,123394,1,8,0:0:0:0:
248,216,123471,1,8,0:0:0:0:
248,216,123548,1,0,0:0:0:0:
248,216,123702,1,4,0:0:0:0:
100,152,124010,1,12,0:0:0:0:
144,24,124317,1,4,0:0:0:0:
232,124,124471,1,0,0:0:0:0:
280,176,124548,1,0,0:0:0:0:
328,232,124625,1,8,0:0:0:0:
328,232,124779,1,8,0:0:0:0:
296,168,124856,1,8,0:0:0:0:
328,232,124933,1,0,0:0:0:0:
320,168,125010,1,0,0:0:0:0:
328,232,125086,1,8,0:0:0:0:
308,80,125240,1,0,0:0:0:0:
308,80,125394,1,0,0:0:0:0:
308,80,125548,1,8,0:0:0:0:
308,80,125702,1,0,0:0:0:0:
308,80,125779,1,0,0:0:0:0:
308,80,125856,1,8,0:0:0:0:
308,80,126010,1,8,0:0:0:0:
308,80,126086,1,8,0:0:0:0:
308,80,126163,1,0,0:0:0:0:
308,80,126240,1,0,0:0:0:0:
320,140,126317,1,8,0:0:0:0:
292,0,126471,1,0,0:0:0:0:
324,148,126625,1,8,0:0:0:0:
292,16,126779,1,0,0:0:0:0:
320,140,126933,1,0,0:0:0:0:
320,140,127010,1,0,0:0:0:0:
320,140,127086,1,8,0:0:0:0:
320,140,127240,1,0,0:0:0:0:
324,148,127394,1,8,0:0:0:0:
324,148,127471,1,8,0:0:0:0:
324,148,127548,1,0,0:0:0:0:
324,148,127625,1,0,0:0:0:0:
320,140,127702,1,8,0:0:0:0:
320,140,127856,1,0,0:0:0:0:
320,140,128010,1,8,0:0:0:0:
320,140,128163,1,0,0:0:0:0:
320,140,128240,1,0,0:0:0:0:
324,148,128317,1,8,0:0:0:0:
324,148,128471,1,0,0:0:0:0:
324,148,128625,1,8,0:0:0:0:
320,140,128702,1,0,0:0:0:0:
320,140,128779,1,0,0:0:0:0:
320,140,128856,1,0,0:0:0:0:
320,140,128933,1,8,0:0:0:0:
320,140,129010,1,8,0:0:0:0:
320,140,129086,1,0,0:0:0:0:
320,140,129240,1,12,0:0:0:0:
288,204,129548,1,8,0:0:0:0:
288,204,129625,1,0,0:0:0:0:
288,204,129702,1,8,0:0:0:0:
288,204,129856,1,0,0:0:0:0:
288,204,129933,1,0,0:0:0:0:
288,204,130010,1,8,0:0:0:0:
288,204,130163,1,0,0:0:0:0:
288,204,130317,1,0,0:0:0:0:
288,204,130471,1,8,0:0:0:0:
288,204,130625,1,0,0:0:0:0:
288,204,130702,1,0,0:0:0:0:
288,204,130779,1,8,0:0:0:0:
288,204,130856,1,0,0:0:0:0:
288,204,130933,1,8,0:0:0:0:
288,204,131086,1,0,0:0:0:0:
288,204,131163,1,0,0:0:0:0:
288,204,131240,1,8,0:0:0:0:
288,204,131394,1,0,0:0:0:0:
288,204,131548,1,8,0:0:0:0:
288,204,131702,1,0,0:0:0:0:
160,140,131856,1,0,0:0:0:0:
236,128,131933,1,0,0:0:0:0:
300,148,132010,1,8,0:0:0:0:
168,128,132163,1,0,0:0:0:0:
296,144,132317,1,8,0:0:0:0:
152,140,132471,1,8,0:0:0:0:
224,96,132548,1,0,0:0:0:0:
276,60,132625,1,0,0:0:0:0:
276,60,132779,1,4,0:0:0:0:
460,276,133086,1,0,0:0:0:0:
360,156,133240,1,8,0:0:0:0:
456,276,133394,1,0,0:0:0:0:
360,156,133548,1,12,0:0:0:0:
380,180,133856,1,4,0:0:0:0:
380,180,134163,1,4,0:0:0:0:
232,124,134317,1,0,0:0:0:0:
280,176,134394,1,0,0:0:0:0:
328,232,134471,1,8,0:0:0:0:
328,232,134625,1,8,0:0:0:0:
296,168,134702,1,8,0:0:0:0:
328,232,134779,1,0,0:0:0:0:
320,168,134856,1,0,0:0:0:0:
328,232,134932,1,8,0:0:0:0:
308,80,135086,1,0,0:0:0:0:
308,80,135240,1,0,0:0:0:0:
308,80,135394,1,8,0:0:0:0:
308,80,135548,1,0,0:0:0:0:
308,80,135625,1,0,0:0:0:0:
308,80,135702,1,8,0:0:0:0:
308,80,135856,1,8,0:0:0:0:
308,80,135932,1,8,0:0:0:0:
308,80,136009,1,0,0:0:0:0:
308,80,136086,1,0,0:0:0:0:
320,140,136163,1,8,0:0:0:0:
292,0,136317,1,0,0:0:0:0:
324,148,136471,1,8,0:0:0:0:
292,16,136625,1,0,0:0:0:0:
320,140,136779,1,0,0:0:0:0:
320,140,136856,1,0,0:0:0:0:
320,140,136932,1,8,0:0:0:0:
320,140,137086,1,0,0:0:0:0:
324,148,137240,1,8,0:0:0:0:
324,148,137317,1,8,0:0:0:0:
324,148,137394,1,0,0:0:0:0:
324,148,137471,1,0,0:0:0:0:
320,140,137548,1,8,0:0:0:0:
320,140,137702,1,0,0:0:0:0:
260,116,137779,1,0,0:0:0:0:
320,140,137856,1,8,0:0:0:0:
320,140,138009,1,0,0:0:0:0:
324,148,138163,1,8,0:0:0:0:
320,140,138240,1,8,0:0:0:0:
324,148,138317,1,0,0:0:0:0:
324,148,138471,1,8,0:0:0:0:
320,140,138548,1,0,0:0:0:0:
320,140,138625,1,0,0:0:0:0:
320,140,138702,1,0,0:0:0:0:
320,140,138779,1,8,0:0:0:0:
320,140,138856,1,8,0:0:0:0:
320,140,138932,1,0,0:0:0:0:
320,140,139086,1,12,0:0:0:0:
288,204,139394,1,8,0:0:0:0:
288,204,139471,1,0,0:0:0:0:
288,204,139548,1,8,0:0:0:0:
288,204,139702,1,0,0:0:0:0:
288,204,139779,1,0,0:0:0:0:
288,204,139856,1,8,0:0:0:0:
288,204,140009,1,0,0:0:0:0:
288,204,140163,1,0,0:0:0:0:
288,204,140317,1,8,0:0:0:0:
288,204,140471,1,0,0:0:0:0:
288,204,140548,1,0,0:0:0:0:
288,204,140625,1,8,0:0:0:0:
288,204,140702,1,0,0:0:0:0:
288,204,140779,1,8,0:0:0:0:
288,204,140932,1,0,0:0:0:0:
288,204,141009,1,0,0:0:0:0:
288,204,141086,1,8,0:0:0:0:
288,204,141240,1,0,0:0:0:0:
288,204,141394,1,8,0:0:0:0:
288,204,141548,1,0,0:0:0:0:
160,140,141702,1,0,0:0:0:0:
236,128,141779,1,0,0:0:0:0:
300,148,141856,1,8,0:0:0:0:
168,128,142009,1,0,0:0:0:0:
296,144,142163,1,8,0:0:0:0:
152,140,142317,1,8,0:0:0:0:
224,96,142394,1,0,0:0:0:0:
276,60,142471,1,0,0:0:0:0:
276,60,142625,1,4,0:0:0:0:
460,276,142932,1,0,0:0:0:0:
360,156,143086,1,8,0:0:0:0:
456,276,143240,1,0,0:0:0:0:
296,144,143317,1,0,0:0:0:0:
360,156,143394,1,8,0:0:0:0:
324,104,143471,1,8,0:0:0:0:
284,48,143548,1,0,0:0:0:0:
380,180,143702,1,12,0:0:0:0:
116,96,144010,1,4,0:0:0:0:
116,96,144471,1,0,0:0:0:0:
116,96,144625,1,12,0:0:0:0:
340,296,144933,1,4,0:0:0:0:
116,96,145240,1,0,0:0:0:0:
224,192,145394,1,8,0:0:0:0:
272,236,145471,1,8,0:0:0:0:
236,204,145548,1,8,0:0:0:0:
236,204,145702,1,0,0:0:0:0:
236,204,145856,1,12,0:0:0:0:
232,128,146163,1,4,0:0:0:0:
232,128,146471,1,4,0:0:0:0:
320,224,147086,1,12,0:0:0:0:
452,200,147240,1,0,0:0:0:0:
400,208,147317,1,0,0:0:0:0:
324,220,147394,1,8,0:0:0:0:
464,200,147548,1,8,0:0:0:0:
400,208,147702,1,0,0:0:0:0:
352,100,147856,1,8,0:0:0:0:
140,68,148010,1,0,0:0:0:0:
416,216,148317,1,0,0:0:0:0:
344,72,148471,1,8,0:0:0:0:
120,60,148625,1,0,0:0:0:0:
400,12,148933,1,4,0:0:0:0:
272,60,149086,1,8,0:0:0:0:
200,92,149163,1,8,0:0:0:0:
160,108,149240,1,8,0:0:0:0:
320,24,149394,1,0,0:0:0:0:
320,24,149548,1,12,0:0:0:0:
164,280,149856,1,8,0:0:0:0:
328,24,150163,1,4,0:0:0:0:
248,152,150625,1,0,0:0:0:0:
248,152,150779,1,12,0:0:0:0:
336,172,151086,1,4,0:0:0:0:
336,172,151394,1,4,0:0:0:0:
208,112,151548,1,0,0:0:0:0:
268,140,151625,1,0,0:0:0:0:
460,268,151702,1,8,0:0:0:0:
352,188,151856,1,0,0:0:0:0:
336,172,151933,1,0,0:0:0:0:
460,268,152010,1,8,0:0:0:0:
336,172,152163,1,0,0:0:0:0:
460,268,152317,1,8,0:0:0:0:
460,268,152471,1,8,0:0:0:0:
460,268,152625,1,4,0:0:0:0:
80,8,153086,1,0,0:0:0:0:
328,88,153240,1,12,0:0:0:0:
248,368,153548,1,8,0:0:0:0:
284,240,153702,1,8,0:0:0:0:
320,116,153856,1,4,0:0:0:0:
468,132,154010,1,0,0:0:0:0:
332,116,154163,1,8,0:0:0:0:
468,136,154317,1,0,0:0:0:0:
332,133,154471,1,12,0:0:0:0:
452,136,154625,1,0,0:0:0:0:
128,92,155086,1,0,0:0:0:0:
128,92,155240,1,8,0:0:0:0:
128,92,155317,1,8,0:0:0:0:
128,92,155394,1,8,0:0:0:0:
128,92,155548,1,0,0:0:0:0:
240,52,155702,1,12,0:0:0:0:
328,336,156010,1,4,0:0:0:0:
240,48,156317,1,4,0:0:0:0:
272,148,156933,1,12,0:0:0:0:
260,24,157086,1,0,0:0:0:0:
268,108,157163,1,0,0:0:0:0:
268,108,157240,1,8,0:0:0:0:
268,108,157394,1,8,0:0:0:0:
268,108,157548,1,0,0:0:0:0:
212,52,157702,1,8,0:0:0:0:
268,108,157856,1,0,0:0:0:0:
332,152,158163,1,0,0:0:0:0:
212,52,158317,1,8,0:0:0:0:
332,152,158471,1,0,0:0:0:0:
332,152,158779,1,4,0:0:0:0:
444,256,158933,1,8,0:0:0:0:
500,312,159010,1,8,0:0:0:0:
432,244,159086,1,8,0:0:0:0:
456,272,159240,1,0,0:0:0:0:
272,120,159394,1,12,0:0:0:0:
484,324,159702,1,8,0:0:0:0:
264,112,160010,1,4,0:0:0:0:
328,148,160625,1,12,0:0:0:0:
328,148,160933,1,4,0:0:0:0:
328,148,161240,1,4,0:0:0:0:
296,104,161856,1,8,0:0:0:0:
296,104,161933,1,8,0:0:0:0:
296,104,162010,1,0,0:0:0:0:
296,104,162163,1,8,0:0:0:0:
296,104,162240,1,8,0:0:0:0:
296,104,162317,1,8,0:0:0:0:
296,104,162394,1,8,0:0:0:0:
296,104,162471,1,4,0:0:0:0:
152,152,162779,1,0,0:0:0:0:
152,152,162933,1,0,0:0:0:0:
152,152,163086,1,12,0:0:0:0:
152,152,163394,1,8,0:0:0:0:
80,172,163548,1,8,0:0:0:0:
152,152,163702,1,4,0:0:0:0:
452,264,164163,1,0,0:0:0:0:
396,140,164317,1,8,0:0:0:0:
396,220,164625,1,0,0:0:0:0:
396,220,165086,1,0,0:0:0:0:
396,140,165240,1,0,0:0:0:0:
396,220,165548,1,8,0:0:0:0:
396,220,165856,1,0,0:0:0:0:
396,220,166163,1,0,0:0:0:0:
396,220,166625,1,0,0:0:0:0:
272,176,166779,1,8,0:0:0:0:
260,180,167086,1,0,0:0:0:0:
260,180,167548,1,0,0:0:0:0:
84,148,167702,1,0,0:0:0:0:
260,180,168010,1,8,0:0:0:0:
260,180,168317,1,0,0:0:0:0:
260,180,168625,1,0,0:0:0:0:
260,180,169086,1,0,0:0:0:0:
180,96,169240,1,8,0:0:0:0:
260,180,169548,1,0,0:0:0:0:
260,180,170010,1,8,0:0:0:0:
180,96,170163,1,0,0:0:0:0:
260,180,170471,1,8,0:0:0:0:
260,180,170779,1,0,0:0:0:0:
260,180,171086,1,0,0:0:0:0:
300,176,171548,1,0,0:0:0:0:
212,72,171702,1,8,0:0:0:0:
300,176,172010,1,0,0:0:0:0:
300,176,172471,1,0,0:0:0:0:
200,60,172625,1,0,0:0:0:0:
300,176,172933,1,8,0:0:0:0:
180,144,173086,1,0,0:0:0:0:
300,176,173240,1,0,0:0:0:0:
152,136,173394,1,8,0:0:0:0:
300,176,173548,1,4,0:0:0:0:
52,332,173856,1,8,0:0:0:0:
368,136,174317,1,0,0:0:0:0:
216,228,174471,1,8,0:0:0:0:
356,220,174625,1,0,0:0:0:0:
240,152,174779,1,0,0:0:0:0:
432,216,175086,1,8,0:0:0:0:
432,216,175240,1,0,0:0:0:0:
432,216,175548,1,0,0:0:0:0:
432,216,175702,1,8,0:0:0:0:
392,124,176010,1,0,0:0:0:0:
392,124,176317,1,8,0:0:0:0:
392,124,176779,1,0,0:0:0:0:
392,124,176933,1,8,0:0:0:0:
392,124,177086,1,0,0:0:0:0:
392,124,177240,1,0,0:0:0:0:
392,124,177548,1,8,0:0:0:0:
392,124,177702,1,0,0:0:0:0:
392,124,178010,1,0,0:0:0:0:
392,124,178163,1,8,0:0:0:0:
96,140,178471,1,0,0:0:0:0:
408,124,178779,1,8,0:0:0:0:
248,132,178933,1,0,0:0:0:0:
248,132,179086,1,0,0:0:0:0:
248,132,179240,1,0,0:0:0:0:
248,132,179394,1,8,0:0:0:0:
208,128,179702,1,0,0:0:0:0:
208,128,180010,1,8,0:0:0:0:
208,128,180163,1,0,0:0:0:0:
352,92,180317,1,0,0:0:0:0:
208,128,180471,1,0,0:0:0:0:
208,128,180625,1,8,0:0:0:0:
504,56,180933,1,0,0:0:0:0:
400,156,181086,1,0,0:0:0:0:
288,252,181240,1,8,0:0:0:0:
408,148,181394,1,0,0:0:0:0:
304,240,181548,1,0,0:0:0:0:
344,204,181625,1,0,0:0:0:0:
388,164,181702,1,8,0:0:0:0:
348,204,181779,1,0,0:0:0:0:
388,164,181856,1,8,0:0:0:0:
344,204,181933,1,0,0:0:0:0:
388,168,182010,1,8,0:0:0:0:
344,204,182086,1,8,0:0:0:0:
388,172,182163,1,0,0:0:0:0:
4,24,182779,1,0,0:0:0:0:
272,164,183086,1,12,0:0:0:0:
208,148,183394,1,4,0:0:0:0:
492,284,183702,1,8,0:0:0:0:
492,284,184010,1,0,0:0:0:0:
492,284,184317,1,8,0:0:0:0:
492,284,184471,1,0,0:0:0:0:
492,284,184779,1,0,0:0:0:0:
492,284,184933,1,8,0:0:0:0:
208,196,185240,1,8,0:0:0:0:
256,208,185548,1,0,0:0:0:0:
256,208,185856,1,0,0:0:0:0:
256,208,186163,1,0,0:0:0:0:
256,208,186471,1,8,0:0:0:0:
256,208,186779,1,8,0:0:0:0:
256,208,186933,1,0,0:0:0:0:
256,208,187240,1,0,0:0:0:0:
256,208,187394,1,8,0:0:0:0:
256,208,187702,1,8,0:0:0:0:
256,208,188010,1,0,0:0:0:0:
256,208,188317,1,0,0:0:0:0:
256,208,188625,1,0,0:0:0:0:
256,208,188933,1,8,0:0:0:0:
256,208,189240,1,0,0:0:0:0:
256,208,189394,1,8,0:0:0:0:
256,208,189702,1,8,0:0:0:0:
256,208,189856,1,0,0:0:0:0:
256,208,190163,1,8,0:0:0:0:
256,208,190471,1,0,0:0:0:0:
256,208,190779,1,0,0:0:0:0:
256,208,191086,1,8,0:0:0:0:
256,208,191394,1,8,0:0:0:0:
256,208,191702,1,0,0:0:0:0:
256,208,191856,1,8,0:0:0:0:
256,208,192163,1,8,0:0:0:0:
256,208,192317,1,0,0:0:0:0:
256,208,192625,1,8,0:0:0:0:
256,208,192779,1,0,0:0:0:0:
256,208,192933,1,12,0:0:0:0:
174,148,193086,1,0,0:0:0:0:
256,208,193240,1,4,0:0:0:0:
256,208,193548,1,0,0:0:0:0:
256,208,193856,1,8,0:0:0:0:
256,208,194163,1,8,0:0:0:0:
256,208,194317,1,0,0:0:0:0:
256,208,194471,1,0,0:0:0:0:
256,208,194625,1,0,0:0:0:0:
256,208,194779,1,8,0:0:0:0:
256,208,195086,1,8,0:0:0:0:
256,208,195394,1,8,0:0:0:0:
256,208,195548,1,0,0:0:0:0:
256,208,195702,1,0,0:0:0:0:
256,208,195856,1,0,0:0:0:0:
256,208,196010,1,8,0:0:0:0:
256,208,196317,1,8,0:0:0:0:
256,208,196625,1,8,0:0:0:0:
256,208,196779,1,0,0:0:0:0:
256,208,196933,1,0,0:0:0:0:
256,208,197086,1,0,0:0:0:0:
256,208,197240,1,8,0:0:0:0:
256,208,197548,1,8,0:0:0:0:
256,208,197856,1,8,0:0:0:0:
256,208,198010,1,0,0:0:0:0:
256,208,198163,1,0,0:0:0:0:
256,208,198317,1,8,0:0:0:0:
256,208,198471,1,0,0:0:0:0:
256,208,198625,1,8,0:0:0:0:
256,208,198779,1,0,0:0:0:0:
256,208,198933,1,8,0:0:0:0:
256,208,199087,1,0,0:0:0:0:
256,208,199240,1,8,0:0:0:0:
252,48,199394,1,0,0:0:0:0:
256,188,199548,1,8,0:0:0:0:
256,188,199702,1,0,0:0:0:0:
256,188,199856,1,8,0:0:0:0:
256,188,200010,1,0,0:0:0:0:
256,188,200163,1,8,0:0:0:0:
256,188,200317,1,0,0:0:0:0:
256,188,200471,1,8,0:0:0:0:
256,188,200625,1,0,0:0:0:0:
312,212,200702,1,0,0:0:0:0:
372,236,200779,1,8,0:0:0:0:
452,268,200856,1,0,0:0:0:0:
480,280,200933,1,8,0:0:0:0:
480,280,201086,1,8,0:0:0:0:
480,280,201240,1,0,0:0:0:0:
480,280,201317,1,0,0:0:0:0:
480,280,201394,1,8,0:0:0:0:
480,280,201471,1,0,0:0:0:0:
480,280,201548,1,8,0:0:0:0:
480,280,201625,1,0,0:0:0:0:
480,280,201702,1,8,0:0:0:0:
480,280,201856,1,4,0:0:0:0:
77,102,202317,2,0,L|211:161,1,140
280,224,202779,5,12,0:0:0:0:
160,44,203086,1,4,0:0:0:0:
172,224,203240,1,0,0:0:0:0:
248,216,203317,1,0,0:0:0:0:
172,220,203394,1,8,0:0:0:0:
328,212,203547,1,0,0:0:0:0:
180,220,203701,1,8,0:0:0:0:
248,216,203778,1,8,0:0:0:0:
184,220,203855,1,0,0:0:0:0:
316,212,204009,1,8,0:0:0:0:
256,216,204086,1,0,0:0:0:0:
192,220,204163,1,8,0:0:0:0:
248,216,204240,1,8,0:0:0:0:
192,220,204317,1,0,0:0:0:0:
324,200,204471,1,8,0:0:0:0:
260,208,204547,1,0,0:0:0:0:
208,220,204624,1,8,0:0:0:0:
208,220,204778,1,0,0:0:0:0:
256,216,204932,1,8,0:0:0:0:
256,216,205086,1,0,0:0:0:0:
316,232,205163,1,0,0:0:0:0:
240,224,205240,1,8,0:0:0:0:
400,240,205394,1,0,0:0:0:0:
264,228,205547,1,0,0:0:0:0:
380,304,205701,1,0,0:0:0:0:
328,268,205778,1,0,0:0:0:0:
388,312,205855,1,8,0:0:0:0:
268,224,206009,1,0,0:0:0:0:
380,304,206163,1,8,0:0:0:0:
332,272,206240,1,8,0:0:0:0:
384,308,206317,1,0,0:0:0:0:
324,272,206394,1,0,0:0:0:0:
268,228,206471,1,8,0:0:0:0:
384,308,206624,1,8,0:0:0:0:
316,272,206701,1,8,0:0:0:0:
372,300,206778,1,0,0:0:0:0:
252,252,206932,1,8,0:0:0:0:
372,300,207086,1,8,0:0:0:0:
320,240,207163,1,8,0:0:0:0:
232,244,207240,1,0,0:0:0:0:
368,300,207394,1,8,0:0:0:0:
368,300,207471,1,0,0:0:0:0:
368,300,207547,1,0,0:0:0:0:
368,300,207624,1,0,0:0:0:0:
368,300,207701,1,8,0:0:0:0:
368,300,207778,1,0,0:0:0:0:
368,300,207855,1,8,0:0:0:0:
368,300,208009,1,4,0:0:0:0:
392,172,208317,1,8,0:0:0:0:
392,172,208394,1,8,0:0:0:0:
392,172,208471,1,0,0:0:0:0:
392,172,208624,1,8,0:0:0:0:
392,172,208778,1,0,0:0:0:0:
392,172,208855,1,0,0:0:0:0:
392,172,208932,1,8,0:0:0:0:
392,172,209009,1,0,0:0:0:0:
392,172,209086,1,8,0:0:0:0:
392,172,209240,1,0,0:0:0:0:
392,172,209394,1,8,0:0:0:0:
392,172,209471,1,0,0:0:0:0:
392,172,209547,1,8,0:0:0:0:
392,172,209701,1,0,0:0:0:0:
392,172,209855,1,8,0:0:0:0:
392,172,209932,1,8,0:0:0:0:
392,172,210009,1,0,0:0:0:0:
392,172,210163,1,8,0:0:0:0:
392,172,210317,1,0,0:0:0:0:
392,172,210471,1,0,0:0:0:0:
248,216,210624,1,0,0:0:0:0:
248,216,210778,1,8,0:0:0:0:
248,216,210855,1,8,0:0:0:0:
248,216,210932,1,0,0:0:0:0:
248,216,211086,1,8,0:0:0:0:
248,216,211240,1,0,0:0:0:0:
248,216,211317,1,0,0:0:0:0:
248,216,211394,1,8,0:0:0:0:
248,216,211547,1,8,0:0:0:0:
248,216,211701,1,0,0:0:0:0:
248,216,211778,1,0,0:0:0:0:
248,216,211855,1,0,0:0:0:0:
248,216,212009,1,0,0:0:0:0:
248,216,212086,1,0,0:0:0:0:
248,216,212163,1,0,0:0:0:0:
248,216,212317,1,8,0:0:0:0:
248,216,212471,1,0,0:0:0:0:
248,216,212624,1,8,0:0:0:0:
248,216,212676,1,8,0:0:0:0:
208,184,212727,1,8,0:0:0:0:
248,216,212778,1,8,0:0:0:0:
248,216,212933,1,4,0:0:0:0:
172,220,213240,1,8,0:0:0:0:
328,212,213393,1,0,0:0:0:0:
180,220,213547,1,8,0:0:0:0:
248,216,213624,1,8,0:0:0:0:
184,220,213701,1,0,0:0:0:0:
316,212,213855,1,8,0:0:0:0:
256,216,213932,1,0,0:0:0:0:
192,220,214009,1,8,0:0:0:0:
248,216,214086,1,8,0:0:0:0:
192,220,214163,1,0,0:0:0:0:
324,200,214317,1,8,0:0:0:0:
260,208,214393,1,0,0:0:0:0:
208,220,214470,1,8,0:0:0:0:
208,220,214624,1,0,0:0:0:0:
256,216,214778,1,8,0:0:0:0:
256,216,214932,1,0,0:0:0:0:
316,232,215009,1,0,0:0:0:0:
240,224,215086,1,8,0:0:0:0:
400,240,215240,1,0,0:0:0:0:
264,228,215393,1,0,0:0:0:0:
380,304,215547,1,0,0:0:0:0:
328,268,215624,1,0,0:0:0:0:
388,312,215701,1,8,0:0:0:0:
268,224,215855,1,0,0:0:0:0:
380,304,216009,1,8,0:0:0:0:
332,272,216086,1,8,0:0:0:0:
384,308,216163,1,0,0:0:0:0:
324,272,216240,1,0,0:0:0:0:
268,228,216317,1,8,0:0:0:0:
384,308,216470,1,8,0:0:0:0:
316,272,216547,1,8,0:0:0:0:
372,300,216624,1,0,0:0:0:0:
252,252,216778,1,8,0:0:0:0:
372,300,216932,1,8,0:0:0:0:
320,240,217009,1,8,0:0:0:0:
232,244,217086,1,8,0:0:0:0:
328,132,217240,1,0,0:0:0:0:
328,132,217394,1,0,0:0:0:0:
328,132,217471,1,0,0:0:0:0:
328,132,217547,1,8,0:0:0:0:
328,132,217624,1,8,0:0:0:0:
328,132,217701,1,8,0:0:0:0:
260,92,217856,1,4,0:0:0:0:
392,172,218163,1,8,0:0:0:0:
392,172,218240,1,8,0:0:0:0:
392,172,218317,1,0,0:0:0:0:
392,172,218470,1,8,0:0:0:0:
392,172,218624,1,0,0:0:0:0:
392,172,218778,1,8,0:0:0:0:
392,172,218829,1,8,0:0:0:0:
392,172,218881,1,8,0:0:0:0:
344,160,218932,1,8,0:0:0:0:
392,172,219086,1,0,0:0:0:0:
392,172,219240,1,8,0:0:0:0:
392,172,219317,1,0,0:0:0:0:
392,172,219393,1,8,0:0:0:0:
392,172,219547,1,0,0:0:0:0:
392,172,219701,1,8,0:0:0:0:
392,172,219778,1,8,0:0:0:0:
392,172,219855,1,0,0:0:0:0:
392,172,220009,1,0,0:0:0:0:
316,160,220060,1,0,0:0:0:0:
288,116,220112,1,0,0:0:0:0:
392,172,220163,1,0,0:0:0:0:
392,172,220317,1,0,0:0:0:0:
248,216,220470,1,8,0:0:0:0:
248,216,220548,1,8,0:0:0:0:
248,216,220624,1,0,0:0:0:0:
248,216,220778,1,8,0:0:0:0:
248,216,220856,1,8,0:0:0:0:
248,216,220932,1,0,0:0:0:0:
248,216,221086,1,0,0:0:0:0:
138,73,221163,1,0,0:0:0:0:
248,216,221240,1,8,0:0:0:0:
248,216,221393,1,0,0:0:0:0:
248,216,221547,1,8,0:0:0:0:
248,216,221624,1,0,0:0:0:0:
248,216,221701,1,8,0:0:0:0:
248,216,221855,1,8,0:0:0:0:
248,216,221932,1,8,0:0:0:0:
248,216,222009,1,0,0:0:0:0:
248,216,222163,1,4,0:0:0:0:
100,152,222471,1,12,0:0:0:0:
144,24,222778,1,4,0:0:0:0:
232,124,222933,1,0,0:0:0:0:
280,176,223009,1,0,0:0:0:0:
328,232,223086,1,8,0:0:0:0:
328,232,223240,1,8,0:0:0:0:
296,168,223317,1,8,0:0:0:0:
328,232,223394,1,0,0:0:0:0:
320,168,223471,1,0,0:0:0:0:
328,232,223547,1,8,0:0:0:0:
308,80,223701,1,0,0:0:0:0:
308,80,223855,1,0,0:0:0:0:
308,80,224009,1,8,0:0:0:0:
308,80,224163,1,0,0:0:0:0:
308,80,224240,1,0,0:0:0:0:
308,80,224317,1,8,0:0:0:0:
308,80,224471,1,8,0:0:0:0:
308,80,224547,1,8,0:0:0:0:
308,80,224624,1,0,0:0:0:0:
308,80,224701,1,0,0:0:0:0:
320,140,224778,1,8,0:0:0:0:
292,0,224932,1,0,0:0:0:0:
324,148,225086,1,8,0:0:0:0:
292,16,225240,1,0,0:0:0:0:
320,140,225394,1,0,0:0:0:0:
320,140,225471,1,0,0:0:0:0:
320,140,225547,1,8,0:0:0:0:
320,140,225701,1,0,0:0:0:0:
324,148,225855,1,8,0:0:0:0:
324,148,225932,1,8,0:0:0:0:
324,148,226009,1,0,0:0:0:0:
324,148,226086,1,0,0:0:0:0:
320,140,226163,1,8,0:0:0:0:
320,140,226317,1,0,0:0:0:0:
320,140,226471,1,8,0:0:0:0:
320,140,226624,1,0,0:0:0:0:
320,140,226701,1,0,0:0:0:0:
324,148,226778,1,8,0:0:0:0:
324,148,226932,1,0,0:0:0:0:
324,148,227086,1,8,0:0:0:0:
320,140,227163,1,0,0:0:0:0:
320,140,227240,1,0,0:0:0:0:
320,140,227317,1,0,0:0:0:0:
320,140,227394,1,8,0:0:0:0:
320,140,227471,1,8,0:0:0:0:
320,140,227547,1,0,0:0:0:0:
320,140,227701,1,12,0:0:0:0:
288,204,228009,1,8,0:0:0:0:
288,204,228086,1,0,0:0:0:0:
288,204,228163,1,8,0:0:0:0:
288,204,228317,1,0,0:0:0:0:
288,204,228394,1,0,0:0:0:0:
288,204,228471,1,8,0:0:0:0:
288,204,228624,1,0,0:0:0:0:
288,204,228778,1,0,0:0:0:0:
288,204,228932,1,8,0:0:0:0:
288,204,229086,1,0,0:0:0:0:
288,204,229163,1,0,0:0:0:0:
288,204,229240,1,8,0:0:0:0:
288,204,229317,1,0,0:0:0:0:
288,204,229394,1,8,0:0:0:0:
288,204,229547,1,0,0:0:0:0:
288,204,229624,1,0,0:0:0:0:
288,204,229701,1,8,0:0:0:0:
288,204,229855,1,0,0:0:0:0:
288,204,230009,1,8,0:0:0:0:
288,204,230163,1,0,0:0:0:0:
160,140,230317,1,0,0:0:0:0:
236,128,230394,1,0,0:0:0:0:
300,148,230471,1,8,0:0:0:0:
168,128,230624,1,0,0:0:0:0:
296,144,230778,1,8,0:0:0:0:
152,140,230932,1,8,0:0:0:0:
224,96,231009,1,0,0:0:0:0:
276,60,231086,1,0,0:0:0:0:
276,60,231240,1,4,0:0:0:0:
460,276,231547,1,0,0:0:0:0:
360,156,231701,1,8,0:0:0:0:
456,276,231855,1,0,0:0:0:0:
360,156,232009,1,12,0:0:0:0:
380,180,232317,1,4,0:0:0:0:
380,180,232624,1,4,0:0:0:0:
232,124,232778,1,0,0:0:0:0:
280,176,232855,1,0,0:0:0:0:
328,232,232932,1,8,0:0:0:0:
328,232,233086,1,8,0:0:0:0:
296,168,233163,1,8,0:0:0:0:
328,232,233240,1,0,0:0:0:0:
320,168,233317,1,0,0:0:0:0:
328,232,233393,1,8,0:0:0:0:
308,80,233547,1,0,0:0:0:0:
308,80,233701,1,0,0:0:0:0:
348,156,233779,1,0,0:0:0:0:
308,80,233855,1,8,0:0:0:0:
308,80,234009,1,0,0:0:0:0:
308,80,234086,1,0,0:0:0:0:
308,80,234163,1,8,0:0:0:0:
308,80,234317,1,8,0:0:0:0:
308,80,234393,1,8,0:0:0:0:
308,80,234470,1,0,0:0:0:0:
308,80,234547,1,0,0:0:0:0:
320,140,234624,1,8,0:0:0:0:
292,0,234778,1,0,0:0:0:0:
316,68,234856,1,0,0:0:0:0:
324,148,234932,1,8,0:0:0:0:
292,16,235086,1,0,0:0:0:0:
320,140,235240,1,0,0:0:0:0:
320,140,235317,1,0,0:0:0:0:
320,140,235393,1,8,0:0:0:0:
320,140,235547,1,0,0:0:0:0:
324,148,235701,1,8,0:0:0:0:
324,148,235778,1,8,0:0:0:0:
324,148,235855,1,0,0:0:0:0:
324,148,235932,1,0,0:0:0:0:
320,140,236009,1,8,0:0:0:0:
320,140,236163,1,0,0:0:0:0:
260,116,236240,1,0,0:0:0:0:
320,140,236317,1,8,0:0:0:0:
320,140,236470,1,0,0:0:0:0:
368,220,236548,1,0,0:0:0:0:
324,148,236624,1,8,0:0:0:0:
320,140,236701,1,8,0:0:0:0:
324,148,236778,1,0,0:0:0:0:
324,148,236932,1,8,0:0:0:0:
320,140,237009,1,0,0:0:0:0:
320,140,237086,1,0,0:0:0:0:
320,140,237163,1,0,0:0:0:0:
320,140,237240,1,8,0:0:0:0:
320,140,237317,1,8,0:0:0:0:
320,140,237394,1,0,0:0:0:0:
320,140,237547,1,12,0:0:0:0:
288,204,237855,1,8,0:0:0:0:
288,204,237932,1,0,0:0:0:0:
288,204,238009,1,8,0:0:0:0:
288,204,238163,1,0,0:0:0:0:
288,204,238240,1,0,0:0:0:0:
288,204,238317,1,8,0:0:0:0:
288,204,238470,1,0,0:0:0:0:
376,244,238548,1,0,0:0:0:0:
288,204,238624,1,0,0:0:0:0:
288,204,238778,1,8,0:0:0:0:
288,204,238932,1,0,0:0:0:0:
288,204,239009,1,0,0:0:0:0:
288,204,239086,1,8,0:0:0:0:
288,204,239163,1,0,0:0:0:0:
288,204,239240,1,8,0:0:0:0:
288,204,239393,1,0,0:0:0:0:
288,204,239547,1,8,0:0:0:0:
352,232,239625,1,8,0:0:0:0:
288,204,239701,1,0,0:0:0:0:
288,204,239855,1,8,0:0:0:0:
288,204,240009,1,0,0:0:0:0:
384,184,240086,1,0,0:0:0:0:
160,140,240163,1,0,0:0:0:0:
236,128,240240,1,0,0:0:0:0:
300,148,240317,1,8,0:0:0:0:
168,128,240470,1,0,0:0:0:0:
236,152,240548,1,0,0:0:0:0:
296,144,240624,1,8,0:0:0:0:
380,216,240702,1,0,0:0:0:0:
152,140,240778,1,8,0:0:0:0:
224,96,240856,1,8,0:0:0:0:
276,60,240932,1,0,0:0:0:0:
276,60,241086,1,0,0:0:0:0:
460,276,241393,1,0,0:0:0:0:
360,156,241547,1,8,0:0:0:0:
296,144,241624,1,8,0:0:0:0:
456,276,241701,1,0,0:0:0:0:
296,144,241778,1,0,0:0:0:0:
360,156,241855,1,8,0:0:0:0:
72,112,242163,1,12,0:0:0:0:
92,8,242471,1,4,0:0:0:0:
104,160,242625,1,8,0:0:0:0:
336,208,242779,1,0,0:0:0:0:
468,316,242933,1,8,0:0:0:0:
352,220,243086,1,8,0:0:0:0:
448,300,243240,1,0,0:0:0:0:
400,264,243702,1,8,0:0:0:0:
260,180,243856,1,8,0:0:0:0:
400,264,244010,1,0,0:0:0:0:
400,264,244163,1,8,0:0:0:0:
400,264,244317,1,8,0:0:0:0:
400,264,244471,1,0,0:0:0:0:
168,148,244933,1,8,0:0:0:0:
168,148,245086,1,0,0:0:0:0:
168,148,245240,1,0,0:0:0:0:
168,148,245394,1,8,0:0:0:0:
168,148,245548,1,8,0:0:0:0:
168,148,245702,1,0,0:0:0:0:
168,148,246010,1,8,0:0:0:0:
168,148,246317,1,8,0:0:0:0:
168,148,246471,1,0,0:0:0:0:
168,148,246625,1,0,0:0:0:0:
168,148,246779,1,8,0:0:0:0:
168,148,247086,1,0,0:0:0:0:
168,148,247394,1,0,0:0:0:0:
104,160,247548,1,8,0:0:0:0:
336,208,247702,1,0,0:0:0:0:
468,316,247856,1,8,0:0:0:0:
352,220,248009,1,8,0:0:0:0:
448,300,248163,1,0,0:0:0:0:
400,264,248625,1,8,0:0:0:0:
260,180,248779,1,8,0:0:0:0:
400,264,248933,1,0,0:0:0:0:
400,264,249086,1,8,0:0:0:0:
400,264,249240,1,8,0:0:0:0:
400,264,249394,1,0,0:0:0:0:
168,148,249856,1,8,0:0:0:0:
168,148,250009,1,0,0:0:0:0:
168,148,250163,1,0,0:0:0:0:
168,148,250317,1,8,0:0:0:0:
168,148,250471,1,8,0:0:0:0:
168,148,250625,1,0,0:0:0:0:
168,148,250933,1,8,0:0:0:0:
168,148,251240,1,8,0:0:0:0:
168,148,251394,1,8,0:0:0:0:
168,148,251548,1,0,0:0:0:0:
168,148,251702,1,8,0:0:0:0:
168,148,252009,1,0,0:0:0:0:
340,124,252317,5,8,0:0:0:0:
220,56,252470,1,0,0:0:0:0:
220,56,252624,1,0,0:0:0:0:
220,56,252778,1,8,0:0:0:0:
60,140,253086,1,0,0:0:0:0:
476,104,253547,1,8,0:0:0:0:
368,112,253701,1,8,0:0:0:0:
276,120,253855,1,0,0:0:0:0:
104,136,254009,1,8,0:0:0:0:
328,116,254317,1,0,0:0:0:0:
256,228,254778,1,8,0:0:0:0:
256,228,254932,1,0,0:0:0:0:
256,228,255086,1,0,0:0:0:0:
256,228,255240,1,8,0:0:0:0:
256,228,255547,1,0,0:0:0:0:
256,228,255855,1,8,0:0:0:0:
124,24,256163,1,0,0:0:0:0:
232,188,256317,1,8,0:0:0:0:
232,188,256470,1,0,0:0:0:0:
232,188,256624,1,8,0:0:0:0:
232,188,256932,1,0,0:0:0:0:
340,124,257240,5,8,0:0:0:0:
220,56,257393,1,0,0:0:0:0:
220,56,257547,1,0,0:0:0:0:
220,56,257701,1,8,0:0:0:0:
60,140,258009,1,0,0:0:0:0:
476,104,258470,1,8,0:0:0:0:
368,112,258624,1,8,0:0:0:0:
276,120,258778,1,0,0:0:0:0:
104,136,258932,1,8,0:0:0:0:
328,116,259240,1,0,0:0:0:0:
256,228,259701,1,8,0:0:0:0:
256,228,259855,1,0,0:0:0:0:
256,228,260009,1,0,0:0:0:0:
256,228,260163,1,8,0:0:0:0:
256,228,260470,1,0,0:0:0:0:
256,228,260778,1,8,0:0:0:0:
256,192,261086,12,0,261702,0:0:0:0:
232,188,261855,5,12,0:0:0:0:
120,152,262163,1,4,0:0:0:0:
232,188,262471,1,0,0:0:0:0:
232,188,262625,1,8,0:0:0:0:
232,188,262779,1,0,0:0:0:0:
232,188,262933,1,8,0:0:0:0:
232,188,263087,1,0,0:0:0:0:
232,188,263241,1,8,0:0:0:0:
232,188,263394,1,8,0:0:0:0:
280,220,263471,1,8,0:0:0:0:
320,244,263548,1,0,0:0:0:0:
428,316,263702,1,0,0:0:0:0:
340,256,263856,1,8,0:0:0:0:
368,276,263933,1,0,0:0:0:0:
368,276,264010,1,0,0:0:0:0:
368,276,264164,1,0,0:0:0:0:
368,276,264317,1,8,0:0:0:0:
320,228,264394,1,8,0:0:0:0:
264,180,264471,1,8,0:0:0:0:
368,276,264625,1,8,0:0:0:0:
172,124,264933,1,0,0:0:0:0:
276,204,265087,1,8,0:0:0:0:
228,188,265164,1,8,0:0:0:0:
276,204,265241,1,0,0:0:0:0:
276,204,265394,1,0,0:0:0:0:
276,204,265548,1,8,0:0:0:0:
276,204,265702,1,8,0:0:0:0:
276,204,265856,1,8,0:0:0:0:
356,268,265933,1,0,0:0:0:0:
312,232,266010,1,0,0:0:0:0:
400,304,266164,1,0,0:0:0:0:
340,252,266317,1,8,0:0:0:0:
292,220,266394,1,8,0:0:0:0:
340,252,266471,1,0,0:0:0:0:
248,196,266625,1,0,0:0:0:0:
248,200,266779,1,8,0:0:0:0:
172,148,266856,1,8,0:0:0:0:
168,148,266933,1,8,0:0:0:0:
172,148,267087,1,0,0:0:0:0:
232,188,267394,1,0,0:0:0:0:
232,188,267548,1,8,0:0:0:0:
232,188,267702,1,0,0:0:0:0:
232,188,267856,1,8,0:0:0:0:
232,188,268010,1,0,0:0:0:0:
232,188,268164,1,8,0:0:0:0:
232,188,268317,1,8,0:0:0:0:
280,220,268394,1,8,0:0:0:0:
320,244,268471,1,0,0:0:0:0:
428,316,268625,1,0,0:0:0:0:
340,256,268779,1,8,0:0:0:0:
368,276,268856,1,0,0:0:0:0:
368,276,268933,1,0,0:0:0:0:
368,276,269087,1,0,0:0:0:0:
368,276,269240,1,8,0:0:0:0:
320,228,269317,1,8,0:0:0:0:
264,180,269394,1,8,0:0:0:0:
368,276,269548,1,8,0:0:0:0:
172,124,269856,1,0,0:0:0:0:
276,204,270010,1,8,0:0:0:0:
228,188,270087,1,8,0:0:0:0:
276,204,270164,1,0,0:0:0:0:
276,204,270317,1,0,0:0:0:0:
276,204,270471,1,8,0:0:0:0:
276,204,270625,1,8,0:0:0:0:
276,204,270779,1,8,0:0:0:0:
356,268,270856,1,8,0:0:0:0:
312,232,270933,1,0,0:0:0:0:
192,132,271087,1,8,0:0:0:0:
132,84,271164,1,8,0:0:0:0:
192,132,271241,1,8,0:0:0:0:
132,84,271317,1,8,0:0:0:0:
72,36,271394,1,4,0:0:0:0:
204,264,271702,1,8,0:0:0:0:
96,84,271856,1,0,0:0:0:0:
168,200,272010,1,12,0:0:0:0:
232,188,272317,1,0,0:0:0:0:
232,188,272471,1,8,0:0:0:0:
232,188,272625,1,0,0:0:0:0:
232,188,272779,1,8,0:0:0:0:
232,188,272933,1,0,0:0:0:0:
232,188,273087,1,8,0:0:0:0:
232,188,273240,1,8,0:0:0:0:
280,220,273317,1,8,0:0:0:0:
320,244,273394,1,0,0:0:0:0:
428,316,273548,1,0,0:0:0:0:
340,256,273702,1,8,0:0:0:0:
368,276,273779,1,0,0:0:0:0:
368,276,273856,1,0,0:0:0:0:
368,276,274010,1,0,0:0:0:0:
368,276,274163,1,8,0:0:0:0:
320,228,274240,1,8,0:0:0:0:
264,180,274317,1,8,0:0:0:0:
368,276,274471,1,8,0:0:0:0:
172,124,274779,1,0,0:0:0:0:
276,204,274933,1,8,0:0:0:0:
228,188,275010,1,8,0:0:0:0:
276,204,275087,1,0,0:0:0:0:
276,204,275240,1,0,0:0:0:0:
276,204,275394,1,8,0:0:0:0:
276,204,275548,1,8,0:0:0:0:
276,204,275702,1,8,0:0:0:0:
356,268,275779,1,0,0:0:0:0:
312,232,275856,1,0,0:0:0:0:
400,304,276010,1,0,0:0:0:0:
340,252,276163,1,8,0:0:0:0:
292,220,276240,1,8,0:0:0:0:
340,252,276317,1,0,0:0:0:0:
248,196,276471,1,0,0:0:0:0:
248,200,276625,1,8,0:0:0:0:
172,148,276702,1,8,0:0:0:0:
168,148,276779,1,8,0:0:0:0:
172,148,276933,1,0,0:0:0:0:
232,188,277240,1,0,0:0:0:0:
232,188,277394,1,8,0:0:0:0:
232,188,277548,1,0,0:0:0:0:
232,188,277702,1,8,0:0:0:0:
232,188,277856,1,0,0:0:0:0:
232,188,278010,1,8,0:0:0:0:
232,188,278163,1,8,0:0:0:0:
280,220,278240,1,8,0:0:0:0:
320,244,278317,1,0,0:0:0:0:
428,316,278471,1,0,0:0:0:0:
340,256,278625,1,8,0:0:0:0:
368,276,278702,1,0,0:0:0:0:
368,276,278779,1,0,0:0:0:0:
368,276,278933,1,0,0:0:0:0:
368,276,279086,1,8,0:0:0:0:
320,228,279163,1,8,0:0:0:0:
264,180,279240,1,8,0:0:0:0:
368,276,279394,1,8,0:0:0:0:
172,124,279702,1,0,0:0:0:0:
276,204,279856,1,8,0:0:0:0:
228,188,279933,1,8,0:0:0:0:
276,204,280010,1,0,0:0:0:0:
276,204,280163,1,8,0:0:0:0:
160,84,280317,1,0,0:0:0:0:
224,148,280394,1,0,0:0:0:0:
156,80,280471,1,8,0:0:0:0:
216,144,280548,1,8,0:0:0:0:
168,92,280625,1,0,0:0:0:0:
180,236,280779,1,8,0:0:0:0:
188,92,280933,1,0,0:0:0:0:
192,36,281087,1,8,0:0:0:0:
192,36,281241,1,0,0:0:0:0:
192,36,281548,1,12,0:0:0:0:
