osu file format v14

[General]
AudioFilename: audio.mp3
AudioLeadIn: 0
PreviewTime: 140383
Countdown: 0
SampleSet: Soft
StackLeniency: 0.7
Mode: 3
LetterboxInBreaks: 0
SpecialStyle: 0
WidescreenStoryboard: 1

[Editor]
Bookmarks: 34783,73183,92383,111583,130783,140383,159583,169183,187183,197983,207583,226783
DistanceSpacing: 1.9
BeatDivisor: 4
GridSize: 16
TimelineZoom: 2.1

[Metadata]
Title:Satisfiction (Massive New Krew Remix)
TitleUnicode:Satisfiction (Massive New Krew Remix)
Artist:t+pazolite
ArtistUnicode:t+pazolite
Creator:Lita-
Version:Lirai's Insane
Source:GROOVE COASTER 2 HEAVENLY FESTIVAL
Tags:グルーヴコースター ponko2 girlish chs c.h.s electronic hardcore j-core japan tpz ichigaki lirai kanon matsubara instrumental video game satisfaction original style
BeatmapID:2469448
BeatmapSetID:1161543

[Difficulty]
HPDrainRate:8.4
CircleSize:4
OverallDifficulty:8.2
ApproachRate:5
SliderMultiplier:1.4
SliderTickRate:1

[Events]
//Background and Video events
0,0,"883060-min.jpg",0,0
//Break Periods
//Storyboard Layer 0 (Background)
//Storyboard Layer 1 (Fail)
//Storyboard Layer 2 (Pass)
//Storyboard Layer 3 (Foreground)
//Storyboard Layer 4 (Overlay)
//Storyboard Sound Samples
Sample,32233,0,"SnareClap.wav",50
Sample,125833,0,"Clap.wav",45

[TimingPoints]
1183,300,4,2,1,70,1,0
20383,-100,4,2,1,60,0,0
34783,-100,4,2,1,80,0,1
51583,-100,4,2,1,70,0,0
53983,-100,4,2,1,80,0,1
73183,-100,4,2,1,60,0,0
82783,-100,4,2,1,65,0,0
92383,-100,4,2,1,70,0,0
130783,-100,4,2,1,60,0,0
140383,-100,4,2,1,65,0,0
159583,-100,4,2,1,55,0,0
167983,-100,4,2,1,40,0,0
169183,-100,4,2,1,80,0,1
178783,-100,4,2,1,60,0,0
188383,-100,4,2,1,80,0,1
195583,-100,4,2,1,70,0,0
197983,-100,4,2,1,80,0,1
207583,-100,4,2,1,70,0,0
215983,-100,4,2,1,60,0,0
217183,-100,4,2,1,70,0,0

[HitObjects]
64,192,1183,5,2,0:0:0:0:
192,192,1183,1,4,0:0:0:0:
320,192,1183,128,0,1333:0:0:0:0:
448,192,1333,128,0,1483:0:0:0:0:
64,192,1483,1,2,0:0:0:0:
192,192,1483,128,0,1633:0:0:0:0:
320,192,1633,128,0,1933:0:0:0:0:
64,192,1783,1,2,0:0:0:0:
192,192,1783,1,8,0:0:0:0:
448,192,1933,128,0,2383:0:0:0:0:
64,192,2083,1,2,0:0:0:0:
64,192,2383,1,2,0:0:0:0:
320,192,2383,128,0,2533:0:0:0:0:
192,192,2533,128,0,2683:0:0:0:0:
64,192,2683,1,2,0:0:0:0:
448,192,2683,128,0,2833:0:0:0:0:
320,192,2833,128,0,3133:0:0:0:0:
64,192,2983,1,2,0:0:0:0:
192,192,2983,1,8,0:0:0:0:
448,192,3133,128,0,3583:0:0:0:0:
64,192,3283,1,2,0:0:0:0:
64,192,3583,1,2,0:0:0:0:
320,192,3583,128,0,3733:0:0:0:0:
192,192,3733,128,0,3883:0:0:0:0:
64,192,3883,1,2,0:0:0:0:
448,192,3883,128,0,4033:0:0:0:0:
320,192,4033,128,0,4333:0:0:0:0:
64,192,4183,1,2,0:0:0:0:
192,192,4183,1,8,0:0:0:0:
448,192,4333,128,0,4633:0:0:0:0:
64,192,4483,1,2,0:0:0:0:
320,192,4633,128,0,4933:0:0:0:0:
64,192,4783,1,2,0:0:0:0:
448,192,4933,128,0,5083:0:0:0:0:
64,192,5083,1,2,0:0:0:0:
192,192,5083,128,0,5233:0:0:0:0:
320,192,5233,128,0,5383:0:0:0:0:
64,192,5383,1,2,0:0:0:0:
448,192,5383,128,0,5983:0:0:0:0:
192,192,5383,1,8,0:0:0:0:
64,192,5683,1,2,0:0:0:0:
192,192,5983,128,0,6133:0:0:0:0:
320,192,5983,1,2,0:0:0:0:
64,192,6133,128,0,6283:0:0:0:0:
320,192,6283,128,0,6433:0:0:0:0:
448,192,6283,1,2,0:0:0:0:
192,192,6433,128,0,6733:0:0:0:0:
320,192,6583,1,2,0:0:0:0:
448,192,6583,1,8,0:0:0:0:
64,192,6733,128,0,7183:0:0:0:0:
448,192,6883,1,2,0:0:0:0:
192,192,7183,128,0,7333:0:0:0:0:
448,192,7183,1,2,0:0:0:0:
64,192,7333,128,0,7483:0:0:0:0:
320,192,7483,128,0,7633:0:0:0:0:
448,192,7483,1,2,0:0:0:0:
192,192,7633,128,0,7933:0:0:0:0:
320,192,7783,1,2,0:0:0:0:
448,192,7783,1,8,0:0:0:0:
64,192,7933,128,0,8383:0:0:0:0:
448,192,8083,1,2,0:0:0:0:
448,192,8383,1,2,0:0:0:0:
192,192,8383,128,0,8533:0:0:0:0:
64,192,8533,128,0,8683:0:0:0:0:
320,192,8683,128,0,8833:0:0:0:0:
448,192,8683,1,2,0:0:0:0:
192,192,8833,128,0,9133:0:0:0:0:
320,192,8983,1,2,0:0:0:0:
448,192,8983,1,8,0:0:0:0:
64,192,9133,128,0,9433:0:0:0:0:
448,192,9283,1,2,0:0:0:0:
192,192,9433,128,0,9583:0:0:0:0:
320,192,9583,1,2,0:0:0:0:
448,192,9583,1,0,0:0:0:50:SnareClap.wav
64,192,9658,1,0,0:0:0:50:SnareClap.wav
192,192,9733,1,0,0:0:0:50:SnareClap.wav
320,192,9808,1,0,0:0:0:50:SnareClap.wav
192,192,9883,1,0,0:0:0:50:SnareClap.wav
320,192,9958,1,0,0:0:0:50:SnareClap.wav
64,192,10033,1,2,0:0:0:0:
448,192,10033,1,0,0:0:0:50:SnareClap.wav
192,192,10108,1,0,0:0:0:50:SnareClap.wav
320,192,10183,1,0,0:0:0:50:SnareClap.wav
64,192,10258,1,0,0:0:0:50:SnareClap.wav
192,192,10333,1,2,0:0:0:0:
448,192,10333,1,0,0:0:0:50:SnareClap.wav
64,192,10408,1,0,0:0:0:50:SnareClap.wav
320,192,10483,1,0,0:0:0:45:Clap.wav
192,192,10558,1,0,0:0:0:45:Clap.wav
320,192,10633,1,0,0:0:0:45:Clap.wav
192,192,10708,1,0,0:0:0:45:Clap.wav
320,192,10783,1,2,0:0:0:0:
448,192,10783,1,4,0:0:0:0:
64,192,10783,128,0,10933:0:0:0:0:
192,192,10933,1,0,0:0:0:0:
320,192,11083,1,2,0:0:0:0:
64,192,11083,1,8,0:0:0:0:
448,192,11083,1,0,0:0:0:0:
64,192,11233,128,0,11383:0:0:0:0:
320,192,11383,1,2,0:0:0:0:
448,192,11383,1,0,0:0:0:0:
192,192,11533,1,0,0:0:0:0:
320,192,11683,1,8,0:0:0:0:
448,192,11683,1,2,0:0:0:0:
64,192,11683,128,0,11833:0:0:0:0:
192,192,11833,1,0,0:0:0:0:
64,192,11983,1,2,0:0:0:0:
320,192,11983,1,0,0:0:0:0:
448,192,12133,128,0,12283:0:0:0:0:
64,192,12283,1,2,0:0:0:0:
192,192,12283,1,8,0:0:0:0:
320,192,12283,1,0,0:0:0:0:
448,192,12433,128,0,12583:0:0:0:0:
64,192,12583,1,2,0:0:0:0:
192,192,12583,1,0,0:0:0:0:
192,192,12733,1,0,0:0:0:0:
320,192,12883,1,2,0:0:0:0:
64,192,12883,1,8,0:0:0:0:
448,192,12883,1,0,0:0:0:0:
64,192,13033,1,0,0:0:0:0:
192,192,13183,1,2,0:0:0:0:
448,192,13183,128,0,13333:0:0:0:0:
320,192,13333,1,0,0:0:0:0:
64,192,13483,1,2,0:0:0:0:
192,192,13483,1,8,0:0:0:0:
448,192,13483,1,0,0:0:0:0:
448,192,13633,128,0,13783:0:0:0:0:
64,192,13783,1,2,0:0:0:0:
192,192,13783,1,0,0:0:0:0:
320,192,13933,1,0,0:0:0:0:
64,192,14083,1,2,0:0:0:0:
192,192,14083,1,8,0:0:0:0:
448,192,14083,128,0,14233:0:0:0:0:
320,192,14233,1,0,0:0:0:0:
192,192,14383,1,2,0:0:0:0:
448,192,14383,1,0,0:0:0:0:
64,192,14533,128,0,14683:0:0:0:0:
192,192,14683,1,2,0:0:0:0:
320,192,14683,1,8,0:0:0:0:
448,192,14683,1,0,0:0:0:0:
64,192,14833,128,0,14983:0:0:0:0:
320,192,14983,1,2,0:0:0:0:
448,192,14983,1,0,0:0:0:0:
320,192,15133,1,0,0:0:0:0:
64,192,15283,1,2,0:0:0:0:
192,192,15283,1,8,0:0:0:0:
448,192,15283,1,0,0:0:0:0:
64,192,15433,1,0,0:0:0:45:Clap.wav
448,192,15433,1,0,0:0:0:0:
192,192,15583,1,2,0:0:0:0:
320,192,15583,1,4,0:0:0:0:
448,192,15583,1,0,0:0:0:0:
192,192,15733,1,0,0:0:0:45:Clap.wav
64,192,15733,1,0,0:0:0:0:
448,192,15883,1,2,0:0:0:0:
320,192,15883,1,8,0:0:0:0:
64,192,16033,1,0,0:0:0:45:Clap.wav
320,192,16033,1,0,0:0:0:0:
192,192,16183,1,2,0:0:0:0:
448,192,16183,1,0,0:0:0:0:
64,192,16333,1,0,0:0:0:45:Clap.wav
192,192,16333,1,0,0:0:0:0:
320,192,16483,1,2,0:0:0:0:
448,192,16483,1,8,0:0:0:0:
192,192,16633,1,0,0:0:0:45:Clap.wav
320,192,16633,1,0,0:0:0:0:
64,192,16783,1,2,0:0:0:0:
192,192,16783,1,4,0:0:0:0:
448,192,16783,1,0,0:0:0:0:
64,192,16933,1,0,0:0:0:45:Clap.wav
320,192,16933,1,0,0:0:0:0:
192,192,17083,1,2,0:0:0:0:
448,192,17083,1,8,0:0:0:0:
320,192,17233,1,0,0:0:0:45:Clap.wav
448,192,17233,1,0,0:0:0:0:
64,192,17383,1,2,0:0:0:0:
192,192,17383,1,0,0:0:0:0:
64,192,17533,1,0,0:0:0:45:Clap.wav
320,192,17533,1,0,0:0:0:0:
192,192,17683,1,10,0:0:0:0:
448,192,17683,1,0,0:0:0:45:Clap.wav
320,192,17758,1,0,0:0:0:45:Clap.wav
192,192,17833,1,0,0:0:0:45:Clap.wav
320,192,17908,1,0,0:0:0:45:Clap.wav
64,192,17983,1,2,0:0:0:0:
192,192,17983,1,4,0:0:0:0:
448,192,17983,1,0,0:0:0:45:Clap.wav
320,192,18133,1,0,0:0:0:45:Clap.wav
64,192,18133,1,0,0:0:0:0:
64,192,18283,1,2,0:0:0:0:
192,192,18283,1,8,0:0:0:0:
448,192,18283,1,0,0:0:0:45:Clap.wav
320,192,18433,1,0,0:0:0:45:Clap.wav
192,192,18433,1,0,0:0:0:0:
64,192,18583,1,2,0:0:0:0:
320,192,18583,1,4,0:0:0:0:
448,192,18583,1,0,0:0:0:45:Clap.wav
448,192,18733,1,0,0:0:0:45:Clap.wav
192,192,18733,1,0,0:0:0:0:
192,192,18883,1,2,0:0:0:0:
320,192,18883,1,4,0:0:0:0:
64,192,18883,1,0,0:0:0:45:Clap.wav
320,192,19033,1,0,0:0:0:45:Clap.wav
448,192,19033,1,0,0:0:0:0:
64,192,19183,1,0,0:0:0:50:SnareClap.wav
192,192,19258,1,0,0:0:0:50:SnareClap.wav
320,192,19333,1,0,0:0:0:50:SnareClap.wav
192,192,19408,1,0,0:0:0:50:SnareClap.wav
320,192,19483,1,0,0:0:0:50:SnareClap.wav
448,192,19558,1,0,0:0:0:50:SnareClap.wav
192,192,19633,1,0,0:0:0:50:SnareClap.wav
448,192,19708,1,0,0:0:0:50:SnareClap.wav
64,192,19783,1,0,0:0:0:50:SnareClap.wav
320,192,19858,1,0,0:0:0:50:SnareClap.wav
192,192,19933,1,0,0:0:0:50:SnareClap.wav
448,192,20008,1,0,0:0:0:50:SnareClap.wav
64,192,20083,1,0,0:0:0:50:SnareClap.wav
320,192,20158,1,0,0:0:0:50:SnareClap.wav
192,192,20233,1,0,0:0:0:50:SnareClap.wav
320,192,20308,1,0,0:0:0:50:SnareClap.wav
192,192,20383,1,0,0:0:0:90:Boom.wav
64,192,20383,1,4,0:0:0:0:
448,192,20383,128,0,20533:0:0:0:0:
64,192,20683,128,0,20833:0:0:0:0:
448,192,20833,128,0,20983:0:0:0:0:
448,192,21283,128,0,21433:0:0:0:0:
448,192,21733,128,0,21883:0:0:0:0:
448,192,22033,128,0,22183:0:0:0:0:
64,192,22183,1,0,0:0:0:0:
64,192,22333,1,0,0:0:0:0:
192,192,22483,1,0,0:0:0:0:
192,192,22633,1,0,0:0:0:0:
448,192,22783,128,0,22933:0:0:0:0:
64,192,23083,128,0,23233:0:0:0:0:
448,192,23233,128,0,23383:0:0:0:0:
448,192,23683,128,0,23833:0:0:0:0:
448,192,24133,128,0,24283:0:0:0:0:
448,192,24433,128,0,24583:0:0:0:0:
192,192,24583,1,0,0:0:0:0:
192,192,24733,1,0,0:0:0:0:
320,192,24883,1,0,0:0:0:0:
320,192,25033,1,0,0:0:0:0:
64,192,25183,1,2,0:0:0:0:
192,192,25183,1,4,0:0:0:0:
448,192,25183,1,0,0:0:0:0:
320,192,25333,1,0,0:0:0:50:SnareClap.wav
64,192,25483,1,2,0:0:0:0:
192,192,25483,1,0,0:0:0:0:
448,192,25633,1,0,0:0:0:50:SnareClap.wav
64,192,25783,1,2,0:0:0:0:
320,192,25783,1,0,0:0:0:0:
448,192,25933,1,0,0:0:0:50:SnareClap.wav
64,192,26083,1,2,0:0:0:0:
320,192,26083,1,0,0:0:0:0:
192,192,26233,1,0,0:0:0:50:SnareClap.wav
448,192,26383,1,2,0:0:0:0:
320,192,26383,1,0,0:0:0:0:
192,192,26533,1,0,0:0:0:50:SnareClap.wav
320,192,26683,1,2,0:0:0:0:
448,192,26683,1,0,0:0:0:0:
64,192,26833,1,0,0:0:0:50:SnareClap.wav
192,192,26983,1,2,0:0:0:0:
448,192,26983,1,0,0:0:0:0:
64,192,27133,1,0,0:0:0:50:SnareClap.wav
192,192,27283,1,2,0:0:0:0:
448,192,27283,1,0,0:0:0:0:
64,192,27433,1,0,0:0:0:50:SnareClap.wav
192,192,27508,1,0,0:0:0:50:SnareClap.wav
320,192,27583,1,2,0:0:0:0:
448,192,27583,1,0,0:0:0:0:
64,192,27733,1,0,0:0:0:50:SnareClap.wav
448,192,27883,1,2,0:0:0:0:
320,192,27883,1,0,0:0:0:0:
64,192,28033,1,0,0:0:0:50:SnareClap.wav
192,192,28183,1,2,0:0:0:0:
448,192,28183,1,0,0:0:0:0:
64,192,28333,1,0,0:0:0:50:SnareClap.wav
448,192,28483,1,2,0:0:0:0:
192,192,28483,1,0,0:0:0:0:
320,192,28633,1,0,0:0:0:50:SnareClap.wav
448,192,28708,1,0,0:0:0:50:SnareClap.wav
192,192,28783,1,2,0:0:0:0:
64,192,28783,1,0,0:0:0:0:
320,192,28933,1,0,0:0:0:50:SnareClap.wav
192,192,29083,1,2,0:0:0:0:
64,192,29083,1,0,0:0:0:0:
448,192,29233,1,0,0:0:0:50:SnareClap.wav
64,192,29383,1,2,0:0:0:0:
320,192,29383,1,0,0:0:0:0:
448,192,29533,1,0,0:0:0:50:SnareClap.wav
320,192,29683,1,2,0:0:0:0:
64,192,29683,1,0,0:0:0:0:
192,192,29833,1,0,0:0:0:50:SnareClap.wav
320,192,29908,1,0,0:0:0:50:SnareClap.wav
64,192,29983,1,2,0:0:0:0:
192,192,29983,1,4,0:0:0:0:
448,192,29983,1,0,0:0:0:0:
448,192,30133,1,0,0:0:0:50:SnareClap.wav
320,192,30283,1,2,0:0:0:0:
64,192,30283,1,0,0:0:0:50:SnareClap.wav
64,192,30433,1,0,0:0:0:50:SnareClap.wav
192,192,30583,1,2,0:0:0:0:
448,192,30583,1,0,0:0:0:50:SnareClap.wav
448,192,30733,1,0,0:0:0:50:SnareClap.wav
64,192,30883,1,2,0:0:0:0:
320,192,30883,1,0,0:0:0:50:SnareClap.wav
64,192,31033,1,0,0:0:0:50:SnareClap.wav
192,192,31183,1,2,0:0:0:0:
320,192,31183,1,4,0:0:0:0:
448,192,31183,1,0,0:0:0:50:SnareClap.wav
320,192,31333,1,0,0:0:0:50:SnareClap.wav
64,192,31483,1,2,0:0:0:0:
192,192,31483,1,0,0:0:0:50:SnareClap.wav
192,192,31633,1,0,0:0:0:50:SnareClap.wav
320,192,31783,1,2,0:0:0:0:
448,192,31783,1,0,0:0:0:50:SnareClap.wav
320,192,31933,1,0,0:0:0:50:SnareClap.wav
64,192,32083,1,2,0:0:0:0:
192,192,32083,1,0,0:0:0:50:SnareClap.wav
320,192,32158,1,2,0:0:0:0:
192,192,32233,1,2,0:0:0:0:
320,192,32308,1,2,0:0:0:0:
64,192,32383,1,2,0:0:0:0:
192,192,32383,1,4,0:0:0:0:
448,192,32383,1,0,0:0:0:50:SnareClap.wav
64,192,32533,1,2,0:0:0:0:
320,192,32533,1,0,0:0:0:50:SnareClap.wav
192,192,32683,1,6,0:0:0:0:
320,192,32683,1,0,0:0:0:50:SnareClap.wav
192,192,32833,1,2,0:0:0:0:
448,192,32833,1,0,0:0:0:50:SnareClap.wav
320,192,32983,1,2,0:0:0:0:
448,192,32983,1,4,0:0:0:0:
192,192,33058,1,2,0:0:0:0:
64,192,33133,1,2,0:0:0:0:
448,192,33208,1,2,0:0:0:0:
64,192,33283,1,2,0:0:0:0:
320,192,33283,1,4,0:0:0:0:
192,192,33358,1,2,0:0:0:0:
448,192,33433,1,2,0:0:0:0:
320,192,33508,1,2,0:0:0:0:
192,192,33583,1,0,0:0:0:70:Snare.wav
64,192,33583,128,0,34483:0:0:0:0:
448,192,33583,1,0,0:0:0:0:
192,192,33733,1,0,0:0:0:0:
320,192,33883,1,0,0:0:0:70:Snare.wav
448,192,33883,1,0,0:0:0:0:
320,192,34033,1,0,0:0:0:0:
448,192,34183,1,0,0:0:0:70:Snare.wav
192,192,34183,1,0,0:0:0:0:
192,192,34333,1,0,0:0:0:0:
320,192,34483,128,0,34783:0:0:0:0:
64,192,34783,128,2,34933:0:0:0:0:
192,192,34783,1,4,0:0:0:0:
448,192,34783,1,0,0:0:0:0:
320,192,34933,1,0,0:0:0:0:
64,192,35083,1,2,0:0:0:0:
192,192,35083,1,8,0:0:0:0:
448,192,35083,1,0,0:0:0:0:
320,192,35233,128,0,35383:0:0:0:0:
64,192,35383,1,2,0:0:0:0:
192,192,35383,1,0,0:0:0:0:
320,192,35533,128,0,35683:0:0:0:0:
64,192,35683,1,2,0:0:0:0:
192,192,35683,128,8,35833:0:0:0:0:
448,192,35683,1,0,0:0:0:0:
320,192,35833,128,0,35983:0:0:0:0:
448,192,35983,128,0,36133:0:0:0:0:
64,192,35983,128,2,36133:0:0:0:0:
192,192,36133,128,0,36283:0:0:0:0:
64,192,36283,1,2,0:0:0:0:
320,192,36283,1,8,0:0:0:0:
448,192,36283,1,0,0:0:0:0:
192,192,36433,128,0,36583:0:0:0:0:
64,192,36583,1,2,0:0:0:0:
320,192,36583,128,0,36733:0:0:0:0:
448,192,36733,1,0,0:0:0:0:
192,192,36883,128,8,37033:0:0:0:0:
320,192,36883,1,0,0:0:0:0:
64,192,36883,128,2,37033:0:0:0:0:
448,192,37033,1,0,0:0:0:0:
64,192,37183,128,2,37333:0:0:0:0:
192,192,37183,1,0,0:0:0:0:
320,192,37333,1,0,0:0:0:0:
64,192,37483,1,2,0:0:0:0:
192,192,37483,1,8,0:0:0:0:
448,192,37483,1,0,0:0:0:0:
320,192,37633,1,0,0:0:0:0:
64,192,37783,1,2,0:0:0:0:
448,192,37783,128,0,37933:0:0:0:0:
192,192,37933,128,0,38083:0:0:0:0:
64,192,38083,1,2,0:0:0:0:
320,192,38083,1,8,0:0:0:0:
448,192,38083,128,0,38233:0:0:0:0:
192,192,38233,1,0,0:0:0:0:
64,192,38383,128,0,38533:0:0:0:0:
320,192,38383,128,2,38533:0:0:0:0:
192,192,38533,128,0,38683:0:0:0:0:
64,192,38683,1,2,0:0:0:0:
320,192,38683,1,8,0:0:0:0:
448,192,38683,1,0,0:0:0:0:
192,192,38833,128,0,38983:0:0:0:0:
64,192,38983,1,2,0:0:0:0:
448,192,38983,128,0,39133:0:0:0:0:
320,192,39133,1,0,0:0:0:0:
64,192,39283,1,2,0:0:0:0:
192,192,39283,1,8,0:0:0:0:
448,192,39283,1,0,0:0:0:0:
320,192,39358,1,0,0:0:0:0:
192,192,39433,1,0,0:0:0:0:
320,192,39508,1,0,0:0:0:0:
448,192,39583,128,2,39733:0:0:0:0:
64,192,39583,1,0,0:0:0:0:
192,192,39733,1,0,0:0:0:0:
64,192,39883,1,2,0:0:0:0:
320,192,39883,1,8,0:0:0:0:
448,192,39883,1,0,0:0:0:0:
192,192,40033,128,0,40183:0:0:0:0:
448,192,40183,1,2,0:0:0:0:
320,192,40183,1,0,0:0:0:0:
192,192,40333,128,0,40483:0:0:0:0:
64,192,40483,1,2,0:0:0:0:
320,192,40483,128,8,40633:0:0:0:0:
448,192,40483,1,0,0:0:0:0:
192,192,40633,128,0,40783:0:0:0:0:
448,192,40783,128,0,40933:0:0:0:0:
64,192,40783,128,2,40933:0:0:0:0:
320,192,40933,128,0,41083:0:0:0:0:
64,192,41083,1,2,0:0:0:0:
192,192,41083,1,8,0:0:0:0:
448,192,41083,1,0,0:0:0:0:
320,192,41233,128,0,41383:0:0:0:0:
192,192,41383,1,2,0:0:0:0:
64,192,41383,128,0,41533:0:0:0:0:
448,192,41533,1,0,0:0:0:0:
64,192,41683,1,2,0:0:0:0:
320,192,41683,128,0,41833:0:0:0:0:
192,192,41683,128,8,41833:0:0:0:0:
448,192,41833,1,0,0:0:0:0:
64,192,41983,128,2,42133:0:0:0:0:
192,192,41983,1,0,0:0:0:0:
448,192,42133,1,0,0:0:0:0:
64,192,42283,1,2,0:0:0:0:
192,192,42283,1,8,0:0:0:0:
320,192,42283,1,0,0:0:0:0:
448,192,42433,128,0,42583:0:0:0:0:
192,192,42583,1,2,0:0:0:0:
64,192,42583,128,0,42733:0:0:0:0:
320,192,42733,128,0,42883:0:0:0:0:
192,192,42883,1,2,0:0:0:0:
64,192,42883,128,8,43033:0:0:0:0:
448,192,42883,1,0,0:0:0:0:
320,192,43033,1,0,0:0:0:0:
64,192,43183,1,2,0:0:0:0:
192,192,43183,1,4,0:0:0:0:
448,192,43183,128,0,43633:0:0:0:0:
320,192,43333,128,0,43483:0:0:0:0:
64,192,43483,1,8,0:0:0:0:
192,192,43483,1,0,0:0:0:0:
320,192,43633,128,0,43783:0:0:0:0:
192,192,43783,1,4,0:0:0:0:
64,192,43783,1,2,0:0:0:0:
448,192,43783,128,0,43858:0:0:0:0:
64,192,43933,1,0,0:0:0:0:
320,192,43933,128,0,44008:0:0:0:0:
448,192,44083,1,0,0:0:0:0:
192,192,44083,128,0,44158:0:0:0:0:
320,192,44233,1,2,0:0:0:0:
64,192,44233,128,0,44308:0:0:0:0:
64,192,44383,1,2,0:0:0:0:
320,192,44383,1,4,0:0:0:0:
448,192,44383,128,0,44533:0:0:0:0:
192,192,44533,1,0,0:0:0:0:
64,192,44683,1,2,0:0:0:0:
320,192,44683,1,8,0:0:0:0:
448,192,44683,1,0,0:0:0:0:
192,192,44833,128,0,44983:0:0:0:0:
64,192,44983,1,2,0:0:0:0:
448,192,44983,1,0,0:0:0:0:
192,192,45133,128,0,45283:0:0:0:0:
64,192,45283,1,2,0:0:0:0:
320,192,45283,1,8,0:0:0:0:
448,192,45283,128,0,45433:0:0:0:0:
192,192,45433,128,0,45583:0:0:0:0:
64,192,45583,128,2,45733:0:0:0:0:
320,192,45583,128,0,45733:0:0:0:0:
448,192,45733,128,0,45883:0:0:0:0:
64,192,45883,1,2,0:0:0:0:
192,192,45883,1,8,0:0:0:0:
320,192,45883,1,0,0:0:0:0:
448,192,46033,128,0,46183:0:0:0:0:
64,192,46183,128,2,46333:0:0:0:0:
320,192,46183,1,0,0:0:0:0:
192,192,46333,1,0,0:0:0:0:
64,192,46483,1,0,0:0:0:0:
448,192,46483,128,2,46633:0:0:0:0:
320,192,46483,128,8,46633:0:0:0:0:
192,192,46633,1,0,0:0:0:0:
448,192,46783,1,2,0:0:0:0:
64,192,46783,128,0,46933:0:0:0:0:
320,192,46933,1,0,0:0:0:0:
64,192,47083,1,2,0:0:0:0:
192,192,47083,1,8,0:0:0:0:
448,192,47083,1,0,0:0:0:0:
320,192,47233,128,0,47383:0:0:0:0:
192,192,47383,1,2,0:0:0:0:
64,192,47383,128,0,47533:0:0:0:0:
448,192,47533,128,0,47683:0:0:0:0:
192,192,47683,1,2,0:0:0:0:
64,192,47683,128,8,47833:0:0:0:0:
320,192,47683,1,0,0:0:0:0:
448,192,47833,1,0,0:0:0:0:
192,192,47983,128,0,48133:0:0:0:0:
320,192,47983,128,2,48133:0:0:0:0:
448,192,48133,128,0,48283:0:0:0:0:
64,192,48283,1,2,0:0:0:0:
192,192,48283,1,8,0:0:0:0:
320,192,48283,1,0,0:0:0:0:
448,192,48433,128,0,48583:0:0:0:0:
320,192,48583,1,0,0:0:0:0:
64,192,48583,1,2,0:0:0:0:
64,192,48733,1,0,0:0:0:0:
192,192,48883,1,2,0:0:0:0:
448,192,48883,1,8,0:0:0:0:
64,192,48883,1,0,0:0:0:0:
448,192,49033,1,0,0:0:0:0:
64,192,49183,128,2,49333:0:0:0:0:
448,192,49183,1,0,0:0:0:0:
320,192,49333,1,0,0:0:0:0:
64,192,49483,1,2,0:0:0:0:
192,192,49483,1,8,0:0:0:0:
448,192,49483,1,0,0:0:0:0:
320,192,49633,128,0,49783:0:0:0:0:
64,192,49783,1,2,0:0:0:0:
448,192,49783,1,0,0:0:0:0:
320,192,49933,128,0,50083:0:0:0:0:
64,192,50083,128,2,50233:0:0:0:0:
192,192,50083,1,8,0:0:0:0:
448,192,50083,1,0,0:0:0:0:
320,192,50233,128,0,50383:0:0:0:0:
448,192,50383,128,0,50533:0:0:0:0:
192,192,50383,128,2,50533:0:0:0:0:
64,192,50533,128,0,50683:0:0:0:0:
192,192,50683,1,2,0:0:0:0:
320,192,50683,1,8,0:0:0:0:
448,192,50683,1,0,0:0:0:0:
64,192,50833,128,0,50983:0:0:0:0:
192,192,50983,1,2,0:0:0:0:
448,192,50983,128,0,51133:0:0:0:0:
320,192,51133,1,0,0:0:0:0:
192,192,51283,128,8,51433:0:0:0:0:
448,192,51283,1,0,0:0:0:0:
64,192,51283,128,2,51433:0:0:0:0:
320,192,51433,1,0,0:0:0:0:
64,192,51583,1,2,0:0:0:0:
192,192,51583,1,4,0:0:0:0:
448,192,51583,1,0,0:0:0:0:
64,192,51733,1,0,0:0:0:0:
320,192,51733,1,0,0:0:0:0:
448,192,51883,1,0,0:0:0:0:
192,192,51883,1,0,0:0:0:0:
64,192,52033,1,0,0:0:0:0:
192,192,52033,1,0,0:0:0:0:
448,192,52183,1,0,0:0:0:0:
320,192,52183,1,0,0:0:0:0:
192,192,52333,1,0,0:0:0:0:
320,192,52333,1,0,0:0:0:0:
448,192,52483,1,0,0:0:0:0:
64,192,52483,1,0,0:0:0:0:
320,192,52633,1,0,0:0:0:0:
64,192,52633,1,0,0:0:0:0:
320,192,52783,1,4,0:0:0:0:
448,192,52783,1,0,0:0:0:0:
192,192,52783,1,2,0:0:0:0:
448,192,52933,1,0,0:0:0:0:
64,192,53083,1,0,0:0:0:0:
64,192,53233,1,0,0:0:0:0:
192,192,53383,1,2,0:0:0:0:
448,192,53383,1,0,0:0:0:0:
320,192,53383,1,4,0:0:0:0:
192,192,53533,1,0,0:0:0:0:
320,192,53683,1,0,0:0:0:0:
448,192,53683,1,4,0:0:0:0:
448,192,53833,1,0,0:0:0:50:soft-hitfinish.wav
320,192,53833,1,2,0:0:0:0:
64,192,53983,1,2,0:0:0:0:
320,192,53983,128,4,54283:0:0:0:0:
448,192,53983,128,0,54283:0:0:0:0:
64,192,54283,128,2,54433:0:0:0:0:
192,192,54283,1,8,0:0:0:0:
320,192,54433,128,0,54583:0:0:0:0:
448,192,54583,1,2,0:0:0:0:
64,192,54583,128,0,54733:0:0:0:0:
320,192,54733,128,0,54883:0:0:0:0:
192,192,54883,1,2,0:0:0:0:
448,192,54883,1,8,0:0:0:0:
64,192,55033,128,0,55183:0:0:0:0:
448,192,55183,1,2,0:0:0:0:
320,192,55183,128,0,55333:0:0:0:0:
64,192,55333,128,0,55483:0:0:0:0:
192,192,55483,1,2,0:0:0:0:
448,192,55483,1,8,0:0:0:0:
320,192,55633,1,0,0:0:0:0:
448,192,55633,1,0,0:0:0:0:
192,192,55783,128,0,55933:0:0:0:0:
64,192,55783,1,2,0:0:0:0:
320,192,55858,128,0,55933:0:0:0:0:
448,192,55933,1,0,0:0:0:0:
192,192,56083,128,2,56233:0:0:0:0:
320,192,56083,128,8,56158:0:0:0:0:
64,192,56233,128,0,56383:0:0:0:0:
320,192,56383,128,2,56683:0:0:0:0:
448,192,56383,128,0,56683:0:0:0:0:
64,192,56683,1,2,0:0:0:0:
192,192,56683,128,8,56833:0:0:0:0:
448,192,56833,128,0,56983:0:0:0:0:
64,192,56983,1,2,0:0:0:0:
192,192,56983,128,0,57133:0:0:0:0:
448,192,57133,128,0,57283:0:0:0:0:
320,192,57283,1,2,0:0:0:0:
64,192,57283,1,8,0:0:0:0:
192,192,57433,128,0,57583:0:0:0:0:
64,192,57583,1,2,0:0:0:0:
448,192,57583,128,0,57733:0:0:0:0:
192,192,57733,128,0,57883:0:0:0:0:
64,192,57883,1,8,0:0:0:0:
448,192,57883,128,2,58033:0:0:0:0:
192,192,58033,128,0,58183:0:0:0:0:
448,192,58183,1,2,0:0:0:0:
320,192,58233,1,2,0:0:0:0:
192,192,58283,1,2,0:0:0:0:
64,192,58333,1,2,0:0:0:0:
448,192,58483,1,8,0:0:0:0:
320,192,58483,1,0,0:0:0:0:
192,192,58558,1,0,0:0:0:0:
64,192,58633,128,0,58783:0:0:0:0:
448,192,58783,128,2,59083:0:0:0:0:
320,192,58783,128,0,59083:0:0:0:0:
64,192,59083,128,2,59233:0:0:0:0:
192,192,59083,1,8,0:0:0:0:
320,192,59233,128,0,59383:0:0:0:0:
448,192,59383,1,2,0:0:0:0:
64,192,59383,128,0,59533:0:0:0:0:
320,192,59533,128,0,59683:0:0:0:0:
192,192,59683,1,2,0:0:0:0:
448,192,59683,1,8,0:0:0:0:
64,192,59833,128,0,59983:0:0:0:0:
192,192,59983,1,2,0:0:0:0:
448,192,59983,128,0,60283:0:0:0:0:
192,192,60133,128,0,60283:0:0:0:0:
320,192,60283,1,8,0:0:0:0:
64,192,60283,128,2,60583:0:0:0:0:
320,192,60433,128,0,60583:0:0:0:0:
448,192,60583,1,2,0:0:0:0:
192,192,60583,1,0,0:0:0:0:
192,192,60733,1,0,0:0:0:0:
448,192,60733,1,0,0:0:0:0:
448,192,60883,128,8,60958:0:0:0:0:
320,192,60883,128,2,61033:0:0:0:0:
192,192,61033,1,0,0:0:0:0:
64,192,61033,128,0,61183:0:0:0:0:
320,192,61183,1,2,0:0:0:0:
448,192,61183,1,0,0:0:0:45:Clap.wav
192,192,61333,1,0,0:0:0:45:Clap.wav
448,192,61333,1,0,0:0:0:0:
320,192,61483,1,0,0:0:0:45:Clap.wav
64,192,61483,1,2,0:0:0:0:
192,192,61633,1,0,0:0:0:0:
64,192,61633,1,0,0:0:0:45:Clap.wav
192,192,61783,1,8,0:0:0:0:
320,192,61783,1,0,0:0:0:0:
448,192,61783,1,0,0:0:0:45:Clap.wav
320,192,61933,1,2,0:0:0:0:
448,192,61933,1,0,0:0:0:45:Clap.wav
64,192,62083,1,0,0:0:0:45:Clap.wav
192,192,62083,1,0,0:0:0:0:
448,192,62233,1,8,0:0:0:0:
320,192,62233,1,0,0:0:0:45:Clap.wav
64,192,62383,1,2,0:0:0:0:
192,192,62383,1,4,0:0:0:0:
448,192,62383,1,0,0:0:0:45:Clap.wav
64,192,62533,1,8,0:0:0:0:
192,192,62533,1,0,0:0:0:45:Clap.wav
192,192,62683,1,2,0:0:0:0:
320,192,62683,1,0,0:0:0:45:Clap.wav
448,192,62833,1,0,0:0:0:45:Clap.wav
64,192,62833,1,0,0:0:0:0:
64,192,62983,1,8,0:0:0:0:
192,192,62983,1,4,0:0:0:0:
448,192,62983,1,0,0:0:0:0:
448,192,63133,1,2,0:0:0:0:
320,192,63133,1,0,0:0:0:0:
64,192,63283,128,0,63508:0:0:0:0:
192,192,63283,128,0,63508:0:0:0:85:Snare.wav
64,192,63583,128,2,63883:0:0:0:0:
192,192,63583,128,4,63883:0:0:0:0:
448,192,63583,1,0,0:0:0:0:
320,192,63883,128,2,64033:0:0:0:0:
448,192,63883,1,8,0:0:0:0:
64,192,64033,128,0,64183:0:0:0:0:
192,192,64183,1,2,0:0:0:0:
320,192,64183,128,0,64333:0:0:0:0:
64,192,64333,128,0,64483:0:0:0:0:
192,192,64483,1,2,0:0:0:0:
448,192,64483,1,8,0:0:0:0:
320,192,64633,128,0,64783:0:0:0:0:
64,192,64783,128,2,64933:0:0:0:0:
448,192,64783,1,0,0:0:0:0:
320,192,64933,128,0,65083:0:0:0:0:
448,192,65083,1,2,0:0:0:0:
192,192,65083,1,8,0:0:0:0:
320,192,65233,1,0,0:0:0:0:
448,192,65233,1,0,0:0:0:0:
192,192,65383,128,0,65533:0:0:0:0:
64,192,65383,1,2,0:0:0:0:
320,192,65458,128,0,65533:0:0:0:0:
448,192,65533,1,0,0:0:0:0:
192,192,65683,128,2,65833:0:0:0:0:
320,192,65683,128,8,65758:0:0:0:0:
64,192,65833,128,0,65983:0:0:0:0:
320,192,65983,128,2,66283:0:0:0:0:
448,192,65983,128,0,66283:0:0:0:0:
192,192,66283,128,2,66433:0:0:0:0:
64,192,66283,1,8,0:0:0:0:
448,192,66433,128,0,66583:0:0:0:0:
64,192,66583,1,2,0:0:0:0:
192,192,66583,128,0,66733:0:0:0:0:
448,192,66733,128,0,66883:0:0:0:0:
64,192,66883,1,2,0:0:0:0:
320,192,66883,1,8,0:0:0:0:
192,192,67033,128,0,67183:0:0:0:0:
64,192,67183,128,2,67483:0:0:0:0:
320,192,67183,1,0,0:0:0:0:
320,192,67333,128,0,67483:0:0:0:0:
192,192,67483,1,8,0:0:0:0:
448,192,67483,128,2,67783:0:0:0:0:
192,192,67633,128,0,67783:0:0:0:0:
320,192,67783,128,0,67858:0:0:0:0:
64,192,67783,1,2,0:0:0:0:
320,192,67933,128,0,68083:0:0:0:0:
64,192,67933,1,0,0:0:0:0:
448,192,68083,1,2,0:0:0:0:
192,192,68083,1,8,0:0:0:0:
448,192,68233,1,2,0:0:0:0:
192,192,68233,1,0,0:0:0:0:
320,192,68383,1,4,0:0:0:0:
448,192,68383,1,2,0:0:0:0:
64,192,68383,128,0,68683:0:0:0:0:
320,192,68533,1,0,0:0:0:45:Clap.wav
448,192,68683,1,0,0:0:0:45:Clap.wav
192,192,68683,128,0,68983:0:0:0:0:
448,192,68833,1,0,0:0:0:45:Clap.wav
448,192,68983,1,2,0:0:0:0:
320,192,68983,128,4,69283:0:0:0:0:
64,192,68983,1,0,0:0:0:45:Clap.wav
64,192,69133,1,0,0:0:0:45:Clap.wav
192,192,69283,1,0,0:0:0:45:Clap.wav
448,192,69283,128,0,69583:0:0:0:0:
192,192,69433,1,0,0:0:0:45:Clap.wav
192,192,69583,1,4,0:0:0:0:
320,192,69583,1,0,0:0:0:45:Clap.wav
64,192,69583,128,2,69883:0:0:0:0:
320,192,69733,1,0,0:0:0:45:Clap.wav
448,192,69883,1,0,0:0:0:45:Clap.wav
192,192,69883,128,0,70183:0:0:0:0:
448,192,70033,1,0,0:0:0:45:Clap.wav
64,192,70183,1,0,0:0:0:45:Clap.wav
320,192,70183,128,4,70483:0:0:0:0:
448,192,70183,1,2,0:0:0:0:
64,192,70333,1,0,0:0:0:45:Clap.wav
192,192,70483,1,0,0:0:0:45:Clap.wav
448,192,70483,128,0,70783:0:0:0:0:
192,192,70633,1,0,0:0:0:45:Clap.wav
64,192,70783,1,0,0:0:0:70:Snare.wav
320,192,70783,1,0,0:0:0:0:
192,192,70858,1,0,0:0:0:0:
320,192,70933,1,0,0:0:0:0:
192,192,71008,1,0,0:0:0:0:
64,192,71083,1,0,0:0:0:70:Snare.wav
448,192,71083,1,0,0:0:0:0:
320,192,71158,1,0,0:0:0:0:
448,192,71233,1,0,0:0:0:0:
192,192,71308,1,0,0:0:0:0:
64,192,71383,1,0,0:0:0:70:Snare.wav
320,192,71383,1,0,0:0:0:0:
192,192,71458,1,0,0:0:0:0:
320,192,71533,1,0,0:0:0:0:
448,192,71608,1,0,0:0:0:0:
64,192,71683,1,0,0:0:0:70:Snare.wav
192,192,71683,1,0,0:0:0:0:
320,192,71758,1,0,0:0:0:0:
192,192,71833,1,0,0:0:0:0:
64,192,71908,1,0,0:0:0:0:
320,192,71983,1,6,0:0:0:0:
448,192,71983,1,0,0:0:0:50:SnareClap.wav
192,192,72058,1,0,0:0:0:50:SnareClap.wav
448,192,72133,1,0,0:0:0:50:SnareClap.wav
192,192,72208,1,0,0:0:0:50:SnareClap.wav
320,192,72283,1,0,0:0:0:50:SnareClap.wav
64,192,72358,1,0,0:0:0:50:SnareClap.wav
320,192,72433,1,0,0:0:0:50:SnareClap.wav
64,192,72508,1,0,0:0:0:50:SnareClap.wav
448,192,72583,1,0,0:0:0:50:SnareClap.wav
192,192,72658,1,0,0:0:0:50:SnareClap.wav
448,192,72733,1,0,0:0:0:50:SnareClap.wav
192,192,72808,1,0,0:0:0:50:SnareClap.wav
320,192,72883,1,0,0:0:0:50:SnareClap.wav
64,192,72958,1,0,0:0:0:50:SnareClap.wav
320,192,73033,1,0,0:0:0:50:SnareClap.wav
64,192,73108,1,0,0:0:0:50:SnareClap.wav
192,192,73183,128,2,73333:0:0:0:0:
448,192,73183,128,4,73333:0:0:0:0:
320,192,73333,128,0,73483:0:0:0:0:
192,192,73483,128,0,73633:0:0:0:45:Clap.wav
64,192,73633,128,0,73783:0:0:0:0:
448,192,73633,128,0,73783:0:0:0:0:
320,192,73783,128,0,73933:0:0:0:45:Clap.wav
192,192,73933,128,0,74083:0:0:0:0:
448,192,74083,128,0,74233:0:0:0:45:Clap.wav
320,192,74233,128,0,74383:0:0:0:0:
192,192,74383,128,0,74533:0:0:0:45:Clap.wav
64,192,74533,128,0,74683:0:0:0:0:
448,192,74533,128,0,74683:0:0:0:0:
320,192,74683,128,0,74833:0:0:0:45:Clap.wav
448,192,74833,128,0,74983:0:0:0:0:
192,192,74983,128,0,75133:0:0:0:45:Clap.wav
320,192,75133,128,0,75283:0:0:0:0:
64,192,75283,128,0,75433:0:0:0:45:Clap.wav
192,192,75433,128,0,75583:0:0:0:0:
448,192,75583,128,0,75733:0:0:0:45:Clap.wav
320,192,75733,128,0,75883:0:0:0:0:
192,192,75883,128,0,76033:0:0:0:45:Clap.wav
64,192,76033,128,0,76183:0:0:0:0:
448,192,76033,128,0,76183:0:0:0:0:
320,192,76183,128,0,76333:0:0:0:45:Clap.wav
192,192,76333,128,0,76483:0:0:0:0:
448,192,76483,128,0,76633:0:0:0:45:Clap.wav
320,192,76633,128,0,76783:0:0:0:0:
192,192,76783,128,0,76933:0:0:0:45:Clap.wav
64,192,76933,128,0,77083:0:0:0:0:
448,192,76933,128,0,77083:0:0:0:0:
320,192,77083,128,0,77233:0:0:0:45:Clap.wav
192,192,77233,128,0,77383:0:0:0:0:
448,192,77383,128,0,77533:0:0:0:45:Clap.wav
64,192,77383,128,0,77683:0:0:0:0:
320,192,77533,128,0,77683:0:0:0:0:
192,192,77683,128,0,77833:0:0:0:45:Clap.wav
448,192,77683,128,0,77983:0:0:0:0:
64,192,77833,128,0,77983:0:0:0:0:
320,192,77983,1,4,0:0:0:0:
192,192,77983,128,0,78133:0:0:0:45:Clap.wav
64,192,78133,128,0,78283:0:0:0:0:
320,192,78283,128,0,78433:0:0:0:45:Clap.wav
64,192,78433,128,0,78583:0:0:0:0:
448,192,78433,128,0,78583:0:0:0:0:
320,192,78583,128,0,78733:0:0:0:45:Clap.wav
192,192,78733,128,0,78883:0:0:0:0:
448,192,78883,128,0,79033:0:0:0:45:Clap.wav
320,192,79033,128,0,79183:0:0:0:0:
192,192,79183,128,0,79333:0:0:0:45:Clap.wav
64,192,79333,128,0,79483:0:0:0:0:
448,192,79333,128,0,79483:0:0:0:0:
320,192,79483,128,0,79633:0:0:0:45:Clap.wav
192,192,79633,128,0,79783:0:0:0:0:
448,192,79783,128,0,79933:0:0:0:45:Clap.wav
320,192,79933,128,0,80083:0:0:0:0:
192,192,80083,128,0,80233:0:0:0:45:Clap.wav
64,192,80233,128,0,80383:0:0:0:0:
448,192,80383,128,0,80533:0:0:0:45:Clap.wav
320,192,80533,128,0,80683:0:0:0:0:
192,192,80683,128,0,80833:0:0:0:45:Clap.wav
64,192,80833,128,0,80983:0:0:0:0:
448,192,80833,128,0,80983:0:0:0:0:
320,192,80983,128,0,81133:0:0:0:45:Clap.wav
192,192,81133,128,0,81283:0:0:0:0:
448,192,81283,128,0,81433:0:0:0:45:Clap.wav
320,192,81433,128,0,81583:0:0:0:0:
192,192,81583,128,0,81733:0:0:0:45:Clap.wav
64,192,81733,128,0,81883:0:0:0:0:
448,192,81733,128,0,81883:0:0:0:0:
320,192,81883,128,0,82033:0:0:0:45:Clap.wav
192,192,82033,128,0,82183:0:0:0:0:
64,192,82183,128,0,82483:0:0:0:45:Clap.wav
448,192,82183,128,0,82333:0:0:0:0:
320,192,82333,128,0,82483:0:0:0:0:
192,192,82483,128,0,82633:0:0:0:45:Clap.wav
448,192,82483,128,0,82783:0:0:0:0:
64,192,82633,128,0,82783:0:0:0:0:
192,192,82783,1,2,0:0:0:0:
320,192,82783,1,4,0:0:0:0:
448,192,82933,1,0,0:0:0:0:
64,192,83083,1,0,0:0:0:45:Clap.wav
320,192,83083,128,0,83158:0:0:0:0:
320,192,83233,128,0,83308:0:0:0:0:
192,192,83383,128,0,83458:0:0:0:45:Clap.wav
448,192,83383,1,8,0:0:0:0:
192,192,83533,128,0,83608:0:0:0:0:
192,192,83683,128,2,83908:0:0:0:0:
448,192,83683,1,0,0:0:0:45:Clap.wav
64,192,83983,1,0,0:0:0:45:Clap.wav
448,192,83983,128,0,84058:0:0:0:0:
448,192,84133,128,0,84208:0:0:0:0:
192,192,84133,1,2,0:0:0:0:
64,192,84283,1,0,0:0:0:45:Clap.wav
320,192,84283,128,0,84358:0:0:0:0:
192,192,84433,1,2,0:0:0:0:
320,192,84433,128,0,84508:0:0:0:0:
448,192,84583,1,0,0:0:0:45:Clap.wav
64,192,84583,128,8,84658:0:0:0:0:
64,192,84733,128,0,84808:0:0:0:0:
320,192,84733,1,2,0:0:0:0:
448,192,84883,1,0,0:0:0:45:Clap.wav
64,192,84883,128,0,85108:0:0:0:0:
192,192,85183,1,0,0:0:0:45:Clap.wav
320,192,85183,1,2,0:0:0:0:
64,192,85333,1,0,0:0:0:0:
192,192,85483,1,0,0:0:0:45:Clap.wav
448,192,85483,128,0,85558:0:0:0:0:
448,192,85633,128,0,85708:0:0:0:0:
64,192,85783,128,8,85858:0:0:0:0:
320,192,85783,1,0,0:0:0:45:Clap.wav
64,192,85933,128,0,86008:0:0:0:0:
448,192,86083,1,2,0:0:0:0:
64,192,86083,128,0,86308:0:0:0:45:Clap.wav
448,192,86383,128,0,86458:0:0:0:45:Clap.wav
192,192,86383,1,0,0:0:0:0:
448,192,86533,128,0,86608:0:0:0:0:
64,192,86533,1,2,0:0:0:0:
192,192,86683,1,0,0:0:0:45:Clap.wav
320,192,86683,128,0,86758:0:0:0:0:
64,192,86833,1,2,0:0:0:0:
320,192,86833,128,0,86908:0:0:0:0:
192,192,86983,128,8,87058:0:0:0:0:
448,192,86983,1,0,0:0:0:45:Clap.wav
192,192,87133,128,0,87208:0:0:0:0:
320,192,87133,1,2,0:0:0:0:
192,192,87283,128,0,87508:0:0:0:0:
448,192,87283,1,0,0:0:0:45:Clap.wav
64,192,87583,1,2,0:0:0:0:
320,192,87583,1,4,0:0:0:0:
448,192,87583,1,0,0:0:0:0:
192,192,87733,1,2,0:0:0:0:
448,192,87733,1,0,0:0:0:0:
64,192,87883,1,2,0:0:0:0:
320,192,87883,1,0,0:0:0:0:
64,192,88033,1,2,0:0:0:0:
448,192,88033,1,8,0:0:0:0:
192,192,88183,1,2,0:0:0:0:
320,192,88183,1,0,0:0:0:0:
64,192,88333,1,2,0:0:0:0:
320,192,88333,1,0,0:0:0:0:
64,192,88483,1,2,0:0:0:0:
448,192,88483,1,8,0:0:0:0:
192,192,88633,1,2,0:0:0:0:
320,192,88633,1,0,0:0:0:0:
64,192,88783,1,2,0:0:0:0:
320,192,88783,1,4,0:0:0:0:
448,192,88783,1,0,0:0:0:0:
64,192,88933,1,2,0:0:0:0:
448,192,88933,1,8,0:0:0:0:
192,192,89083,1,2,0:0:0:0:
320,192,89083,1,0,0:0:0:0:
192,192,89233,1,2,0:0:0:0:
448,192,89233,1,0,0:0:0:0:
64,192,89383,1,2,0:0:0:0:
448,192,89383,1,8,0:0:0:0:
192,192,89533,1,2,0:0:0:0:
320,192,89533,1,0,0:0:0:0:
64,192,89683,1,2,0:0:0:0:
448,192,89683,1,8,0:0:0:0:
64,192,89833,1,2,0:0:0:0:
448,192,89833,1,8,0:0:0:0:
192,192,89983,128,0,92083:0:0:0:0:
320,192,91183,128,0,92083:0:0:0:0:
64,192,92083,1,0,0:0:0:85:Snare.wav
448,192,92083,1,0,0:0:0:0:
64,192,92383,1,2,0:0:0:0:
192,192,92383,1,4,0:0:0:0:
448,192,92383,128,0,92683:0:0:0:0:
64,192,92683,1,0,0:0:0:0:
320,192,92683,128,0,92758:0:0:0:0:
320,192,92833,128,0,92908:0:0:0:0:
64,192,92983,1,8,0:0:0:0:
448,192,92983,1,0,0:0:0:0:
192,192,93133,128,0,93208:0:0:0:0:
448,192,93283,1,2,0:0:0:0:
192,192,93283,128,0,93358:0:0:0:0:
320,192,93433,128,0,93508:0:0:0:0:
448,192,93583,1,0,0:0:0:0:
64,192,93583,128,0,93658:0:0:0:0:
448,192,93733,1,2,0:0:0:0:
192,192,93733,128,0,93808:0:0:0:0:
64,192,93883,1,0,0:0:0:0:
320,192,93883,128,0,93958:0:0:0:0:
64,192,94033,1,2,0:0:0:0:
448,192,94033,128,0,94108:0:0:0:0:
192,192,94183,1,8,0:0:0:0:
320,192,94183,1,0,0:0:0:0:
448,192,94333,1,2,0:0:0:0:
64,192,94333,128,0,94408:0:0:0:0:
448,192,94483,1,0,0:0:0:0:
192,192,94483,128,0,94558:0:0:0:0:
192,192,94633,128,0,94708:0:0:0:0:
448,192,94783,1,2,0:0:0:0:
320,192,94783,1,0,0:0:0:0:
64,192,95083,1,0,0:0:0:0:
320,192,95083,128,0,95158:0:0:0:0:
320,192,95233,128,0,95308:0:0:0:0:
64,192,95383,1,8,0:0:0:0:
448,192,95383,1,0,0:0:0:0:
192,192,95533,128,0,95608:0:0:0:0:
192,192,95683,128,0,95758:0:0:0:0:
448,192,95683,1,2,0:0:0:0:
320,192,95833,128,0,95908:0:0:0:0:
64,192,95983,128,0,96058:0:0:0:0:
448,192,95983,1,0,0:0:0:0:
448,192,96133,1,2,0:0:0:0:
192,192,96133,128,0,96208:0:0:0:0:
320,192,96283,128,0,96358:0:0:0:0:
64,192,96283,1,0,0:0:0:0:
448,192,96433,128,0,96508:0:0:0:0:
64,192,96433,1,2,0:0:0:0:
320,192,96583,1,8,0:0:0:0:
192,192,96583,128,0,96658:0:0:0:0:
64,192,96733,128,0,96808:0:0:0:0:
320,192,96733,1,0,0:0:0:0:
448,192,96883,1,2,0:0:0:0:
192,192,96883,1,0,0:0:0:0:
320,192,96958,1,0,0:0:0:0:
192,192,97033,1,2,0:0:0:0:
64,192,97033,1,0,0:0:0:0:
448,192,97183,128,2,97483:0:0:0:0:
320,192,97183,1,0,0:0:0:0:
192,192,97483,128,0,97558:0:0:0:0:
64,192,97483,1,0,0:0:0:0:
192,192,97633,128,0,97708:0:0:0:0:
64,192,97783,1,8,0:0:0:0:
448,192,97783,1,0,0:0:0:0:
320,192,97933,128,0,98008:0:0:0:0:
320,192,98083,128,0,98158:0:0:0:0:
64,192,98083,1,2,0:0:0:0:
192,192,98233,128,0,98308:0:0:0:0:
448,192,98383,128,0,98458:0:0:0:0:
64,192,98383,1,0,0:0:0:0:
320,192,98533,128,0,98608:0:0:0:0:
64,192,98533,1,2,0:0:0:0:
448,192,98683,1,0,0:0:0:0:
192,192,98683,128,0,98758:0:0:0:0:
64,192,98833,128,0,98908:0:0:0:0:
448,192,98833,1,2,0:0:0:0:
192,192,98983,1,8,0:0:0:0:
320,192,98983,1,0,0:0:0:0:
64,192,99133,1,2,0:0:0:0:
448,192,99133,128,0,99208:0:0:0:0:
320,192,99283,128,0,99358:0:0:0:0:
64,192,99283,1,0,0:0:0:0:
320,192,99433,128,0,99508:0:0:0:0:
64,192,99583,1,4,0:0:0:0:
448,192,99583,1,0,0:0:0:45:Clap.wav
192,192,99583,1,0,0:0:0:0:
192,192,99733,1,0,0:0:0:0:
448,192,99883,1,0,0:0:0:45:Clap.wav
64,192,99883,1,0,0:0:0:0:
64,192,100033,1,0,0:0:0:0:
448,192,100183,1,0,0:0:0:45:Clap.wav
320,192,100183,1,0,0:0:0:0:
320,192,100333,1,0,0:0:0:0:
448,192,100483,1,0,0:0:0:45:Clap.wav
192,192,100483,1,0,0:0:0:0:
192,192,100633,1,0,0:0:0:0:
448,192,100783,1,0,0:0:0:50:SnareClap.wav
64,192,100783,1,0,0:0:0:45:Clap.wav
192,192,100933,1,0,0:0:0:50:SnareClap.wav
448,192,100933,1,0,0:0:0:0:
64,192,101083,1,0,0:0:0:50:SnareClap.wav
320,192,101083,1,0,0:0:0:45:Clap.wav
192,192,101233,1,0,0:0:0:50:SnareClap.wav
320,192,101233,1,0,0:0:0:0:
64,192,101383,1,0,0:0:0:50:SnareClap.wav
448,192,101383,1,0,0:0:0:45:Clap.wav
64,192,101533,1,0,0:0:0:50:SnareClap.wav
320,192,101533,1,0,0:0:0:0:
448,192,101683,1,8,0:0:0:0:
192,192,101683,1,2,0:0:0:0:
192,192,101833,1,2,0:0:0:0:
320,192,101833,1,0,0:0:0:0:
448,192,101983,128,2,102283:0:0:0:0:
192,192,101983,1,4,0:0:0:0:
64,192,101983,1,0,0:0:0:0:
320,192,102283,128,0,102358:0:0:0:0:
64,192,102283,1,0,0:0:0:0:
320,192,102433,128,0,102508:0:0:0:0:
64,192,102583,1,8,0:0:0:0:
448,192,102583,1,0,0:0:0:0:
192,192,102733,128,0,102808:0:0:0:0:
448,192,102883,1,2,0:0:0:0:
192,192,102883,128,0,102958:0:0:0:0:
320,192,103033,128,0,103108:0:0:0:0:
64,192,103183,128,0,103258:0:0:0:0:
448,192,103183,1,0,0:0:0:0:
192,192,103333,128,0,103408:0:0:0:0:
448,192,103333,1,2,0:0:0:0:
320,192,103483,128,0,103558:0:0:0:0:
64,192,103483,1,0,0:0:0:0:
448,192,103633,128,0,103708:0:0:0:0:
64,192,103633,1,2,0:0:0:0:
192,192,103783,1,8,0:0:0:0:
320,192,103783,1,0,0:0:0:0:
64,192,103933,1,2,0:0:0:0:
448,192,103933,128,0,104008:0:0:0:0:
64,192,104083,1,0,0:0:0:0:
320,192,104083,128,0,104158:0:0:0:0:
320,192,104233,128,0,104308:0:0:0:0:
64,192,104383,1,0,0:0:0:0:
192,192,104383,1,2,0:0:0:0:
448,192,104683,1,0,0:0:0:0:
192,192,104683,128,0,104758:0:0:0:0:
192,192,104833,128,0,104908:0:0:0:0:
64,192,104983,1,8,0:0:0:0:
448,192,104983,1,0,0:0:0:0:
320,192,105133,128,0,105208:0:0:0:0:
64,192,105283,1,2,0:0:0:0:
320,192,105283,128,0,105358:0:0:0:0:
192,192,105433,128,0,105508:0:0:0:0:
448,192,105583,128,0,105658:0:0:0:0:
64,192,105583,1,0,0:0:0:0:
64,192,105733,1,2,0:0:0:0:
320,192,105733,128,0,105808:0:0:0:0:
448,192,105883,1,0,0:0:0:0:
192,192,105883,128,0,105958:0:0:0:0:
448,192,106033,1,2,0:0:0:0:
64,192,106033,128,0,106108:0:0:0:0:
320,192,106183,128,8,106258:0:0:0:0:
192,192,106183,1,0,0:0:0:0:
192,192,106333,1,0,0:0:0:0:
448,192,106333,128,0,106408:0:0:0:0:
64,192,106483,1,0,0:0:0:0:
192,192,106558,1,0,0:0:0:0:
448,192,106633,1,2,0:0:0:0:
320,192,106633,1,0,0:0:0:0:
448,192,106783,1,4,0:0:0:0:
192,192,106783,1,0,0:0:0:0:
64,192,106783,128,2,107083:0:0:0:0:
192,192,107083,128,0,107158:0:0:0:0:
448,192,107083,1,0,0:0:0:0:
192,192,107233,128,0,107308:0:0:0:0:
448,192,107383,1,8,0:0:0:0:
64,192,107383,1,0,0:0:0:0:
320,192,107533,128,0,107608:0:0:0:0:
64,192,107683,1,2,0:0:0:0:
320,192,107683,128,0,107758:0:0:0:0:
192,192,107833,128,0,107908:0:0:0:0:
448,192,107983,128,0,108058:0:0:0:0:
64,192,107983,1,0,0:0:0:0:
64,192,108133,1,2,0:0:0:0:
320,192,108133,128,0,108208:0:0:0:0:
192,192,108283,128,0,108358:0:0:0:0:
448,192,108283,1,0,0:0:0:0:
448,192,108433,1,2,0:0:0:0:
64,192,108433,128,0,108508:0:0:0:0:
192,192,108583,1,8,0:0:0:0:
320,192,108583,1,0,0:0:0:0:
448,192,108733,128,0,108808:0:0:0:0:
64,192,108733,1,2,0:0:0:0:
64,192,108883,1,0,0:0:0:0:
320,192,108883,128,0,108958:0:0:0:0:
320,192,109033,128,0,109108:0:0:0:0:
448,192,109183,128,0,109483:0:0:0:0:
64,192,109183,1,0,0:0:0:45:Clap.wav
192,192,109183,1,4,0:0:0:0:
320,192,109333,128,0,109483:0:0:0:0:
64,192,109483,1,0,0:0:0:45:Clap.wav
192,192,109483,128,0,109783:0:0:0:0:
320,192,109633,128,0,109783:0:0:0:0:
448,192,109783,128,0,110083:0:0:0:0:
64,192,109783,1,0,0:0:0:45:Clap.wav
192,192,109933,128,0,110083:0:0:0:0:
320,192,110083,128,0,110233:0:0:0:0:
64,192,110083,1,0,0:0:0:45:Clap.wav
448,192,110233,128,0,110383:0:0:0:0:
64,192,110383,1,4,0:0:0:0:
192,192,110383,1,0,0:0:0:45:Clap.wav
320,192,110383,1,0,0:0:0:0:
448,192,110533,128,0,110833:0:0:0:0:
64,192,110683,1,0,0:0:0:45:Clap.wav
320,192,110683,128,0,110983:0:0:0:0:
192,192,110833,128,0,110983:0:0:0:0:
448,192,110983,1,0,0:0:0:45:Clap.wav
64,192,110983,128,0,111283:0:0:0:0:
448,192,111133,1,0,0:0:0:45:Clap.wav
192,192,111283,1,0,0:0:0:45:Clap.wav
320,192,111283,1,0,0:0:0:0:
320,192,111433,1,0,0:0:0:45:Clap.wav
192,192,111433,1,0,0:0:0:0:
64,192,111583,1,2,0:0:0:0:
192,192,111583,1,4,0:0:0:0:
448,192,111583,128,0,111883:0:0:0:0:
64,192,111883,128,0,112033:0:0:0:45:Clap.wav
320,192,111883,1,0,0:0:0:0:
320,192,112033,1,0,0:0:0:0:
448,192,112183,1,8,0:0:0:0:
192,192,112183,1,0,0:0:0:45:Clap.wav
320,192,112333,1,0,0:0:0:0:
320,192,112483,1,2,0:0:0:0:
64,192,112483,128,0,112633:0:0:0:45:Clap.wav
448,192,112633,1,0,0:0:0:0:
320,192,112783,1,0,0:0:0:45:Clap.wav
192,192,112783,1,0,0:0:0:0:
192,192,112933,1,2,0:0:0:0:
448,192,112933,1,0,0:0:0:0:
64,192,113083,128,0,113233:0:0:0:45:Clap.wav
320,192,113083,1,0,0:0:0:0:
448,192,113233,1,2,0:0:0:0:
320,192,113233,1,0,0:0:0:0:
192,192,113383,1,8,0:0:0:0:
64,192,113383,1,0,0:0:0:45:Clap.wav
448,192,113533,1,2,0:0:0:0:
192,192,113533,1,0,0:0:0:0:
64,192,113683,128,0,113833:0:0:0:45:Clap.wav
320,192,113683,1,0,0:0:0:0:
320,192,113833,1,0,0:0:0:0:
192,192,113983,1,0,0:0:0:45:Clap.wav
448,192,113983,128,2,114283:0:0:0:0:
64,192,114283,128,0,114433:0:0:0:45:Clap.wav
320,192,114283,1,0,0:0:0:0:
320,192,114433,1,0,0:0:0:0:
192,192,114583,1,8,0:0:0:0:
448,192,114583,1,0,0:0:0:45:Clap.wav
320,192,114733,1,0,0:0:0:0:
64,192,114883,128,0,115033:0:0:0:45:Clap.wav
320,192,114883,1,2,0:0:0:0:
448,192,115033,1,0,0:0:0:0:
320,192,115183,1,0,0:0:0:45:Clap.wav
192,192,115183,1,0,0:0:0:0:
448,192,115333,1,2,0:0:0:0:
192,192,115333,1,0,0:0:0:0:
64,192,115483,128,0,115633:0:0:0:45:Clap.wav
320,192,115483,1,0,0:0:0:0:
320,192,115633,1,2,0:0:0:0:
448,192,115633,1,0,0:0:0:0:
192,192,115783,1,8,0:0:0:0:
64,192,115783,1,0,0:0:0:45:Clap.wav
448,192,115933,1,0,0:0:0:45:Clap.wav
192,192,115933,1,0,0:0:0:0:
320,192,116083,1,2,0:0:0:0:
64,192,116083,1,0,0:0:0:45:Clap.wav
320,192,116233,1,2,0:0:0:0:
64,192,116233,1,0,0:0:0:0:
192,192,116383,1,2,0:0:0:0:
448,192,116383,128,0,116683:0:0:0:45:Clap.wav
64,192,116683,128,0,116833:0:0:0:45:Clap.wav
320,192,116683,1,0,0:0:0:0:
320,192,116833,1,0,0:0:0:0:
448,192,116983,1,8,0:0:0:0:
192,192,116983,1,0,0:0:0:45:Clap.wav
320,192,117133,1,0,0:0:0:0:
64,192,117283,128,0,117433:0:0:0:45:Clap.wav
320,192,117283,1,2,0:0:0:0:
448,192,117433,1,0,0:0:0:0:
320,192,117583,1,0,0:0:0:45:Clap.wav
192,192,117583,1,0,0:0:0:0:
448,192,117733,1,2,0:0:0:0:
192,192,117733,1,0,0:0:0:0:
64,192,117883,128,0,118033:0:0:0:45:Clap.wav
320,192,117883,1,0,0:0:0:0:
448,192,118033,1,2,0:0:0:0:
320,192,118033,1,0,0:0:0:0:
192,192,118183,1,8,0:0:0:0:
64,192,118183,1,0,0:0:0:45:Clap.wav
192,192,118333,1,0,0:0:0:0:
320,192,118333,1,2,0:0:0:0:
448,192,118483,128,0,118633:0:0:0:45:Clap.wav
64,192,118483,1,0,0:0:0:0:
64,192,118633,1,0,0:0:0:0:
320,192,118783,1,4,0:0:0:0:
192,192,118783,1,0,0:0:0:45:Clap.wav
448,192,118783,1,0,0:0:0:0:
64,192,118933,1,0,0:0:0:45:Clap.wav
320,192,118933,1,0,0:0:0:0:
64,192,119083,1,0,0:0:0:45:Clap.wav
448,192,119083,1,0,0:0:0:0:
192,192,119233,1,0,0:0:0:45:Clap.wav
448,192,119233,1,0,0:0:0:0:
448,192,119383,1,0,0:0:0:45:Clap.wav
64,192,119383,1,0,0:0:0:0:
64,192,119533,1,0,0:0:0:45:Clap.wav
320,192,119533,1,0,0:0:0:0:
64,192,119683,1,2,0:0:0:0:
448,192,119683,1,0,0:0:0:45:Clap.wav
192,192,119833,1,0,0:0:0:45:Clap.wav
448,192,119833,1,0,0:0:0:0:
64,192,119983,1,4,0:0:0:0:
320,192,119983,1,0,0:0:0:45:Clap.wav
448,192,119983,1,0,0:0:0:0:
64,192,120133,1,2,0:0:0:0:
192,192,120133,1,0,0:0:0:45:Clap.wav
448,192,120283,1,0,0:0:0:45:Clap.wav
320,192,120283,1,0,0:0:0:0:
448,192,120433,1,2,0:0:0:0:
192,192,120433,1,0,0:0:0:45:Clap.wav
320,192,120583,1,0,0:0:0:0:
64,192,120583,1,0,0:0:0:45:Clap.wav
192,192,120658,1,0,0:0:0:0:
64,192,120733,1,0,0:0:0:45:Clap.wav
320,192,120733,1,0,0:0:0:0:
448,192,120883,1,0,0:0:0:45:Clap.wav
192,192,120883,1,0,0:0:0:0:
448,192,121033,1,0,0:0:0:45:Clap.wav
192,192,121033,1,0,0:0:0:0:
320,192,121183,1,4,0:0:0:0:
448,192,121183,1,2,0:0:0:0:
64,192,121183,128,0,121483:0:0:0:0:
448,192,121483,128,0,121633:0:0:0:45:Clap.wav
192,192,121483,1,0,0:0:0:0:
192,192,121633,1,0,0:0:0:0:
64,192,121783,1,8,0:0:0:0:
320,192,121783,1,0,0:0:0:45:Clap.wav
192,192,121933,1,0,0:0:0:0:
448,192,122083,128,0,122233:0:0:0:45:Clap.wav
192,192,122083,1,2,0:0:0:0:
64,192,122233,1,0,0:0:0:0:
192,192,122383,1,0,0:0:0:45:Clap.wav
320,192,122383,1,0,0:0:0:0:
320,192,122533,1,0,0:0:0:0:
64,192,122533,1,2,0:0:0:0:
448,192,122683,128,0,122833:0:0:0:45:Clap.wav
192,192,122683,1,0,0:0:0:0:
64,192,122833,1,2,0:0:0:0:
192,192,122833,1,0,0:0:0:0:
320,192,122983,1,8,0:0:0:0:
448,192,122983,1,0,0:0:0:45:Clap.wav
64,192,123133,1,2,0:0:0:0:
320,192,123133,1,0,0:0:0:0:
448,192,123283,128,0,123433:0:0:0:45:Clap.wav
192,192,123283,1,0,0:0:0:0:
192,192,123433,1,0,0:0:0:0:
320,192,123583,1,2,0:0:0:0:
64,192,123583,128,0,124183:0:0:0:45:Clap.wav
192,192,123883,128,0,124033:0:0:0:45:Clap.wav
448,192,123883,1,0,0:0:0:0:
448,192,124033,1,0,0:0:0:0:
192,192,124183,1,8,0:0:0:0:
320,192,124183,1,0,0:0:0:45:Clap.wav
448,192,124333,1,0,0:0:0:0:
64,192,124483,128,0,124633:0:0:0:45:Clap.wav
448,192,124483,1,2,0:0:0:0:
320,192,124633,1,0,0:0:0:0:
320,192,124783,1,0,0:0:0:45:Clap.wav
192,192,124783,128,0,125383:0:0:0:0:
448,192,124933,1,2,0:0:0:0:
64,192,124933,1,0,0:0:0:0:
320,192,125083,128,0,125233:0:0:0:45:Clap.wav
64,192,125083,1,0,0:0:0:0:
448,192,125233,1,2,0:0:0:0:
64,192,125383,1,8,0:0:0:0:
320,192,125383,1,0,0:0:0:45:Clap.wav
192,192,125533,1,0,0:0:0:45:Clap.wav
448,192,125533,1,0,0:0:0:0:
320,192,125683,1,0,0:0:0:45:Clap.wav
448,192,125683,128,0,125833:0:0:0:0:
64,192,125833,1,2,0:0:0:0:
192,192,125833,1,0,0:0:0:0:
64,192,125983,1,2,0:0:0:0:
448,192,125983,1,4,0:0:0:0:
320,192,125983,1,0,0:0:0:0:
192,192,126133,1,0,0:0:0:45:Clap.wav
448,192,126283,1,0,0:0:0:45:Clap.wav
320,192,126283,1,0,0:0:0:0:
448,192,126433,1,0,0:0:0:45:Clap.wav
192,192,126433,1,0,0:0:0:0:
64,192,126583,1,2,0:0:0:0:
320,192,126583,1,0,0:0:0:45:Clap.wav
192,192,126733,1,0,0:0:0:45:Clap.wav
448,192,126883,1,0,0:0:0:0:
320,192,126883,1,0,0:0:0:45:Clap.wav
192,192,127033,1,0,0:0:0:45:Clap.wav
448,192,127033,1,0,0:0:0:0:
64,192,127183,1,2,0:0:0:0:
320,192,127183,1,0,0:0:0:45:Clap.wav
64,192,127333,1,0,0:0:0:45:Clap.wav
320,192,127333,1,0,0:0:0:0:
192,192,127483,1,2,0:0:0:0:
448,192,127483,1,0,0:0:0:45:Clap.wav
448,192,127633,1,0,0:0:0:45:Clap.wav
192,192,127633,1,0,0:0:0:0:
320,192,127783,1,2,0:0:0:0:
448,192,127783,1,0,0:0:0:45:Clap.wav
64,192,127933,1,0,0:0:0:45:Clap.wav
192,192,127933,1,0,0:0:0:0:
320,192,128083,1,2,0:0:0:0:
64,192,128083,1,0,0:0:0:45:Clap.wav
64,192,128233,1,0,0:0:0:45:Clap.wav
320,192,128233,1,0,0:0:0:0:
448,192,128383,128,0,128683:0:0:0:0:
192,192,128383,1,4,0:0:0:0:
320,192,128533,128,0,128683:0:0:0:0:
64,192,128683,128,0,128983:0:0:0:0:
192,192,128833,128,0,128983:0:0:0:0:
448,192,128983,128,0,129283:0:0:0:0:
320,192,129133,128,0,129283:0:0:0:0:
192,192,129283,128,0,129583:0:0:0:0:
64,192,129283,128,0,129433:0:0:0:0:
448,192,129433,128,0,129583:0:0:0:0:
64,192,129583,1,4,0:0:0:0:
320,192,129583,1,0,0:0:0:0:
448,192,129733,128,0,130033:0:0:0:0:
320,192,129883,128,0,130183:0:0:0:0:
192,192,130033,128,0,130183:0:0:0:0:
64,192,130183,128,0,130483:0:0:0:0:
448,192,130183,128,0,130783:0:0:0:0:
64,192,130783,128,4,130933:0:0:0:0:
320,192,130783,1,2,0:0:0:0:
192,192,130933,128,0,131083:0:0:0:0:
320,192,131083,1,2,0:0:0:0:
64,192,131233,128,0,131533:0:0:0:0:
448,192,131383,1,0,0:0:0:50:SnareClap.wav
320,192,131533,128,0,131983:0:0:0:0:
64,192,131983,128,0,132133:0:0:0:0:
448,192,132133,128,0,132283:0:0:0:0:
192,192,132283,1,2,0:0:0:0:
320,192,132433,128,0,132733:0:0:0:0:
64,192,132583,1,0,0:0:0:50:SnareClap.wav
192,192,132733,128,2,133183:0:0:0:0:
448,192,132733,1,0,0:0:0:0:
64,192,133033,1,2,0:0:0:0:
320,192,133183,1,2,0:0:0:0:
448,192,133183,128,0,133333:0:0:0:0:
64,192,133333,128,0,133483:0:0:0:0:
320,192,133483,1,2,0:0:0:0:
192,192,133633,128,0,133933:0:0:0:0:
448,192,133783,1,0,0:0:0:50:SnareClap.wav
320,192,133933,128,0,134233:0:0:0:0:
64,192,134233,128,0,134533:0:0:0:0:
448,192,134383,1,2,0:0:0:0:
192,192,134533,1,0,0:0:0:50:SnareClap.wav
320,192,134533,128,0,134683:0:0:0:0:
64,192,134683,1,2,0:0:0:0:
448,192,134683,128,0,134833:0:0:0:0:
192,192,134833,128,0,134983:0:0:0:0:
64,192,134983,128,0,135583:0:0:0:50:SnareClap.wav
320,192,134983,1,0,0:0:0:0:
448,192,135133,1,2,0:0:0:0:
320,192,135433,1,2,0:0:0:0:
192,192,135583,1,2,0:0:0:0:
448,192,135583,128,0,135733:0:0:0:0:
320,192,135733,128,0,135883:0:0:0:0:
192,192,135883,1,2,0:0:0:0:
448,192,136033,128,0,136333:0:0:0:0:
64,192,136183,1,0,0:0:0:50:SnareClap.wav
192,192,136333,128,0,136783:0:0:0:0:
320,192,136783,128,0,136933:0:0:0:0:
64,192,136933,128,0,137083:0:0:0:0:
448,192,137083,1,2,0:0:0:0:
192,192,137233,128,0,137533:0:0:0:0:
320,192,137383,1,0,0:0:0:50:SnareClap.wav
64,192,137533,128,2,137983:0:0:0:0:
448,192,137533,1,0,0:0:0:0:
320,192,137833,1,2,0:0:0:0:
192,192,137983,128,2,138133:0:0:0:0:
448,192,137983,1,0,0:0:0:0:
320,192,138133,128,0,138283:0:0:0:0:
448,192,138283,1,2,0:0:0:0:
192,192,138433,128,0,138733:0:0:0:0:
64,192,138583,1,0,0:0:0:50:SnareClap.wav
448,192,138733,128,0,139033:0:0:0:0:
64,192,139033,128,0,139333:0:0:0:0:
320,192,139183,1,2,0:0:0:0:
192,192,139333,1,0,0:0:0:50:SnareClap.wav
448,192,139333,128,0,139483:0:0:0:0:
64,192,139483,1,2,0:0:0:0:
320,192,139483,128,0,139633:0:0:0:0:
192,192,139633,128,0,139783:0:0:0:0:
320,192,139783,1,0,0:0:0:50:SnareClap.wav
448,192,139783,128,0,140383:0:0:0:0:
64,192,139933,1,2,0:0:0:0:
192,192,140233,1,2,0:0:0:0:
64,192,140383,1,2,0:0:0:0:
320,192,140383,1,4,0:0:0:0:
192,192,140383,1,0,0:0:0:0:
64,192,140683,1,8,0:0:0:0:
192,192,140683,1,0,0:0:0:0:
448,192,140683,1,0,0:0:0:0:
64,192,140983,1,0,0:0:0:0:
448,192,141133,1,2,0:0:0:0:
320,192,141133,1,0,0:0:0:0:
64,192,141283,1,8,0:0:0:0:
192,192,141283,1,0,0:0:0:0:
448,192,141283,1,0,0:0:0:0:
320,192,141583,1,2,0:0:0:0:
192,192,141583,1,0,0:0:0:0:
192,192,141883,1,8,0:0:0:0:
64,192,141883,1,0,0:0:0:0:
448,192,141883,1,0,0:0:0:0:
64,192,142183,1,0,0:0:0:0:
448,192,142333,1,2,0:0:0:0:
320,192,142333,1,0,0:0:0:0:
192,192,142483,1,8,0:0:0:0:
64,192,142483,1,0,0:0:0:0:
448,192,142483,1,0,0:0:0:0:
192,192,142783,1,2,0:0:0:0:
320,192,142783,1,0,0:0:0:0:
64,192,143083,1,8,0:0:0:0:
320,192,143083,1,0,0:0:0:0:
448,192,143083,1,0,0:0:0:0:
448,192,143383,1,0,0:0:0:0:
64,192,143533,1,0,0:0:0:0:
192,192,143533,1,2,0:0:0:0:
64,192,143683,1,8,0:0:0:0:
320,192,143683,1,0,0:0:0:0:
448,192,143683,1,0,0:0:0:0:
192,192,143983,1,2,0:0:0:0:
320,192,143983,1,0,0:0:0:0:
320,192,144283,1,8,0:0:0:0:
64,192,144283,1,0,0:0:0:0:
448,192,144283,1,0,0:0:0:0:
448,192,144583,1,0,0:0:0:0:
192,192,144733,1,2,0:0:0:0:
64,192,144733,1,0,0:0:0:0:
64,192,144883,1,8,0:0:0:0:
320,192,144883,1,0,0:0:0:0:
448,192,144883,1,0,0:0:0:0:
64,192,145183,1,2,0:0:0:0:
192,192,145183,1,4,0:0:0:0:
320,192,145183,1,0,0:0:0:0:
64,192,145483,1,8,0:0:0:0:
192,192,145483,1,0,0:0:0:0:
448,192,145483,1,0,0:0:0:0:
64,192,145783,1,0,0:0:0:0:
448,192,145933,1,0,0:0:0:0:
320,192,145933,1,2,0:0:0:0:
64,192,146083,1,8,0:0:0:0:
448,192,146083,1,0,0:0:0:0:
192,192,146083,1,0,0:0:0:0:
192,192,146383,1,2,0:0:0:0:
320,192,146383,1,0,0:0:0:0:
192,192,146683,1,8,0:0:0:0:
64,192,146683,1,0,0:0:0:0:
448,192,146683,1,0,0:0:0:0:
64,192,146983,1,0,0:0:0:0:
448,192,147133,1,2,0:0:0:0:
320,192,147133,1,0,0:0:0:0:
64,192,147283,1,8,0:0:0:0:
448,192,147283,1,0,0:0:0:0:
192,192,147283,1,0,0:0:0:0:
448,192,147583,1,2,0:0:0:0:
320,192,147583,1,0,0:0:0:0:
64,192,147883,1,2,0:0:0:0:
320,192,147883,1,8,0:0:0:0:
448,192,147883,1,0,0:0:0:0:
64,192,148183,1,2,0:0:0:0:
192,192,148183,1,0,0:0:0:0:
64,192,148483,1,2,0:0:0:0:
192,192,148483,1,8,0:0:0:0:
448,192,148483,1,0,0:0:0:0:
448,192,148783,1,4,0:0:0:0:
192,192,148783,1,0,0:0:0:70:Snare.wav
320,192,148783,1,0,0:0:0:0:
64,192,148933,128,0,149083:0:0:0:0:
320,192,149083,1,0,0:0:0:70:Snare.wav
448,192,149083,128,0,149233:0:0:0:0:
192,192,149383,1,0,0:0:0:70:Snare.wav
64,192,149383,128,0,149533:0:0:0:0:
320,192,149683,1,0,0:0:0:70:Snare.wav
192,192,149683,128,0,149833:0:0:0:0:
64,192,149983,1,8,0:0:0:0:
192,192,149983,1,4,0:0:0:0:
448,192,149983,128,0,150133:0:0:0:0:
320,192,150133,128,0,150283:0:0:0:0:
64,192,150283,1,8,0:0:0:0:
192,192,150283,128,0,150433:0:0:0:0:
320,192,150433,128,0,150583:0:0:0:0:
64,192,150583,1,8,0:0:0:0:
448,192,150583,128,0,150733:0:0:0:0:
192,192,150733,1,0,0:0:0:0:
64,192,150883,1,8,0:0:0:0:
320,192,150883,128,0,151033:0:0:0:0:
448,192,151033,128,0,151183:0:0:0:0:
192,192,151183,128,0,151333:0:0:0:0:
64,192,151183,1,8,0:0:0:0:
320,192,151333,1,0,0:0:0:0:
192,192,151483,128,0,151633:0:0:0:0:
64,192,151483,1,8,0:0:0:0:
320,192,151633,1,0,0:0:0:0:
192,192,151783,128,0,151933:0:0:0:0:
64,192,151783,1,8,0:0:0:0:
448,192,151933,1,0,0:0:0:0:
320,192,152083,128,0,152233:0:0:0:0:
64,192,152083,1,8,0:0:0:0:
192,192,152233,128,0,152383:0:0:0:0:
448,192,152383,1,8,0:0:0:0:
64,192,152383,128,0,152533:0:0:0:0:
320,192,152533,1,0,0:0:0:0:
448,192,152683,1,8,0:0:0:0:
192,192,152683,128,0,152833:0:0:0:0:
320,192,152833,1,0,0:0:0:0:
448,192,152983,1,8,0:0:0:0:
64,192,152983,128,0,153133:0:0:0:0:
192,192,153133,1,0,0:0:0:0:
448,192,153283,1,8,0:0:0:0:
320,192,153283,128,0,153433:0:0:0:0:
64,192,153433,128,0,153583:0:0:0:0:
320,192,153583,1,8,0:0:0:0:
448,192,153583,1,0,0:0:0:0:
192,192,153733,128,0,153883:0:0:0:0:
320,192,153883,128,8,154033:0:0:0:0:
448,192,153883,1,0,0:0:0:0:
64,192,154033,1,0,0:0:0:0:
192,192,154183,128,0,154483:0:0:0:0:
448,192,154183,1,8,0:0:0:0:
64,192,154333,128,0,154633:0:0:0:0:
320,192,154483,128,0,154633:0:0:0:0:
448,192,154483,1,8,0:0:0:0:
192,192,154633,128,0,154783:0:0:0:0:
64,192,154783,1,8,0:0:0:0:
320,192,154783,1,4,0:0:0:0:
448,192,154783,128,0,154933:0:0:0:0:
320,192,154933,128,0,155083:0:0:0:0:
64,192,155083,1,8,0:0:0:0:
192,192,155083,128,0,155233:0:0:0:0:
320,192,155233,128,0,155383:0:0:0:0:
64,192,155383,1,8,0:0:0:0:
448,192,155383,128,0,155533:0:0:0:0:
192,192,155533,1,0,0:0:0:0:
64,192,155683,1,8,0:0:0:0:
320,192,155683,128,0,155833:0:0:0:0:
448,192,155833,128,0,155983:0:0:0:0:
192,192,155983,128,0,156133:0:0:0:0:
64,192,155983,1,8,0:0:0:0:
320,192,156133,1,0,0:0:0:0:
192,192,156283,128,0,156433:0:0:0:0:
64,192,156283,1,8,0:0:0:0:
448,192,156433,1,0,0:0:0:0:
192,192,156583,128,0,156733:0:0:0:0:
64,192,156583,1,8,0:0:0:0:
448,192,156733,1,0,0:0:0:0:
320,192,156883,128,0,157033:0:0:0:0:
64,192,156883,1,8,0:0:0:0:
192,192,157033,128,0,157183:0:0:0:0:
448,192,157183,1,8,0:0:0:0:
64,192,157183,128,0,157333:0:0:0:0:
192,192,157333,1,0,0:0:0:0:
448,192,157483,1,8,0:0:0:0:
320,192,157483,128,0,157633:0:0:0:0:
64,192,157633,1,0,0:0:0:0:
448,192,157783,1,8,0:0:0:0:
192,192,157783,128,0,157933:0:0:0:0:
320,192,157933,1,0,0:0:0:0:
448,192,158083,1,8,0:0:0:0:
64,192,158083,128,0,158233:0:0:0:0:
320,192,158233,128,0,158383:0:0:0:0:
64,192,158383,1,8,0:0:0:0:
448,192,158383,1,0,0:0:0:0:
192,192,158533,128,0,158683:0:0:0:0:
64,192,158683,128,0,158833:0:0:0:0:
320,192,158683,1,8,0:0:0:0:
448,192,158833,1,0,0:0:0:0:
320,192,158983,128,0,159583:0:0:0:0:
192,192,158983,128,0,159133:0:0:0:0:
64,192,158983,1,8,0:0:0:0:
64,192,159283,128,0,159433:0:0:0:0:
448,192,159283,1,8,0:0:0:0:
448,192,159583,128,0,159733:0:0:0:0:
192,192,159583,128,2,159733:0:0:0:0:
64,192,159583,128,8,159733:0:0:0:0:
192,192,159883,128,8,160033:0:0:0:0:
64,192,159883,128,2,160033:0:0:0:0:
448,192,159883,128,0,160033:0:0:0:0:
320,192,160183,128,8,160333:0:0:0:0:
448,192,160183,128,0,160333:0:0:0:0:
64,192,160183,128,2,160333:0:0:0:0:
320,192,160483,128,8,160633:0:0:0:0:
448,192,160483,128,0,160633:0:0:0:0:
64,192,160483,128,2,160633:0:0:0:0:
448,192,160783,128,0,160933:0:0:0:0:
320,192,160783,128,8,160933:0:0:0:0:
192,192,160783,128,2,160933:0:0:0:0:
448,192,161083,128,2,161233:0:0:0:0:
320,192,161083,128,0,161233:0:0:0:0:
192,192,161083,128,8,161233:0:0:0:0:
320,192,161383,128,0,161533:0:0:0:0:
192,192,161383,128,8,161533:0:0:0:0:
64,192,161383,128,2,161533:0:0:0:0:
192,192,161683,128,8,161833:0:0:0:0:
320,192,161683,128,2,161833:0:0:0:0:
64,192,161683,128,0,161833:0:0:0:0:
448,192,161983,128,4,162133:0:0:0:0:
320,192,161983,128,2,162133:0:0:0:0:
64,192,161983,128,0,162133:0:0:0:0:
192,192,161983,128,8,162133:0:0:0:0:
320,192,162283,128,2,162433:0:0:0:0:
448,192,162283,128,0,162433:0:0:0:0:
64,192,162283,128,8,162433:0:0:0:0:
64,192,162583,128,8,162733:0:0:0:0:
192,192,162583,128,2,162733:0:0:0:0:
448,192,162583,128,0,162733:0:0:0:0:
192,192,162883,128,2,163033:0:0:0:0:
64,192,162883,128,8,163033:0:0:0:0:
448,192,162883,128,0,163033:0:0:0:0:
192,192,163183,128,8,163333:0:0:0:0:
320,192,163183,128,2,163333:0:0:0:0:
448,192,163183,128,0,163333:0:0:0:0:
448,192,163483,128,8,163633:0:0:0:0:
320,192,163483,128,0,163633:0:0:0:0:
192,192,163483,128,2,163633:0:0:0:0:
320,192,163783,128,0,163933:0:0:0:0:
192,192,163783,128,2,163933:0:0:0:0:
64,192,163783,128,8,163933:0:0:0:0:
192,192,164083,1,8,0:0:0:0:
64,192,164083,1,0,0:0:0:0:
192,192,164383,1,8,0:0:0:0:
320,192,164383,1,2,0:0:0:0:
448,192,164383,1,4,0:0:0:0:
64,192,164383,1,0,0:0:0:0:
320,192,164533,1,8,0:0:0:0:
448,192,164533,1,2,0:0:0:0:
64,192,164683,1,8,0:0:0:0:
192,192,164683,1,2,0:0:0:0:
192,192,164833,1,8,0:0:0:0:
64,192,164833,1,2,0:0:0:0:
320,192,164983,1,8,0:0:0:0:
448,192,164983,1,2,0:0:0:0:
320,192,165133,1,8,0:0:0:0:
448,192,165133,1,2,0:0:0:0:
64,192,165283,1,8,0:0:0:0:
192,192,165283,1,2,0:0:0:0:
192,192,165433,1,8,0:0:0:0:
64,192,165433,1,2,0:0:0:0:
64,192,165583,1,8,0:0:0:0:
192,192,165583,1,2,0:0:0:0:
448,192,165583,1,4,0:0:0:0:
320,192,165583,1,0,0:0:0:0:
192,192,165733,1,8,0:0:0:0:
448,192,165733,1,2,0:0:0:0:
64,192,165883,1,8,0:0:0:0:
320,192,165883,1,2,0:0:0:0:
64,192,166033,1,8,0:0:0:0:
320,192,166033,1,2,0:0:0:0:
192,192,166183,1,8,0:0:0:0:
448,192,166183,1,2,0:0:0:0:
192,192,166333,1,8,0:0:0:0:
448,192,166333,1,2,0:0:0:0:
64,192,166483,1,8,0:0:0:0:
320,192,166483,1,2,0:0:0:0:
64,192,166633,1,8,0:0:0:0:
320,192,166633,1,2,0:0:0:0:
64,192,166783,1,8,0:0:0:0:
448,192,166783,1,4,0:0:0:0:
192,192,166783,1,2,0:0:0:0:
320,192,166858,1,10,0:0:0:0:
192,192,166933,1,8,0:0:0:0:
448,192,166933,1,2,0:0:0:0:
64,192,167008,1,10,0:0:0:0:
320,192,167083,1,10,0:0:0:0:
448,192,167083,1,4,0:0:0:0:
192,192,167158,1,10,0:0:0:0:
64,192,167233,1,8,0:0:0:0:
320,192,167233,1,2,0:0:0:0:
448,192,167308,1,10,0:0:0:0:
64,192,167383,1,10,0:0:0:0:
192,192,167383,1,4,0:0:0:0:
320,192,167458,1,10,0:0:0:0:
192,192,167533,1,8,0:0:0:0:
448,192,167533,1,2,0:0:0:0:
64,192,167608,1,10,0:0:0:0:
320,192,167683,1,10,0:0:0:0:
448,192,167683,1,4,0:0:0:0:
192,192,167758,1,10,0:0:0:0:
448,192,167833,1,8,0:0:0:0:
64,192,167833,1,2,0:0:0:0:
320,192,167908,1,10,0:0:0:0:
64,192,167983,1,4,0:0:0:0:
192,192,167983,1,0,0:0:0:70:Snare.wav
448,192,167983,1,0,0:0:0:0:
64,192,168283,1,4,0:0:0:0:
192,192,168283,1,0,0:0:0:70:Snare.wav
448,192,168283,1,0,0:0:0:0:
64,192,168583,1,4,0:0:0:0:
448,192,168583,1,0,0:0:0:70:Snare.wav
192,192,168583,1,0,0:0:0:0:
64,192,168883,1,4,0:0:0:0:
448,192,168883,1,0,0:0:0:0:
320,192,168883,128,0,169033:0:0:0:0:
192,192,168883,128,0,169033:0:0:0:70:Snare.wav
64,192,169183,1,2,0:0:0:0:
320,192,169183,1,4,0:0:0:0:
448,192,169183,1,0,0:0:0:0:
192,192,169333,1,0,0:0:0:0:
64,192,169483,1,2,0:0:0:0:
320,192,169483,1,8,0:0:0:0:
448,192,169483,1,0,0:0:0:0:
192,192,169633,1,0,0:0:0:0:
448,192,169633,1,0,0:0:0:0:
64,192,169783,1,2,0:0:0:0:
320,192,169783,1,0,0:0:0:0:
192,192,169933,1,0,0:0:0:0:
448,192,169933,1,0,0:0:0:0:
64,192,170083,1,2,0:0:0:0:
320,192,170083,1,8,0:0:0:0:
448,192,170083,1,0,0:0:0:0:
64,192,170233,1,0,0:0:0:0:
192,192,170233,1,0,0:0:0:0:
320,192,170383,1,2,0:0:0:0:
448,192,170383,1,0,0:0:0:0:
320,192,170533,1,0,0:0:0:0:
192,192,170533,1,0,0:0:0:0:
192,192,170683,1,2,0:0:0:0:
64,192,170683,1,8,0:0:0:0:
448,192,170683,1,0,0:0:0:0:
320,192,170833,1,0,0:0:0:0:
448,192,170833,1,0,0:0:0:0:
192,192,170983,1,2,0:0:0:0:
64,192,170983,1,0,0:0:0:0:
448,192,171133,1,0,0:0:0:0:
320,192,171133,1,0,0:0:0:0:
64,192,171283,1,2,0:0:0:0:
192,192,171283,1,8,0:0:0:0:
448,192,171283,1,0,0:0:0:0:
320,192,171433,1,0,0:0:0:0:
64,192,171583,1,2,0:0:0:0:
448,192,171583,1,0,0:0:0:0:
192,192,171733,1,0,0:0:0:0:
64,192,171883,1,2,0:0:0:0:
320,192,171883,1,8,0:0:0:0:
448,192,171883,1,0,0:0:0:0:
64,192,172033,1,0,0:0:0:0:
192,192,172033,1,0,0:0:0:0:
320,192,172183,1,2,0:0:0:0:
448,192,172183,1,0,0:0:0:0:
64,192,172333,1,0,0:0:0:0:
192,192,172333,1,0,0:0:0:0:
64,192,172483,1,2,0:0:0:0:
320,192,172483,1,8,0:0:0:0:
448,192,172483,1,0,0:0:0:0:
192,192,172633,1,0,0:0:0:0:
448,192,172633,1,0,0:0:0:0:
64,192,172783,1,2,0:0:0:0:
320,192,172783,1,0,0:0:0:0:
64,192,172933,1,0,0:0:0:0:
448,192,172933,1,0,0:0:0:0:
448,192,173083,1,2,0:0:0:0:
192,192,173083,1,8,0:0:0:0:
320,192,173083,1,0,0:0:0:0:
64,192,173233,1,0,0:0:0:0:
320,192,173233,1,0,0:0:0:0:
448,192,173383,1,2,0:0:0:0:
64,192,173383,1,0,0:0:0:0:
192,192,173533,1,0,0:0:0:0:
448,192,173533,1,0,0:0:0:0:
320,192,173683,1,8,0:0:0:0:
192,192,173683,1,0,0:0:0:0:
448,192,173833,1,0,0:0:0:0:
64,192,173833,1,0,0:0:0:0:
320,192,173908,1,0,0:0:0:0:
192,192,173983,1,2,0:0:0:0:
64,192,173983,1,0,0:0:0:0:
320,192,174133,1,0,0:0:0:0:
64,192,174283,1,2,0:0:0:0:
192,192,174283,1,8,0:0:0:0:
448,192,174283,1,0,0:0:0:0:
64,192,174433,1,0,0:0:0:0:
320,192,174433,1,0,0:0:0:0:
192,192,174583,1,2,0:0:0:0:
448,192,174583,1,0,0:0:0:0:
64,192,174733,1,0,0:0:0:0:
320,192,174733,1,0,0:0:0:0:
192,192,174883,1,2,0:0:0:0:
320,192,174883,1,8,0:0:0:0:
448,192,174883,1,0,0:0:0:0:
64,192,175033,1,0,0:0:0:0:
192,192,175033,1,0,0:0:0:0:
320,192,175183,1,2,0:0:0:0:
448,192,175183,1,0,0:0:0:0:
448,192,175333,1,0,0:0:0:0:
192,192,175333,1,0,0:0:0:0:
64,192,175483,1,2,0:0:0:0:
320,192,175483,1,8,0:0:0:0:
192,192,175483,1,0,0:0:0:0:
64,192,175633,1,0,0:0:0:0:
448,192,175633,1,0,0:0:0:0:
320,192,175783,1,2,0:0:0:0:
192,192,175783,1,0,0:0:0:0:
64,192,175933,1,0,0:0:0:0:
448,192,175933,1,0,0:0:0:0:
64,192,176083,1,2,0:0:0:0:
192,192,176083,1,8,0:0:0:0:
320,192,176083,1,0,0:0:0:0:
320,192,176233,1,2,0:0:0:0:
448,192,176233,1,0,0:0:0:0:
192,192,176308,1,2,0:0:0:0:
64,192,176383,1,0,0:0:0:0:
448,192,176383,128,2,176683:0:0:0:0:
320,192,176383,1,4,0:0:0:0:
192,192,176533,128,0,176683:0:0:0:0:
64,192,176683,128,0,176983:0:0:0:0:
320,192,176833,128,0,176983:0:0:0:0:
448,192,176983,1,8,0:0:0:0:
192,192,176983,128,0,177283:0:0:0:0:
64,192,177133,128,0,177283:0:0:0:0:
448,192,177283,1,2,0:0:0:0:
320,192,177283,128,0,177583:0:0:0:0:
192,192,177433,128,0,177583:0:0:0:0:
64,192,177583,128,0,177883:0:0:0:0:
448,192,177583,128,0,177733:0:0:0:0:
320,192,177733,128,2,178033:0:0:0:0:
192,192,177733,1,0,0:0:0:0:
448,192,177883,128,0,178033:0:0:0:0:
192,192,178033,128,0,178183:0:0:0:0:
64,192,178033,1,2,0:0:0:0:
448,192,178183,1,8,0:0:0:0:
320,192,178183,1,0,0:0:0:0:
448,192,178333,1,0,0:0:0:0:
320,192,178333,1,0,0:0:0:0:
192,192,178483,1,0,0:0:0:0:
64,192,178483,1,0,0:0:0:0:
192,192,178633,1,0,0:0:0:0:
64,192,178633,1,0,0:0:0:0:
448,192,178783,1,4,0:0:0:0:
320,192,178783,1,0,0:0:0:0:
64,192,178783,1,0,0:0:0:0:
448,192,179083,1,0,0:0:0:0:
64,192,179083,128,8,179233:0:0:0:0:
192,192,179083,128,2,179233:0:0:0:0:
320,192,179233,1,0,0:0:0:0:
448,192,179383,1,0,0:0:0:0:
64,192,179383,128,8,179533:0:0:0:0:
192,192,179383,128,2,179533:0:0:0:0:
320,192,179533,1,0,0:0:0:0:
448,192,179683,1,0,0:0:0:0:
64,192,179683,128,8,179833:0:0:0:0:
192,192,179683,128,2,179833:0:0:0:0:
320,192,179833,1,0,0:0:0:0:
448,192,179983,1,0,0:0:0:0:
192,192,179983,128,8,180133:0:0:0:0:
64,192,179983,128,2,180133:0:0:0:0:
320,192,180133,1,0,0:0:0:0:
448,192,180283,1,0,0:0:0:0:
192,192,180283,128,2,180433:0:0:0:0:
64,192,180283,128,8,180433:0:0:0:0:
320,192,180433,1,0,0:0:0:0:
448,192,180583,1,0,0:0:0:0:
192,192,180583,128,2,180733:0:0:0:0:
64,192,180583,128,8,180733:0:0:0:0:
320,192,180733,1,0,0:0:0:0:
448,192,180883,1,0,0:0:0:0:
64,192,180883,128,8,181033:0:0:0:0:
192,192,180883,128,2,181033:0:0:0:0:
320,192,181033,1,0,0:0:0:0:
448,192,181183,1,0,0:0:0:0:
192,192,181183,128,8,181333:0:0:0:0:
320,192,181183,128,2,181333:0:0:0:0:
64,192,181333,1,0,0:0:0:0:
192,192,181483,128,2,181633:0:0:0:0:
320,192,181483,128,8,181633:0:0:0:0:
448,192,181483,1,0,0:0:0:0:
64,192,181633,1,0,0:0:0:0:
448,192,181783,1,0,0:0:0:0:
192,192,181783,128,8,181933:0:0:0:0:
320,192,181783,128,2,181933:0:0:0:0:
64,192,181933,1,0,0:0:0:0:
448,192,182083,1,0,0:0:0:0:
320,192,182083,128,8,182233:0:0:0:0:
192,192,182083,128,2,182233:0:0:0:0:
64,192,182233,1,0,0:0:0:0:
448,192,182383,128,2,182533:0:0:0:0:
64,192,182383,1,0,0:0:0:0:
320,192,182383,128,8,182533:0:0:0:0:
192,192,182533,1,0,0:0:0:0:
64,192,182683,1,0,0:0:0:0:
320,192,182683,128,2,182833:0:0:0:0:
448,192,182683,128,8,182833:0:0:0:0:
192,192,182833,1,0,0:0:0:0:
64,192,182983,1,0,0:0:0:0:
320,192,182983,128,2,183133:0:0:0:0:
448,192,182983,128,8,183133:0:0:0:0:
192,192,183133,1,0,0:0:0:0:
64,192,183283,1,8,0:0:0:0:
320,192,183283,1,2,0:0:0:0:
448,192,183283,1,0,0:0:0:0:
448,192,183433,1,8,0:0:0:0:
320,192,183433,1,2,0:0:0:0:
64,192,183583,1,8,0:0:0:0:
192,192,183583,1,2,0:0:0:0:
448,192,183583,1,4,0:0:0:0:
320,192,183733,1,0,0:0:0:0:
64,192,183883,1,8,0:0:0:0:
192,192,183883,1,2,0:0:0:0:
448,192,183883,1,0,0:0:0:0:
64,192,184033,1,0,0:0:0:0:
320,192,184033,1,0,0:0:0:0:
192,192,184183,1,8,0:0:0:0:
320,192,184183,1,2,0:0:0:0:
448,192,184183,1,0,0:0:0:0:
448,192,184333,1,0,0:0:0:0:
64,192,184333,1,0,0:0:0:0:
192,192,184483,1,8,0:0:0:0:
320,192,184483,1,2,0:0:0:0:
64,192,184483,1,0,0:0:0:0:
192,192,184633,1,0,0:0:0:0:
448,192,184633,1,0,0:0:0:0:
64,192,184783,1,8,0:0:0:0:
448,192,184783,1,2,0:0:0:0:
320,192,184783,1,0,0:0:0:0:
320,192,184933,1,0,0:0:0:0:
192,192,184933,1,0,0:0:0:0:
192,192,185083,1,8,0:0:0:0:
64,192,185083,1,2,0:0:0:0:
448,192,185083,1,0,0:0:0:0:
64,192,185233,1,0,0:0:0:0:
320,192,185233,1,0,0:0:0:0:
320,192,185383,1,8,0:0:0:0:
192,192,185383,1,2,0:0:0:0:
448,192,185383,1,0,0:0:0:0:
64,192,185533,1,0,0:0:0:0:
448,192,185533,1,0,0:0:0:0:
64,192,185683,1,8,0:0:0:0:
320,192,185683,1,2,0:0:0:0:
192,192,185683,1,0,0:0:0:0:
448,192,185833,1,0,0:0:0:0:
64,192,185983,1,8,0:0:0:0:
192,192,185983,1,2,0:0:0:0:
320,192,186058,1,10,0:0:0:0:
448,192,186133,1,8,0:0:0:0:
64,192,186133,1,2,0:0:0:0:
192,192,186208,1,10,0:0:0:0:
448,192,186283,1,8,0:0:0:0:
320,192,186283,1,2,0:0:0:0:
192,192,186358,1,10,0:0:0:0:
64,192,186433,1,8,0:0:0:0:
448,192,186433,1,2,0:0:0:0:
320,192,186508,1,10,0:0:0:0:
192,192,186583,1,8,0:0:0:0:
64,192,186583,1,2,0:0:0:0:
320,192,186658,1,10,0:0:0:0:
448,192,186733,1,8,0:0:0:0:
64,192,186733,1,2,0:0:0:0:
192,192,186808,1,10,0:0:0:0:
448,192,186883,1,2,0:0:0:0:
320,192,186883,1,8,0:0:0:0:
192,192,186958,1,10,0:0:0:0:
448,192,187033,1,2,0:0:0:0:
64,192,187033,1,8,0:0:0:0:
320,192,187108,1,10,0:0:0:0:
448,192,187183,1,4,0:0:0:0:
64,192,187183,1,0,0:0:0:70:Snare.wav
192,192,187183,1,0,0:0:0:0:
64,192,187483,1,0,0:0:0:70:Snare.wav
448,192,187483,1,0,0:0:0:0:
320,192,187483,1,0,0:0:0:0:
192,192,187633,128,0,187783:0:0:0:0:
448,192,187783,1,0,0:0:0:0:
64,192,187783,128,0,188083:0:0:0:0:
320,192,187858,1,0,0:0:0:0:
448,192,187933,1,0,0:0:0:0:
320,192,188008,1,0,0:0:0:0:
448,192,188083,1,0,0:0:0:0:
192,192,188083,128,0,188383:0:0:0:0:
64,192,188383,1,2,0:0:0:0:
320,192,188383,1,4,0:0:0:0:
448,192,188383,128,0,188533:0:0:0:0:
192,192,188533,1,0,0:0:0:0:
320,192,188683,1,2,0:0:0:0:
64,192,188683,128,0,188833:0:0:0:0:
448,192,188683,1,8,0:0:0:0:
192,192,188833,1,0,0:0:0:0:
320,192,188983,1,2,0:0:0:0:
448,192,188983,128,0,189133:0:0:0:0:
192,192,189133,1,0,0:0:0:0:
64,192,189283,128,2,189433:0:0:0:0:
320,192,189283,1,8,0:0:0:0:
448,192,189283,1,0,0:0:0:0:
192,192,189433,128,0,189583:0:0:0:0:
448,192,189583,1,2,0:0:0:0:
320,192,189583,128,0,189733:0:0:0:0:
64,192,189733,1,0,0:0:0:0:
448,192,189883,1,2,0:0:0:0:
192,192,189883,1,8,0:0:0:0:
320,192,189883,128,0,190033:0:0:0:0:
64,192,190033,1,0,0:0:0:0:
448,192,190183,1,2,0:0:0:0:
320,192,190183,128,0,190333:0:0:0:0:
192,192,190333,1,0,0:0:0:0:
64,192,190483,1,2,0:0:0:0:
320,192,190483,128,8,190633:0:0:0:0:
448,192,190483,1,0,0:0:0:0:
192,192,190633,128,0,190783:0:0:0:0:
448,192,190783,1,2,0:0:0:0:
64,192,190783,128,0,190933:0:0:0:0:
320,192,190933,1,0,0:0:0:0:
64,192,191083,1,2,0:0:0:0:
192,192,191083,1,8,0:0:0:0:
448,192,191083,128,0,191233:0:0:0:0:
320,192,191233,1,0,0:0:0:0:
64,192,191383,128,2,191533:0:0:0:0:
448,192,191383,1,0,0:0:0:0:
192,192,191533,1,0,0:0:0:0:
64,192,191683,1,2,0:0:0:0:
320,192,191683,128,8,191833:0:0:0:0:
448,192,191683,1,0,0:0:0:0:
192,192,191833,128,0,191983:0:0:0:0:
64,192,191983,1,2,0:0:0:0:
448,192,191983,1,0,0:0:0:0:
320,192,192133,128,0,192283:0:0:0:0:
64,192,192283,1,2,0:0:0:0:
192,192,192283,1,8,0:0:0:0:
448,192,192283,128,0,192433:0:0:0:0:
320,192,192433,1,0,0:0:0:0:
192,192,192583,1,2,0:0:0:0:
64,192,192583,128,0,192733:0:0:0:45:Clap.wav
448,192,192733,128,0,192883:0:0:0:45:Clap.wav
64,192,192883,1,0,0:0:0:45:Clap.wav
192,192,192883,128,0,193033:0:0:0:0:
320,192,193033,128,0,193183:0:0:0:45:Clap.wav
64,192,193183,128,2,193333:0:0:0:0:
192,192,193183,1,4,0:0:0:0:
448,192,193183,1,0,0:0:0:0:
320,192,193333,1,0,0:0:0:0:
64,192,193483,1,2,0:0:0:0:
192,192,193483,1,8,0:0:0:0:
448,192,193483,128,0,193633:0:0:0:0:
320,192,193633,1,0,0:0:0:0:
64,192,193783,128,2,193933:0:0:0:0:
192,192,193783,1,0,0:0:0:0:
320,192,193933,1,0,0:0:0:0:
64,192,194083,1,2,0:0:0:0:
192,192,194083,1,8,0:0:0:0:
448,192,194083,128,0,194233:0:0:0:0:
320,192,194233,128,0,194383:0:0:0:0:
64,192,194383,1,2,0:0:0:0:
192,192,194383,128,0,194533:0:0:0:0:
448,192,194533,1,0,0:0:0:0:
64,192,194683,1,2,0:0:0:0:
192,192,194683,128,0,194833:0:0:0:0:
320,192,194683,1,8,0:0:0:0:
448,192,194833,1,0,0:0:0:0:
64,192,194983,1,2,0:0:0:0:
192,192,194983,128,0,195133:0:0:0:0:
320,192,195133,1,0,0:0:0:0:
64,192,195283,1,2,0:0:0:0:
192,192,195283,1,8,0:0:0:0:
448,192,195283,1,0,0:0:0:0:
448,192,195433,1,2,0:0:0:0:
320,192,195433,1,0,0:0:0:0:
192,192,195508,1,2,0:0:0:0:
64,192,195583,1,2,0:0:0:0:
320,192,195583,1,4,0:0:0:0:
448,192,195583,1,0,0:0:0:0:
64,192,195733,1,0,0:0:0:0:
448,192,195883,1,0,0:0:0:0:
192,192,195883,128,0,196033:0:0:0:0:
448,192,196033,1,0,0:0:0:0:
192,192,196183,1,8,0:0:0:0:
64,192,196183,1,0,0:0:0:0:
320,192,196183,128,0,196333:0:0:0:0:
64,192,196333,1,0,0:0:0:0:
448,192,196483,1,2,0:0:0:0:
192,192,196483,128,0,196633:0:0:0:0:
448,192,196633,1,0,0:0:0:0:
64,192,196633,128,0,196783:0:0:0:0:
320,192,196783,1,0,0:0:0:0:
64,192,196933,128,2,197083:0:0:0:0:
448,192,196933,1,0,0:0:0:0:
192,192,197083,128,0,197233:0:0:0:0:
320,192,197233,1,2,0:0:0:0:
448,192,197233,1,0,0:0:0:0:
64,192,197383,1,8,0:0:0:0:
192,192,197383,1,0,0:0:0:0:
448,192,197383,1,0,0:0:0:0:
320,192,197533,1,2,0:0:0:0:
192,192,197533,1,0,0:0:0:0:
320,192,197683,1,2,0:0:0:0:
448,192,197683,1,0,0:0:0:0:
64,192,197758,1,2,0:0:0:0:
448,192,197833,1,2,0:0:0:0:
192,192,197833,1,0,0:0:0:0:
320,192,197908,1,2,0:0:0:0:
192,192,197983,1,2,0:0:0:0:
64,192,197983,128,4,198133:0:0:0:0:
448,192,197983,1,0,0:0:0:0:
320,192,198133,1,0,0:0:0:0:
192,192,198283,128,2,198433:0:0:0:0:
64,192,198283,1,8,0:0:0:0:
448,192,198283,1,0,0:0:0:0:
320,192,198433,1,0,0:0:0:0:
64,192,198583,1,2,0:0:0:0:
448,192,198583,128,0,198733:0:0:0:0:
320,192,198733,1,0,0:0:0:0:
64,192,198883,1,2,0:0:0:0:
192,192,198883,1,8,0:0:0:0:
448,192,198883,128,0,199033:0:0:0:0:
64,192,199033,1,0,0:0:0:0:
320,192,199033,128,0,199183:0:0:0:0:
448,192,199183,1,2,0:0:0:0:
192,192,199183,128,0,199333:0:0:0:0:
320,192,199333,1,0,0:0:0:0:
192,192,199483,128,2,199633:0:0:0:0:
64,192,199483,1,8,0:0:0:0:
448,192,199483,1,0,0:0:0:0:
320,192,199633,1,0,0:0:0:0:
448,192,199783,1,2,0:0:0:0:
192,192,199783,128,0,199933:0:0:0:0:
320,192,199933,1,0,0:0:0:0:
64,192,200083,1,2,0:0:0:0:
448,192,200083,1,8,0:0:0:0:
192,192,200083,128,0,200233:0:0:0:0:
320,192,200233,128,0,200383:0:0:0:0:
64,192,200383,1,2,0:0:0:0:
192,192,200383,1,4,0:0:0:0:
448,192,200383,128,0,200533:0:0:0:0:
320,192,200533,1,0,0:0:0:0:
64,192,200683,1,2,0:0:0:0:
192,192,200683,128,8,200833:0:0:0:0:
448,192,200683,1,0,0:0:0:0:
320,192,200833,1,0,0:0:0:0:
448,192,200983,1,2,0:0:0:0:
64,192,200983,128,0,201133:0:0:0:0:
320,192,201133,1,0,0:0:0:0:
192,192,201283,128,2,201433:0:0:0:0:
448,192,201283,1,8,0:0:0:0:
64,192,201283,1,0,0:0:0:0:
320,192,201433,128,0,201583:0:0:0:0:
64,192,201583,1,2,0:0:0:0:
448,192,201583,1,0,0:0:0:0:
320,192,201733,128,0,201883:0:0:0:0:
64,192,201883,1,2,0:0:0:0:
448,192,201883,1,8,0:0:0:0:
192,192,201883,128,0,202033:0:0:0:0:
320,192,202033,1,0,0:0:0:0:
64,192,202183,128,2,202333:0:0:0:0:
192,192,202183,1,0,0:0:0:0:
320,192,202333,1,0,0:0:0:0:
448,192,202333,128,0,202483:0:0:0:0:
64,192,202483,1,2,0:0:0:0:
192,192,202483,1,8,0:0:0:0:
320,192,202558,1,2,0:0:0:0:
64,192,202633,1,2,0:0:0:0:
448,192,202633,1,0,0:0:0:0:
192,192,202708,1,2,0:0:0:0:
64,192,202783,1,2,0:0:0:0:
320,192,202783,1,4,0:0:0:0:
448,192,202783,128,0,202933:0:0:0:0:
192,192,202933,1,0,0:0:0:0:
320,192,203083,1,2,0:0:0:0:
448,192,203083,1,8,0:0:0:0:
64,192,203083,128,0,203233:0:0:0:0:
192,192,203233,1,0,0:0:0:0:
320,192,203383,1,2,0:0:0:0:
64,192,203383,1,0,0:0:0:0:
448,192,203383,128,0,203533:0:0:0:0:
192,192,203533,1,0,0:0:0:0:
320,192,203683,1,2,0:0:0:0:
448,192,203683,1,8,0:0:0:0:
64,192,203683,128,0,203833:0:0:0:0:
192,192,203833,128,0,203983:0:0:0:0:
448,192,203983,1,2,0:0:0:0:
64,192,203983,1,4,0:0:0:0:
320,192,203983,128,0,204133:0:0:0:0:
192,192,204133,1,0,0:0:0:0:
448,192,204283,1,2,0:0:0:0:
64,192,204283,1,8,0:0:0:0:
320,192,204283,128,0,204433:0:0:0:0:
192,192,204433,1,0,0:0:0:0:
448,192,204583,1,2,0:0:0:0:
64,192,204583,1,0,0:0:0:0:
320,192,204583,128,0,204733:0:0:0:0:
192,192,204733,1,0,0:0:0:0:
64,192,204883,1,2,0:0:0:0:
448,192,204883,1,8,0:0:0:0:
320,192,204883,128,0,205033:0:0:0:0:
192,192,205033,128,0,205183:0:0:0:0:
448,192,205183,1,8,0:0:0:0:
64,192,205183,1,4,0:0:0:0:
320,192,205258,1,2,0:0:0:0:
64,192,205333,1,2,0:0:0:0:
192,192,205333,1,0,0:0:0:0:
448,192,205408,1,2,0:0:0:0:
192,192,205483,1,8,0:0:0:0:
320,192,205483,1,4,0:0:0:0:
64,192,205558,1,2,0:0:0:0:
448,192,205633,1,2,0:0:0:0:
320,192,205633,1,0,0:0:0:0:
192,192,205708,1,2,0:0:0:0:
448,192,205783,1,8,0:0:0:0:
64,192,205783,1,4,0:0:0:0:
320,192,205858,1,2,0:0:0:0:
64,192,205933,1,2,0:0:0:0:
192,192,205933,1,0,0:0:0:0:
320,192,206008,1,2,0:0:0:0:
448,192,206083,1,12,0:0:0:0:
64,192,206120,1,0,0:0:0:0:
192,192,206158,1,2,0:0:0:0:
320,192,206195,1,0,0:0:0:0:
448,192,206233,1,2,0:0:0:0:
64,192,206270,1,0,0:0:0:0:
192,192,206308,1,2,0:0:0:0:
320,192,206345,1,0,0:0:0:0:
448,192,206383,1,4,0:0:0:0:
64,192,206533,128,0,206683:0:0:0:0:
448,192,206683,128,0,206833:0:0:0:0:
192,192,206833,128,0,206983:0:0:0:0:
320,192,206983,128,0,207133:0:0:0:0:
64,192,207133,128,0,207283:0:0:0:0:
192,192,207283,128,0,207433:0:0:0:0:
64,192,207583,1,2,0:0:0:0:
448,192,207583,1,4,0:0:0:0:
320,192,207583,128,0,207733:0:0:0:0:
192,192,207733,1,0,0:0:0:0:
64,192,207883,1,2,0:0:0:0:
320,192,207883,1,8,0:0:0:0:
448,192,207883,1,0,0:0:0:0:
192,192,208033,128,0,208183:0:0:0:0:
320,192,208183,1,2,0:0:0:0:
448,192,208183,1,0,0:0:0:0:
192,192,208333,128,0,208483:0:0:0:0:
64,192,208483,1,2,0:0:0:0:
320,192,208483,1,8,0:0:0:0:
448,192,208483,1,0,0:0:0:0:
192,192,208633,128,0,208783:0:0:0:0:
320,192,208783,128,2,208933:0:0:0:0:
448,192,208783,128,0,208933:0:0:0:0:
64,192,208933,1,0,0:0:0:0:
192,192,209083,1,2,0:0:0:0:
320,192,209083,1,8,0:0:0:0:
448,192,209083,1,0,0:0:0:0:
64,192,209233,128,0,209383:0:0:0:0:
192,192,209383,1,2,0:0:0:0:
448,192,209383,1,0,0:0:0:0:
320,192,209533,1,0,0:0:0:0:
64,192,209683,128,2,209833:0:0:0:0:
192,192,209683,128,8,209833:0:0:0:0:
448,192,209683,1,0,0:0:0:0:
320,192,209833,1,0,0:0:0:0:
64,192,209983,1,2,0:0:0:0:
448,192,209983,128,0,210133:0:0:0:0:
192,192,210133,1,0,0:0:0:0:
64,192,210283,1,2,0:0:0:0:
320,192,210283,1,8,0:0:0:0:
448,192,210283,1,0,0:0:0:0:
320,192,210433,1,0,0:0:0:0:
192,192,210583,128,2,210733:0:0:0:0:
448,192,210583,1,0,0:0:0:0:
64,192,210733,128,0,210883:0:0:0:0:
192,192,210883,1,2,0:0:0:0:
320,192,210883,1,8,0:0:0:0:
448,192,210883,128,0,211033:0:0:0:0:
320,192,211033,128,0,211183:0:0:0:0:
192,192,211183,128,2,211333:0:0:0:0:
64,192,211183,128,0,211333:0:0:0:0:
448,192,211333,1,0,0:0:0:0:
64,192,211483,1,2,0:0:0:0:
192,192,211483,1,8,0:0:0:0:
320,192,211483,1,0,0:0:0:0:
448,192,211633,128,0,211783:0:0:0:0:
64,192,211783,1,2,0:0:0:0:
320,192,211783,1,0,0:0:0:0:
192,192,211933,1,0,0:0:0:0:
448,192,212083,128,2,212233:0:0:0:0:
320,192,212083,128,8,212233:0:0:0:0:
64,192,212083,1,0,0:0:0:0:
192,192,212233,1,0,0:0:0:0:
448,192,212383,1,2,0:0:0:0:
64,192,212383,128,0,212533:0:0:0:0:
320,192,212533,1,0,0:0:0:0:
64,192,212683,1,2,0:0:0:0:
192,192,212683,1,8,0:0:0:0:
448,192,212683,1,0,0:0:0:0:
320,192,212833,128,0,212983:0:0:0:0:
192,192,212983,1,2,0:0:0:0:
64,192,212983,1,0,0:0:0:0:
320,192,213133,128,0,213283:0:0:0:0:
64,192,213283,1,2,0:0:0:0:
192,192,213283,1,8,0:0:0:0:
448,192,213283,1,0,0:0:0:0:
320,192,213433,128,0,213583:0:0:0:0:
64,192,213583,128,2,213733:0:0:0:0:
192,192,213583,128,0,213733:0:0:0:0:
448,192,213733,1,0,0:0:0:0:
64,192,213883,1,2,0:0:0:0:
320,192,213883,1,8,0:0:0:0:
192,192,213883,1,0,0:0:0:0:
448,192,214033,128,0,214183:0:0:0:0:
320,192,214183,1,2,0:0:0:0:
192,192,214183,1,0,0:0:0:0:
64,192,214333,1,0,0:0:0:0:
320,192,214483,128,2,214633:0:0:0:0:
448,192,214483,128,8,214633:0:0:0:0:
192,192,214483,1,0,0:0:0:0:
64,192,214633,1,0,0:0:0:0:
192,192,214783,128,2,214933:0:0:0:0:
448,192,214783,1,0,0:0:0:0:
320,192,214933,1,0,0:0:0:0:
192,192,215083,1,2,0:0:0:0:
64,192,215083,1,8,0:0:0:0:
448,192,215083,1,0,0:0:0:0:
448,192,215233,1,0,0:0:0:0:
64,192,215383,128,2,215533:0:0:0:0:
320,192,215383,1,0,0:0:0:0:
192,192,215533,128,0,215683:0:0:0:0:
64,192,215683,1,2,0:0:0:0:
448,192,215683,128,8,215833:0:0:0:0:
320,192,215683,1,0,0:0:0:0:
320,192,215833,128,0,215983:0:0:0:0:
192,192,215983,1,2,0:0:0:0:
448,192,215983,1,4,0:0:0:0:
64,192,215983,128,0,216583:0:0:0:0:
320,192,216133,1,0,0:0:0:0:
448,192,216283,1,8,0:0:0:0:
192,192,216283,1,0,0:0:0:0:
320,192,216433,1,0,0:0:0:0:
320,192,216583,1,2,0:0:0:0:
448,192,216583,1,4,0:0:0:0:
192,192,216583,1,0,0:0:0:0:
64,192,216733,1,0,0:0:0:0:
448,192,216883,1,0,0:0:0:0:
192,192,216883,128,0,217033:0:0:0:0:
320,192,217033,1,2,0:0:0:0:
64,192,217033,1,0,0:0:0:0:
448,192,217183,128,0,217333:0:0:0:0:
192,192,217183,1,4,0:0:0:0:
64,192,217183,1,2,0:0:0:0:
320,192,217333,1,0,0:0:0:0:
64,192,217483,1,2,0:0:0:0:
192,192,217483,1,8,0:0:0:0:
448,192,217483,1,0,0:0:0:0:
320,192,217633,128,0,217783:0:0:0:0:
64,192,217783,1,2,0:0:0:0:
192,192,217783,1,0,0:0:0:0:
320,192,217933,128,0,218083:0:0:0:0:
64,192,218083,1,2,0:0:0:0:
192,192,218083,1,8,0:0:0:0:
448,192,218083,1,0,0:0:0:0:
320,192,218233,128,0,218383:0:0:0:0:
64,192,218383,128,2,218533:0:0:0:0:
192,192,218383,128,0,218533:0:0:0:0:
448,192,218533,1,0,0:0:0:0:
64,192,218683,1,2,0:0:0:0:
320,192,218683,1,8,0:0:0:0:
192,192,218683,1,0,0:0:0:0:
448,192,218833,128,0,218983:0:0:0:0:
320,192,218983,1,2,0:0:0:0:
64,192,218983,1,0,0:0:0:0:
192,192,219133,1,0,0:0:0:0:
64,192,219283,1,2,0:0:0:0:
320,192,219283,128,8,219433:0:0:0:0:
448,192,219283,128,0,219433:0:0:0:0:
192,192,219433,1,0,0:0:0:0:
64,192,219583,128,2,219733:0:0:0:0:
448,192,219583,1,0,0:0:0:0:
320,192,219733,1,0,0:0:0:0:
64,192,219883,1,2,0:0:0:0:
192,192,219883,1,8,0:0:0:0:
448,192,219883,1,0,0:0:0:0:
192,192,220033,1,0,0:0:0:0:
448,192,220183,128,2,220333:0:0:0:0:
64,192,220183,1,0,0:0:0:0:
320,192,220333,128,0,220483:0:0:0:0:
448,192,220483,1,2,0:0:0:0:
192,192,220483,1,8,0:0:0:0:
64,192,220483,128,0,220633:0:0:0:0:
192,192,220633,128,0,220783:0:0:0:0:
448,192,220783,128,2,220933:0:0:0:0:
320,192,220783,128,0,220933:0:0:0:0:
64,192,220933,1,0,0:0:0:0:
448,192,221083,1,2,0:0:0:0:
192,192,221083,1,8,0:0:0:0:
320,192,221083,1,0,0:0:0:0:
64,192,221233,128,0,221383:0:0:0:0:
448,192,221383,1,2,0:0:0:0:
192,192,221383,1,0,0:0:0:0:
320,192,221533,1,0,0:0:0:0:
64,192,221683,1,2,0:0:0:0:
192,192,221683,1,8,0:0:0:0:
448,192,221683,1,0,0:0:0:0:
192,192,221833,1,2,0:0:0:0:
320,192,221833,1,0,0:0:0:0:
64,192,221983,1,2,0:0:0:0:
320,192,221983,1,4,0:0:0:0:
448,192,221983,1,0,0:0:0:0:
192,192,222133,1,0,0:0:0:0:
64,192,222283,1,2,0:0:0:0:
448,192,222283,1,8,0:0:0:0:
320,192,222283,1,0,0:0:0:0:
320,192,222433,128,0,222583:0:0:0:0:
64,192,222583,1,2,0:0:0:0:
448,192,222583,1,8,0:0:0:0:
192,192,222583,1,0,0:0:0:0:
320,192,222733,128,0,222883:0:0:0:0:
64,192,222883,1,2,0:0:0:0:
448,192,222883,1,8,0:0:0:0:
192,192,222883,1,0,0:0:0:0:
320,192,223033,128,0,223183:0:0:0:0:
448,192,223183,1,0,0:0:0:0:
64,192,223183,128,2,223333:0:0:0:0:
192,192,223183,128,8,223333:0:0:0:0:
320,192,223333,1,0,0:0:0:0:
64,192,223483,1,2,0:0:0:0:
448,192,223483,1,8,0:0:0:0:
192,192,223483,1,0,0:0:0:0:
192,192,223633,128,0,223783:0:0:0:0:
64,192,223783,1,2,0:0:0:0:
448,192,223783,1,8,0:0:0:0:
320,192,223783,1,0,0:0:0:0:
192,192,223933,1,0,0:0:0:0:
448,192,224083,128,8,224233:0:0:0:0:
320,192,224083,128,0,224233:0:0:0:0:
64,192,224083,1,2,0:0:0:0:
192,192,224233,1,0,0:0:0:0:
64,192,224383,1,2,0:0:0:0:
320,192,224383,1,4,0:0:0:0:
448,192,224383,1,0,0:0:0:0:
320,192,224533,1,8,0:0:0:0:
192,192,224533,1,0,0:0:0:0:
448,192,224683,1,8,0:0:0:0:
192,192,224683,1,0,0:0:0:0:
64,192,224833,1,8,0:0:0:0:
448,192,224833,1,0,0:0:0:0:
320,192,224983,1,8,0:0:0:0:
64,192,224983,1,0,0:0:0:0:
320,192,225133,1,8,0:0:0:0:
192,192,225133,1,0,0:0:0:0:
448,192,225283,1,8,0:0:0:0:
192,192,225283,1,0,0:0:0:0:
64,192,225433,1,8,0:0:0:0:
448,192,225433,1,0,0:0:0:0:
64,192,225583,1,2,0:0:0:0:
320,192,225583,1,4,0:0:0:0:
192,192,225583,1,0,0:0:0:0:
448,192,225733,128,0,225883:0:0:0:0:
448,192,226033,128,0,226183:0:0:0:0:
64,192,226183,1,2,0:0:0:0:
320,192,226183,1,4,0:0:0:0:
192,192,226183,1,0,0:0:0:0:
448,192,226333,128,0,226483:0:0:0:0:
192,192,226483,1,4,0:0:0:0:
320,192,226483,1,0,0:0:0:0:
320,192,226633,1,2,0:0:0:0:
64,192,226783,128,4,227383:0:0:0:0:
192,192,226783,1,0,0:0:0:90:Boom.wav
448,192,226783,128,0,227683:0:0:0:0:
192,192,227383,128,0,228883:0:0:0:0:
320,192,227683,128,0,228283:0:0:0:0:
