osu file format v14

[General]
AudioFilename: audio.mp3
AudioLeadIn: 0
PreviewTime: 140383
Countdown: 0
SampleSet: Soft
StackLeniency: 0.7
Mode: 3
LetterboxInBreaks: 0
SpecialStyle: 0
WidescreenStoryboard: 1

[Editor]
Bookmarks: 44383,92383,101983,111583,121183,130783
DistanceSpacing: 1.9
BeatDivisor: 4
GridSize: 16
TimelineZoom: 1.9

[Metadata]
Title:Satisfiction (Massive New Krew Remix)
TitleUnicode:Satisfiction (Massive New Krew Remix)
Artist:t+pazolite
ArtistUnicode:t+pazolite
Creator:Lita-
Version:Ichi's Hard
Source:GROOVE COASTER 2 HEAVENLY FESTIVAL
Tags:グルーヴコースター ponko2 girlish chs c.h.s electronic hardcore j-core japan tpz ichigaki lirai kanon matsubara instrumental video game satisfaction original style
BeatmapID:2835134
BeatmapSetID:1161543

[Difficulty]
HPDrainRate:8
CircleSize:4
OverallDifficulty:8
ApproachRate:5
SliderMultiplier:1.4
SliderTickRate:1

[Events]
//Background and Video events
0,0,"883060-min.jpg",0,0
//Break Periods
//Storyboard Layer 0 (Background)
//Storyboard Layer 1 (Fail)
//Storyboard Layer 2 (Pass)
//Storyboard Layer 3 (Foreground)
//Storyboard Layer 4 (Overlay)
//Storyboard Sound Samples
Sample,32233,0,"SnareClap.wav",50
Sample,32533,0,"SnareClap.wav",50
Sample,32833,0,"SnareClap.wav",50
Sample,110383,0,"Clap.wav",45

[TimingPoints]
1183,300,4,2,1,70,1,0
20383,-100,4,2,1,60,0,0
34783,-100,4,2,1,80,0,1
51583,-100,4,2,1,70,0,0
53983,-100,4,2,1,80,0,1
73183,-100,4,2,1,60,0,0
82783,-100,4,2,1,65,0,0
92383,-100,4,2,1,70,0,0
130783,-100,4,2,1,60,0,0
140383,-100,4,2,1,65,0,0
159583,-100,4,2,1,55,0,0
167983,-100,4,2,1,40,0,0
169183,-100,4,2,1,80,0,1
178783,-100,4,2,1,60,0,0
188383,-100,4,2,1,80,0,1
195583,-100,4,2,1,70,0,0
197983,-100,4,2,1,80,0,1
207583,-100,4,2,1,70,0,0
215983,-100,4,2,1,60,0,0
217183,-100,4,2,1,70,0,0

[HitObjects]
64,192,1183,5,2,0:0:0:0:
320,192,1183,1,4,0:0:0:0:
448,192,1183,1,0,0:0:0:0:
448,192,1333,1,0,0:0:0:0:
64,192,1483,1,2,0:0:0:0:
192,192,1483,1,0,0:0:0:0:
320,192,1633,1,0,0:0:0:0:
64,192,1783,1,2,0:0:0:0:
192,192,1783,1,8,0:0:0:0:
448,192,1933,1,0,0:0:0:0:
64,192,2083,1,2,0:0:0:0:
192,192,2083,1,0,0:0:0:0:
64,192,2383,1,2,0:0:0:0:
192,192,2383,1,0,0:0:0:0:
64,192,2533,1,0,0:0:0:0:
320,192,2683,1,2,0:0:0:0:
448,192,2683,1,0,0:0:0:0:
192,192,2833,1,0,0:0:0:0:
320,192,2983,1,2,0:0:0:0:
448,192,2983,1,8,0:0:0:0:
64,192,3133,1,0,0:0:0:0:
320,192,3283,1,2,0:0:0:0:
448,192,3283,1,0,0:0:0:0:
320,192,3583,1,2,0:0:0:0:
448,192,3583,1,0,0:0:0:0:
320,192,3733,1,0,0:0:0:0:
64,192,3883,1,2,0:0:0:0:
192,192,3883,1,0,0:0:0:0:
448,192,4033,1,0,0:0:0:0:
64,192,4183,1,2,0:0:0:0:
192,192,4183,1,8,0:0:0:0:
320,192,4333,1,0,0:0:0:0:
64,192,4483,1,2,0:0:0:0:
192,192,4483,1,0,0:0:0:0:
320,192,4633,1,0,0:0:0:0:
64,192,4783,1,2,0:0:0:0:
192,192,4783,1,0,0:0:0:0:
448,192,4933,1,0,0:0:0:0:
192,192,5083,1,2,0:0:0:0:
320,192,5083,1,0,0:0:0:0:
64,192,5233,1,0,0:0:0:0:
320,192,5383,1,2,0:0:0:0:
448,192,5383,1,8,0:0:0:0:
192,192,5683,1,2,0:0:0:0:
320,192,5683,1,0,0:0:0:0:
64,192,5983,1,2,0:0:0:0:
192,192,5983,1,0,0:0:0:0:
64,192,6133,1,0,0:0:0:0:
320,192,6283,1,2,0:0:0:0:
448,192,6283,1,0,0:0:0:0:
192,192,6433,1,0,0:0:0:0:
320,192,6583,1,2,0:0:0:0:
448,192,6583,1,8,0:0:0:0:
64,192,6733,1,0,0:0:0:0:
320,192,6883,1,2,0:0:0:0:
448,192,6883,1,0,0:0:0:0:
320,192,7183,1,2,0:0:0:0:
448,192,7183,1,0,0:0:0:0:
448,192,7333,1,0,0:0:0:0:
64,192,7483,1,2,0:0:0:0:
192,192,7483,1,0,0:0:0:0:
320,192,7633,1,0,0:0:0:0:
64,192,7783,1,2,0:0:0:0:
192,192,7783,1,8,0:0:0:0:
448,192,7933,1,0,0:0:0:0:
64,192,8083,1,2,0:0:0:0:
192,192,8083,1,0,0:0:0:0:
64,192,8383,1,2,0:0:0:0:
192,192,8383,1,0,0:0:0:0:
192,192,8533,1,0,0:0:0:0:
320,192,8683,1,2,0:0:0:0:
448,192,8683,1,0,0:0:0:0:
64,192,8833,1,0,0:0:0:0:
320,192,8983,1,2,0:0:0:0:
448,192,8983,1,8,0:0:0:0:
192,192,9133,1,0,0:0:0:0:
320,192,9283,1,2,0:0:0:0:
448,192,9283,1,0,0:0:0:0:
192,192,9433,1,0,0:0:0:0:
64,192,9583,1,2,0:0:0:0:
448,192,9583,1,0,0:0:0:50:SnareClap.wav
320,192,9883,1,0,0:0:0:50:SnareClap.wav
64,192,10033,1,2,0:0:0:0:
448,192,10033,1,0,0:0:0:50:SnareClap.wav
192,192,10183,1,0,0:0:0:50:SnareClap.wav
64,192,10333,1,2,0:0:0:0:
448,192,10333,1,0,0:0:0:50:SnareClap.wav
320,192,10483,1,0,0:0:0:45:Clap.wav
192,192,10558,1,0,0:0:0:45:Clap.wav
320,192,10633,1,0,0:0:0:45:Clap.wav
192,192,10708,1,0,0:0:0:45:Clap.wav
64,192,10783,1,2,0:0:0:0:
320,192,10783,1,4,0:0:0:0:
448,192,10783,1,0,0:0:0:0:
192,192,10933,1,0,0:0:0:0:
64,192,11083,1,2,0:0:0:0:
448,192,11083,1,8,0:0:0:0:
448,192,11233,1,0,0:0:0:0:
64,192,11383,1,2,0:0:0:0:
192,192,11383,1,0,0:0:0:0:
320,192,11533,1,0,0:0:0:0:
64,192,11683,1,2,0:0:0:0:
448,192,11683,1,8,0:0:0:0:
64,192,11983,1,2,0:0:0:0:
192,192,11983,1,0,0:0:0:0:
448,192,12133,1,0,0:0:0:0:
64,192,12283,1,2,0:0:0:0:
192,192,12283,1,8,0:0:0:0:
448,192,12433,1,0,0:0:0:0:
192,192,12583,1,2,0:0:0:0:
448,192,12583,1,0,0:0:0:0:
192,192,12733,1,0,0:0:0:0:
64,192,12883,1,2,0:0:0:0:
320,192,12883,1,8,0:0:0:0:
320,192,13033,1,0,0:0:0:0:
64,192,13183,1,2,0:0:0:0:
448,192,13183,1,0,0:0:0:0:
192,192,13333,1,0,0:0:0:0:
64,192,13483,1,2,0:0:0:0:
448,192,13483,1,8,0:0:0:0:
64,192,13633,1,0,0:0:0:0:
192,192,13783,1,2,0:0:0:0:
448,192,13783,1,0,0:0:0:0:
320,192,13933,1,0,0:0:0:0:
64,192,14083,1,2,0:0:0:0:
448,192,14083,1,8,0:0:0:0:
192,192,14233,1,0,0:0:0:0:
320,192,14383,1,2,0:0:0:0:
448,192,14383,1,0,0:0:0:0:
64,192,14533,1,0,0:0:0:0:
192,192,14533,1,0,0:0:0:0:
320,192,14683,1,2,0:0:0:0:
448,192,14683,1,8,0:0:0:0:
64,192,14833,1,0,0:0:0:0:
64,192,14983,1,2,0:0:0:0:
320,192,14983,1,0,0:0:0:0:
320,192,15133,1,0,0:0:0:0:
192,192,15283,1,2,0:0:0:0:
448,192,15283,1,8,0:0:0:0:
192,192,15433,1,0,0:0:0:45:Clap.wav
64,192,15583,1,2,0:0:0:0:
320,192,15583,1,4,0:0:0:0:
448,192,15583,1,0,0:0:0:0:
192,192,15733,1,0,0:0:0:45:Clap.wav
64,192,15883,1,2,0:0:0:0:
448,192,15883,1,8,0:0:0:0:
448,192,16033,1,0,0:0:0:45:Clap.wav
192,192,16183,1,2,0:0:0:0:
320,192,16183,1,0,0:0:0:0:
64,192,16333,1,0,0:0:0:45:Clap.wav
320,192,16483,1,2,0:0:0:0:
448,192,16483,1,8,0:0:0:0:
192,192,16633,1,0,0:0:0:45:Clap.wav
64,192,16783,1,2,0:0:0:0:
320,192,16783,1,4,0:0:0:0:
448,192,16783,1,0,0:0:0:0:
320,192,16933,1,0,0:0:0:45:Clap.wav
64,192,17083,1,2,0:0:0:0:
192,192,17083,1,8,0:0:0:0:
448,192,17233,1,0,0:0:0:45:Clap.wav
192,192,17383,1,2,0:0:0:0:
448,192,17383,1,0,0:0:0:0:
192,192,17533,1,0,0:0:0:45:Clap.wav
64,192,17683,1,10,0:0:0:0:
320,192,17683,1,0,0:0:0:45:Clap.wav
320,192,17833,1,0,0:0:0:45:Clap.wav
64,192,17983,1,2,0:0:0:0:
192,192,17983,1,4,0:0:0:0:
448,192,17983,1,0,0:0:0:45:Clap.wav
64,192,18283,1,2,0:0:0:0:
320,192,18283,1,8,0:0:0:0:
448,192,18283,1,0,0:0:0:45:Clap.wav
64,192,18583,1,2,0:0:0:0:
192,192,18583,1,4,0:0:0:0:
448,192,18583,1,0,0:0:0:45:Clap.wav
64,192,18883,1,2,0:0:0:0:
320,192,18883,1,4,0:0:0:0:
448,192,18883,1,0,0:0:0:45:Clap.wav
448,192,19183,1,0,0:0:0:50:SnareClap.wav
320,192,19258,1,0,0:0:0:50:SnareClap.wav
64,192,19333,1,0,0:0:0:50:SnareClap.wav
192,192,19408,1,0,0:0:0:50:SnareClap.wav
448,192,19483,1,0,0:0:0:50:SnareClap.wav
320,192,19558,1,0,0:0:0:50:SnareClap.wav
64,192,19633,1,0,0:0:0:50:SnareClap.wav
192,192,19708,1,0,0:0:0:50:SnareClap.wav
320,192,19783,1,0,0:0:0:50:SnareClap.wav
448,192,19858,1,0,0:0:0:50:SnareClap.wav
192,192,19933,1,0,0:0:0:50:SnareClap.wav
64,192,20008,1,0,0:0:0:50:SnareClap.wav
320,192,20083,1,0,0:0:0:50:SnareClap.wav
448,192,20158,1,0,0:0:0:50:SnareClap.wav
192,192,20233,1,0,0:0:0:50:SnareClap.wav
64,192,20308,1,0,0:0:0:50:SnareClap.wav
448,192,20383,1,0,0:0:0:90:Boom.wav
320,192,20383,1,4,0:0:0:0:
320,192,20683,1,0,0:0:0:0:
192,192,20833,1,0,0:0:0:0:
192,192,21283,1,0,0:0:0:0:
192,192,21733,1,0,0:0:0:0:
320,192,22033,1,0,0:0:0:0:
192,192,22183,1,0,0:0:0:0:
320,192,22333,1,0,0:0:0:0:
192,192,22483,1,0,0:0:0:0:
320,192,22633,1,0,0:0:0:0:
192,192,22783,1,0,0:0:0:0:
192,192,23083,1,0,0:0:0:0:
320,192,23233,1,0,0:0:0:0:
320,192,23683,1,0,0:0:0:0:
320,192,24133,1,0,0:0:0:0:
192,192,24433,1,0,0:0:0:0:
320,192,24583,1,0,0:0:0:0:
192,192,24733,1,0,0:0:0:0:
320,192,24883,1,0,0:0:0:0:
192,192,25033,1,0,0:0:0:0:
64,192,25183,1,2,0:0:0:0:
320,192,25183,1,4,0:0:0:0:
448,192,25183,1,0,0:0:0:0:
320,192,25333,1,0,0:0:0:50:SnareClap.wav
64,192,25483,1,2,0:0:0:0:
192,192,25483,1,0,0:0:0:0:
64,192,25633,1,0,0:0:0:50:SnareClap.wav
320,192,25783,1,2,0:0:0:0:
448,192,25783,1,0,0:0:0:0:
320,192,25933,1,0,0:0:0:50:SnareClap.wav
64,192,26083,1,2,0:0:0:0:
448,192,26083,1,0,0:0:0:0:
64,192,26233,1,0,0:0:0:50:SnareClap.wav
192,192,26383,1,2,0:0:0:0:
448,192,26383,1,0,0:0:0:0:
448,192,26533,1,0,0:0:0:50:SnareClap.wav
64,192,26683,1,2,0:0:0:0:
320,192,26683,1,0,0:0:0:0:
64,192,26833,1,0,0:0:0:50:SnareClap.wav
192,192,26983,1,2,0:0:0:0:
448,192,26983,1,0,0:0:0:0:
192,192,27133,1,0,0:0:0:50:SnareClap.wav
64,192,27283,1,2,0:0:0:0:
448,192,27283,1,0,0:0:0:0:
448,192,27433,1,0,0:0:0:50:SnareClap.wav
320,192,27508,1,0,0:0:0:50:SnareClap.wav
64,192,27583,1,2,0:0:0:0:
192,192,27583,1,0,0:0:0:0:
64,192,27733,1,0,0:0:0:50:SnareClap.wav
320,192,27883,1,2,0:0:0:0:
448,192,27883,1,0,0:0:0:0:
448,192,28033,1,0,0:0:0:50:SnareClap.wav
64,192,28183,1,2,0:0:0:0:
320,192,28183,1,0,0:0:0:0:
64,192,28333,1,0,0:0:0:50:SnareClap.wav
192,192,28483,1,2,0:0:0:0:
448,192,28483,1,0,0:0:0:0:
192,192,28633,1,0,0:0:0:50:SnareClap.wav
320,192,28708,1,0,0:0:0:50:SnareClap.wav
64,192,28783,1,2,0:0:0:0:
448,192,28783,1,0,0:0:0:0:
448,192,28933,1,0,0:0:0:50:SnareClap.wav
192,192,29083,1,2,0:0:0:0:
320,192,29083,1,0,0:0:0:0:
192,192,29233,1,0,0:0:0:50:SnareClap.wav
64,192,29383,1,2,0:0:0:0:
320,192,29383,1,0,0:0:0:0:
320,192,29533,1,0,0:0:0:50:SnareClap.wav
192,192,29683,1,2,0:0:0:0:
448,192,29683,1,0,0:0:0:0:
192,192,29833,1,0,0:0:0:50:SnareClap.wav
320,192,29908,1,0,0:0:0:50:SnareClap.wav
64,192,29983,1,2,0:0:0:0:
192,192,29983,1,4,0:0:0:0:
448,192,29983,1,0,0:0:0:0:
320,192,30133,1,0,0:0:0:50:SnareClap.wav
192,192,30283,1,2,0:0:0:0:
448,192,30283,1,0,0:0:0:50:SnareClap.wav
320,192,30433,1,0,0:0:0:50:SnareClap.wav
64,192,30583,1,2,0:0:0:0:
192,192,30583,1,0,0:0:0:50:SnareClap.wav
448,192,30733,1,0,0:0:0:50:SnareClap.wav
64,192,30883,1,2,0:0:0:0:
320,192,30883,1,0,0:0:0:50:SnareClap.wav
192,192,31033,1,0,0:0:0:50:SnareClap.wav
64,192,31183,1,2,0:0:0:0:
320,192,31183,1,4,0:0:0:0:
448,192,31183,1,0,0:0:0:50:SnareClap.wav
192,192,31333,1,0,0:0:0:50:SnareClap.wav
64,192,31483,1,2,0:0:0:0:
320,192,31483,1,0,0:0:0:50:SnareClap.wav
192,192,31633,1,0,0:0:0:50:SnareClap.wav
320,192,31783,1,2,0:0:0:0:
448,192,31783,1,0,0:0:0:50:SnareClap.wav
64,192,31933,1,0,0:0:0:50:SnareClap.wav
192,192,32083,1,2,0:0:0:0:
448,192,32083,1,0,0:0:0:50:SnareClap.wav
320,192,32158,1,2,0:0:0:0:
192,192,32233,1,2,0:0:0:0:
320,192,32308,1,2,0:0:0:0:
64,192,32383,1,6,0:0:0:0:
448,192,32383,1,0,0:0:0:50:SnareClap.wav
192,192,32533,1,2,0:0:0:0:
320,192,32683,1,6,0:0:0:0:
448,192,32683,1,0,0:0:0:50:SnareClap.wav
192,192,32833,1,2,0:0:0:0:
64,192,32983,1,2,0:0:0:0:
448,192,32983,1,4,0:0:0:0:
320,192,33058,1,2,0:0:0:0:
192,192,33133,1,2,0:0:0:0:
64,192,33208,1,2,0:0:0:0:
448,192,33283,1,6,0:0:0:0:
320,192,33358,1,2,0:0:0:0:
192,192,33433,1,2,0:0:0:0:
64,192,33508,1,2,0:0:0:0:
320,192,33583,1,0,0:0:0:70:Snare.wav
448,192,33583,1,0,0:0:0:0:
448,192,33733,1,0,0:0:0:0:
192,192,33883,1,0,0:0:0:70:Snare.wav
320,192,33883,1,0,0:0:0:0:
192,192,34033,1,0,0:0:0:0:
64,192,34183,1,0,0:0:0:70:Snare.wav
448,192,34183,1,0,0:0:0:0:
64,192,34333,1,0,0:0:0:0:
448,192,34483,1,0,0:0:0:0:
64,192,34783,1,2,0:0:0:0:
192,192,34783,1,4,0:0:0:0:
448,192,34783,1,0,0:0:0:0:
320,192,34933,1,0,0:0:0:0:
64,192,35083,1,2,0:0:0:0:
448,192,35083,1,8,0:0:0:0:
64,192,35233,1,0,0:0:0:0:
320,192,35383,1,2,0:0:0:0:
448,192,35383,1,0,0:0:0:0:
320,192,35533,1,0,0:0:0:0:
64,192,35683,1,2,0:0:0:0:
192,192,35683,1,8,0:0:0:0:
64,192,35833,1,0,0:0:0:0:
192,192,35983,1,2,0:0:0:0:
320,192,35983,1,0,0:0:0:0:
320,192,36133,1,0,0:0:0:0:
64,192,36283,1,2,0:0:0:0:
448,192,36283,1,8,0:0:0:0:
192,192,36433,1,0,0:0:0:0:
192,192,36583,1,2,0:0:0:0:
448,192,36583,1,0,0:0:0:0:
320,192,36733,1,0,0:0:0:0:
64,192,36883,1,2,0:0:0:0:
448,192,36883,1,8,0:0:0:0:
192,192,37033,1,0,0:0:0:0:
64,192,37183,1,2,0:0:0:0:
320,192,37183,1,0,0:0:0:0:
320,192,37333,1,0,0:0:0:0:
192,192,37483,1,2,0:0:0:0:
448,192,37483,1,8,0:0:0:0:
64,192,37633,1,0,0:0:0:0:
320,192,37783,1,2,0:0:0:0:
448,192,37783,1,0,0:0:0:0:
320,192,37933,1,0,0:0:0:0:
64,192,38083,1,2,0:0:0:0:
320,192,38083,1,8,0:0:0:0:
192,192,38233,1,0,0:0:0:0:
320,192,38383,1,2,0:0:0:0:
448,192,38383,1,0,0:0:0:0:
64,192,38533,1,0,0:0:0:0:
192,192,38683,1,2,0:0:0:0:
448,192,38683,1,8,0:0:0:0:
320,192,38833,1,0,0:0:0:0:
64,192,38983,1,2,0:0:0:0:
320,192,38983,1,0,0:0:0:0:
192,192,39133,1,0,0:0:0:0:
320,192,39283,1,2,0:0:0:0:
448,192,39283,1,8,0:0:0:0:
192,192,39358,1,0,0:0:0:0:
320,192,39433,1,0,0:0:0:0:
192,192,39508,1,0,0:0:0:0:
64,192,39583,1,2,0:0:0:0:
448,192,39583,1,0,0:0:0:0:
320,192,39733,1,0,0:0:0:0:
192,192,39883,1,2,0:0:0:0:
448,192,39883,1,8,0:0:0:0:
64,192,40033,1,0,0:0:0:0:
320,192,40183,1,2,0:0:0:0:
448,192,40183,1,0,0:0:0:0:
64,192,40333,1,0,0:0:0:0:
192,192,40483,1,2,0:0:0:0:
320,192,40483,1,8,0:0:0:0:
64,192,40633,1,0,0:0:0:0:
320,192,40783,1,2,0:0:0:0:
448,192,40783,1,0,0:0:0:0:
192,192,40933,1,0,0:0:0:0:
64,192,41083,1,2,0:0:0:0:
448,192,41083,1,8,0:0:0:0:
320,192,41233,1,0,0:0:0:0:
64,192,41383,1,2,0:0:0:0:
320,192,41383,1,0,0:0:0:0:
192,192,41533,1,0,0:0:0:0:
320,192,41683,1,2,0:0:0:0:
448,192,41683,1,8,0:0:0:0:
64,192,41833,1,0,0:0:0:0:
192,192,41983,1,2,0:0:0:0:
448,192,41983,1,0,0:0:0:0:
320,192,42133,1,0,0:0:0:0:
64,192,42283,1,2,0:0:0:0:
192,192,42283,1,8,0:0:0:0:
448,192,42433,1,0,0:0:0:0:
192,192,42583,1,2,0:0:0:0:
320,192,42583,1,0,0:0:0:0:
192,192,42733,1,0,0:0:0:0:
64,192,42883,1,2,0:0:0:0:
192,192,42883,1,8,0:0:0:0:
320,192,43033,1,0,0:0:0:0:
64,192,43183,1,2,0:0:0:0:
192,192,43183,1,4,0:0:0:0:
448,192,43183,1,0,0:0:0:0:
192,192,43483,1,8,0:0:0:0:
320,192,43483,1,0,0:0:0:0:
64,192,43783,1,2,0:0:0:0:
320,192,43783,1,4,0:0:0:0:
448,192,43783,1,0,0:0:0:0:
320,192,43933,1,0,0:0:0:0:
192,192,44083,1,0,0:0:0:0:
192,192,44233,1,2,0:0:0:0:
320,192,44233,1,0,0:0:0:0:
64,192,44383,1,2,0:0:0:0:
192,192,44383,1,4,0:0:0:0:
448,192,44383,1,0,0:0:0:0:
320,192,44533,1,0,0:0:0:0:
192,192,44683,1,2,0:0:0:0:
448,192,44683,1,8,0:0:0:0:
64,192,44833,1,0,0:0:0:0:
320,192,44983,1,2,0:0:0:0:
448,192,44983,1,0,0:0:0:0:
64,192,45133,1,0,0:0:0:0:
192,192,45283,1,2,0:0:0:0:
320,192,45283,1,8,0:0:0:0:
64,192,45433,1,0,0:0:0:0:
192,192,45583,1,2,0:0:0:0:
320,192,45583,1,0,0:0:0:0:
320,192,45733,1,0,0:0:0:0:
64,192,45883,1,2,0:0:0:0:
448,192,45883,1,8,0:0:0:0:
192,192,46033,1,0,0:0:0:0:
192,192,46183,1,2,0:0:0:0:
448,192,46183,1,0,0:0:0:0:
320,192,46333,1,0,0:0:0:0:
64,192,46483,1,2,0:0:0:0:
448,192,46483,1,8,0:0:0:0:
192,192,46633,1,0,0:0:0:0:
64,192,46783,1,2,0:0:0:0:
320,192,46783,1,0,0:0:0:0:
320,192,46933,1,0,0:0:0:0:
192,192,47083,1,2,0:0:0:0:
448,192,47083,1,8,0:0:0:0:
64,192,47233,1,0,0:0:0:0:
320,192,47383,1,2,0:0:0:0:
448,192,47383,1,0,0:0:0:0:
320,192,47533,1,0,0:0:0:0:
64,192,47683,1,2,0:0:0:0:
320,192,47683,1,8,0:0:0:0:
192,192,47833,1,0,0:0:0:0:
320,192,47983,1,2,0:0:0:0:
448,192,47983,1,0,0:0:0:0:
64,192,48133,1,0,0:0:0:0:
192,192,48283,1,2,0:0:0:0:
448,192,48283,1,8,0:0:0:0:
320,192,48433,1,0,0:0:0:0:
64,192,48583,1,2,0:0:0:0:
320,192,48583,1,0,0:0:0:0:
192,192,48733,1,0,0:0:0:0:
192,192,48883,1,2,0:0:0:0:
448,192,48883,1,8,0:0:0:0:
448,192,49033,1,0,0:0:0:0:
64,192,49183,1,2,0:0:0:0:
320,192,49183,1,0,0:0:0:0:
192,192,49333,1,0,0:0:0:0:
64,192,49483,1,2,0:0:0:0:
320,192,49483,1,8,0:0:0:0:
448,192,49633,1,0,0:0:0:0:
64,192,49783,1,2,0:0:0:0:
192,192,49783,1,0,0:0:0:0:
448,192,49933,1,0,0:0:0:0:
192,192,50083,1,2,0:0:0:0:
320,192,50083,1,8,0:0:0:0:
448,192,50233,1,0,0:0:0:0:
64,192,50383,1,2,0:0:0:0:
320,192,50383,1,0,0:0:0:0:
192,192,50533,1,0,0:0:0:0:
64,192,50683,1,2,0:0:0:0:
448,192,50683,1,8,0:0:0:0:
320,192,50833,1,0,0:0:0:0:
64,192,50983,1,2,0:0:0:0:
320,192,50983,1,0,0:0:0:0:
192,192,51133,1,0,0:0:0:0:
320,192,51283,1,2,0:0:0:0:
448,192,51283,1,8,0:0:0:0:
64,192,51433,1,0,0:0:0:0:
192,192,51583,128,2,51733:0:0:0:0:
448,192,51583,1,4,0:0:0:0:
320,192,51733,128,0,51883:0:0:0:0:
64,192,51883,128,0,52033:0:0:0:0:
192,192,52033,128,0,52183:0:0:0:0:
320,192,52183,128,0,52333:0:0:0:0:
64,192,52333,128,0,52483:0:0:0:0:
192,192,52483,128,0,52633:0:0:0:0:
448,192,52633,128,0,52783:0:0:0:0:
64,192,52783,1,2,0:0:0:0:
320,192,52783,128,4,52933:0:0:0:0:
192,192,52933,128,0,53083:0:0:0:0:
448,192,53083,128,0,53233:0:0:0:0:
320,192,53233,128,0,53383:0:0:0:0:
64,192,53383,1,2,0:0:0:0:
192,192,53383,128,4,53533:0:0:0:0:
448,192,53533,128,0,53683:0:0:0:0:
192,192,53683,1,4,0:0:0:0:
320,192,53683,128,0,53833:0:0:0:0:
64,192,53833,128,6,53983:0:0:0:0:
320,192,53983,1,2,0:0:0:0:
448,192,53983,128,4,54283:0:0:0:0:
64,192,54283,1,2,0:0:0:0:
192,192,54283,1,8,0:0:0:0:
192,192,54433,1,0,0:0:0:0:
320,192,54583,1,2,0:0:0:0:
448,192,54583,1,0,0:0:0:0:
448,192,54733,1,0,0:0:0:0:
64,192,54883,1,2,0:0:0:0:
192,192,54883,1,8,0:0:0:0:
448,192,55033,1,0,0:0:0:0:
192,192,55183,1,2,0:0:0:0:
448,192,55183,1,0,0:0:0:0:
448,192,55333,1,0,0:0:0:0:
192,192,55483,1,2,0:0:0:0:
320,192,55483,1,8,0:0:0:0:
192,192,55633,1,0,0:0:0:0:
64,192,55783,128,2,56083:0:0:0:0:
448,192,55783,1,0,0:0:0:0:
192,192,56083,128,2,56383:0:0:0:0:
448,192,56083,1,8,0:0:0:0:
320,192,56383,1,2,0:0:0:0:
448,192,56383,128,0,56683:0:0:0:0:
64,192,56683,1,2,0:0:0:0:
320,192,56683,1,8,0:0:0:0:
64,192,56833,1,0,0:0:0:0:
192,192,56983,1,2,0:0:0:0:
448,192,56983,1,0,0:0:0:0:
192,192,57133,1,0,0:0:0:0:
320,192,57283,1,2,0:0:0:0:
448,192,57283,1,8,0:0:0:0:
64,192,57433,1,0,0:0:0:0:
64,192,57583,1,2,0:0:0:0:
448,192,57583,1,0,0:0:0:0:
64,192,57733,1,0,0:0:0:0:
192,192,57883,1,2,0:0:0:0:
320,192,57883,1,8,0:0:0:0:
192,192,58033,1,0,0:0:0:0:
320,192,58183,1,2,0:0:0:0:
448,192,58183,1,0,0:0:0:0:
192,192,58333,1,2,0:0:0:0:
64,192,58483,1,8,0:0:0:0:
448,192,58483,1,0,0:0:0:0:
320,192,58633,1,0,0:0:0:0:
64,192,58783,1,2,0:0:0:0:
448,192,58783,128,0,59083:0:0:0:0:
64,192,59083,1,2,0:0:0:0:
192,192,59083,1,8,0:0:0:0:
192,192,59233,1,0,0:0:0:0:
320,192,59383,1,2,0:0:0:0:
448,192,59383,1,0,0:0:0:0:
320,192,59533,1,0,0:0:0:0:
64,192,59683,1,2,0:0:0:0:
192,192,59683,1,8,0:0:0:0:
320,192,59833,1,0,0:0:0:0:
192,192,59983,128,2,60133:0:0:0:0:
448,192,59983,1,0,0:0:0:0:
64,192,60133,128,0,60283:0:0:0:0:
192,192,60283,128,2,60433:0:0:0:0:
448,192,60283,1,8,0:0:0:0:
64,192,60433,128,0,60583:0:0:0:0:
320,192,60583,1,2,0:0:0:0:
448,192,60583,1,0,0:0:0:0:
448,192,60733,1,0,0:0:0:0:
64,192,60883,1,2,0:0:0:0:
192,192,60883,1,8,0:0:0:0:
64,192,61033,1,0,0:0:0:0:
64,192,61183,1,2,0:0:0:0:
448,192,61183,1,0,0:0:0:45:Clap.wav
448,192,61333,1,0,0:0:0:45:Clap.wav
64,192,61483,1,2,0:0:0:0:
192,192,61483,1,0,0:0:0:45:Clap.wav
192,192,61633,1,0,0:0:0:45:Clap.wav
64,192,61783,1,8,0:0:0:0:
320,192,61783,1,0,0:0:0:45:Clap.wav
448,192,61783,1,0,0:0:0:0:
320,192,61933,1,2,0:0:0:0:
448,192,61933,1,0,0:0:0:45:Clap.wav
192,192,62083,1,0,0:0:0:45:Clap.wav
192,192,62233,1,8,0:0:0:0:
320,192,62233,1,0,0:0:0:45:Clap.wav
64,192,62383,1,6,0:0:0:0:
448,192,62383,1,0,0:0:0:45:Clap.wav
192,192,62533,1,8,0:0:0:0:
320,192,62533,1,0,0:0:0:45:Clap.wav
64,192,62683,1,2,0:0:0:0:
448,192,62683,1,0,0:0:0:45:Clap.wav
320,192,62833,1,0,0:0:0:45:Clap.wav
64,192,62983,1,8,0:0:0:0:
192,192,62983,1,4,0:0:0:0:
320,192,63133,1,2,0:0:0:0:
448,192,63133,1,0,0:0:0:0:
64,192,63283,128,0,63583:0:0:0:85:Snare.wav
192,192,63283,1,0,0:0:0:0:
320,192,63433,1,0,0:0:0:0:
192,192,63583,1,2,0:0:0:0:
448,192,63583,128,4,63883:0:0:0:0:
64,192,63883,1,2,0:0:0:0:
320,192,63883,1,8,0:0:0:0:
320,192,64033,1,0,0:0:0:0:
64,192,64183,1,2,0:0:0:0:
192,192,64183,1,0,0:0:0:0:
64,192,64333,1,0,0:0:0:0:
192,192,64483,1,2,0:0:0:0:
448,192,64483,1,8,0:0:0:0:
320,192,64633,1,0,0:0:0:0:
64,192,64783,1,2,0:0:0:0:
320,192,64783,1,0,0:0:0:0:
64,192,64933,1,0,0:0:0:0:
192,192,65083,1,2,0:0:0:0:
448,192,65083,1,8,0:0:0:0:
448,192,65233,1,0,0:0:0:0:
64,192,65383,128,2,65683:0:0:0:0:
320,192,65383,1,0,0:0:0:0:
192,192,65683,128,2,65983:0:0:0:0:
448,192,65683,1,8,0:0:0:0:
320,192,65983,1,2,0:0:0:0:
448,192,65983,128,0,66283:0:0:0:0:
64,192,66283,1,2,0:0:0:0:
320,192,66283,1,8,0:0:0:0:
64,192,66433,1,0,0:0:0:0:
192,192,66583,1,2,0:0:0:0:
448,192,66583,1,0,0:0:0:0:
192,192,66733,1,0,0:0:0:0:
320,192,66883,1,2,0:0:0:0:
448,192,66883,1,8,0:0:0:0:
64,192,67033,1,0,0:0:0:0:
64,192,67183,128,2,67333:0:0:0:0:
448,192,67183,1,0,0:0:0:0:
320,192,67333,128,0,67483:0:0:0:0:
64,192,67483,128,2,67633:0:0:0:0:
448,192,67483,1,8,0:0:0:0:
320,192,67633,128,0,67783:0:0:0:0:
64,192,67783,1,2,0:0:0:0:
192,192,67783,1,0,0:0:0:0:
64,192,67933,1,0,0:0:0:0:
320,192,68083,1,2,0:0:0:0:
448,192,68083,1,8,0:0:0:0:
192,192,68233,1,2,0:0:0:0:
64,192,68383,1,2,0:0:0:0:
192,192,68383,1,4,0:0:0:0:
448,192,68383,1,0,0:0:0:0:
448,192,68533,1,0,0:0:0:45:Clap.wav
64,192,68683,1,0,0:0:0:45:Clap.wav
320,192,68683,1,0,0:0:0:0:
320,192,68833,1,0,0:0:0:45:Clap.wav
64,192,68983,1,2,0:0:0:0:
192,192,68983,1,4,0:0:0:0:
448,192,68983,1,0,0:0:0:45:Clap.wav
192,192,69133,1,0,0:0:0:45:Clap.wav
64,192,69283,1,0,0:0:0:45:Clap.wav
320,192,69283,1,0,0:0:0:0:
320,192,69433,1,0,0:0:0:45:Clap.wav
64,192,69583,1,2,0:0:0:0:
192,192,69583,1,4,0:0:0:0:
448,192,69583,1,0,0:0:0:45:Clap.wav
64,192,69733,1,0,0:0:0:45:Clap.wav
192,192,69883,1,0,0:0:0:45:Clap.wav
448,192,69883,1,0,0:0:0:0:
192,192,70033,1,0,0:0:0:45:Clap.wav
64,192,70183,1,2,0:0:0:0:
320,192,70183,1,4,0:0:0:0:
448,192,70183,1,0,0:0:0:45:Clap.wav
320,192,70333,1,0,0:0:0:45:Clap.wav
192,192,70483,1,0,0:0:0:45:Clap.wav
448,192,70483,1,0,0:0:0:0:
192,192,70633,1,0,0:0:0:45:Clap.wav
64,192,70783,1,0,0:0:0:70:Snare.wav
448,192,70783,1,0,0:0:0:0:
448,192,70933,1,0,0:0:0:0:
64,192,71083,1,0,0:0:0:70:Snare.wav
320,192,71083,1,0,0:0:0:0:
64,192,71233,1,0,0:0:0:0:
320,192,71383,1,0,0:0:0:70:Snare.wav
448,192,71383,1,0,0:0:0:0:
320,192,71533,1,0,0:0:0:0:
64,192,71683,1,0,0:0:0:70:Snare.wav
192,192,71683,1,0,0:0:0:0:
192,192,71833,1,0,0:0:0:0:
64,192,71983,1,6,0:0:0:0:
448,192,71983,1,0,0:0:0:50:SnareClap.wav
320,192,72058,1,0,0:0:0:50:SnareClap.wav
192,192,72133,1,0,0:0:0:50:SnareClap.wav
320,192,72208,1,0,0:0:0:50:SnareClap.wav
64,192,72283,1,0,0:0:0:50:SnareClap.wav
192,192,72358,1,0,0:0:0:50:SnareClap.wav
320,192,72433,1,0,0:0:0:50:SnareClap.wav
192,192,72508,1,0,0:0:0:50:SnareClap.wav
448,192,72583,1,0,0:0:0:50:SnareClap.wav
320,192,72658,1,0,0:0:0:50:SnareClap.wav
192,192,72733,1,0,0:0:0:50:SnareClap.wav
320,192,72808,1,0,0:0:0:50:SnareClap.wav
64,192,72883,1,0,0:0:0:50:SnareClap.wav
192,192,72958,1,0,0:0:0:50:SnareClap.wav
320,192,73033,1,0,0:0:0:50:SnareClap.wav
192,192,73108,1,0,0:0:0:50:SnareClap.wav
64,192,73183,1,2,0:0:0:0:
448,192,73183,128,4,73333:0:0:0:0:
320,192,73333,128,0,73483:0:0:0:0:
192,192,73483,128,0,73633:0:0:0:45:Clap.wav
448,192,73633,128,0,73783:0:0:0:0:
320,192,73783,128,0,73933:0:0:0:45:Clap.wav
192,192,73933,128,0,74083:0:0:0:0:
64,192,74083,128,0,74233:0:0:0:45:Clap.wav
192,192,74233,128,0,74383:0:0:0:0:
320,192,74383,128,0,74533:0:0:0:45:Clap.wav
448,192,74533,128,0,74683:0:0:0:0:
192,192,74683,128,0,74833:0:0:0:45:Clap.wav
320,192,74833,128,0,74983:0:0:0:0:
64,192,74983,128,0,75133:0:0:0:45:Clap.wav
320,192,75133,128,0,75283:0:0:0:0:
192,192,75283,128,0,75433:0:0:0:45:Clap.wav
64,192,75433,128,0,75583:0:0:0:0:
448,192,75583,128,0,75733:0:0:0:45:Clap.wav
320,192,75733,128,0,75883:0:0:0:0:
192,192,75883,128,0,76033:0:0:0:45:Clap.wav
448,192,76033,128,0,76183:0:0:0:0:
64,192,76183,128,0,76333:0:0:0:45:Clap.wav
192,192,76333,128,0,76483:0:0:0:0:
320,192,76483,128,0,76633:0:0:0:45:Clap.wav
192,192,76633,128,0,76783:0:0:0:0:
320,192,76783,128,0,76933:0:0:0:45:Clap.wav
448,192,76933,128,0,77083:0:0:0:0:
192,192,77083,128,0,77233:0:0:0:45:Clap.wav
320,192,77233,128,0,77383:0:0:0:0:
448,192,77383,128,0,77533:0:0:0:45:Clap.wav
320,192,77533,128,0,77683:0:0:0:0:
192,192,77683,128,0,77833:0:0:0:45:Clap.wav
64,192,77833,128,0,77983:0:0:0:0:
320,192,77983,1,4,0:0:0:0:
448,192,77983,128,0,78133:0:0:0:45:Clap.wav
192,192,78133,128,0,78283:0:0:0:0:
320,192,78283,128,0,78433:0:0:0:45:Clap.wav
448,192,78433,128,0,78583:0:0:0:0:
192,192,78583,128,0,78733:0:0:0:45:Clap.wav
320,192,78733,128,0,78883:0:0:0:0:
192,192,78883,128,0,79033:0:0:0:45:Clap.wav
64,192,79033,128,0,79183:0:0:0:0:
192,192,79183,128,0,79333:0:0:0:45:Clap.wav
448,192,79333,128,0,79483:0:0:0:0:
320,192,79483,128,0,79633:0:0:0:45:Clap.wav
192,192,79633,128,0,79783:0:0:0:0:
64,192,79783,128,0,79933:0:0:0:45:Clap.wav
192,192,79933,128,0,80083:0:0:0:0:
320,192,80083,128,0,80233:0:0:0:45:Clap.wav
192,192,80233,128,0,80383:0:0:0:0:
64,192,80383,128,0,80533:0:0:0:45:Clap.wav
192,192,80533,128,0,80683:0:0:0:0:
320,192,80683,128,0,80833:0:0:0:45:Clap.wav
448,192,80833,128,0,80983:0:0:0:0:
192,192,80983,128,0,81133:0:0:0:45:Clap.wav
320,192,81133,128,0,81283:0:0:0:0:
64,192,81283,128,0,81433:0:0:0:45:Clap.wav
320,192,81433,128,0,81583:0:0:0:0:
192,192,81583,128,0,81733:0:0:0:45:Clap.wav
448,192,81733,128,0,81883:0:0:0:0:
320,192,81883,128,0,82033:0:0:0:45:Clap.wav
192,192,82033,128,0,82183:0:0:0:0:
448,192,82183,128,0,82333:0:0:0:45:Clap.wav
320,192,82333,128,0,82483:0:0:0:0:
192,192,82483,128,0,82633:0:0:0:45:Clap.wav
64,192,82633,128,0,82783:0:0:0:0:
192,192,82783,1,2,0:0:0:0:
448,192,82783,128,4,82933:0:0:0:0:
320,192,82933,128,0,83083:0:0:0:0:
192,192,83083,128,0,83233:0:0:0:45:Clap.wav
448,192,83233,128,0,83383:0:0:0:0:
64,192,83383,1,8,0:0:0:0:
192,192,83383,128,0,83533:0:0:0:45:Clap.wav
320,192,83533,128,0,83683:0:0:0:0:
64,192,83683,128,2,83833:0:0:0:0:
448,192,83683,1,0,0:0:0:45:Clap.wav
192,192,83833,128,0,83983:0:0:0:0:
320,192,83983,128,0,84133:0:0:0:45:Clap.wav
64,192,84133,1,2,0:0:0:0:
448,192,84133,128,0,84283:0:0:0:0:
192,192,84283,128,0,84433:0:0:0:45:Clap.wav
320,192,84433,128,2,84583:0:0:0:0:
448,192,84433,1,0,0:0:0:0:
64,192,84583,1,8,0:0:0:0:
192,192,84583,128,0,84733:0:0:0:45:Clap.wav
64,192,84733,128,2,84883:0:0:0:0:
448,192,84733,1,0,0:0:0:0:
320,192,84883,128,0,85033:0:0:0:45:Clap.wav
192,192,85033,128,0,85183:0:0:0:0:
64,192,85183,128,2,85333:0:0:0:0:
448,192,85183,1,0,0:0:0:45:Clap.wav
320,192,85333,128,0,85483:0:0:0:0:
192,192,85483,128,0,85633:0:0:0:45:Clap.wav
448,192,85633,128,0,85783:0:0:0:0:
64,192,85783,1,8,0:0:0:0:
320,192,85783,128,0,85933:0:0:0:45:Clap.wav
192,192,85933,128,0,86083:0:0:0:0:
64,192,86083,128,2,86233:0:0:0:0:
448,192,86083,1,0,0:0:0:45:Clap.wav
320,192,86233,128,0,86383:0:0:0:0:
192,192,86383,128,0,86533:0:0:0:45:Clap.wav
64,192,86533,1,2,0:0:0:0:
448,192,86533,128,0,86683:0:0:0:0:
192,192,86683,128,0,86833:0:0:0:45:Clap.wav
320,192,86833,128,2,86983:0:0:0:0:
448,192,86833,1,0,0:0:0:0:
64,192,86983,128,8,87133:0:0:0:0:
192,192,86983,1,0,0:0:0:45:Clap.wav
320,192,87133,128,2,87283:0:0:0:0:
448,192,87133,1,0,0:0:0:0:
192,192,87283,128,0,87433:0:0:0:45:Clap.wav
320,192,87433,128,0,87583:0:0:0:0:
64,192,87583,1,2,0:0:0:0:
192,192,87583,1,4,0:0:0:0:
448,192,87583,1,0,0:0:0:0:
64,192,87733,1,2,0:0:0:0:
64,192,87883,1,2,0:0:0:0:
192,192,88033,1,2,0:0:0:0:
320,192,88033,1,8,0:0:0:0:
448,192,88033,1,0,0:0:0:0:
448,192,88183,1,2,0:0:0:0:
448,192,88333,1,2,0:0:0:0:
64,192,88483,1,2,0:0:0:0:
192,192,88483,1,8,0:0:0:0:
320,192,88483,1,0,0:0:0:0:
192,192,88633,1,2,0:0:0:0:
192,192,88783,1,2,0:0:0:0:
448,192,88783,1,4,0:0:0:0:
64,192,88933,1,2,0:0:0:0:
320,192,88933,1,8,0:0:0:0:
448,192,88933,1,0,0:0:0:0:
320,192,89083,1,2,0:0:0:0:
320,192,89233,1,2,0:0:0:0:
64,192,89383,1,2,0:0:0:0:
192,192,89383,1,8,0:0:0:0:
448,192,89383,1,0,0:0:0:0:
192,192,89533,1,2,0:0:0:0:
320,192,89533,1,0,0:0:0:0:
64,192,89683,1,2,0:0:0:0:
320,192,89683,1,8,0:0:0:0:
448,192,89683,1,0,0:0:0:0:
64,192,89833,1,2,0:0:0:0:
192,192,89833,1,8,0:0:0:0:
448,192,89983,128,0,92383:0:0:0:0:
320,192,91183,128,0,92383:0:0:0:0:
64,192,92383,128,2,92683:0:0:0:0:
192,192,92383,1,4,0:0:0:0:
192,192,92683,1,0,0:0:0:0:
192,192,92833,1,0,0:0:0:0:
320,192,92983,1,8,0:0:0:0:
448,192,92983,1,0,0:0:0:0:
192,192,93133,1,0,0:0:0:0:
192,192,93283,1,2,0:0:0:0:
448,192,93283,1,0,0:0:0:0:
192,192,93433,1,0,0:0:0:0:
320,192,93583,1,0,0:0:0:0:
64,192,93733,1,2,0:0:0:0:
320,192,93733,1,0,0:0:0:0:
320,192,93883,1,0,0:0:0:0:
64,192,94033,1,2,0:0:0:0:
320,192,94033,1,0,0:0:0:0:
64,192,94183,1,8,0:0:0:0:
192,192,94183,1,0,0:0:0:0:
320,192,94333,1,2,0:0:0:0:
448,192,94333,1,0,0:0:0:0:
448,192,94483,1,0,0:0:0:0:
448,192,94633,1,0,0:0:0:0:
64,192,94783,1,2,0:0:0:0:
192,192,94783,1,0,0:0:0:0:
192,192,95083,1,0,0:0:0:0:
192,192,95233,1,0,0:0:0:0:
320,192,95383,1,8,0:0:0:0:
448,192,95383,1,0,0:0:0:0:
192,192,95533,1,0,0:0:0:0:
192,192,95683,1,2,0:0:0:0:
448,192,95683,1,0,0:0:0:0:
192,192,95833,1,0,0:0:0:0:
320,192,95983,1,0,0:0:0:0:
64,192,96133,1,2,0:0:0:0:
320,192,96133,1,0,0:0:0:0:
320,192,96283,1,0,0:0:0:0:
64,192,96433,1,2,0:0:0:0:
320,192,96433,1,0,0:0:0:0:
192,192,96583,1,8,0:0:0:0:
448,192,96583,1,0,0:0:0:0:
192,192,96733,1,0,0:0:0:0:
64,192,96883,1,2,0:0:0:0:
192,192,96883,1,0,0:0:0:0:
320,192,97033,1,2,0:0:0:0:
448,192,97033,1,0,0:0:0:0:
64,192,97183,128,2,97483:0:0:0:0:
192,192,97183,1,0,0:0:0:0:
320,192,97483,1,0,0:0:0:0:
320,192,97633,1,0,0:0:0:0:
64,192,97783,1,8,0:0:0:0:
448,192,97783,1,0,0:0:0:0:
192,192,97933,1,0,0:0:0:0:
192,192,98083,1,2,0:0:0:0:
448,192,98083,1,0,0:0:0:0:
192,192,98233,1,0,0:0:0:0:
448,192,98383,1,0,0:0:0:0:
192,192,98533,1,2,0:0:0:0:
448,192,98533,1,0,0:0:0:0:
448,192,98683,1,0,0:0:0:0:
192,192,98833,1,2,0:0:0:0:
448,192,98833,1,0,0:0:0:0:
192,192,98983,1,8,0:0:0:0:
320,192,98983,1,0,0:0:0:0:
64,192,99133,1,2,0:0:0:0:
448,192,99133,1,0,0:0:0:0:
64,192,99283,1,0,0:0:0:0:
64,192,99433,1,0,0:0:0:0:
64,192,99583,1,4,0:0:0:0:
448,192,99583,128,0,99733:0:0:0:45:Clap.wav
192,192,99733,128,0,99883:0:0:0:0:
64,192,99883,1,0,0:0:0:45:Clap.wav
448,192,99883,128,0,100033:0:0:0:0:
192,192,100033,128,0,100183:0:0:0:0:
64,192,100183,1,0,0:0:0:45:Clap.wav
448,192,100183,128,0,100333:0:0:0:0:
192,192,100333,128,0,100483:0:0:0:0:
320,192,100483,1,0,0:0:0:45:Clap.wav
448,192,100483,128,0,100633:0:0:0:0:
192,192,100633,128,0,100783:0:0:0:0:
320,192,100783,128,0,100933:0:0:0:50:SnareClap.wav
448,192,100783,1,0,0:0:0:45:Clap.wav
64,192,100933,128,0,101083:0:0:0:50:SnareClap.wav
320,192,101083,128,0,101233:0:0:0:50:SnareClap.wav
448,192,101083,1,0,0:0:0:45:Clap.wav
64,192,101233,128,0,101383:0:0:0:50:SnareClap.wav
320,192,101383,128,0,101533:0:0:0:50:SnareClap.wav
448,192,101383,1,0,0:0:0:45:Clap.wav
64,192,101533,128,0,101683:0:0:0:50:SnareClap.wav
320,192,101683,1,8,0:0:0:0:
448,192,101683,1,2,0:0:0:0:
320,192,101833,1,2,0:0:0:0:
448,192,101833,1,0,0:0:0:0:
64,192,101983,128,2,102283:0:0:0:0:
192,192,101983,1,4,0:0:0:0:
192,192,102283,1,0,0:0:0:0:
192,192,102433,1,0,0:0:0:0:
320,192,102583,1,8,0:0:0:0:
448,192,102583,1,0,0:0:0:0:
192,192,102733,1,0,0:0:0:0:
192,192,102883,1,2,0:0:0:0:
448,192,102883,1,0,0:0:0:0:
192,192,103033,1,0,0:0:0:0:
320,192,103183,1,0,0:0:0:0:
64,192,103333,1,2,0:0:0:0:
320,192,103333,1,0,0:0:0:0:
320,192,103483,1,0,0:0:0:0:
64,192,103633,1,2,0:0:0:0:
320,192,103633,1,0,0:0:0:0:
192,192,103783,1,8,0:0:0:0:
448,192,103783,1,0,0:0:0:0:
64,192,103933,1,2,0:0:0:0:
448,192,103933,1,0,0:0:0:0:
64,192,104083,1,0,0:0:0:0:
64,192,104233,1,0,0:0:0:0:
320,192,104383,1,2,0:0:0:0:
448,192,104383,1,0,0:0:0:0:
320,192,104683,1,0,0:0:0:0:
320,192,104833,1,0,0:0:0:0:
64,192,104983,1,8,0:0:0:0:
192,192,104983,1,0,0:0:0:0:
320,192,105133,1,0,0:0:0:0:
64,192,105283,1,2,0:0:0:0:
320,192,105283,1,0,0:0:0:0:
320,192,105433,1,0,0:0:0:0:
64,192,105583,1,0,0:0:0:0:
64,192,105733,1,2,0:0:0:0:
320,192,105733,1,0,0:0:0:0:
64,192,105883,1,0,0:0:0:0:
64,192,106033,1,2,0:0:0:0:
448,192,106033,1,0,0:0:0:0:
192,192,106183,1,8,0:0:0:0:
320,192,106183,1,0,0:0:0:0:
320,192,106333,1,0,0:0:0:0:
320,192,106483,1,0,0:0:0:0:
64,192,106633,1,2,0:0:0:0:
192,192,106633,1,0,0:0:0:0:
64,192,106783,1,2,0:0:0:0:
320,192,106783,1,4,0:0:0:0:
448,192,106783,128,0,107083:0:0:0:0:
192,192,107083,1,0,0:0:0:0:
192,192,107233,1,0,0:0:0:0:
64,192,107383,1,8,0:0:0:0:
320,192,107383,1,0,0:0:0:0:
448,192,107533,1,0,0:0:0:0:
64,192,107683,1,2,0:0:0:0:
448,192,107683,1,0,0:0:0:0:
448,192,107833,1,0,0:0:0:0:
192,192,107983,1,0,0:0:0:0:
192,192,108133,1,2,0:0:0:0:
448,192,108133,1,0,0:0:0:0:
192,192,108283,1,0,0:0:0:0:
64,192,108433,1,2,0:0:0:0:
192,192,108433,1,0,0:0:0:0:
64,192,108583,1,8,0:0:0:0:
448,192,108583,1,0,0:0:0:0:
320,192,108733,1,2,0:0:0:0:
448,192,108733,1,0,0:0:0:0:
320,192,108883,1,0,0:0:0:0:
320,192,109033,1,0,0:0:0:0:
64,192,109183,1,4,0:0:0:0:
448,192,109183,128,0,109333:0:0:0:45:Clap.wav
64,192,109483,1,0,0:0:0:45:Clap.wav
320,192,109483,128,0,109633:0:0:0:0:
64,192,109783,1,0,0:0:0:45:Clap.wav
192,192,109783,128,0,109933:0:0:0:0:
64,192,110083,1,0,0:0:0:45:Clap.wav
448,192,110083,128,0,110233:0:0:0:0:
192,192,110233,128,0,110383:0:0:0:0:
64,192,110383,1,4,0:0:0:0:
448,192,110533,128,0,110683:0:0:0:0:
64,192,110683,1,0,0:0:0:45:Clap.wav
192,192,110683,128,0,110833:0:0:0:0:
64,192,110983,1,0,0:0:0:45:Clap.wav
448,192,110983,128,0,111283:0:0:0:0:
64,192,111133,1,0,0:0:0:45:Clap.wav
320,192,111283,1,0,0:0:0:45:Clap.wav
320,192,111433,1,0,0:0:0:45:Clap.wav
64,192,111583,1,2,0:0:0:0:
192,192,111583,1,4,0:0:0:0:
448,192,111583,128,0,111883:0:0:0:0:
64,192,111883,1,0,0:0:0:45:Clap.wav
64,192,112033,1,0,0:0:0:0:
320,192,112183,1,8,0:0:0:0:
448,192,112183,1,0,0:0:0:45:Clap.wav
64,192,112333,1,0,0:0:0:0:
64,192,112483,1,2,0:0:0:0:
448,192,112483,1,0,0:0:0:45:Clap.wav
64,192,112633,1,0,0:0:0:0:
320,192,112783,1,0,0:0:0:45:Clap.wav
64,192,112933,1,2,0:0:0:0:
320,192,112933,1,0,0:0:0:0:
320,192,113083,1,0,0:0:0:45:Clap.wav
64,192,113233,1,2,0:0:0:0:
320,192,113233,1,0,0:0:0:0:
64,192,113383,1,8,0:0:0:0:
192,192,113383,1,0,0:0:0:45:Clap.wav
320,192,113533,1,2,0:0:0:0:
448,192,113533,1,0,0:0:0:0:
448,192,113683,1,0,0:0:0:45:Clap.wav
448,192,113833,1,0,0:0:0:0:
64,192,113983,128,2,114283:0:0:0:0:
320,192,113983,1,0,0:0:0:45:Clap.wav
320,192,114283,1,0,0:0:0:45:Clap.wav
320,192,114433,1,0,0:0:0:0:
64,192,114583,1,8,0:0:0:0:
192,192,114583,1,0,0:0:0:45:Clap.wav
320,192,114733,1,0,0:0:0:0:
64,192,114883,1,2,0:0:0:0:
320,192,114883,1,0,0:0:0:45:Clap.wav
320,192,115033,1,0,0:0:0:0:
64,192,115183,1,0,0:0:0:45:Clap.wav
448,192,115183,128,0,115483:0:0:0:0:
64,192,115333,1,2,0:0:0:0:
192,192,115333,1,0,0:0:0:0:
64,192,115483,1,0,0:0:0:45:Clap.wav
64,192,115633,1,2,0:0:0:0:
320,192,115633,1,0,0:0:0:0:
192,192,115783,1,8,0:0:0:0:
448,192,115783,1,0,0:0:0:45:Clap.wav
320,192,115933,1,0,0:0:0:45:Clap.wav
64,192,116083,1,2,0:0:0:0:
192,192,116083,1,0,0:0:0:45:Clap.wav
320,192,116233,1,2,0:0:0:0:
448,192,116233,1,0,0:0:0:0:
64,192,116383,128,2,116683:0:0:0:0:
192,192,116383,1,0,0:0:0:70:Clap.wav
320,192,116683,1,0,0:0:0:45:Clap.wav
320,192,116833,1,0,0:0:0:0:
64,192,116983,1,8,0:0:0:0:
448,192,116983,1,0,0:0:0:45:Clap.wav
192,192,117133,1,0,0:0:0:0:
192,192,117283,1,2,0:0:0:0:
448,192,117283,1,0,0:0:0:45:Clap.wav
192,192,117433,1,0,0:0:0:0:
448,192,117583,1,0,0:0:0:45:Clap.wav
64,192,117733,1,2,0:0:0:0:
448,192,117733,1,0,0:0:0:0:
448,192,117883,1,0,0:0:0:45:Clap.wav
64,192,118033,1,2,0:0:0:0:
448,192,118033,1,0,0:0:0:0:
64,192,118183,1,8,0:0:0:0:
320,192,118183,1,0,0:0:0:45:Clap.wav
192,192,118333,1,2,0:0:0:0:
448,192,118333,1,0,0:0:0:0:
192,192,118483,1,0,0:0:0:45:Clap.wav
192,192,118633,1,0,0:0:0:0:
64,192,118783,1,4,0:0:0:0:
320,192,118783,1,0,0:0:0:45:Clap.wav
448,192,118783,1,0,0:0:0:0:
192,192,118933,1,0,0:0:0:45:Clap.wav
320,192,119083,1,0,0:0:0:45:Clap.wav
64,192,119233,1,0,0:0:0:45:Clap.wav
448,192,119233,1,0,0:0:0:0:
192,192,119383,1,0,0:0:0:45:Clap.wav
320,192,119533,1,0,0:0:0:45:Clap.wav
64,192,119683,1,2,0:0:0:0:
448,192,119683,1,0,0:0:0:45:Clap.wav
320,192,119833,1,0,0:0:0:45:Clap.wav
64,192,119983,1,4,0:0:0:0:
192,192,119983,1,0,0:0:0:45:Clap.wav
320,192,120133,1,2,0:0:0:0:
448,192,120133,1,0,0:0:0:45:Clap.wav
192,192,120283,1,0,0:0:0:45:Clap.wav
64,192,120433,1,2,0:0:0:0:
448,192,120433,1,0,0:0:0:45:Clap.wav
320,192,120583,1,0,0:0:0:45:Clap.wav
192,192,120733,1,0,0:0:0:45:Clap.wav
64,192,120883,1,0,0:0:0:45:Clap.wav
320,192,120883,128,0,121183:0:0:0:0:
64,192,121183,128,2,121483:0:0:0:0:
192,192,121183,1,4,0:0:0:0:
448,192,121183,1,0,0:0:0:0:
192,192,121483,1,0,0:0:0:45:Clap.wav
192,192,121633,1,0,0:0:0:0:
320,192,121783,1,8,0:0:0:0:
448,192,121783,1,0,0:0:0:45:Clap.wav
192,192,121933,1,0,0:0:0:0:
192,192,122083,1,2,0:0:0:0:
448,192,122083,1,0,0:0:0:45:Clap.wav
192,192,122233,1,0,0:0:0:0:
320,192,122383,1,0,0:0:0:45:Clap.wav
64,192,122533,1,2,0:0:0:0:
320,192,122533,1,0,0:0:0:0:
320,192,122683,1,0,0:0:0:45:Clap.wav
64,192,122833,1,2,0:0:0:0:
320,192,122833,1,0,0:0:0:0:
64,192,122983,1,8,0:0:0:0:
192,192,122983,1,0,0:0:0:45:Clap.wav
320,192,123133,1,2,0:0:0:0:
448,192,123133,1,0,0:0:0:0:
320,192,123283,1,0,0:0:0:45:Clap.wav
320,192,123433,1,0,0:0:0:0:
64,192,123583,1,2,0:0:0:0:
448,192,123583,128,0,123883:0:0:0:45:Clap.wav
192,192,123883,1,0,0:0:0:45:Clap.wav
192,192,124033,1,0,0:0:0:0:
320,192,124183,1,8,0:0:0:0:
448,192,124183,1,0,0:0:0:45:Clap.wav
192,192,124333,1,0,0:0:0:0:
192,192,124483,1,2,0:0:0:0:
448,192,124483,1,0,0:0:0:45:Clap.wav
192,192,124633,1,0,0:0:0:0:
64,192,124783,128,0,125083:0:0:0:45:Clap.wav
320,192,124783,1,0,0:0:0:0:
320,192,124933,1,2,0:0:0:0:
448,192,124933,1,0,0:0:0:0:
320,192,125083,1,0,0:0:0:45:Clap.wav
64,192,125233,1,2,0:0:0:0:
320,192,125233,1,0,0:0:0:0:
192,192,125383,1,8,0:0:0:0:
448,192,125383,1,0,0:0:0:45:Clap.wav
192,192,125533,1,0,0:0:0:45:Clap.wav
64,192,125683,1,0,0:0:0:45:Clap.wav
192,192,125683,1,0,0:0:0:0:
320,192,125833,1,2,0:0:0:0:
448,192,125833,1,0,0:0:0:70:Clap.wav
64,192,125983,1,2,0:0:0:0:
192,192,125983,1,4,0:0:0:0:
448,192,125983,128,0,126283:0:0:0:0:
64,192,126133,1,0,0:0:0:45:Clap.wav
64,192,126283,1,0,0:0:0:45:Clap.wav
64,192,126433,1,0,0:0:0:45:Clap.wav
320,192,126583,1,2,0:0:0:0:
448,192,126583,1,0,0:0:0:45:Clap.wav
320,192,126733,1,0,0:0:0:45:Clap.wav
320,192,126883,1,0,0:0:0:45:Clap.wav
320,192,127033,1,0,0:0:0:45:Clap.wav
192,192,127183,1,2,0:0:0:0:
448,192,127183,1,0,0:0:0:45:Clap.wav
192,192,127333,1,0,0:0:0:45:Clap.wav
192,192,127483,1,2,0:0:0:0:
448,192,127483,1,0,0:0:0:45:Clap.wav
192,192,127633,1,0,0:0:0:45:Clap.wav
64,192,127783,1,2,0:0:0:0:
448,192,127783,1,0,0:0:0:45:Clap.wav
448,192,127933,1,0,0:0:0:45:Clap.wav
64,192,128083,1,2,0:0:0:0:
448,192,128083,1,0,0:0:0:45:Clap.wav
448,192,128233,1,0,0:0:0:45:Clap.wav
64,192,128383,128,4,128533:0:0:0:0:
448,192,128383,1,0,0:0:0:0:
192,192,128683,128,0,128833:0:0:0:0:
448,192,128833,1,0,0:0:0:0:
320,192,128983,128,0,129133:0:0:0:0:
64,192,129283,128,0,129433:0:0:0:0:
448,192,129283,1,0,0:0:0:0:
320,192,129433,128,0,129583:0:0:0:0:
64,192,129733,128,0,129883:0:0:0:0:
448,192,129733,1,0,0:0:0:0:
320,192,129883,128,0,130033:0:0:0:0:
64,192,130183,128,0,130633:0:0:0:0:
64,192,130783,1,4,0:0:0:0:
320,192,130783,1,2,0:0:0:0:
448,192,130783,1,0,0:0:0:0:
192,192,131083,1,2,0:0:0:0:
64,192,131383,1,0,0:0:0:50:SnareClap.wav
448,192,131383,1,0,0:0:0:0:
192,192,132283,1,2,0:0:0:0:
64,192,132583,1,0,0:0:0:50:SnareClap.wav
448,192,132583,1,0,0:0:0:0:
320,192,132733,1,2,0:0:0:0:
192,192,133033,1,2,0:0:0:0:
64,192,133183,1,2,0:0:0:0:
192,192,133183,1,0,0:0:0:0:
320,192,133483,1,2,0:0:0:0:
64,192,133783,1,0,0:0:0:50:SnareClap.wav
448,192,133783,1,0,0:0:0:0:
320,192,134383,1,2,0:0:0:0:
192,192,134533,1,0,0:0:0:50:SnareClap.wav
448,192,134533,1,0,0:0:0:0:
64,192,134683,1,2,0:0:0:0:
192,192,134983,1,0,0:0:0:50:SnareClap.wav
448,192,134983,1,0,0:0:0:0:
320,192,135133,1,2,0:0:0:0:
320,192,135433,1,2,0:0:0:0:
64,192,135583,1,2,0:0:0:0:
320,192,135583,1,0,0:0:0:0:
192,192,135883,1,2,0:0:0:0:
64,192,136183,1,0,0:0:0:50:SnareClap.wav
448,192,136183,1,0,0:0:0:0:
64,192,137083,1,2,0:0:0:0:
192,192,137083,1,0,0:0:0:0:
64,192,137383,1,0,0:0:0:50:SnareClap.wav
448,192,137383,1,0,0:0:0:0:
320,192,137533,1,2,0:0:0:0:
320,192,137833,1,2,0:0:0:0:
64,192,137983,1,2,0:0:0:0:
320,192,137983,1,0,0:0:0:0:
192,192,138283,1,2,0:0:0:0:
64,192,138583,1,0,0:0:0:50:SnareClap.wav
448,192,138583,1,0,0:0:0:0:
320,192,139183,1,2,0:0:0:0:
64,192,139333,1,0,0:0:0:50:SnareClap.wav
192,192,139333,1,0,0:0:0:0:
448,192,139483,1,2,0:0:0:0:
64,192,139783,1,0,0:0:0:50:SnareClap.wav
320,192,139783,1,0,0:0:0:0:
320,192,140083,1,2,0:0:0:0:
192,192,140233,1,2,0:0:0:0:
64,192,140383,1,2,0:0:0:0:
320,192,140383,1,4,0:0:0:0:
448,192,140383,128,0,140533:0:0:0:0:
64,192,140683,1,8,0:0:0:0:
320,192,140683,128,0,140833:0:0:0:0:
192,192,140983,128,0,141133:0:0:0:0:
320,192,141133,1,2,0:0:0:0:
64,192,141283,1,8,0:0:0:0:
320,192,141283,128,0,141433:0:0:0:0:
192,192,141433,128,0,141583:0:0:0:0:
64,192,141583,128,2,141733:0:0:0:0:
448,192,141583,1,0,0:0:0:0:
64,192,141883,1,8,0:0:0:0:
320,192,141883,128,0,142033:0:0:0:0:
320,192,142183,128,0,142333:0:0:0:0:
192,192,142333,1,2,0:0:0:0:
448,192,142483,1,8,0:0:0:0:
192,192,142483,128,0,142633:0:0:0:0:
320,192,142633,128,0,142783:0:0:0:0:
64,192,142783,1,2,0:0:0:0:
448,192,142783,128,0,142933:0:0:0:0:
448,192,143083,1,8,0:0:0:0:
192,192,143083,128,0,143233:0:0:0:0:
320,192,143383,128,0,143533:0:0:0:0:
192,192,143533,1,2,0:0:0:0:
64,192,143683,1,8,0:0:0:0:
192,192,143683,128,0,143833:0:0:0:0:
448,192,143833,128,0,143983:0:0:0:0:
320,192,143983,1,2,0:0:0:0:
448,192,144133,128,0,144283:0:0:0:0:
64,192,144283,1,8,0:0:0:0:
192,192,144283,128,0,144433:0:0:0:0:
448,192,144583,128,0,144733:0:0:0:0:
64,192,144733,1,2,0:0:0:0:
320,192,144733,128,0,144883:0:0:0:0:
192,192,144883,128,8,145033:0:0:0:0:
448,192,144883,1,0,0:0:0:0:
64,192,145033,128,0,145183:0:0:0:0:
320,192,145183,1,2,0:0:0:0:
448,192,145183,128,4,145333:0:0:0:0:
64,192,145483,1,8,0:0:0:0:
192,192,145483,128,0,145633:0:0:0:0:
448,192,145783,128,0,145933:0:0:0:0:
320,192,145933,1,2,0:0:0:0:
64,192,146083,1,8,0:0:0:0:
320,192,146083,128,0,146233:0:0:0:0:
192,192,146233,128,0,146383:0:0:0:0:
64,192,146383,128,2,146533:0:0:0:0:
448,192,146383,1,0,0:0:0:0:
192,192,146683,1,8,0:0:0:0:
320,192,146683,128,0,146833:0:0:0:0:
320,192,146983,128,0,147133:0:0:0:0:
192,192,147133,1,2,0:0:0:0:
192,192,147283,1,8,0:0:0:0:
448,192,147283,128,0,147433:0:0:0:0:
320,192,147433,128,0,147583:0:0:0:0:
64,192,147583,1,2,0:0:0:0:
192,192,147583,128,0,147733:0:0:0:0:
320,192,147883,1,2,0:0:0:0:
448,192,147883,128,8,148033:0:0:0:0:
64,192,148183,128,2,148333:0:0:0:0:
192,192,148183,1,0,0:0:0:0:
320,192,148483,128,2,148633:0:0:0:0:
448,192,148483,1,8,0:0:0:0:
64,192,148633,128,0,148783:0:0:0:0:
320,192,148783,1,4,0:0:0:0:
448,192,148783,1,0,0:0:0:70:Snare.wav
64,192,148933,128,0,149083:0:0:0:0:
320,192,149083,128,0,149233:0:0:0:70:Snare.wav
448,192,149083,1,0,0:0:0:0:
64,192,149383,128,0,149533:0:0:0:70:Snare.wav
320,192,149383,1,0,0:0:0:0:
192,192,149683,128,0,149833:0:0:0:70:Snare.wav
448,192,149683,1,0,0:0:0:0:
64,192,149983,1,8,0:0:0:0:
448,192,149983,128,0,150133:0:0:0:0:
64,192,150283,1,8,0:0:0:0:
320,192,150283,128,0,150433:0:0:0:0:
192,192,150583,128,8,150733:0:0:0:0:
448,192,150583,1,0,0:0:0:0:
64,192,150883,1,8,0:0:0:0:
320,192,150883,128,0,151033:0:0:0:0:
192,192,151033,128,0,151183:0:0:0:0:
64,192,151183,128,8,151333:0:0:0:0:
448,192,151183,1,0,0:0:0:0:
64,192,151483,1,8,0:0:0:0:
320,192,151483,128,0,151633:0:0:0:0:
320,192,151783,128,8,151933:0:0:0:0:
448,192,151783,1,0,0:0:0:0:
64,192,152083,1,8,0:0:0:0:
192,192,152083,128,0,152233:0:0:0:0:
320,192,152233,128,0,152383:0:0:0:0:
192,192,152383,1,8,0:0:0:0:
448,192,152383,128,0,152533:0:0:0:0:
64,192,152683,1,8,0:0:0:0:
320,192,152683,128,0,152833:0:0:0:0:
64,192,152983,128,8,153133:0:0:0:0:
448,192,152983,1,0,0:0:0:0:
64,192,153283,1,8,0:0:0:0:
192,192,153283,128,0,153433:0:0:0:0:
448,192,153433,128,0,153583:0:0:0:0:
64,192,153583,1,8,0:0:0:0:
192,192,153583,1,0,0:0:0:0:
448,192,153733,128,0,153883:0:0:0:0:
64,192,153883,1,8,0:0:0:0:
192,192,153883,128,0,154033:0:0:0:0:
64,192,154183,1,8,0:0:0:0:
448,192,154183,128,0,154333:0:0:0:0:
320,192,154333,128,0,154483:0:0:0:0:
192,192,154483,128,8,154633:0:0:0:0:
448,192,154483,1,0,0:0:0:0:
64,192,154633,128,0,154783:0:0:0:0:
320,192,154783,1,8,0:0:0:0:
448,192,154783,128,4,154933:0:0:0:0:
64,192,155083,1,8,0:0:0:0:
192,192,155083,128,0,155233:0:0:0:0:
320,192,155383,1,8,0:0:0:0:
448,192,155383,128,0,155533:0:0:0:0:
64,192,155683,1,8,0:0:0:0:
320,192,155683,128,0,155833:0:0:0:0:
192,192,155833,128,0,155983:0:0:0:0:
64,192,155983,128,8,156133:0:0:0:0:
448,192,155983,1,0,0:0:0:0:
64,192,156283,1,8,0:0:0:0:
320,192,156283,128,0,156433:0:0:0:0:
448,192,156583,1,8,0:0:0:0:
320,192,156583,128,0,156733:0:0:0:0:
64,192,156883,1,8,0:0:0:0:
448,192,156883,128,0,157033:0:0:0:0:
320,192,157033,128,0,157183:0:0:0:0:
64,192,157183,1,8,0:0:0:0:
192,192,157183,128,0,157333:0:0:0:0:
320,192,157483,128,8,157633:0:0:0:0:
448,192,157483,1,0,0:0:0:0:
64,192,157783,128,8,157933:0:0:0:0:
192,192,157783,1,0,0:0:0:0:
64,192,158083,1,8,0:0:0:0:
192,192,158083,128,0,158233:0:0:0:0:
448,192,158233,128,0,158383:0:0:0:0:
64,192,158383,1,8,0:0:0:0:
320,192,158383,1,0,0:0:0:0:
192,192,158533,128,0,158683:0:0:0:0:
64,192,158683,1,8,0:0:0:0:
448,192,158683,128,0,158833:0:0:0:0:
192,192,158983,128,8,159133:0:0:0:0:
448,192,158983,1,0,0:0:0:0:
64,192,159283,128,8,159433:0:0:0:0:
320,192,159283,1,0,0:0:0:0:
64,192,159583,1,8,0:0:0:0:
192,192,159583,1,2,0:0:0:0:
448,192,159583,1,0,0:0:0:0:
64,192,159883,1,2,0:0:0:0:
192,192,159883,1,8,0:0:0:0:
448,192,159883,1,0,0:0:0:0:
64,192,160183,1,2,0:0:0:0:
192,192,160183,1,8,0:0:0:0:
448,192,160183,1,0,0:0:0:0:
64,192,160483,1,2,0:0:0:0:
192,192,160483,1,8,0:0:0:0:
448,192,160483,1,0,0:0:0:0:
64,192,160783,1,2,0:0:0:0:
320,192,160783,1,8,0:0:0:0:
448,192,160783,1,0,0:0:0:0:
64,192,161083,1,2,0:0:0:0:
320,192,161083,1,8,0:0:0:0:
448,192,161083,1,0,0:0:0:0:
64,192,161383,1,2,0:0:0:0:
320,192,161383,1,8,0:0:0:0:
448,192,161383,1,0,0:0:0:0:
64,192,161683,1,8,0:0:0:0:
320,192,161683,1,2,0:0:0:0:
448,192,161683,1,0,0:0:0:0:
64,192,161983,1,8,0:0:0:0:
192,192,161983,1,2,0:0:0:0:
320,192,161983,1,4,0:0:0:0:
64,192,162283,1,8,0:0:0:0:
192,192,162283,1,2,0:0:0:0:
320,192,162283,1,0,0:0:0:0:
64,192,162583,1,8,0:0:0:0:
192,192,162583,1,2,0:0:0:0:
320,192,162583,1,0,0:0:0:0:
64,192,162883,1,8,0:0:0:0:
192,192,162883,1,2,0:0:0:0:
320,192,162883,1,0,0:0:0:0:
192,192,163183,1,8,0:0:0:0:
320,192,163183,1,2,0:0:0:0:
448,192,163183,1,0,0:0:0:0:
192,192,163483,1,8,0:0:0:0:
320,192,163483,1,2,0:0:0:0:
448,192,163483,1,0,0:0:0:0:
192,192,163783,1,8,0:0:0:0:
320,192,163783,1,2,0:0:0:0:
448,192,163783,1,0,0:0:0:0:
320,192,164083,1,8,0:0:0:0:
448,192,164083,1,0,0:0:0:0:
320,192,164383,1,10,0:0:0:0:
448,192,164383,1,4,0:0:0:0:
64,192,164533,1,8,0:0:0:0:
192,192,164533,1,2,0:0:0:0:
320,192,164683,1,8,0:0:0:0:
448,192,164683,1,2,0:0:0:0:
64,192,164833,1,8,0:0:0:0:
192,192,164833,1,2,0:0:0:0:
64,192,164983,1,8,0:0:0:0:
448,192,164983,1,2,0:0:0:0:
192,192,165133,1,8,0:0:0:0:
320,192,165133,1,2,0:0:0:0:
64,192,165283,1,8,0:0:0:0:
448,192,165283,1,2,0:0:0:0:
192,192,165433,1,8,0:0:0:0:
320,192,165433,1,2,0:0:0:0:
64,192,165583,1,10,0:0:0:0:
192,192,165583,1,4,0:0:0:0:
320,192,165733,1,8,0:0:0:0:
448,192,165733,1,2,0:0:0:0:
64,192,165883,1,8,0:0:0:0:
192,192,165883,1,2,0:0:0:0:
320,192,166033,1,8,0:0:0:0:
448,192,166033,1,2,0:0:0:0:
64,192,166183,1,8,0:0:0:0:
448,192,166183,1,2,0:0:0:0:
192,192,166333,1,8,0:0:0:0:
320,192,166333,1,2,0:0:0:0:
64,192,166483,1,8,0:0:0:0:
448,192,166483,1,2,0:0:0:0:
192,192,166633,1,8,0:0:0:0:
320,192,166633,1,2,0:0:0:0:
320,192,166783,1,10,0:0:0:0:
448,192,166783,1,4,0:0:0:0:
64,192,166858,1,10,0:0:0:0:
192,192,166933,1,10,0:0:0:0:
448,192,167008,1,10,0:0:0:0:
64,192,167083,1,10,0:0:0:0:
320,192,167083,1,4,0:0:0:0:
192,192,167158,1,10,0:0:0:0:
448,192,167233,1,10,0:0:0:0:
320,192,167308,1,10,0:0:0:0:
64,192,167383,1,10,0:0:0:0:
192,192,167383,1,4,0:0:0:0:
448,192,167458,1,10,0:0:0:0:
320,192,167533,1,10,0:0:0:0:
64,192,167608,1,10,0:0:0:0:
192,192,167683,1,10,0:0:0:0:
448,192,167683,1,4,0:0:0:0:
320,192,167758,1,10,0:0:0:0:
64,192,167833,1,10,0:0:0:0:
192,192,167908,1,10,0:0:0:0:
320,192,167983,1,4,0:0:0:0:
448,192,167983,1,0,0:0:0:70:Snare.wav
320,192,168283,1,4,0:0:0:0:
448,192,168283,1,0,0:0:0:70:Snare.wav
320,192,168583,1,4,0:0:0:0:
448,192,168583,1,0,0:0:0:70:Snare.wav
64,192,168883,1,4,0:0:0:0:
448,192,168883,1,0,0:0:0:70:Snare.wav
64,192,169183,1,2,0:0:0:0:
192,192,169183,1,4,0:0:0:0:
64,192,169483,1,2,0:0:0:0:
448,192,169483,1,8,0:0:0:0:
64,192,169633,1,0,0:0:0:0:
448,192,169633,1,0,0:0:0:0:
192,192,169783,1,2,0:0:0:0:
320,192,169933,1,0,0:0:0:0:
448,192,169933,1,0,0:0:0:0:
64,192,170083,1,10,0:0:0:0:
192,192,170233,1,0,0:0:0:0:
320,192,170233,1,0,0:0:0:0:
448,192,170383,1,2,0:0:0:0:
64,192,170533,1,0,0:0:0:0:
192,192,170533,1,0,0:0:0:0:
320,192,170683,1,10,0:0:0:0:
64,192,170833,1,0,0:0:0:0:
448,192,170833,1,0,0:0:0:0:
192,192,170983,1,2,0:0:0:0:
320,192,170983,1,0,0:0:0:0:
64,192,171133,1,0,0:0:0:0:
448,192,171133,1,0,0:0:0:0:
192,192,171283,1,2,0:0:0:0:
320,192,171283,1,8,0:0:0:0:
64,192,171433,1,0,0:0:0:0:
320,192,171583,1,2,0:0:0:0:
448,192,171583,1,0,0:0:0:0:
320,192,171883,1,2,0:0:0:0:
448,192,171883,1,8,0:0:0:0:
64,192,172033,1,0,0:0:0:0:
192,192,172033,1,0,0:0:0:0:
448,192,172183,1,2,0:0:0:0:
192,192,172333,1,0,0:0:0:0:
320,192,172333,1,0,0:0:0:0:
64,192,172483,1,10,0:0:0:0:
320,192,172633,1,0,0:0:0:0:
448,192,172633,1,0,0:0:0:0:
192,192,172783,1,2,0:0:0:0:
64,192,172933,1,0,0:0:0:0:
448,192,172933,1,0,0:0:0:0:
320,192,173083,1,10,0:0:0:0:
64,192,173233,1,0,0:0:0:0:
192,192,173233,1,0,0:0:0:0:
320,192,173383,1,2,0:0:0:0:
448,192,173383,1,0,0:0:0:0:
64,192,173533,1,0,0:0:0:0:
192,192,173533,1,0,0:0:0:0:
320,192,173683,1,8,0:0:0:0:
448,192,173683,1,0,0:0:0:0:
192,192,173833,1,0,0:0:0:0:
64,192,173983,1,2,0:0:0:0:
320,192,173983,1,0,0:0:0:0:
64,192,174283,1,2,0:0:0:0:
192,192,174283,1,8,0:0:0:0:
320,192,174433,1,0,0:0:0:0:
448,192,174433,1,0,0:0:0:0:
192,192,174583,1,2,0:0:0:0:
64,192,174733,1,0,0:0:0:0:
320,192,174733,1,0,0:0:0:0:
448,192,174883,1,10,0:0:0:0:
192,192,175033,1,0,0:0:0:0:
320,192,175033,1,0,0:0:0:0:
64,192,175183,1,2,0:0:0:0:
192,192,175333,1,0,0:0:0:0:
448,192,175333,1,0,0:0:0:0:
320,192,175483,1,10,0:0:0:0:
64,192,175633,1,0,0:0:0:0:
192,192,175633,1,0,0:0:0:0:
320,192,175783,1,2,0:0:0:0:
448,192,175783,1,0,0:0:0:0:
64,192,175933,1,0,0:0:0:0:
192,192,175933,1,0,0:0:0:0:
320,192,176083,1,2,0:0:0:0:
448,192,176083,1,8,0:0:0:0:
192,192,176233,1,2,0:0:0:0:
320,192,176308,1,2,0:0:0:0:
64,192,176383,128,2,176533:0:0:0:0:
448,192,176383,1,4,0:0:0:0:
320,192,176533,1,0,0:0:0:0:
192,192,176683,128,0,176833:0:0:0:0:
448,192,176683,1,0,0:0:0:0:
320,192,176833,1,0,0:0:0:0:
448,192,176983,128,8,177133:0:0:0:0:
64,192,176983,1,0,0:0:0:0:
192,192,177133,1,0,0:0:0:0:
320,192,177283,128,2,177433:0:0:0:0:
448,192,177283,1,0,0:0:0:0:
192,192,177433,128,0,177583:0:0:0:0:
64,192,177433,1,0,0:0:0:0:
448,192,177583,1,0,0:0:0:0:
320,192,177733,1,2,0:0:0:0:
64,192,177733,128,0,177883:0:0:0:0:
448,192,177883,1,0,0:0:0:0:
192,192,177883,128,0,178033:0:0:0:0:
320,192,178033,1,2,0:0:0:0:
192,192,178183,1,8,0:0:0:0:
64,192,178183,1,0,0:0:0:0:
448,192,178333,1,0,0:0:0:0:
320,192,178333,1,0,0:0:0:0:
192,192,178483,1,0,0:0:0:0:
64,192,178483,1,0,0:0:0:0:
448,192,178633,1,0,0:0:0:0:
320,192,178633,1,0,0:0:0:0:
448,192,178783,1,4,0:0:0:0:
192,192,178783,1,0,0:0:0:0:
64,192,178783,1,0,0:0:0:0:
64,192,179083,1,8,0:0:0:0:
320,192,179083,1,2,0:0:0:0:
448,192,179083,1,0,0:0:0:0:
320,192,179233,1,0,0:0:0:0:
64,192,179383,1,8,0:0:0:0:
192,192,179383,1,2,0:0:0:0:
448,192,179383,1,0,0:0:0:0:
192,192,179533,1,0,0:0:0:0:
64,192,179683,1,8,0:0:0:0:
320,192,179683,1,2,0:0:0:0:
448,192,179683,1,0,0:0:0:0:
192,192,179833,1,0,0:0:0:0:
192,192,179983,1,8,0:0:0:0:
320,192,179983,1,2,0:0:0:0:
448,192,179983,1,0,0:0:0:0:
64,192,180133,1,0,0:0:0:0:
64,192,180283,1,8,0:0:0:0:
192,192,180283,1,2,0:0:0:0:
448,192,180283,1,0,0:0:0:0:
320,192,180433,1,0,0:0:0:0:
64,192,180583,1,8,0:0:0:0:
192,192,180583,1,2,0:0:0:0:
448,192,180583,1,0,0:0:0:0:
320,192,180733,1,0,0:0:0:0:
64,192,180883,1,8,0:0:0:0:
192,192,180883,1,2,0:0:0:0:
448,192,180883,1,0,0:0:0:0:
64,192,181183,1,8,0:0:0:0:
320,192,181183,1,2,0:0:0:0:
448,192,181183,1,0,0:0:0:0:
64,192,181483,1,8,0:0:0:0:
192,192,181483,1,2,0:0:0:0:
448,192,181483,1,0,0:0:0:0:
192,192,181633,1,0,0:0:0:0:
64,192,181783,1,8,0:0:0:0:
320,192,181783,1,2,0:0:0:0:
448,192,181783,1,0,0:0:0:0:
320,192,181933,1,0,0:0:0:0:
64,192,182083,1,8,0:0:0:0:
192,192,182083,1,2,0:0:0:0:
448,192,182083,1,0,0:0:0:0:
320,192,182233,1,0,0:0:0:0:
64,192,182383,1,8,0:0:0:0:
192,192,182383,1,2,0:0:0:0:
320,192,182383,1,0,0:0:0:0:
448,192,182533,1,0,0:0:0:0:
64,192,182683,1,8,0:0:0:0:
192,192,182683,1,2,0:0:0:0:
320,192,182683,1,0,0:0:0:0:
64,192,182833,1,0,0:0:0:0:
192,192,182983,1,8,0:0:0:0:
320,192,182983,1,2,0:0:0:0:
448,192,182983,1,0,0:0:0:0:
64,192,183133,1,0,0:0:0:0:
192,192,183283,1,8,0:0:0:0:
320,192,183283,1,2,0:0:0:0:
448,192,183283,1,0,0:0:0:0:
320,192,183433,1,8,0:0:0:0:
448,192,183433,1,2,0:0:0:0:
64,192,183583,1,8,0:0:0:0:
192,192,183583,1,2,0:0:0:0:
448,192,183583,1,4,0:0:0:0:
64,192,183883,1,8,0:0:0:0:
320,192,183883,1,2,0:0:0:0:
448,192,183883,1,0,0:0:0:0:
64,192,184033,1,0,0:0:0:0:
192,192,184183,1,8,0:0:0:0:
320,192,184183,1,2,0:0:0:0:
448,192,184183,1,0,0:0:0:0:
448,192,184333,1,0,0:0:0:0:
64,192,184483,1,8,0:0:0:0:
192,192,184483,1,2,0:0:0:0:
320,192,184483,1,0,0:0:0:0:
448,192,184633,1,0,0:0:0:0:
64,192,184783,1,8,0:0:0:0:
192,192,184783,1,2,0:0:0:0:
448,192,184783,1,0,0:0:0:0:
192,192,184933,1,0,0:0:0:0:
64,192,185083,1,8,0:0:0:0:
320,192,185083,1,2,0:0:0:0:
448,192,185083,1,0,0:0:0:0:
192,192,185233,1,0,0:0:0:0:
64,192,185383,1,8,0:0:0:0:
320,192,185383,1,2,0:0:0:0:
448,192,185383,1,0,0:0:0:0:
192,192,185533,1,0,0:0:0:0:
64,192,185683,1,8,0:0:0:0:
320,192,185683,1,2,0:0:0:0:
448,192,185683,1,0,0:0:0:0:
320,192,185983,1,8,0:0:0:0:
448,192,185983,1,2,0:0:0:0:
64,192,186058,1,10,0:0:0:0:
192,192,186133,1,10,0:0:0:0:
448,192,186208,1,10,0:0:0:0:
320,192,186283,1,10,0:0:0:0:
64,192,186358,1,10,0:0:0:0:
192,192,186433,1,10,0:0:0:0:
448,192,186508,1,10,0:0:0:0:
320,192,186583,1,10,0:0:0:0:
64,192,186583,1,0,0:0:0:0:
192,192,186658,1,10,0:0:0:0:
448,192,186733,1,10,0:0:0:0:
320,192,186808,1,10,0:0:0:0:
64,192,186883,1,10,0:0:0:0:
192,192,186958,1,10,0:0:0:0:
448,192,187033,1,10,0:0:0:0:
320,192,187108,1,10,0:0:0:0:
64,192,187183,1,4,0:0:0:0:
192,192,187183,1,0,0:0:0:70:Snare.wav
64,192,187483,1,0,0:0:0:70:Snare.wav
320,192,187483,1,0,0:0:0:0:
448,192,187783,128,0,187933:0:0:0:0:
320,192,187783,128,0,187933:0:0:0:0:
192,192,188083,128,0,188233:0:0:0:0:
64,192,188083,128,0,188233:0:0:0:0:
64,192,188383,1,2,0:0:0:0:
320,192,188383,1,4,0:0:0:0:
448,192,188383,128,0,188533:0:0:0:0:
192,192,188533,1,0,0:0:0:0:
64,192,188683,1,2,0:0:0:0:
320,192,188683,128,8,188833:0:0:0:0:
448,192,188833,1,0,0:0:0:0:
64,192,188983,1,2,0:0:0:0:
192,192,188983,128,0,189133:0:0:0:0:
448,192,189133,1,0,0:0:0:0:
64,192,189283,1,2,0:0:0:0:
320,192,189283,128,8,189433:0:0:0:0:
192,192,189433,128,0,189583:0:0:0:0:
64,192,189583,128,2,189733:0:0:0:0:
448,192,189583,1,0,0:0:0:0:
192,192,189733,1,0,0:0:0:0:
320,192,189883,128,2,190033:0:0:0:0:
448,192,189883,1,8,0:0:0:0:
192,192,190033,1,0,0:0:0:0:
64,192,190183,1,2,0:0:0:0:
320,192,190183,128,0,190333:0:0:0:0:
448,192,190333,1,0,0:0:0:0:
64,192,190483,1,2,0:0:0:0:
192,192,190483,128,8,190633:0:0:0:0:
320,192,190633,128,0,190783:0:0:0:0:
64,192,190783,1,2,0:0:0:0:
448,192,190783,128,0,190933:0:0:0:0:
192,192,190933,1,0,0:0:0:0:
320,192,191083,128,2,191233:0:0:0:0:
448,192,191083,1,8,0:0:0:0:
192,192,191233,1,0,0:0:0:0:
64,192,191383,128,2,191533:0:0:0:0:
320,192,191383,1,0,0:0:0:0:
448,192,191533,1,0,0:0:0:0:
64,192,191683,1,2,0:0:0:0:
192,192,191683,128,8,191833:0:0:0:0:
448,192,191833,128,0,191983:0:0:0:0:
64,192,191983,1,2,0:0:0:0:
320,192,191983,1,0,0:0:0:0:
448,192,192133,128,0,192283:0:0:0:0:
64,192,192283,1,2,0:0:0:0:
192,192,192283,128,8,192433:0:0:0:0:
320,192,192433,1,0,0:0:0:0:
64,192,192583,1,2,0:0:0:0:
448,192,192583,128,0,192733:0:0:0:45:Clap.wav
320,192,192733,128,0,192883:0:0:0:45:Clap.wav
192,192,192883,128,0,193033:0:0:0:45:Clap.wav
64,192,193033,128,0,193183:0:0:0:45:Clap.wav
192,192,193183,1,2,0:0:0:0:
320,192,193183,1,4,0:0:0:0:
448,192,193183,128,0,193333:0:0:0:0:
64,192,193333,1,0,0:0:0:0:
192,192,193483,128,2,193633:0:0:0:0:
448,192,193483,1,8,0:0:0:0:
320,192,193633,1,0,0:0:0:0:
64,192,193783,1,2,0:0:0:0:
448,192,193783,128,0,193933:0:0:0:0:
192,192,193933,1,0,0:0:0:0:
64,192,194083,1,2,0:0:0:0:
320,192,194083,128,8,194233:0:0:0:0:
192,192,194233,128,0,194383:0:0:0:0:
64,192,194383,128,2,194533:0:0:0:0:
448,192,194383,1,0,0:0:0:0:
192,192,194533,1,0,0:0:0:0:
320,192,194683,128,2,194833:0:0:0:0:
448,192,194683,1,8,0:0:0:0:
64,192,194833,1,0,0:0:0:0:
192,192,194983,1,2,0:0:0:0:
320,192,194983,128,0,195133:0:0:0:0:
64,192,195133,1,0,0:0:0:0:
320,192,195283,1,2,0:0:0:0:
448,192,195283,1,8,0:0:0:0:
192,192,195433,1,2,0:0:0:0:
320,192,195508,1,2,0:0:0:0:
64,192,195583,1,2,0:0:0:0:
192,192,195583,1,4,0:0:0:0:
448,192,195583,128,0,195733:0:0:0:0:
192,192,195733,1,0,0:0:0:0:
320,192,195883,128,0,196033:0:0:0:0:
64,192,195883,1,0,0:0:0:0:
64,192,196033,1,0,0:0:0:0:
192,192,196183,128,8,196333:0:0:0:0:
448,192,196183,1,0,0:0:0:0:
448,192,196333,1,0,0:0:0:0:
64,192,196483,1,2,0:0:0:0:
320,192,196483,128,0,196633:0:0:0:0:
64,192,196633,128,0,196783:0:0:0:0:
448,192,196633,1,0,0:0:0:0:
192,192,196933,128,2,197083:0:0:0:0:
448,192,196933,1,0,0:0:0:0:
64,192,197083,1,0,0:0:0:0:
448,192,197083,128,0,197233:0:0:0:0:
64,192,197233,1,2,0:0:0:0:
192,192,197233,1,0,0:0:0:0:
448,192,197383,1,8,0:0:0:0:
320,192,197383,1,0,0:0:0:0:
192,192,197533,1,0,0:0:0:0:
64,192,197533,1,2,0:0:0:0:
320,192,197683,1,2,0:0:0:0:
192,192,197758,1,2,0:0:0:0:
320,192,197833,1,2,0:0:0:0:
192,192,197908,1,2,0:0:0:0:
64,192,197983,1,2,0:0:0:0:
320,192,197983,1,4,0:0:0:0:
448,192,197983,128,0,198133:0:0:0:0:
64,192,198133,1,0,0:0:0:0:
192,192,198283,1,2,0:0:0:0:
320,192,198283,128,8,198433:0:0:0:0:
448,192,198433,1,0,0:0:0:0:
64,192,198583,1,2,0:0:0:0:
192,192,198583,128,0,198733:0:0:0:0:
448,192,198733,1,0,0:0:0:0:
64,192,198883,1,2,0:0:0:0:
320,192,198883,128,8,199033:0:0:0:0:
192,192,199033,128,0,199183:0:0:0:0:
64,192,199183,128,2,199333:0:0:0:0:
448,192,199183,1,0,0:0:0:0:
192,192,199333,1,0,0:0:0:0:
448,192,199483,1,2,0:0:0:0:
320,192,199483,128,8,199633:0:0:0:0:
192,192,199633,1,0,0:0:0:0:
320,192,199783,128,2,199933:0:0:0:0:
64,192,199783,1,0,0:0:0:0:
192,192,199933,1,0,0:0:0:0:
192,192,200083,128,2,200233:0:0:0:0:
448,192,200083,1,8,0:0:0:0:
320,192,200233,128,0,200383:0:0:0:0:
64,192,200383,1,2,0:0:0:0:
192,192,200383,1,4,0:0:0:0:
448,192,200383,128,0,200533:0:0:0:0:
320,192,200533,1,0,0:0:0:0:
64,192,200683,1,2,0:0:0:0:
192,192,200683,128,8,200833:0:0:0:0:
448,192,200833,1,0,0:0:0:0:
64,192,200983,128,2,201133:0:0:0:0:
320,192,200983,1,0,0:0:0:0:
448,192,201133,1,0,0:0:0:0:
64,192,201283,1,2,0:0:0:0:
320,192,201283,128,8,201433:0:0:0:0:
192,192,201433,128,0,201583:0:0:0:0:
64,192,201583,1,2,0:0:0:0:
448,192,201583,1,0,0:0:0:0:
320,192,201733,128,0,201883:0:0:0:0:
192,192,201883,1,2,0:0:0:0:
448,192,201883,128,8,202033:0:0:0:0:
64,192,202033,1,0,0:0:0:0:
192,192,202183,1,2,0:0:0:0:
448,192,202183,128,0,202333:0:0:0:0:
320,192,202333,128,0,202483:0:0:0:0:
64,192,202483,1,2,0:0:0:0:
192,192,202483,1,8,0:0:0:0:
320,192,202558,1,2,0:0:0:0:
192,192,202633,1,2,0:0:0:0:
320,192,202708,1,2,0:0:0:0:
64,192,202783,1,2,0:0:0:0:
192,192,202783,1,4,0:0:0:0:
448,192,202783,128,0,202933:0:0:0:0:
64,192,202933,1,0,0:0:0:0:
320,192,203083,128,2,203233:0:0:0:0:
192,192,203083,1,8,0:0:0:0:
448,192,203233,1,0,0:0:0:0:
64,192,203383,1,2,0:0:0:0:
192,192,203383,128,0,203533:0:0:0:0:
448,192,203533,1,0,0:0:0:0:
64,192,203683,1,2,0:0:0:0:
320,192,203683,128,8,203833:0:0:0:0:
192,192,203833,128,0,203983:0:0:0:0:
64,192,203983,128,2,204133:0:0:0:0:
320,192,203983,1,4,0:0:0:0:
448,192,203983,1,0,0:0:0:0:
192,192,204133,1,0,0:0:0:0:
64,192,204283,1,2,0:0:0:0:
320,192,204283,128,8,204433:0:0:0:0:
448,192,204433,1,0,0:0:0:0:
192,192,204583,1,2,0:0:0:0:
320,192,204583,128,0,204733:0:0:0:0:
64,192,204733,1,0,0:0:0:0:
192,192,204883,1,2,0:0:0:0:
448,192,204883,128,8,205033:0:0:0:0:
320,192,205033,128,0,205183:0:0:0:0:
64,192,205183,1,8,0:0:0:0:
192,192,205183,1,4,0:0:0:0:
448,192,205258,1,2,0:0:0:0:
320,192,205333,1,2,0:0:0:0:
64,192,205408,1,2,0:0:0:0:
192,192,205483,1,8,0:0:0:0:
448,192,205483,1,4,0:0:0:0:
320,192,205558,1,2,0:0:0:0:
64,192,205633,1,2,0:0:0:0:
192,192,205708,1,2,0:0:0:0:
448,192,205783,1,8,0:0:0:0:
320,192,205783,1,4,0:0:0:0:
64,192,205858,1,2,0:0:0:0:
192,192,205933,1,2,0:0:0:0:
320,192,206008,1,2,0:0:0:0:
64,192,206083,128,8,206383:0:0:0:0:
448,192,206083,128,4,206383:0:0:0:0:
320,192,206383,1,4,0:0:0:0:
192,192,206533,128,0,206683:0:0:0:0:
320,192,206683,128,0,206833:0:0:0:0:
192,192,206983,128,0,207133:0:0:0:0:
320,192,207283,128,0,207433:0:0:0:0:
64,192,207583,1,2,0:0:0:0:
192,192,207583,1,4,0:0:0:0:
448,192,207583,1,0,0:0:0:0:
320,192,207733,1,0,0:0:0:0:
64,192,207883,1,2,0:0:0:0:
448,192,207883,1,8,0:0:0:0:
64,192,208033,1,0,0:0:0:0:
320,192,208183,1,2,0:0:0:0:
448,192,208183,1,0,0:0:0:0:
320,192,208333,1,0,0:0:0:0:
64,192,208483,1,2,0:0:0:0:
192,192,208483,1,8,0:0:0:0:
64,192,208633,1,0,0:0:0:0:
192,192,208783,1,2,0:0:0:0:
320,192,208783,1,0,0:0:0:0:
320,192,208933,1,0,0:0:0:0:
64,192,209083,1,2,0:0:0:0:
448,192,209083,1,8,0:0:0:0:
192,192,209233,1,0,0:0:0:0:
192,192,209383,1,2,0:0:0:0:
448,192,209383,1,0,0:0:0:0:
320,192,209533,1,0,0:0:0:0:
64,192,209683,1,2,0:0:0:0:
448,192,209683,1,8,0:0:0:0:
192,192,209833,1,0,0:0:0:0:
64,192,209983,1,2,0:0:0:0:
320,192,209983,1,0,0:0:0:0:
320,192,210133,1,0,0:0:0:0:
192,192,210283,1,2,0:0:0:0:
448,192,210283,1,8,0:0:0:0:
64,192,210433,1,0,0:0:0:0:
320,192,210583,1,2,0:0:0:0:
448,192,210583,1,0,0:0:0:0:
320,192,210733,1,0,0:0:0:0:
64,192,210883,1,2,0:0:0:0:
320,192,210883,1,8,0:0:0:0:
192,192,211033,1,0,0:0:0:0:
320,192,211183,1,2,0:0:0:0:
448,192,211183,1,0,0:0:0:0:
64,192,211333,1,0,0:0:0:0:
192,192,211483,1,2,0:0:0:0:
448,192,211483,1,8,0:0:0:0:
320,192,211633,1,0,0:0:0:0:
64,192,211783,1,2,0:0:0:0:
320,192,211783,1,0,0:0:0:0:
192,192,211933,1,0,0:0:0:0:
320,192,212083,1,2,0:0:0:0:
448,192,212083,1,8,0:0:0:0:
192,192,212233,1,0,0:0:0:0:
64,192,212383,1,2,0:0:0:0:
320,192,212383,1,0,0:0:0:0:
448,192,212533,1,0,0:0:0:0:
192,192,212683,1,2,0:0:0:0:
320,192,212683,1,8,0:0:0:0:
64,192,212833,1,0,0:0:0:0:
320,192,212983,1,2,0:0:0:0:
448,192,212983,1,0,0:0:0:0:
64,192,213133,1,0,0:0:0:0:
192,192,213283,1,2,0:0:0:0:
320,192,213283,1,8,0:0:0:0:
64,192,213433,1,0,0:0:0:0:
320,192,213583,1,2,0:0:0:0:
448,192,213583,1,0,0:0:0:0:
192,192,213733,1,0,0:0:0:0:
64,192,213883,1,2,0:0:0:0:
448,192,213883,1,8,0:0:0:0:
320,192,214033,1,0,0:0:0:0:
64,192,214183,1,2,0:0:0:0:
320,192,214183,1,0,0:0:0:0:
192,192,214333,1,0,0:0:0:0:
320,192,214483,1,2,0:0:0:0:
448,192,214483,1,8,0:0:0:0:
64,192,214633,1,0,0:0:0:0:
192,192,214783,1,2,0:0:0:0:
448,192,214783,1,0,0:0:0:0:
320,192,214933,1,0,0:0:0:0:
64,192,215083,1,2,0:0:0:0:
192,192,215083,1,8,0:0:0:0:
448,192,215233,1,0,0:0:0:0:
192,192,215383,1,2,0:0:0:0:
320,192,215383,1,0,0:0:0:0:
192,192,215533,1,0,0:0:0:0:
64,192,215683,1,2,0:0:0:0:
192,192,215683,1,8,0:0:0:0:
320,192,215833,1,0,0:0:0:0:
64,192,215983,1,2,0:0:0:0:
192,192,215983,1,4,0:0:0:0:
448,192,215983,1,0,0:0:0:0:
448,192,216133,1,0,0:0:0:0:
192,192,216283,1,8,0:0:0:0:
320,192,216283,1,0,0:0:0:0:
192,192,216433,1,0,0:0:0:0:
64,192,216583,1,2,0:0:0:0:
320,192,216583,1,4,0:0:0:0:
448,192,216583,1,0,0:0:0:0:
448,192,216733,1,0,0:0:0:0:
192,192,217033,1,2,0:0:0:0:
320,192,217033,1,0,0:0:0:0:
64,192,217183,1,2,0:0:0:0:
192,192,217183,1,4,0:0:0:0:
448,192,217183,1,0,0:0:0:0:
320,192,217333,1,0,0:0:0:0:
192,192,217483,1,2,0:0:0:0:
448,192,217483,1,8,0:0:0:0:
64,192,217633,1,0,0:0:0:0:
320,192,217783,1,2,0:0:0:0:
448,192,217783,1,0,0:0:0:0:
64,192,217933,1,0,0:0:0:0:
192,192,218083,1,2,0:0:0:0:
320,192,218083,1,8,0:0:0:0:
64,192,218233,1,0,0:0:0:0:
192,192,218383,1,2,0:0:0:0:
320,192,218383,1,0,0:0:0:0:
320,192,218533,1,0,0:0:0:0:
64,192,218683,1,2,0:0:0:0:
448,192,218683,1,8,0:0:0:0:
192,192,218833,1,0,0:0:0:0:
192,192,218983,1,2,0:0:0:0:
448,192,218983,1,0,0:0:0:0:
320,192,219133,1,0,0:0:0:0:
64,192,219283,1,2,0:0:0:0:
448,192,219283,1,8,0:0:0:0:
192,192,219433,1,0,0:0:0:0:
64,192,219583,1,2,0:0:0:0:
320,192,219583,1,0,0:0:0:0:
320,192,219733,1,0,0:0:0:0:
192,192,219883,1,2,0:0:0:0:
448,192,219883,1,8,0:0:0:0:
64,192,220033,1,0,0:0:0:0:
320,192,220183,1,2,0:0:0:0:
448,192,220183,1,0,0:0:0:0:
320,192,220333,1,0,0:0:0:0:
64,192,220483,1,2,0:0:0:0:
320,192,220483,1,8,0:0:0:0:
192,192,220633,1,0,0:0:0:0:
320,192,220783,1,2,0:0:0:0:
448,192,220783,1,0,0:0:0:0:
64,192,220933,1,0,0:0:0:0:
192,192,221083,1,2,0:0:0:0:
448,192,221083,1,8,0:0:0:0:
320,192,221233,1,0,0:0:0:0:
64,192,221383,1,2,0:0:0:0:
320,192,221383,1,0,0:0:0:0:
64,192,221533,1,0,0:0:0:0:
320,192,221683,1,2,0:0:0:0:
448,192,221683,1,8,0:0:0:0:
320,192,221833,1,2,0:0:0:0:
448,192,221833,1,0,0:0:0:0:
64,192,221983,1,2,0:0:0:0:
192,192,221983,1,4,0:0:0:0:
320,192,222133,1,0,0:0:0:0:
64,192,222283,1,2,0:0:0:0:
320,192,222283,1,8,0:0:0:0:
448,192,222433,1,0,0:0:0:0:
64,192,222583,1,2,0:0:0:0:
192,192,222583,1,8,0:0:0:0:
448,192,222733,1,0,0:0:0:0:
192,192,222883,1,2,0:0:0:0:
320,192,222883,1,8,0:0:0:0:
448,192,223033,1,0,0:0:0:0:
64,192,223183,1,2,0:0:0:0:
320,192,223183,1,8,0:0:0:0:
192,192,223333,1,0,0:0:0:0:
64,192,223483,1,2,0:0:0:0:
448,192,223483,1,8,0:0:0:0:
320,192,223633,1,0,0:0:0:0:
64,192,223783,1,2,0:0:0:0:
320,192,223783,1,8,0:0:0:0:
192,192,223933,1,0,0:0:0:0:
64,192,224083,1,2,0:0:0:0:
448,192,224083,1,8,0:0:0:0:
320,192,224233,1,0,0:0:0:0:
64,192,224383,1,2,0:0:0:0:
192,192,224383,1,4,0:0:0:0:
320,192,224533,1,8,0:0:0:0:
448,192,224533,1,0,0:0:0:0:
64,192,224683,1,8,0:0:0:0:
192,192,224683,1,0,0:0:0:0:
320,192,224833,1,8,0:0:0:0:
448,192,224833,1,0,0:0:0:0:
64,192,224983,1,8,0:0:0:0:
192,192,224983,1,0,0:0:0:0:
64,192,225133,1,8,0:0:0:0:
192,192,225133,1,0,0:0:0:0:
320,192,225283,1,8,0:0:0:0:
448,192,225283,1,0,0:0:0:0:
320,192,225433,1,8,0:0:0:0:
448,192,225433,1,0,0:0:0:0:
64,192,225583,1,2,0:0:0:0:
192,192,225583,1,4,0:0:0:0:
448,192,225583,1,0,0:0:0:0:
192,192,225733,1,0,0:0:0:0:
192,192,226033,1,0,0:0:0:0:
64,192,226183,1,2,0:0:0:0:
320,192,226183,1,4,0:0:0:0:
448,192,226183,1,0,0:0:0:0:
192,192,226333,1,0,0:0:0:0:
64,192,226483,1,4,0:0:0:0:
448,192,226483,1,0,0:0:0:0:
320,192,226633,1,2,0:0:0:0:
64,192,226783,128,4,228883:0:0:0:0:
192,192,226783,1,0,0:0:0:90:Boom.wav
448,192,226783,128,0,227983:0:0:0:0:
