osu file format v14

[General]
AudioFilename: audio.mp3
AudioLeadIn: 0
PreviewTime: 195600
Countdown: 1
SampleSet: Normal
StackLeniency: 0.7
Mode: 3
LetterboxInBreaks: 0
SpecialStyle: 0
WidescreenStoryboard: 0

[Editor]
DistanceSpacing: 0.8
BeatDivisor: 4
GridSize: 16
TimelineZoom: 2.4

[Metadata]
Title:Sanctuary
TitleUnicode:Sanctuary
Artist:t+pazolite
ArtistUnicode:t+pazolite
Creator:Yas
Version:Sky High
Source:
Tags:
BeatmapID:1149408
BeatmapSetID:542134

[Difficulty]
HPDrainRate:8
CircleSize:4
OverallDifficulty:8
ApproachRate:5
SliderMultiplier:1.4
SliderTickRate:1

[Events]
//Background and Video events
0,0,"zPMamBl2.jpg",0,0
//Break Periods
//Storyboard Layer 0 (Background)
//Storyboard Layer 1 (Fail)
//Storyboard Layer 2 (Pass)
//Storyboard Layer 3 (Foreground)
//Storyboard Sound Samples

[TimingPoints]
0,300,4,1,0,35,1,0

[HitObjects]
192,192,0,5,0,0:0:0:0:
320,192,150,1,0,0:0:0:0:
448,192,300,1,0,0:0:0:0:
192,192,450,1,0,0:0:0:0:
448,192,600,1,0,0:0:0:0:
64,192,600,1,0,0:0:0:0:
320,192,600,128,0,1350:0:0:0:0:
320,192,1500,1,0,0:0:0:0:
448,192,1500,1,0,0:0:0:0:
64,192,1500,1,0,0:0:0:0:
192,192,1800,1,0,0:0:0:0:
320,192,1800,1,0,0:0:0:0:
448,192,1800,1,0,0:0:0:0:
64,192,1950,1,0,0:0:0:0:
320,192,2100,1,0,0:0:0:0:
448,192,2250,1,0,0:0:0:0:
64,192,2400,1,0,0:0:0:0:
192,192,2400,1,0,0:0:0:0:
448,192,2550,1,0,0:0:0:0:
320,192,2550,1,0,0:0:0:0:
192,192,2700,1,0,0:0:0:0:
64,192,2700,1,0,0:0:0:0:
448,192,2700,1,0,0:0:0:0:
64,192,2850,1,0,0:0:0:0:
448,192,3000,1,0,0:0:0:0:
192,192,3000,128,0,3600:0:0:0:0:
320,192,3000,1,0,0:0:0:0:
64,192,3600,1,0,0:0:0:0:
448,192,3750,1,0,0:0:0:0:
192,192,3900,1,0,0:0:0:0:
320,192,3900,1,0,0:0:0:0:
64,192,3900,1,0,0:0:0:0:
320,192,4200,1,0,0:0:0:0:
192,192,4200,1,0,0:0:0:0:
448,192,4200,1,0,0:0:0:0:
64,192,4350,1,0,0:0:0:0:
192,192,4500,1,0,0:0:0:0:
448,192,4650,1,0,0:0:0:0:
192,192,4800,1,0,0:0:0:0:
320,192,4950,1,0,0:0:0:0:
448,192,5100,1,0,0:0:0:0:
64,192,5100,1,0,0:0:0:0:
192,192,5100,1,0,0:0:0:0:
320,192,5250,1,0,0:0:0:0:
320,192,5400,1,0,0:0:0:0:
192,192,5400,128,0,6150:0:0:0:0:
64,192,5400,1,0,0:0:0:0:
320,192,6300,1,0,0:0:0:0:
192,192,6300,1,0,0:0:0:0:
64,192,6300,1,0,0:0:0:0:
64,192,6600,1,0,0:0:0:0:
448,192,6600,1,0,0:0:0:0:
320,192,6600,1,0,0:0:0:0:
192,192,6750,1,0,0:0:0:0:
320,192,6900,1,0,0:0:0:0:
448,192,7050,1,0,0:0:0:0:
320,192,7200,1,0,0:0:0:0:
64,192,7200,1,0,0:0:0:0:
192,192,7350,1,0,0:0:0:0:
448,192,7500,1,0,0:0:0:0:
64,192,7500,1,0,0:0:0:0:
192,192,7500,1,0,0:0:0:0:
320,192,7650,1,0,0:0:0:0:
320,192,7800,1,0,0:0:0:0:
64,192,7800,128,0,8550:0:0:0:0:
448,192,7800,1,0,0:0:0:0:
320,192,8700,1,0,0:0:0:0:
192,192,8700,1,0,0:0:0:0:
64,192,8700,1,0,0:0:0:0:
192,192,9000,1,0,0:0:0:0:
64,192,9000,1,0,0:0:0:0:
448,192,9000,1,0,0:0:0:0:
320,192,9150,1,0,0:0:0:0:
64,192,9300,1,0,0:0:0:0:
192,192,9450,1,0,0:0:0:0:
320,192,9600,1,0,0:0:0:0:
448,192,9600,1,0,0:0:0:0:
64,192,9750,1,0,0:0:0:0:
448,192,9900,1,0,0:0:0:0:
192,192,9900,1,0,0:0:0:0:
64,192,9900,1,0,0:0:0:0:
320,192,10050,1,0,0:0:0:0:
192,192,10200,1,0,0:0:0:0:
448,192,10200,1,0,0:0:0:0:
64,192,10200,1,0,0:0:0:0:
448,192,10350,1,0,0:0:0:0:
64,192,10500,1,0,0:0:0:0:
192,192,10650,1,0,0:0:0:0:
320,192,10800,1,0,0:0:0:0:
64,192,10800,1,0,0:0:0:0:
448,192,10950,1,0,0:0:0:0:
64,192,11100,1,0,0:0:0:0:
192,192,11100,1,0,0:0:0:0:
448,192,11100,1,0,0:0:0:0:
320,192,11175,1,0,0:0:0:0:
192,192,11250,1,0,0:0:0:0:
448,192,11400,1,0,0:0:0:0:
320,192,11400,1,0,0:0:0:0:
64,192,11400,1,0,0:0:0:0:
192,192,11550,1,0,0:0:0:0:
320,192,11550,1,0,0:0:0:0:
64,192,11700,1,0,0:0:0:0:
192,192,11850,1,0,0:0:0:0:
448,192,12000,1,0,0:0:0:0:
320,192,12225,1,0,0:0:0:0:
64,192,12450,1,0,0:0:0:0:
320,192,12600,1,0,0:0:0:0:
192,192,12600,1,0,0:0:0:0:
448,192,12600,1,0,0:0:0:0:
64,192,12750,1,0,0:0:0:0:
192,192,12900,1,0,0:0:0:0:
448,192,13050,1,0,0:0:0:0:
64,192,13050,1,0,0:0:0:0:
320,192,13200,1,0,0:0:0:0:
192,192,13350,1,0,0:0:0:0:
320,192,13350,1,0,0:0:0:0:
192,192,13500,1,0,0:0:0:0:
64,192,13500,1,0,0:0:0:0:
448,192,13500,1,0,0:0:0:0:
320,192,13575,1,0,0:0:0:0:
64,192,13650,128,0,14250:0:0:0:0:
448,192,13650,1,0,0:0:0:0:
448,192,13800,1,0,0:0:0:0:
192,192,13800,1,0,0:0:0:0:
320,192,13800,1,0,0:0:0:0:
192,192,13950,1,0,0:0:0:0:
448,192,14250,1,0,0:0:0:0:
320,192,14400,1,0,0:0:0:0:
192,192,14400,1,0,0:0:0:0:
64,192,14550,1,0,0:0:0:0:
448,192,14700,1,0,0:0:0:0:
320,192,14700,1,0,0:0:0:0:
192,192,14700,1,0,0:0:0:0:
192,192,14850,1,0,0:0:0:0:
320,192,15000,1,0,0:0:0:0:
448,192,15000,1,0,0:0:0:0:
64,192,15000,1,0,0:0:0:0:
320,192,15150,1,0,0:0:0:0:
64,192,15300,1,0,0:0:0:0:
320,192,15450,1,0,0:0:0:0:
192,192,15600,1,0,0:0:0:0:
448,192,15600,1,0,0:0:0:0:
320,192,15750,1,0,0:0:0:0:
448,192,15900,1,0,0:0:0:0:
192,192,15900,1,0,0:0:0:0:
64,192,15900,1,0,0:0:0:0:
320,192,15975,1,0,0:0:0:0:
64,192,16050,1,0,0:0:0:0:
192,192,16200,1,0,0:0:0:0:
320,192,16200,1,0,0:0:0:0:
448,192,16200,1,0,0:0:0:0:
64,192,16350,1,0,0:0:0:0:
192,192,16350,1,0,0:0:0:0:
320,192,16500,1,0,0:0:0:0:
64,192,16650,1,0,0:0:0:0:
448,192,16800,1,0,0:0:0:0:
320,192,16800,1,0,0:0:0:0:
192,192,16950,1,0,0:0:0:0:
320,192,17100,1,0,0:0:0:0:
64,192,17100,1,0,0:0:0:0:
448,192,17100,1,0,0:0:0:0:
448,192,17250,1,0,0:0:0:0:
192,192,17400,1,0,0:0:0:0:
64,192,17400,1,0,0:0:0:0:
320,192,17400,1,0,0:0:0:0:
448,192,17550,1,0,0:0:0:0:
192,192,17700,1,0,0:0:0:0:
320,192,17850,1,0,0:0:0:0:
448,192,18000,1,0,0:0:0:0:
64,192,18000,1,0,0:0:0:0:
192,192,18150,1,0,0:0:0:0:
320,192,18300,1,0,0:0:0:0:
448,192,18300,1,0,0:0:0:0:
64,192,18300,1,0,0:0:0:0:
192,192,18375,1,0,0:0:0:0:
448,192,18450,1,0,0:0:0:0:
64,192,18600,1,0,0:0:0:0:
192,192,18600,1,0,0:0:0:0:
320,192,18600,1,0,0:0:0:0:
64,192,18750,1,0,0:0:0:0:
448,192,18750,1,0,0:0:0:0:
192,192,18900,1,0,0:0:0:0:
320,192,19050,1,0,0:0:0:0:
64,192,19200,1,0,0:0:0:0:
448,192,19200,1,0,0:0:0:0:
320,192,19350,1,0,0:0:0:0:
192,192,19500,1,0,0:0:0:0:
64,192,19650,1,0,0:0:0:0:
192,192,19800,1,0,0:0:0:0:
448,192,19800,1,0,0:0:0:0:
320,192,19800,1,0,0:0:0:0:
192,192,20100,1,0,0:0:0:0:
64,192,20250,1,0,0:0:0:0:
320,192,20400,1,0,0:0:0:0:
448,192,20400,1,0,0:0:0:0:
192,192,20550,1,0,0:0:0:0:
64,192,20700,1,0,0:0:0:0:
448,192,20775,1,0,0:0:0:0:
320,192,20850,1,0,0:0:0:0:
64,192,21000,1,0,0:0:0:0:
448,192,21150,1,0,0:0:0:0:
320,192,21150,1,0,0:0:0:0:
192,192,21450,1,0,0:0:0:0:
320,192,21600,1,0,0:0:0:0:
448,192,21600,1,0,0:0:0:0:
64,192,21750,1,0,0:0:0:0:
448,192,21900,1,0,0:0:0:0:
192,192,22050,1,0,0:0:0:0:
64,192,22200,1,0,0:0:0:0:
320,192,22200,1,0,0:0:0:0:
448,192,22500,1,0,0:0:0:0:
64,192,22650,1,0,0:0:0:0:
192,192,22800,1,0,0:0:0:0:
320,192,22800,1,0,0:0:0:0:
448,192,22950,1,0,0:0:0:0:
192,192,23100,1,0,0:0:0:0:
64,192,23175,1,0,0:0:0:0:
320,192,23250,1,0,0:0:0:0:
448,192,23400,1,0,0:0:0:0:
320,192,23550,1,0,0:0:0:0:
64,192,23550,1,0,0:0:0:0:
192,192,23850,1,0,0:0:0:0:
320,192,24000,1,0,0:0:0:0:
64,192,24000,1,0,0:0:0:0:
448,192,24150,1,0,0:0:0:0:
192,192,24300,1,0,0:0:0:0:
64,192,24450,1,0,0:0:0:0:
448,192,24600,1,0,0:0:0:0:
192,192,24900,1,0,0:0:0:0:
64,192,25050,1,0,0:0:0:0:
192,192,25200,1,0,0:0:0:0:
448,192,25200,1,0,0:0:0:0:
320,192,25350,1,0,0:0:0:0:
448,192,25500,1,0,0:0:0:0:
64,192,25575,1,0,0:0:0:0:
320,192,25650,1,0,0:0:0:0:
64,192,25800,1,0,0:0:0:0:
320,192,25950,1,0,0:0:0:0:
448,192,25950,1,0,0:0:0:0:
64,192,26100,1,0,0:0:0:0:
448,192,26250,1,0,0:0:0:0:
64,192,26400,1,0,0:0:0:0:
320,192,26400,1,0,0:0:0:0:
448,192,26550,1,0,0:0:0:0:
192,192,26700,1,0,0:0:0:0:
64,192,26700,1,0,0:0:0:0:
320,192,26850,1,0,0:0:0:0:
448,192,27000,1,0,0:0:0:0:
64,192,27000,1,0,0:0:0:0:
192,192,27075,1,0,0:0:0:0:
320,192,27150,1,0,0:0:0:0:
448,192,27225,1,0,0:0:0:0:
320,192,27300,1,0,0:0:0:0:
192,192,27375,1,0,0:0:0:0:
64,192,27450,1,0,0:0:0:0:
448,192,27525,1,0,0:0:0:0:
320,192,27600,1,0,0:0:0:0:
192,192,27675,1,0,0:0:0:0:
64,192,27750,1,0,0:0:0:0:
448,192,27750,1,0,0:0:0:0:
320,192,27825,1,0,0:0:0:0:
192,192,27900,1,0,0:0:0:0:
64,192,27900,1,0,0:0:0:0:
320,192,27975,1,0,0:0:0:0:
448,192,27975,1,0,0:0:0:0:
192,192,28050,1,0,0:0:0:0:
64,192,28050,1,0,0:0:0:0:
448,192,28125,1,0,0:0:0:0:
320,192,28200,1,0,0:0:0:0:
64,192,28200,1,0,0:0:0:0:
448,192,28800,1,0,0:0:0:0:
192,192,28800,1,0,0:0:0:0:
192,192,28950,1,0,0:0:0:0:
320,192,28950,1,0,0:0:0:0:
448,192,29100,1,0,0:0:0:0:
320,192,29100,1,0,0:0:0:0:
64,192,29250,1,0,0:0:0:0:
320,192,29250,1,0,0:0:0:0:
448,192,29400,1,0,0:0:0:0:
64,192,29400,1,0,0:0:0:0:
320,192,29475,1,0,0:0:0:0:
192,192,29550,1,0,0:0:0:0:
64,192,29625,1,0,0:0:0:0:
320,192,29700,1,0,0:0:0:0:
448,192,29700,1,0,0:0:0:0:
192,192,29775,1,0,0:0:0:0:
448,192,29850,1,0,0:0:0:0:
64,192,29925,1,0,0:0:0:0:
192,192,30000,1,0,0:0:0:0:
320,192,30000,1,0,0:0:0:0:
448,192,30075,1,0,0:0:0:0:
64,192,30150,1,0,0:0:0:0:
192,192,30225,1,0,0:0:0:0:
448,192,30300,1,0,0:0:0:0:
320,192,30300,1,0,0:0:0:0:
64,192,30375,1,0,0:0:0:0:
192,192,30450,1,0,0:0:0:0:
320,192,30450,1,0,0:0:0:0:
448,192,30525,1,0,0:0:0:0:
64,192,30600,1,0,0:0:0:0:
192,192,30600,1,0,0:0:0:0:
320,192,30675,1,0,0:0:0:0:
192,192,30750,1,0,0:0:0:0:
448,192,30825,1,0,0:0:0:0:
64,192,30900,1,0,0:0:0:0:
320,192,30900,1,0,0:0:0:0:
192,192,30975,1,0,0:0:0:0:
448,192,31050,1,0,0:0:0:0:
320,192,31125,1,0,0:0:0:0:
64,192,31200,1,0,0:0:0:0:
192,192,31200,1,0,0:0:0:0:
320,192,31275,1,0,0:0:0:0:
448,192,31350,1,0,0:0:0:0:
64,192,31350,1,0,0:0:0:0:
192,192,31425,1,0,0:0:0:0:
320,192,31500,1,0,0:0:0:0:
448,192,31500,1,0,0:0:0:0:
192,192,31575,1,0,0:0:0:0:
64,192,31650,1,0,0:0:0:0:
320,192,31650,1,0,0:0:0:0:
448,192,31725,1,0,0:0:0:0:
192,192,31800,1,0,0:0:0:0:
320,192,31800,1,0,0:0:0:0:
64,192,31875,1,0,0:0:0:0:
320,192,31950,1,0,0:0:0:0:
448,192,32025,1,0,0:0:0:0:
192,192,32100,1,0,0:0:0:0:
64,192,32100,1,0,0:0:0:0:
320,192,32175,1,0,0:0:0:0:
448,192,32250,1,0,0:0:0:0:
192,192,32325,1,0,0:0:0:0:
320,192,32400,1,0,0:0:0:0:
448,192,32400,1,0,0:0:0:0:
64,192,32475,1,0,0:0:0:0:
192,192,32550,1,0,0:0:0:0:
320,192,32550,1,0,0:0:0:0:
448,192,32625,1,0,0:0:0:0:
64,192,32700,1,0,0:0:0:0:
192,192,32700,1,0,0:0:0:0:
320,192,32775,1,0,0:0:0:0:
448,192,32850,1,0,0:0:0:0:
64,192,32850,1,0,0:0:0:0:
192,192,32925,1,0,0:0:0:0:
320,192,33000,1,0,0:0:0:0:
448,192,33000,1,0,0:0:0:0:
192,192,33075,1,0,0:0:0:0:
320,192,33150,1,0,0:0:0:0:
64,192,33225,1,0,0:0:0:0:
448,192,33300,1,0,0:0:0:0:
192,192,33300,1,0,0:0:0:0:
320,192,33375,1,0,0:0:0:0:
192,192,33450,1,0,0:0:0:0:
64,192,33525,1,0,0:0:0:0:
320,192,33600,1,0,0:0:0:0:
448,192,33600,1,0,0:0:0:0:
64,192,33675,1,0,0:0:0:0:
192,192,33750,1,0,0:0:0:0:
320,192,33750,1,0,0:0:0:0:
448,192,33825,1,0,0:0:0:0:
64,192,33900,1,0,0:0:0:0:
192,192,33900,1,0,0:0:0:0:
320,192,33975,1,0,0:0:0:0:
192,192,34050,1,0,0:0:0:0:
448,192,34050,1,0,0:0:0:0:
64,192,34125,1,0,0:0:0:0:
448,192,34200,1,0,0:0:0:0:
320,192,34200,1,0,0:0:0:0:
192,192,34275,1,0,0:0:0:0:
448,192,34350,1,0,0:0:0:0:
192,192,34425,1,0,0:0:0:0:
64,192,34500,1,0,0:0:0:0:
320,192,34500,1,0,0:0:0:0:
448,192,34575,1,0,0:0:0:0:
192,192,34650,1,0,0:0:0:0:
320,192,34725,1,0,0:0:0:0:
448,192,34800,1,0,0:0:0:0:
64,192,34800,1,0,0:0:0:0:
320,192,34875,1,0,0:0:0:0:
192,192,34950,1,0,0:0:0:0:
64,192,35025,1,0,0:0:0:0:
448,192,35100,1,0,0:0:0:0:
320,192,35100,1,0,0:0:0:0:
192,192,35175,1,0,0:0:0:0:
320,192,35250,1,0,0:0:0:0:
448,192,35250,1,0,0:0:0:0:
192,192,35325,1,0,0:0:0:0:
64,192,35400,1,0,0:0:0:0:
448,192,35400,1,0,0:0:0:0:
320,192,35475,1,0,0:0:0:0:
192,192,35550,1,0,0:0:0:0:
64,192,35625,1,0,0:0:0:0:
448,192,35700,1,0,0:0:0:0:
320,192,35700,1,0,0:0:0:0:
192,192,35775,1,0,0:0:0:0:
64,192,35850,1,0,0:0:0:0:
320,192,35925,1,0,0:0:0:0:
192,192,36000,1,0,0:0:0:0:
64,192,36000,1,0,0:0:0:0:
448,192,36075,1,0,0:0:0:0:
320,192,36150,1,0,0:0:0:0:
192,192,36150,1,0,0:0:0:0:
64,192,36225,1,0,0:0:0:0:
192,192,36300,1,0,0:0:0:0:
448,192,36300,1,0,0:0:0:0:
320,192,36375,1,0,0:0:0:0:
64,192,36450,1,0,0:0:0:0:
192,192,36450,1,0,0:0:0:0:
448,192,36525,1,0,0:0:0:0:
320,192,36600,1,0,0:0:0:0:
192,192,36600,1,0,0:0:0:0:
64,192,36675,1,0,0:0:0:0:
448,192,36750,1,0,0:0:0:0:
320,192,36825,1,0,0:0:0:0:
64,192,36900,1,0,0:0:0:0:
192,192,36900,1,0,0:0:0:0:
320,192,36975,1,0,0:0:0:0:
448,192,37050,1,0,0:0:0:0:
64,192,37125,1,0,0:0:0:0:
192,192,37200,1,0,0:0:0:0:
320,192,37200,1,0,0:0:0:0:
448,192,37275,1,0,0:0:0:0:
320,192,37350,1,0,0:0:0:0:
192,192,37350,1,0,0:0:0:0:
64,192,37425,1,0,0:0:0:0:
448,192,37500,1,0,0:0:0:0:
320,192,37500,1,0,0:0:0:0:
192,192,37575,1,0,0:0:0:0:
320,192,37650,1,0,0:0:0:0:
448,192,37650,1,0,0:0:0:0:
64,192,37650,1,0,0:0:0:0:
448,192,37950,1,0,0:0:0:0:
320,192,37950,1,0,0:0:0:0:
64,192,37950,1,0,0:0:0:0:
448,192,38250,1,0,0:0:0:0:
320,192,38250,1,0,0:0:0:0:
64,192,38250,1,0,0:0:0:0:
64,192,38400,1,0,0:0:0:0:
192,192,38400,1,0,0:0:0:0:
192,192,38550,1,0,0:0:0:0:
320,192,38550,1,0,0:0:0:0:
448,192,38700,1,0,0:0:0:0:
320,192,38700,1,0,0:0:0:0:
64,192,38700,1,0,0:0:0:0:
192,192,38850,1,0,0:0:0:0:
448,192,38850,1,0,0:0:0:0:
320,192,39000,1,0,0:0:0:0:
64,192,39000,1,0,0:0:0:0:
448,192,39075,1,0,0:0:0:0:
192,192,39150,1,0,0:0:0:0:
320,192,39225,1,0,0:0:0:0:
448,192,39300,1,0,0:0:0:0:
64,192,39300,1,0,0:0:0:0:
192,192,39375,1,0,0:0:0:0:
320,192,39450,1,0,0:0:0:0:
192,192,39525,1,0,0:0:0:0:
448,192,39600,1,0,0:0:0:0:
64,192,39600,1,0,0:0:0:0:
320,192,39675,1,0,0:0:0:0:
192,192,39750,1,0,0:0:0:0:
64,192,39825,1,0,0:0:0:0:
320,192,39900,1,0,0:0:0:0:
192,192,39900,1,0,0:0:0:0:
448,192,39975,1,0,0:0:0:0:
192,192,40050,1,0,0:0:0:0:
64,192,40050,1,0,0:0:0:0:
320,192,40125,1,0,0:0:0:0:
448,192,40200,1,0,0:0:0:0:
192,192,40200,1,0,0:0:0:0:
64,192,40275,1,0,0:0:0:0:
320,192,40350,1,0,0:0:0:0:
64,192,40425,1,0,0:0:0:0:
448,192,40500,1,0,0:0:0:0:
192,192,40500,1,0,0:0:0:0:
320,192,40575,1,0,0:0:0:0:
192,192,40650,1,0,0:0:0:0:
64,192,40650,1,0,0:0:0:0:
320,192,40725,1,0,0:0:0:0:
448,192,40800,1,0,0:0:0:0:
64,192,40800,1,0,0:0:0:0:
192,192,40875,1,0,0:0:0:0:
448,192,40950,1,0,0:0:0:0:
64,192,41025,1,0,0:0:0:0:
192,192,41025,1,0,0:0:0:0:
448,192,41100,1,0,0:0:0:0:
320,192,41100,1,0,0:0:0:0:
64,192,41175,1,0,0:0:0:0:
448,192,41250,1,0,0:0:0:0:
192,192,41250,1,0,0:0:0:0:
320,192,41325,1,0,0:0:0:0:
64,192,41400,1,0,0:0:0:0:
192,192,41400,1,0,0:0:0:0:
448,192,41475,1,0,0:0:0:0:
64,192,41550,1,0,0:0:0:0:
192,192,41550,1,0,0:0:0:0:
320,192,41625,1,0,0:0:0:0:
448,192,41625,1,0,0:0:0:0:
64,192,41700,1,0,0:0:0:0:
192,192,41700,1,0,0:0:0:0:
320,192,41775,1,0,0:0:0:0:
192,192,41850,1,0,0:0:0:0:
64,192,41850,1,0,0:0:0:0:
448,192,41850,1,0,0:0:0:0:
192,192,42150,1,0,0:0:0:0:
320,192,42150,1,0,0:0:0:0:
448,192,42150,1,0,0:0:0:0:
64,192,42450,1,0,0:0:0:0:
320,192,42450,1,0,0:0:0:0:
448,192,42450,1,0,0:0:0:0:
192,192,42750,1,0,0:0:0:0:
448,192,42750,1,0,0:0:0:0:
64,192,42750,1,0,0:0:0:0:
192,192,42900,1,0,0:0:0:0:
448,192,42900,1,0,0:0:0:0:
64,192,42900,1,0,0:0:0:0:
192,192,43200,1,0,0:0:0:0:
64,192,43200,1,0,0:0:0:0:
448,192,43200,1,0,0:0:0:0:
192,192,43350,1,0,0:0:0:0:
320,192,43350,1,0,0:0:0:0:
448,192,43500,1,0,0:0:0:0:
320,192,43500,1,0,0:0:0:0:
64,192,43500,1,0,0:0:0:0:
192,192,43575,1,0,0:0:0:0:
448,192,43650,1,0,0:0:0:0:
320,192,43650,1,0,0:0:0:0:
192,192,43725,1,0,0:0:0:0:
64,192,43725,1,0,0:0:0:0:
320,192,43800,1,0,0:0:0:0:
448,192,43800,1,0,0:0:0:0:
192,192,43875,1,0,0:0:0:0:
64,192,43950,1,0,0:0:0:0:
320,192,44025,1,0,0:0:0:0:
448,192,44100,1,0,0:0:0:0:
192,192,44100,1,0,0:0:0:0:
64,192,44175,1,0,0:0:0:0:
320,192,44250,1,0,0:0:0:0:
192,192,44325,1,0,0:0:0:0:
448,192,44400,1,0,0:0:0:0:
320,192,44400,1,0,0:0:0:0:
64,192,44475,1,0,0:0:0:0:
192,192,44550,1,0,0:0:0:0:
320,192,44625,1,0,0:0:0:0:
448,192,44700,1,0,0:0:0:0:
64,192,44700,1,0,0:0:0:0:
192,192,44775,1,0,0:0:0:0:
320,192,44850,1,0,0:0:0:0:
64,192,44850,1,0,0:0:0:0:
448,192,44925,1,0,0:0:0:0:
64,192,45000,1,0,0:0:0:0:
192,192,45000,1,0,0:0:0:0:
448,192,45075,1,0,0:0:0:0:
320,192,45150,1,0,0:0:0:0:
192,192,45225,1,0,0:0:0:0:
64,192,45300,1,0,0:0:0:0:
320,192,45300,1,0,0:0:0:0:
448,192,45375,1,0,0:0:0:0:
64,192,45450,1,0,0:0:0:0:
192,192,45525,1,0,0:0:0:0:
320,192,45600,1,0,0:0:0:0:
448,192,45600,1,0,0:0:0:0:
64,192,45675,1,0,0:0:0:0:
192,192,45750,1,0,0:0:0:0:
320,192,45750,1,0,0:0:0:0:
448,192,45825,1,0,0:0:0:0:
64,192,45900,1,0,0:0:0:0:
192,192,45900,1,0,0:0:0:0:
448,192,45975,1,0,0:0:0:0:
320,192,46050,1,0,0:0:0:0:
192,192,46050,1,0,0:0:0:0:
64,192,46125,1,0,0:0:0:0:
320,192,46200,1,0,0:0:0:0:
448,192,46200,1,0,0:0:0:0:
192,192,46275,1,0,0:0:0:0:
448,192,46350,1,0,0:0:0:0:
64,192,46350,1,0,0:0:0:0:
320,192,46425,1,0,0:0:0:0:
192,192,46500,1,0,0:0:0:0:
64,192,46500,1,0,0:0:0:0:
448,192,46575,1,0,0:0:0:0:
320,192,46650,1,0,0:0:0:0:
192,192,46650,1,0,0:0:0:0:
64,192,46725,1,0,0:0:0:0:
448,192,46800,1,0,0:0:0:0:
192,192,46800,1,0,0:0:0:0:
320,192,46875,1,0,0:0:0:0:
64,192,46950,1,0,0:0:0:0:
192,192,46950,1,0,0:0:0:0:
448,192,47025,1,0,0:0:0:0:
320,192,47100,1,0,0:0:0:0:
64,192,47100,1,0,0:0:0:0:
192,192,47175,1,0,0:0:0:0:
64,192,47250,1,0,0:0:0:0:
448,192,47250,1,0,0:0:0:0:
320,192,47325,1,0,0:0:0:0:
64,192,47400,1,0,0:0:0:0:
192,192,47400,1,0,0:0:0:0:
448,192,47475,1,0,0:0:0:0:
320,192,47475,1,0,0:0:0:0:
192,192,47550,1,0,0:0:0:0:
64,192,47550,1,0,0:0:0:0:
320,192,47625,1,0,0:0:0:0:
448,192,47625,1,0,0:0:0:0:
192,192,47700,1,0,0:0:0:0:
64,192,47700,1,0,0:0:0:0:
448,192,47775,1,0,0:0:0:0:
320,192,47775,1,0,0:0:0:0:
192,192,47850,1,0,0:0:0:0:
64,192,47850,1,0,0:0:0:0:
320,192,47925,1,0,0:0:0:0:
448,192,48000,1,0,0:0:0:0:
64,192,48000,1,0,0:0:0:0:
192,192,48300,1,0,0:0:0:0:
320,192,48300,1,0,0:0:0:0:
448,192,48300,1,0,0:0:0:0:
64,192,48600,1,0,0:0:0:0:
192,192,48600,1,0,0:0:0:0:
448,192,48750,1,0,0:0:0:0:
192,192,48900,1,0,0:0:0:0:
320,192,48900,1,0,0:0:0:0:
64,192,49050,1,0,0:0:0:0:
448,192,49200,1,0,0:0:0:0:
320,192,49200,1,0,0:0:0:0:
192,192,49350,1,0,0:0:0:0:
64,192,49500,1,0,0:0:0:0:
448,192,49500,1,0,0:0:0:0:
320,192,49650,1,0,0:0:0:0:
192,192,49800,1,0,0:0:0:0:
64,192,49800,1,0,0:0:0:0:
192,192,49950,1,0,0:0:0:0:
320,192,49950,1,0,0:0:0:0:
448,192,49950,1,0,0:0:0:0:
192,192,50100,1,0,0:0:0:0:
64,192,50100,1,0,0:0:0:0:
448,192,50250,1,0,0:0:0:0:
320,192,50400,1,0,0:0:0:0:
192,192,50400,1,0,0:0:0:0:
64,192,50550,1,0,0:0:0:0:
448,192,50700,1,0,0:0:0:0:
192,192,50700,1,0,0:0:0:0:
320,192,50850,1,0,0:0:0:0:
192,192,51000,1,0,0:0:0:0:
64,192,51000,1,0,0:0:0:0:
448,192,51150,1,0,0:0:0:0:
64,192,51300,1,0,0:0:0:0:
320,192,51300,1,0,0:0:0:0:
192,192,51450,1,0,0:0:0:0:
448,192,51600,1,0,0:0:0:0:
320,192,51600,1,0,0:0:0:0:
64,192,51750,1,0,0:0:0:0:
448,192,51900,1,0,0:0:0:0:
192,192,51900,1,0,0:0:0:0:
320,192,52050,1,0,0:0:0:0:
192,192,52125,1,0,0:0:0:0:
448,192,52200,1,0,0:0:0:0:
64,192,52200,1,0,0:0:0:0:
320,192,52350,1,0,0:0:0:0:
64,192,52500,1,0,0:0:0:0:
192,192,52500,1,0,0:0:0:0:
448,192,52650,1,0,0:0:0:0:
320,192,52650,1,0,0:0:0:0:
64,192,52800,1,0,0:0:0:0:
320,192,52950,1,0,0:0:0:0:
448,192,52950,1,0,0:0:0:0:
448,192,53100,1,0,0:0:0:0:
192,192,53100,1,0,0:0:0:0:
320,192,53250,1,0,0:0:0:0:
64,192,53250,1,0,0:0:0:0:
192,192,53400,1,0,0:0:0:0:
448,192,53400,1,0,0:0:0:0:
320,192,53550,1,0,0:0:0:0:
192,192,53700,1,0,0:0:0:0:
64,192,53700,1,0,0:0:0:0:
448,192,53850,1,0,0:0:0:0:
320,192,53850,1,0,0:0:0:0:
64,192,54000,1,0,0:0:0:0:
192,192,54150,1,0,0:0:0:0:
448,192,54300,1,0,0:0:0:0:
320,192,54300,1,0,0:0:0:0:
192,192,54450,1,0,0:0:0:0:
448,192,54600,1,0,0:0:0:0:
64,192,54600,1,0,0:0:0:0:
448,192,54750,1,0,0:0:0:0:
320,192,54750,1,0,0:0:0:0:
192,192,54750,1,0,0:0:0:0:
64,192,54900,1,0,0:0:0:0:
448,192,54900,1,0,0:0:0:0:
320,192,55050,1,0,0:0:0:0:
192,192,55200,1,0,0:0:0:0:
64,192,55200,1,0,0:0:0:0:
448,192,55350,1,0,0:0:0:0:
320,192,55500,1,0,0:0:0:0:
192,192,55500,1,0,0:0:0:0:
448,192,55650,1,0,0:0:0:0:
64,192,55800,1,0,0:0:0:0:
320,192,55800,1,0,0:0:0:0:
192,192,55950,1,0,0:0:0:0:
448,192,56100,1,0,0:0:0:0:
320,192,56100,1,0,0:0:0:0:
64,192,56250,1,0,0:0:0:0:
448,192,56400,1,0,0:0:0:0:
192,192,56400,1,0,0:0:0:0:
192,192,56625,1,0,0:0:0:0:
320,192,56625,1,0,0:0:0:0:
320,192,56850,1,0,0:0:0:0:
64,192,56850,1,0,0:0:0:0:
192,192,57000,1,0,0:0:0:0:
64,192,57000,1,0,0:0:0:0:
448,192,57150,1,0,0:0:0:0:
192,192,57300,1,0,0:0:0:0:
320,192,57300,1,0,0:0:0:0:
64,192,57450,1,0,0:0:0:0:
448,192,57600,1,0,0:0:0:0:
192,192,57600,1,0,0:0:0:0:
320,192,57750,1,0,0:0:0:0:
448,192,57900,1,0,0:0:0:0:
64,192,57900,1,0,0:0:0:0:
192,192,58050,1,0,0:0:0:0:
320,192,58200,1,0,0:0:0:0:
64,192,58200,1,0,0:0:0:0:
448,192,58350,1,0,0:0:0:0:
192,192,58500,1,0,0:0:0:0:
64,192,58500,1,0,0:0:0:0:
320,192,58575,1,0,0:0:0:0:
448,192,58650,1,0,0:0:0:0:
64,192,58650,1,0,0:0:0:0:
320,192,58800,1,0,0:0:0:0:
192,192,58800,1,0,0:0:0:0:
64,192,58950,1,0,0:0:0:0:
448,192,59100,1,0,0:0:0:0:
320,192,59100,1,0,0:0:0:0:
64,192,59175,1,0,0:0:0:0:
192,192,59250,1,0,0:0:0:0:
448,192,59400,1,0,0:0:0:0:
64,192,59400,1,0,0:0:0:0:
192,192,59550,1,0,0:0:0:0:
320,192,59550,1,0,0:0:0:0:
448,192,59550,1,0,0:0:0:0:
192,192,59700,1,0,0:0:0:0:
64,192,59700,1,0,0:0:0:0:
448,192,59775,1,0,0:0:0:0:
320,192,59850,1,0,0:0:0:0:
64,192,60000,1,0,0:0:0:0:
448,192,60000,1,0,0:0:0:0:
192,192,60150,1,0,0:0:0:0:
320,192,60300,1,0,0:0:0:0:
64,192,60300,1,0,0:0:0:0:
192,192,60375,1,0,0:0:0:0:
448,192,60450,1,0,0:0:0:0:
320,192,60600,1,0,0:0:0:0:
192,192,60600,1,0,0:0:0:0:
64,192,60750,1,0,0:0:0:0:
448,192,60900,1,0,0:0:0:0:
192,192,60900,1,0,0:0:0:0:
320,192,60975,1,0,0:0:0:0:
64,192,61050,1,0,0:0:0:0:
320,192,61200,1,0,0:0:0:0:
192,192,61200,1,0,0:0:0:0:
448,192,61350,1,0,0:0:0:0:
320,192,61500,1,0,0:0:0:0:
192,192,61500,1,0,0:0:0:0:
448,192,61650,1,0,0:0:0:0:
320,192,61725,1,0,0:0:0:0:
192,192,61800,1,0,0:0:0:0:
64,192,61800,1,0,0:0:0:0:
320,192,61950,1,0,0:0:0:0:
64,192,62100,1,0,0:0:0:0:
192,192,62100,1,0,0:0:0:0:
320,192,62175,1,0,0:0:0:0:
448,192,62250,1,0,0:0:0:0:
192,192,62250,1,0,0:0:0:0:
64,192,62400,1,0,0:0:0:0:
448,192,62550,1,0,0:0:0:0:
320,192,62550,1,0,0:0:0:0:
320,192,62700,1,0,0:0:0:0:
64,192,62700,1,0,0:0:0:0:
192,192,62775,1,0,0:0:0:0:
320,192,62850,1,0,0:0:0:0:
448,192,62850,1,0,0:0:0:0:
192,192,63000,1,0,0:0:0:0:
64,192,63000,1,0,0:0:0:0:
448,192,63150,1,0,0:0:0:0:
320,192,63300,1,0,0:0:0:0:
64,192,63300,1,0,0:0:0:0:
192,192,63375,1,0,0:0:0:0:
448,192,63450,1,0,0:0:0:0:
320,192,63450,1,0,0:0:0:0:
192,192,63600,1,0,0:0:0:0:
64,192,63750,1,0,0:0:0:0:
448,192,63900,1,0,0:0:0:0:
320,192,63900,1,0,0:0:0:0:
192,192,63975,1,0,0:0:0:0:
64,192,64050,1,0,0:0:0:0:
192,192,64200,1,0,0:0:0:0:
448,192,64200,1,0,0:0:0:0:
192,192,64350,1,0,0:0:0:0:
320,192,64350,1,0,0:0:0:0:
64,192,64350,1,0,0:0:0:0:
192,192,64500,1,0,0:0:0:0:
448,192,64500,1,0,0:0:0:0:
320,192,64575,1,0,0:0:0:0:
64,192,64650,1,0,0:0:0:0:
320,192,64800,1,0,0:0:0:0:
448,192,64800,1,0,0:0:0:0:
192,192,64950,1,0,0:0:0:0:
64,192,65100,1,0,0:0:0:0:
448,192,65100,1,0,0:0:0:0:
192,192,65175,1,0,0:0:0:0:
320,192,65250,1,0,0:0:0:0:
448,192,65400,1,0,0:0:0:0:
192,192,65400,1,0,0:0:0:0:
64,192,65550,1,0,0:0:0:0:
448,192,65700,1,0,0:0:0:0:
192,192,65700,1,0,0:0:0:0:
320,192,65775,1,0,0:0:0:0:
64,192,65850,1,0,0:0:0:0:
320,192,66000,1,0,0:0:0:0:
448,192,66000,1,0,0:0:0:0:
192,192,66150,1,0,0:0:0:0:
64,192,66225,1,0,0:0:0:0:
448,192,66225,1,0,0:0:0:0:
320,192,66300,1,0,0:0:0:0:
64,192,66450,1,0,0:0:0:0:
448,192,66450,1,0,0:0:0:0:
64,192,66600,1,0,0:0:0:0:
192,192,66600,1,0,0:0:0:0:
448,192,66750,1,0,0:0:0:0:
320,192,66750,1,0,0:0:0:0:
64,192,66900,1,0,0:0:0:0:
192,192,66900,1,0,0:0:0:0:
320,192,66975,1,0,0:0:0:0:
192,192,67050,1,0,0:0:0:0:
64,192,67050,1,0,0:0:0:0:
320,192,67200,1,0,0:0:0:0:
448,192,67200,1,0,0:0:0:0:
320,192,67350,1,0,0:0:0:0:
64,192,67350,1,0,0:0:0:0:
192,192,67500,1,0,0:0:0:0:
64,192,67500,1,0,0:0:0:0:
320,192,67575,1,0,0:0:0:0:
448,192,67650,1,0,0:0:0:0:
192,192,67650,1,0,0:0:0:0:
448,192,67800,1,0,0:0:0:0:
64,192,67800,1,0,0:0:0:0:
320,192,67800,1,0,0:0:0:0:
448,192,67950,1,0,0:0:0:0:
64,192,67950,1,0,0:0:0:0:
192,192,68100,1,0,0:0:0:0:
64,192,68250,1,0,0:0:0:0:
320,192,68250,1,0,0:0:0:0:
448,192,68250,1,0,0:0:0:0:
192,192,68550,1,0,0:0:0:0:
64,192,68700,1,0,0:0:0:0:
448,192,68700,1,0,0:0:0:0:
320,192,68700,1,0,0:0:0:0:
448,192,68850,1,0,0:0:0:0:
64,192,68850,1,0,0:0:0:0:
192,192,69000,1,0,0:0:0:0:
448,192,69150,1,0,0:0:0:0:
320,192,69150,1,0,0:0:0:0:
64,192,69150,1,0,0:0:0:0:
192,192,69450,1,0,0:0:0:0:
448,192,69600,1,0,0:0:0:0:
320,192,69600,1,0,0:0:0:0:
64,192,69600,1,0,0:0:0:0:
64,192,69900,1,0,0:0:0:0:
320,192,69900,1,0,0:0:0:0:
192,192,69900,1,0,0:0:0:0:
320,192,70200,1,0,0:0:0:0:
448,192,70200,1,0,0:0:0:0:
64,192,70200,1,0,0:0:0:0:
192,192,70350,1,0,0:0:0:0:
64,192,70500,1,0,0:0:0:0:
448,192,70500,1,0,0:0:0:0:
320,192,70650,1,0,0:0:0:0:
448,192,70800,1,0,0:0:0:0:
64,192,70800,1,0,0:0:0:0:
192,192,70800,1,0,0:0:0:0:
320,192,70950,1,0,0:0:0:0:
448,192,71100,1,0,0:0:0:0:
192,192,71100,1,0,0:0:0:0:
64,192,71175,1,0,0:0:0:0:
320,192,71250,1,0,0:0:0:0:
64,192,71400,1,0,0:0:0:0:
448,192,71400,1,0,0:0:0:0:
320,192,71550,1,0,0:0:0:0:
192,192,71550,1,0,0:0:0:0:
64,192,71700,1,0,0:0:0:0:
320,192,71850,1,0,0:0:0:0:
448,192,71850,1,0,0:0:0:0:
192,192,72000,1,0,0:0:0:0:
64,192,72000,1,0,0:0:0:0:
448,192,72150,1,0,0:0:0:0:
320,192,72150,1,0,0:0:0:0:
192,192,72300,1,0,0:0:0:0:
64,192,72300,1,0,0:0:0:0:
448,192,72450,1,0,0:0:0:0:
64,192,72600,1,0,0:0:0:0:
320,192,72600,1,0,0:0:0:0:
192,192,72600,1,0,0:0:0:0:
64,192,72750,1,0,0:0:0:0:
192,192,72750,1,0,0:0:0:0:
448,192,72900,1,0,0:0:0:0:
320,192,73050,1,0,0:0:0:0:
192,192,73050,1,0,0:0:0:0:
64,192,73050,1,0,0:0:0:0:
448,192,73350,1,0,0:0:0:0:
320,192,73500,1,0,0:0:0:0:
192,192,73500,1,0,0:0:0:0:
64,192,73500,1,0,0:0:0:0:
192,192,73650,1,0,0:0:0:0:
64,192,73650,1,0,0:0:0:0:
448,192,73800,1,0,0:0:0:0:
320,192,73950,1,0,0:0:0:0:
64,192,73950,1,0,0:0:0:0:
192,192,73950,1,0,0:0:0:0:
448,192,74250,1,0,0:0:0:0:
320,192,74400,1,0,0:0:0:0:
192,192,74400,1,0,0:0:0:0:
64,192,74400,1,0,0:0:0:0:
320,192,74700,1,0,0:0:0:0:
448,192,74700,1,0,0:0:0:0:
64,192,74700,1,0,0:0:0:0:
192,192,75000,1,0,0:0:0:0:
448,192,75000,1,0,0:0:0:0:
320,192,75000,1,0,0:0:0:0:
64,192,75150,1,0,0:0:0:0:
448,192,75300,1,0,0:0:0:0:
192,192,75300,1,0,0:0:0:0:
320,192,75450,1,0,0:0:0:0:
192,192,75600,1,0,0:0:0:0:
64,192,75600,1,0,0:0:0:0:
448,192,75600,1,0,0:0:0:0:
320,192,75750,1,0,0:0:0:0:
64,192,75900,1,0,0:0:0:0:
448,192,75900,1,0,0:0:0:0:
192,192,75975,1,0,0:0:0:0:
320,192,76050,1,0,0:0:0:0:
448,192,76200,1,0,0:0:0:0:
192,192,76200,1,0,0:0:0:0:
64,192,76350,1,0,0:0:0:0:
320,192,76350,1,0,0:0:0:0:
192,192,76500,1,0,0:0:0:0:
64,192,76650,1,0,0:0:0:0:
320,192,76650,1,0,0:0:0:0:
192,192,76800,1,0,0:0:0:0:
448,192,76800,1,0,0:0:0:0:
448,192,76950,1,0,0:0:0:0:
64,192,76950,1,0,0:0:0:0:
320,192,77100,1,0,0:0:0:0:
192,192,77100,1,0,0:0:0:0:
64,192,77250,1,0,0:0:0:0:
448,192,77400,1,0,0:0:0:0:
320,192,77400,1,0,0:0:0:0:
192,192,77475,1,0,0:0:0:0:
448,192,77550,1,0,0:0:0:0:
320,192,77550,1,0,0:0:0:0:
192,192,77625,1,0,0:0:0:0:
320,192,77700,1,0,0:0:0:0:
64,192,77700,1,0,0:0:0:0:
448,192,77775,1,0,0:0:0:0:
192,192,77850,1,0,0:0:0:0:
64,192,77850,1,0,0:0:0:0:
320,192,77925,1,0,0:0:0:0:
192,192,78000,1,0,0:0:0:0:
320,192,78075,1,0,0:0:0:0:
64,192,78150,1,0,0:0:0:0:
192,192,78150,1,0,0:0:0:0:
448,192,78225,1,0,0:0:0:0:
320,192,78300,1,0,0:0:0:0:
192,192,78300,1,0,0:0:0:0:
64,192,78375,1,0,0:0:0:0:
448,192,78450,1,0,0:0:0:0:
64,192,78525,1,0,0:0:0:0:
320,192,78600,1,0,0:0:0:0:
448,192,78600,1,0,0:0:0:0:
192,192,78675,1,0,0:0:0:0:
448,192,78750,1,0,0:0:0:0:
64,192,78750,1,0,0:0:0:0:
320,192,78825,1,0,0:0:0:0:
64,192,78900,1,0,0:0:0:0:
448,192,78975,1,0,0:0:0:0:
192,192,79050,1,0,0:0:0:0:
320,192,79050,1,0,0:0:0:0:
64,192,79125,1,0,0:0:0:0:
448,192,79200,1,0,0:0:0:0:
320,192,79200,1,0,0:0:0:0:
192,192,79275,1,0,0:0:0:0:
320,192,79350,1,0,0:0:0:0:
448,192,79425,1,0,0:0:0:0:
64,192,79500,1,0,0:0:0:0:
192,192,79500,1,0,0:0:0:0:
448,192,79575,1,0,0:0:0:0:
320,192,79650,1,0,0:0:0:0:
64,192,79725,1,0,0:0:0:0:
320,192,79800,1,0,0:0:0:0:
192,192,79800,1,0,0:0:0:0:
64,192,79875,1,0,0:0:0:0:
448,192,79950,1,0,0:0:0:0:
192,192,80025,1,0,0:0:0:0:
320,192,80100,1,0,0:0:0:0:
448,192,80100,1,0,0:0:0:0:
64,192,80175,1,0,0:0:0:0:
320,192,80250,1,0,0:0:0:0:
64,192,80325,1,0,0:0:0:0:
448,192,80400,1,0,0:0:0:0:
192,192,80400,1,0,0:0:0:0:
320,192,80475,1,0,0:0:0:0:
64,192,80550,1,0,0:0:0:0:
192,192,80550,1,0,0:0:0:0:
320,192,80625,1,0,0:0:0:0:
64,192,80700,1,0,0:0:0:0:
448,192,80700,1,0,0:0:0:0:
192,192,80775,1,0,0:0:0:0:
320,192,80850,1,0,0:0:0:0:
448,192,80850,1,0,0:0:0:0:
192,192,80925,1,0,0:0:0:0:
64,192,81000,1,0,0:0:0:0:
192,192,81075,1,0,0:0:0:0:
448,192,81150,1,0,0:0:0:0:
320,192,81150,1,0,0:0:0:0:
64,192,81225,1,0,0:0:0:0:
320,192,81300,1,0,0:0:0:0:
448,192,81375,1,0,0:0:0:0:
192,192,81450,1,0,0:0:0:0:
64,192,81450,1,0,0:0:0:0:
320,192,81525,1,0,0:0:0:0:
64,192,81600,1,0,0:0:0:0:
320,192,81675,1,0,0:0:0:0:
64,192,81750,1,0,0:0:0:0:
448,192,81750,1,0,0:0:0:0:
192,192,81825,1,0,0:0:0:0:
448,192,81900,1,0,0:0:0:0:
320,192,81900,1,0,0:0:0:0:
64,192,81975,1,0,0:0:0:0:
320,192,82050,1,0,0:0:0:0:
192,192,82125,1,0,0:0:0:0:
448,192,82200,1,0,0:0:0:0:
320,192,82200,1,0,0:0:0:0:
192,192,82275,1,0,0:0:0:0:
320,192,82350,1,0,0:0:0:0:
448,192,82350,1,0,0:0:0:0:
64,192,82425,1,0,0:0:0:0:
192,192,82500,1,0,0:0:0:0:
448,192,82500,1,0,0:0:0:0:
320,192,82575,1,0,0:0:0:0:
64,192,82650,1,0,0:0:0:0:
192,192,82650,1,0,0:0:0:0:
448,192,82725,1,0,0:0:0:0:
64,192,82800,1,0,0:0:0:0:
320,192,82800,1,0,0:0:0:0:
192,192,82875,1,0,0:0:0:0:
448,192,82950,1,0,0:0:0:0:
320,192,82950,1,0,0:0:0:0:
64,192,83025,1,0,0:0:0:0:
448,192,83100,1,0,0:0:0:0:
320,192,83100,1,0,0:0:0:0:
192,192,83175,1,0,0:0:0:0:
448,192,83250,1,0,0:0:0:0:
64,192,83250,1,0,0:0:0:0:
320,192,83325,1,0,0:0:0:0:
192,192,83400,1,0,0:0:0:0:
64,192,83400,1,0,0:0:0:0:
448,192,83475,1,0,0:0:0:0:
320,192,83550,1,0,0:0:0:0:
192,192,83550,1,0,0:0:0:0:
64,192,83625,1,0,0:0:0:0:
448,192,83700,1,0,0:0:0:0:
320,192,83700,1,0,0:0:0:0:
192,192,83775,1,0,0:0:0:0:
64,192,83850,1,0,0:0:0:0:
448,192,83850,1,0,0:0:0:0:
320,192,83925,1,0,0:0:0:0:
192,192,84000,1,0,0:0:0:0:
64,192,84000,1,0,0:0:0:0:
320,192,84075,1,0,0:0:0:0:
448,192,84150,1,0,0:0:0:0:
192,192,84150,1,0,0:0:0:0:
64,192,84225,1,0,0:0:0:0:
192,192,84300,1,0,0:0:0:0:
448,192,84300,1,0,0:0:0:0:
320,192,84375,1,0,0:0:0:0:
64,192,84450,1,0,0:0:0:0:
192,192,84450,1,0,0:0:0:0:
448,192,84525,1,0,0:0:0:0:
192,192,84600,1,0,0:0:0:0:
64,192,84600,1,0,0:0:0:0:
320,192,84675,1,0,0:0:0:0:
448,192,84675,1,0,0:0:0:0:
192,192,84750,1,0,0:0:0:0:
64,192,84750,1,0,0:0:0:0:
448,192,84825,1,0,0:0:0:0:
64,192,84900,1,0,0:0:0:0:
320,192,84900,1,0,0:0:0:0:
448,192,84975,1,0,0:0:0:0:
192,192,84975,1,0,0:0:0:0:
320,192,85050,1,0,0:0:0:0:
64,192,85050,1,0,0:0:0:0:
192,192,85125,1,0,0:0:0:0:
448,192,85200,1,0,0:0:0:0:
320,192,85200,1,0,0:0:0:0:
192,192,85275,1,0,0:0:0:0:
64,192,85275,1,0,0:0:0:0:
320,192,85350,1,0,0:0:0:0:
448,192,85350,1,0,0:0:0:0:
64,192,85425,1,0,0:0:0:0:
192,192,85500,1,0,0:0:0:0:
320,192,85500,1,0,0:0:0:0:
448,192,85575,1,0,0:0:0:0:
64,192,85575,1,0,0:0:0:0:
192,192,85650,1,0,0:0:0:0:
320,192,85650,1,0,0:0:0:0:
448,192,85725,1,0,0:0:0:0:
192,192,85800,1,0,0:0:0:0:
64,192,85800,1,0,0:0:0:0:
320,192,85875,1,0,0:0:0:0:
448,192,85875,1,0,0:0:0:0:
192,192,85950,1,0,0:0:0:0:
64,192,85950,1,0,0:0:0:0:
320,192,86025,1,0,0:0:0:0:
448,192,86025,1,0,0:0:0:0:
64,192,86100,1,0,0:0:0:0:
192,192,86100,1,0,0:0:0:0:
448,192,86175,1,0,0:0:0:0:
320,192,86175,1,0,0:0:0:0:
192,192,86250,1,0,0:0:0:0:
64,192,86250,1,0,0:0:0:0:
320,192,86325,1,0,0:0:0:0:
448,192,86325,1,0,0:0:0:0:
192,192,86400,1,0,0:0:0:0:
64,192,86400,1,0,0:0:0:0:
320,192,86475,1,0,0:0:0:0:
448,192,86475,1,0,0:0:0:0:
64,192,86550,1,0,0:0:0:0:
192,192,86550,1,0,0:0:0:0:
448,192,86625,1,0,0:0:0:0:
320,192,86625,1,0,0:0:0:0:
64,192,86700,1,0,0:0:0:0:
192,192,86700,1,0,0:0:0:0:
448,192,86775,1,0,0:0:0:0:
320,192,86775,1,0,0:0:0:0:
192,192,86850,1,0,0:0:0:0:
64,192,86850,1,0,0:0:0:0:
320,192,86925,1,0,0:0:0:0:
448,192,86925,1,0,0:0:0:0:
192,192,87000,128,0,88200:0:0:0:0:
64,192,87600,1,0,0:0:0:0:
320,192,87750,1,0,0:0:0:0:
448,192,87900,1,0,0:0:0:0:
320,192,88050,1,0,0:0:0:0:
64,192,88200,1,0,0:0:0:0:
448,192,88200,1,0,0:0:0:0:
320,192,88200,1,0,0:0:0:0:
192,192,88350,1,0,0:0:0:0:
64,192,88500,1,0,0:0:0:0:
192,192,88650,1,0,0:0:0:0:
448,192,88800,1,0,0:0:0:0:
320,192,88800,1,0,0:0:0:0:
64,192,88950,1,0,0:0:0:0:
448,192,89100,1,0,0:0:0:0:
192,192,89100,1,0,0:0:0:0:
64,192,89100,1,0,0:0:0:0:
320,192,89175,1,0,0:0:0:0:
192,192,89250,1,0,0:0:0:0:
448,192,89325,1,0,0:0:0:0:
320,192,89400,1,0,0:0:0:0:
192,192,89400,1,0,0:0:0:0:
64,192,89400,1,0,0:0:0:0:
64,192,89550,1,0,0:0:0:0:
320,192,89700,1,0,0:0:0:0:
192,192,89850,1,0,0:0:0:0:
448,192,90000,1,0,0:0:0:0:
320,192,90000,1,0,0:0:0:0:
64,192,90150,1,0,0:0:0:0:
320,192,90150,1,0,0:0:0:0:
192,192,90300,1,0,0:0:0:0:
448,192,90300,1,0,0:0:0:0:
64,192,90300,1,0,0:0:0:0:
320,192,90450,1,0,0:0:0:0:
448,192,90600,1,0,0:0:0:0:
192,192,90600,1,0,0:0:0:0:
320,192,90600,1,0,0:0:0:0:
64,192,90750,1,0,0:0:0:0:
320,192,90900,1,0,0:0:0:0:
192,192,91050,1,0,0:0:0:0:
448,192,91200,1,0,0:0:0:0:
320,192,91200,1,0,0:0:0:0:
64,192,91350,1,0,0:0:0:0:
192,192,91350,1,0,0:0:0:0:
192,192,91500,1,0,0:0:0:0:
320,192,91500,1,0,0:0:0:0:
448,192,91500,1,0,0:0:0:0:
64,192,91575,1,0,0:0:0:0:
320,192,91650,1,0,0:0:0:0:
192,192,91725,1,0,0:0:0:0:
64,192,91800,1,0,0:0:0:0:
320,192,91800,1,0,0:0:0:0:
448,192,91800,1,0,0:0:0:0:
192,192,91950,1,0,0:0:0:0:
64,192,92100,1,0,0:0:0:0:
448,192,92250,1,0,0:0:0:0:
320,192,92400,1,0,0:0:0:0:
192,192,92400,1,0,0:0:0:0:
64,192,92550,1,0,0:0:0:0:
448,192,92550,1,0,0:0:0:0:
448,192,92700,1,0,0:0:0:0:
320,192,92700,1,0,0:0:0:0:
64,192,92700,1,0,0:0:0:0:
192,192,92850,1,0,0:0:0:0:
448,192,93000,1,0,0:0:0:0:
192,192,93000,1,0,0:0:0:0:
320,192,93000,1,0,0:0:0:0:
64,192,93150,1,0,0:0:0:0:
448,192,93300,1,0,0:0:0:0:
192,192,93450,1,0,0:0:0:0:
320,192,93600,1,0,0:0:0:0:
448,192,93600,1,0,0:0:0:0:
64,192,93750,1,0,0:0:0:0:
192,192,93900,1,0,0:0:0:0:
320,192,93900,1,0,0:0:0:0:
448,192,93900,1,0,0:0:0:0:
64,192,93975,1,0,0:0:0:0:
448,192,94050,1,0,0:0:0:0:
320,192,94125,1,0,0:0:0:0:
192,192,94200,1,0,0:0:0:0:
64,192,94200,1,0,0:0:0:0:
448,192,94200,1,0,0:0:0:0:
320,192,94350,1,0,0:0:0:0:
64,192,94500,1,0,0:0:0:0:
448,192,94650,1,0,0:0:0:0:
320,192,94800,1,0,0:0:0:0:
192,192,94800,1,0,0:0:0:0:
64,192,94950,1,0,0:0:0:0:
320,192,94950,1,0,0:0:0:0:
448,192,95100,1,0,0:0:0:0:
64,192,95100,1,0,0:0:0:0:
320,192,95100,1,0,0:0:0:0:
192,192,95250,1,0,0:0:0:0:
192,192,95400,1,0,0:0:0:0:
320,192,95400,1,0,0:0:0:0:
448,192,95400,1,0,0:0:0:0:
64,192,95550,1,0,0:0:0:0:
320,192,95700,1,0,0:0:0:0:
192,192,95850,1,0,0:0:0:0:
448,192,96000,1,0,0:0:0:0:
320,192,96000,1,0,0:0:0:0:
64,192,96150,1,0,0:0:0:0:
320,192,96300,1,0,0:0:0:0:
448,192,96300,1,0,0:0:0:0:
192,192,96300,1,0,0:0:0:0:
64,192,96375,1,0,0:0:0:0:
320,192,96450,1,0,0:0:0:0:
192,192,96525,1,0,0:0:0:0:
64,192,96600,1,0,0:0:0:0:
320,192,96600,1,0,0:0:0:0:
448,192,96600,1,0,0:0:0:0:
192,192,96750,1,0,0:0:0:0:
448,192,96900,1,0,0:0:0:0:
64,192,97050,1,0,0:0:0:0:
448,192,97200,1,0,0:0:0:0:
192,192,97200,1,0,0:0:0:0:
64,192,97200,1,0,0:0:0:0:
320,192,97350,1,0,0:0:0:0:
448,192,97350,1,0,0:0:0:0:
320,192,97500,1,0,0:0:0:0:
64,192,97500,1,0,0:0:0:0:
192,192,97650,1,0,0:0:0:0:
64,192,97650,1,0,0:0:0:0:
192,192,97800,1,0,0:0:0:0:
320,192,97800,1,0,0:0:0:0:
448,192,97800,1,0,0:0:0:0:
64,192,97950,1,0,0:0:0:0:
320,192,98100,1,0,0:0:0:0:
448,192,98100,1,0,0:0:0:0:
64,192,98250,1,0,0:0:0:0:
320,192,98400,1,0,0:0:0:0:
448,192,98400,1,0,0:0:0:0:
64,192,98550,1,0,0:0:0:0:
448,192,98700,1,0,0:0:0:0:
320,192,98700,1,0,0:0:0:0:
192,192,98700,1,0,0:0:0:0:
64,192,98850,1,0,0:0:0:0:
448,192,98850,1,0,0:0:0:0:
192,192,99000,1,0,0:0:0:0:
320,192,99000,1,0,0:0:0:0:
64,192,99000,1,0,0:0:0:0:
448,192,99150,1,0,0:0:0:0:
192,192,99300,1,0,0:0:0:0:
64,192,99300,1,0,0:0:0:0:
448,192,99450,1,0,0:0:0:0:
320,192,99450,1,0,0:0:0:0:
64,192,99600,1,0,0:0:0:0:
448,192,99600,1,0,0:0:0:0:
64,192,99825,1,0,0:0:0:0:
192,192,99825,1,0,0:0:0:0:
448,192,99900,1,0,0:0:0:0:
320,192,99900,1,0,0:0:0:0:
192,192,100050,1,0,0:0:0:0:
64,192,100050,1,0,0:0:0:0:
320,192,100200,1,0,0:0:0:0:
448,192,100200,1,0,0:0:0:0:
64,192,100200,1,0,0:0:0:0:
448,192,100350,1,0,0:0:0:0:
192,192,100500,1,0,0:0:0:0:
64,192,100500,1,0,0:0:0:0:
64,192,100650,1,0,0:0:0:0:
448,192,100650,1,0,0:0:0:0:
192,192,100800,1,0,0:0:0:0:
448,192,100950,1,0,0:0:0:0:
64,192,100950,1,0,0:0:0:0:
320,192,101100,1,0,0:0:0:0:
192,192,101100,1,0,0:0:0:0:
64,192,101100,1,0,0:0:0:0:
448,192,101250,1,0,0:0:0:0:
320,192,101250,1,0,0:0:0:0:
192,192,101400,1,0,0:0:0:0:
448,192,101400,1,0,0:0:0:0:
64,192,101400,1,0,0:0:0:0:
64,192,101550,1,0,0:0:0:0:
320,192,101700,1,0,0:0:0:0:
192,192,101700,1,0,0:0:0:0:
64,192,101850,1,0,0:0:0:0:
192,192,102000,1,0,0:0:0:0:
320,192,102000,1,0,0:0:0:0:
192,192,102150,1,0,0:0:0:0:
448,192,102150,1,0,0:0:0:0:
320,192,102300,1,0,0:0:0:0:
448,192,102300,1,0,0:0:0:0:
64,192,102300,1,0,0:0:0:0:
64,192,102450,1,0,0:0:0:0:
192,192,102450,1,0,0:0:0:0:
448,192,102600,1,0,0:0:0:0:
320,192,102600,1,0,0:0:0:0:
192,192,102600,1,0,0:0:0:0:
320,192,102750,1,0,0:0:0:0:
64,192,102750,1,0,0:0:0:0:
448,192,102900,1,0,0:0:0:0:
192,192,102900,1,0,0:0:0:0:
320,192,103050,1,0,0:0:0:0:
64,192,103050,1,0,0:0:0:0:
192,192,103200,1,0,0:0:0:0:
320,192,103200,1,0,0:0:0:0:
448,192,103350,1,0,0:0:0:0:
64,192,103350,1,0,0:0:0:0:
192,192,103500,1,0,0:0:0:0:
448,192,103500,1,0,0:0:0:0:
64,192,103500,1,0,0:0:0:0:
320,192,103650,1,0,0:0:0:0:
192,192,103650,1,0,0:0:0:0:
320,192,103800,1,0,0:0:0:0:
448,192,103800,1,0,0:0:0:0:
64,192,103800,1,0,0:0:0:0:
448,192,103950,1,0,0:0:0:0:
64,192,103950,1,0,0:0:0:0:
320,192,104100,1,0,0:0:0:0:
192,192,104100,1,0,0:0:0:0:
64,192,104250,1,0,0:0:0:0:
320,192,104250,1,0,0:0:0:0:
192,192,104400,1,0,0:0:0:0:
448,192,104400,1,0,0:0:0:0:
64,192,104550,1,0,0:0:0:0:
320,192,104550,1,0,0:0:0:0:
64,192,104700,1,0,0:0:0:0:
448,192,104700,1,0,0:0:0:0:
192,192,104700,1,0,0:0:0:0:
192,192,104850,1,0,0:0:0:0:
320,192,104850,1,0,0:0:0:0:
192,192,105000,1,0,0:0:0:0:
64,192,105000,1,0,0:0:0:0:
448,192,105000,1,0,0:0:0:0:
320,192,105075,1,0,0:0:0:0:
192,192,105150,1,0,0:0:0:0:
64,192,105150,1,0,0:0:0:0:
320,192,105225,1,0,0:0:0:0:
448,192,105225,1,0,0:0:0:0:
192,192,105300,1,0,0:0:0:0:
64,192,105300,1,0,0:0:0:0:
320,192,105375,1,0,0:0:0:0:
448,192,105375,1,0,0:0:0:0:
192,192,105450,1,0,0:0:0:0:
64,192,105450,1,0,0:0:0:0:
320,192,105525,1,0,0:0:0:0:
448,192,105525,1,0,0:0:0:0:
192,192,105600,1,0,0:0:0:0:
64,192,105600,1,0,0:0:0:0:
320,192,105675,1,0,0:0:0:0:
448,192,105675,1,0,0:0:0:0:
192,192,105750,1,0,0:0:0:0:
64,192,105750,1,0,0:0:0:0:
448,192,105825,1,0,0:0:0:0:
64,192,105900,1,0,0:0:0:0:
192,192,105900,1,0,0:0:0:0:
320,192,105900,1,0,0:0:0:0:
448,192,105975,1,0,0:0:0:0:
64,192,106050,1,0,0:0:0:0:
192,192,106050,1,0,0:0:0:0:
448,192,106125,1,0,0:0:0:0:
192,192,106200,1,0,0:0:0:0:
64,192,106200,1,0,0:0:0:0:
320,192,106200,1,0,0:0:0:0:
448,192,106275,1,0,0:0:0:0:
192,192,106350,1,0,0:0:0:0:
64,192,106350,1,0,0:0:0:0:
320,192,106425,1,0,0:0:0:0:
448,192,106425,1,0,0:0:0:0:
192,192,106500,1,0,0:0:0:0:
64,192,106500,1,0,0:0:0:0:
320,192,106575,1,0,0:0:0:0:
448,192,106575,1,0,0:0:0:0:
192,192,106650,1,0,0:0:0:0:
64,192,106650,1,0,0:0:0:0:
320,192,106725,1,0,0:0:0:0:
448,192,106725,1,0,0:0:0:0:
192,192,106800,1,0,0:0:0:0:
64,192,106800,1,0,0:0:0:0:
320,192,106875,1,0,0:0:0:0:
448,192,106875,1,0,0:0:0:0:
192,192,106950,1,0,0:0:0:0:
64,192,106950,1,0,0:0:0:0:
448,192,107025,1,0,0:0:0:0:
192,192,107100,1,0,0:0:0:0:
320,192,107100,1,0,0:0:0:0:
64,192,107100,1,0,0:0:0:0:
448,192,107400,1,0,0:0:0:0:
320,192,107400,1,0,0:0:0:0:
64,192,107400,1,0,0:0:0:0:
192,192,107475,1,0,0:0:0:0:
320,192,107550,1,0,0:0:0:0:
64,192,107625,1,0,0:0:0:0:
320,192,107700,1,0,0:0:0:0:
448,192,107700,1,0,0:0:0:0:
64,192,107775,1,0,0:0:0:0:
192,192,107850,1,0,0:0:0:0:
448,192,107925,1,0,0:0:0:0:
320,192,108000,1,0,0:0:0:0:
64,192,108000,1,0,0:0:0:0:
192,192,108000,1,0,0:0:0:0:
448,192,108075,1,0,0:0:0:0:
192,192,108150,1,0,0:0:0:0:
320,192,108225,1,0,0:0:0:0:
448,192,108300,1,0,0:0:0:0:
64,192,108300,1,0,0:0:0:0:
192,192,108375,1,0,0:0:0:0:
320,192,108450,1,0,0:0:0:0:
448,192,108450,1,0,0:0:0:0:
64,192,108525,1,0,0:0:0:0:
448,192,108600,1,0,0:0:0:0:
320,192,108600,1,0,0:0:0:0:
192,192,108600,1,0,0:0:0:0:
64,192,108675,1,0,0:0:0:0:
448,192,108750,1,0,0:0:0:0:
64,192,108825,1,0,0:0:0:0:
320,192,108900,1,0,0:0:0:0:
192,192,108900,1,0,0:0:0:0:
448,192,108975,1,0,0:0:0:0:
192,192,109050,1,0,0:0:0:0:
320,192,109125,1,0,0:0:0:0:
448,192,109200,1,0,0:0:0:0:
192,192,109200,1,0,0:0:0:0:
64,192,109200,1,0,0:0:0:0:
320,192,109275,1,0,0:0:0:0:
64,192,109350,1,0,0:0:0:0:
192,192,109350,1,0,0:0:0:0:
448,192,109425,1,0,0:0:0:0:
192,192,109500,1,0,0:0:0:0:
320,192,109500,1,0,0:0:0:0:
64,192,109575,1,0,0:0:0:0:
320,192,109650,1,0,0:0:0:0:
448,192,109650,1,0,0:0:0:0:
192,192,109725,1,0,0:0:0:0:
320,192,109800,1,0,0:0:0:0:
64,192,109800,1,0,0:0:0:0:
448,192,109800,1,0,0:0:0:0:
192,192,109875,1,0,0:0:0:0:
448,192,109950,1,0,0:0:0:0:
320,192,110025,1,0,0:0:0:0:
64,192,110100,1,0,0:0:0:0:
192,192,110100,1,0,0:0:0:0:
448,192,110175,1,0,0:0:0:0:
64,192,110250,1,0,0:0:0:0:
320,192,110325,1,0,0:0:0:0:
64,192,110400,1,0,0:0:0:0:
192,192,110400,1,0,0:0:0:0:
448,192,110400,1,0,0:0:0:0:
320,192,110475,1,0,0:0:0:0:
64,192,110550,1,0,0:0:0:0:
448,192,110625,1,0,0:0:0:0:
192,192,110700,1,0,0:0:0:0:
320,192,110700,1,0,0:0:0:0:
64,192,110775,1,0,0:0:0:0:
448,192,110850,1,0,0:0:0:0:
192,192,110925,1,0,0:0:0:0:
320,192,111000,1,0,0:0:0:0:
448,192,111000,1,0,0:0:0:0:
64,192,111000,1,0,0:0:0:0:
192,192,111075,1,0,0:0:0:0:
320,192,111150,1,0,0:0:0:0:
448,192,111150,1,0,0:0:0:0:
64,192,111225,1,0,0:0:0:0:
320,192,111300,1,0,0:0:0:0:
192,192,111300,1,0,0:0:0:0:
448,192,111375,1,0,0:0:0:0:
64,192,111450,1,0,0:0:0:0:
192,192,111450,1,0,0:0:0:0:
320,192,111525,1,0,0:0:0:0:
448,192,111600,1,0,0:0:0:0:
64,192,111600,1,0,0:0:0:0:
192,192,111600,1,0,0:0:0:0:
320,192,111675,1,0,0:0:0:0:
64,192,111750,1,0,0:0:0:0:
192,192,111750,1,0,0:0:0:0:
448,192,111825,1,0,0:0:0:0:
64,192,111900,1,0,0:0:0:0:
320,192,111900,1,0,0:0:0:0:
192,192,111975,1,0,0:0:0:0:
448,192,112050,1,0,0:0:0:0:
320,192,112050,1,0,0:0:0:0:
64,192,112125,1,0,0:0:0:0:
192,192,112200,1,0,0:0:0:0:
320,192,112200,1,0,0:0:0:0:
448,192,112200,1,0,0:0:0:0:
64,192,112275,1,0,0:0:0:0:
320,192,112350,1,0,0:0:0:0:
448,192,112425,1,0,0:0:0:0:
192,192,112500,1,0,0:0:0:0:
64,192,112500,1,0,0:0:0:0:
320,192,112575,1,0,0:0:0:0:
448,192,112650,1,0,0:0:0:0:
192,192,112650,1,0,0:0:0:0:
64,192,112725,1,0,0:0:0:0:
320,192,112800,1,0,0:0:0:0:
448,192,112800,1,0,0:0:0:0:
192,192,112800,1,0,0:0:0:0:
64,192,112875,1,0,0:0:0:0:
320,192,112950,1,0,0:0:0:0:
192,192,113025,1,0,0:0:0:0:
64,192,113100,1,0,0:0:0:0:
448,192,113100,1,0,0:0:0:0:
320,192,113175,1,0,0:0:0:0:
192,192,113250,1,0,0:0:0:0:
64,192,113250,1,0,0:0:0:0:
448,192,113325,1,0,0:0:0:0:
320,192,113400,1,0,0:0:0:0:
64,192,113400,1,0,0:0:0:0:
192,192,113400,1,0,0:0:0:0:
448,192,113475,1,0,0:0:0:0:
64,192,113550,1,0,0:0:0:0:
448,192,113625,1,0,0:0:0:0:
320,192,113700,1,0,0:0:0:0:
192,192,113700,1,0,0:0:0:0:
64,192,113775,1,0,0:0:0:0:
320,192,113850,1,0,0:0:0:0:
192,192,113925,1,0,0:0:0:0:
448,192,114000,1,0,0:0:0:0:
320,192,114000,1,0,0:0:0:0:
64,192,114000,1,0,0:0:0:0:
192,192,114075,1,0,0:0:0:0:
448,192,114150,1,0,0:0:0:0:
320,192,114225,1,0,0:0:0:0:
192,192,114300,1,0,0:0:0:0:
64,192,114300,1,0,0:0:0:0:
448,192,114375,1,0,0:0:0:0:
320,192,114450,1,0,0:0:0:0:
64,192,114525,1,0,0:0:0:0:
192,192,114600,1,0,0:0:0:0:
320,192,114600,1,0,0:0:0:0:
448,192,114600,1,0,0:0:0:0:
64,192,114675,1,0,0:0:0:0:
320,192,114750,1,0,0:0:0:0:
192,192,114825,1,0,0:0:0:0:
320,192,114900,1,0,0:0:0:0:
448,192,114900,1,0,0:0:0:0:
64,192,114975,1,0,0:0:0:0:
192,192,115050,1,0,0:0:0:0:
320,192,115050,1,0,0:0:0:0:
448,192,115125,1,0,0:0:0:0:
320,192,115200,1,0,0:0:0:0:
192,192,115200,1,0,0:0:0:0:
64,192,115200,1,0,0:0:0:0:
448,192,115275,1,0,0:0:0:0:
192,192,115350,1,0,0:0:0:0:
64,192,115350,1,0,0:0:0:0:
320,192,115425,1,0,0:0:0:0:
64,192,115500,1,0,0:0:0:0:
448,192,115500,1,0,0:0:0:0:
192,192,115575,1,0,0:0:0:0:
320,192,115650,1,0,0:0:0:0:
448,192,115650,128,0,116400:0:0:0:0:
64,192,115650,1,0,0:0:0:0:
320,192,115950,1,0,0:0:0:0:
64,192,115950,1,0,0:0:0:0:
320,192,116250,1,0,0:0:0:0:
64,192,116250,1,0,0:0:0:0:
320,192,116400,1,0,0:0:0:0:
64,192,116400,1,0,0:0:0:0:
448,192,116475,1,0,0:0:0:0:
320,192,116550,1,0,0:0:0:0:
192,192,116625,1,0,0:0:0:0:
64,192,116700,1,0,0:0:0:0:
320,192,116700,1,0,0:0:0:0:
448,192,116700,1,0,0:0:0:0:
192,192,116775,1,0,0:0:0:0:
64,192,116850,1,0,0:0:0:0:
448,192,116925,1,0,0:0:0:0:
192,192,117000,1,0,0:0:0:0:
64,192,117000,1,0,0:0:0:0:
320,192,117000,1,0,0:0:0:0:
448,192,117075,1,0,0:0:0:0:
64,192,117150,1,0,0:0:0:0:
192,192,117225,1,0,0:0:0:0:
320,192,117300,1,0,0:0:0:0:
448,192,117300,1,0,0:0:0:0:
64,192,117375,1,0,0:0:0:0:
192,192,117450,1,0,0:0:0:0:
448,192,117525,1,0,0:0:0:0:
320,192,117600,1,0,0:0:0:0:
64,192,117600,1,0,0:0:0:0:
192,192,117600,1,0,0:0:0:0:
448,192,117675,1,0,0:0:0:0:
64,192,117750,1,0,0:0:0:0:
192,192,117825,1,0,0:0:0:0:
320,192,117900,1,0,0:0:0:0:
448,192,117900,1,0,0:0:0:0:
192,192,117975,1,0,0:0:0:0:
64,192,118050,1,0,0:0:0:0:
320,192,118050,1,0,0:0:0:0:
448,192,118125,1,0,0:0:0:0:
192,192,118200,1,0,0:0:0:0:
64,192,118200,1,0,0:0:0:0:
320,192,118200,1,0,0:0:0:0:
448,192,118275,1,0,0:0:0:0:
64,192,118350,1,0,0:0:0:0:
448,192,118425,1,0,0:0:0:0:
320,192,118500,1,0,0:0:0:0:
192,192,118500,1,0,0:0:0:0:
64,192,118575,1,0,0:0:0:0:
320,192,118650,1,0,0:0:0:0:
448,192,118725,1,0,0:0:0:0:
320,192,118800,1,0,0:0:0:0:
192,192,118800,1,0,0:0:0:0:
64,192,118800,1,0,0:0:0:0:
448,192,118875,1,0,0:0:0:0:
64,192,118950,1,0,0:0:0:0:
192,192,118950,1,0,0:0:0:0:
320,192,119025,1,0,0:0:0:0:
448,192,119100,1,0,0:0:0:0:
192,192,119100,1,0,0:0:0:0:
64,192,119175,1,0,0:0:0:0:
320,192,119250,1,0,0:0:0:0:
448,192,119250,1,0,0:0:0:0:
64,192,119325,1,0,0:0:0:0:
448,192,119400,1,0,0:0:0:0:
192,192,119400,1,0,0:0:0:0:
320,192,119400,1,0,0:0:0:0:
64,192,119550,1,0,0:0:0:0:
192,192,119550,1,0,0:0:0:0:
448,192,119625,1,0,0:0:0:0:
320,192,119625,1,0,0:0:0:0:
192,192,119700,1,0,0:0:0:0:
64,192,119700,1,0,0:0:0:0:
448,192,119850,1,0,0:0:0:0:
64,192,119850,1,0,0:0:0:0:
192,192,119850,1,0,0:0:0:0:
64,192,120150,1,0,0:0:0:0:
320,192,120150,1,0,0:0:0:0:
448,192,120150,1,0,0:0:0:0:
192,192,120300,1,0,0:0:0:0:
448,192,120450,1,0,0:0:0:0:
64,192,120450,1,0,0:0:0:0:
320,192,120450,1,0,0:0:0:0:
320,192,120600,1,0,0:0:0:0:
64,192,120750,1,0,0:0:0:0:
192,192,120750,1,0,0:0:0:0:
320,192,120825,1,0,0:0:0:0:
192,192,120900,1,0,0:0:0:0:
64,192,120900,1,0,0:0:0:0:
448,192,120975,1,0,0:0:0:0:
320,192,121050,1,0,0:0:0:0:
64,192,121125,1,0,0:0:0:0:
448,192,121200,1,0,0:0:0:0:
192,192,121200,1,0,0:0:0:0:
320,192,121275,1,0,0:0:0:0:
64,192,121350,1,0,0:0:0:0:
192,192,121350,1,0,0:0:0:0:
320,192,121425,1,0,0:0:0:0:
448,192,121500,1,0,0:0:0:0:
64,192,121500,1,0,0:0:0:0:
192,192,121575,1,0,0:0:0:0:
320,192,121575,1,0,0:0:0:0:
448,192,121650,1,0,0:0:0:0:
64,192,121650,1,0,0:0:0:0:
192,192,121725,1,0,0:0:0:0:
448,192,121800,1,0,0:0:0:0:
64,192,121800,1,0,0:0:0:0:
320,192,121800,1,0,0:0:0:0:
192,192,121875,1,0,0:0:0:0:
320,192,121950,1,0,0:0:0:0:
448,192,122025,1,0,0:0:0:0:
64,192,122100,1,0,0:0:0:0:
192,192,122100,1,0,0:0:0:0:
320,192,122175,1,0,0:0:0:0:
448,192,122250,1,0,0:0:0:0:
64,192,122325,1,0,0:0:0:0:
192,192,122400,1,0,0:0:0:0:
320,192,122400,1,0,0:0:0:0:
448,192,122400,1,0,0:0:0:0:
64,192,122475,1,0,0:0:0:0:
320,192,122550,1,0,0:0:0:0:
448,192,122625,1,0,0:0:0:0:
192,192,122700,1,0,0:0:0:0:
64,192,122700,1,0,0:0:0:0:
320,192,122775,1,0,0:0:0:0:
64,192,122850,1,0,0:0:0:0:
448,192,122925,1,0,0:0:0:0:
320,192,123000,1,0,0:0:0:0:
192,192,123000,1,0,0:0:0:0:
64,192,123000,1,0,0:0:0:0:
448,192,123075,1,0,0:0:0:0:
192,192,123150,1,0,0:0:0:0:
320,192,123225,1,0,0:0:0:0:
192,192,123300,1,0,0:0:0:0:
64,192,123300,1,0,0:0:0:0:
448,192,123375,1,0,0:0:0:0:
192,192,123450,1,0,0:0:0:0:
320,192,123450,1,0,0:0:0:0:
64,192,123525,1,0,0:0:0:0:
448,192,123600,1,0,0:0:0:0:
192,192,123600,1,0,0:0:0:0:
320,192,123600,1,0,0:0:0:0:
64,192,123675,1,0,0:0:0:0:
320,192,123750,1,0,0:0:0:0:
192,192,123825,1,0,0:0:0:0:
320,192,123900,1,0,0:0:0:0:
448,192,123900,1,0,0:0:0:0:
64,192,123975,1,0,0:0:0:0:
192,192,124050,1,0,0:0:0:0:
320,192,124050,1,0,0:0:0:0:
192,192,124200,1,0,0:0:0:0:
320,192,124200,1,0,0:0:0:0:
64,192,124200,1,0,0:0:0:0:
64,192,124350,1,0,0:0:0:0:
448,192,124350,1,0,0:0:0:0:
192,192,124500,1,0,0:0:0:0:
320,192,124500,1,0,0:0:0:0:
448,192,124500,1,0,0:0:0:0:
64,192,124650,1,0,0:0:0:0:
192,192,124650,1,0,0:0:0:0:
320,192,124650,1,0,0:0:0:0:
448,192,124800,1,0,0:0:0:0:
192,192,124800,1,0,0:0:0:0:
320,192,124950,1,0,0:0:0:0:
64,192,124950,1,0,0:0:0:0:
448,192,124950,1,0,0:0:0:0:
320,192,125100,1,0,0:0:0:0:
192,192,125100,1,0,0:0:0:0:
64,192,125100,1,0,0:0:0:0:
192,192,125250,1,0,0:0:0:0:
320,192,125250,1,0,0:0:0:0:
448,192,125250,128,0,126000:0:0:0:0:
192,192,125400,1,0,0:0:0:0:
64,192,125400,1,0,0:0:0:0:
320,192,125475,1,0,0:0:0:0:
192,192,125550,1,0,0:0:0:0:
64,192,125550,1,0,0:0:0:0:
320,192,125625,1,0,0:0:0:0:
192,192,125700,1,0,0:0:0:0:
64,192,125700,1,0,0:0:0:0:
320,192,125775,1,0,0:0:0:0:
192,192,125850,1,0,0:0:0:0:
64,192,125850,1,0,0:0:0:0:
320,192,125925,1,0,0:0:0:0:
64,192,126000,1,0,0:0:0:0:
192,192,126000,1,0,0:0:0:0:
320,192,126150,1,0,0:0:0:0:
64,192,126300,1,0,0:0:0:0:
448,192,126300,1,0,0:0:0:0:
192,192,126300,1,0,0:0:0:0:
320,192,126450,1,0,0:0:0:0:
64,192,126600,1,0,0:0:0:0:
192,192,126600,1,0,0:0:0:0:
320,192,126600,1,0,0:0:0:0:
448,192,126675,1,0,0:0:0:0:
192,192,126750,1,0,0:0:0:0:
448,192,126825,1,0,0:0:0:0:
320,192,126900,1,0,0:0:0:0:
192,192,126900,1,0,0:0:0:0:
64,192,126975,1,0,0:0:0:0:
448,192,127050,1,0,0:0:0:0:
192,192,127125,1,0,0:0:0:0:
320,192,127200,1,0,0:0:0:0:
448,192,127200,1,0,0:0:0:0:
64,192,127275,1,0,0:0:0:0:
192,192,127350,1,0,0:0:0:0:
320,192,127425,1,0,0:0:0:0:
448,192,127500,1,0,0:0:0:0:
64,192,127500,1,0,0:0:0:0:
192,192,127575,1,0,0:0:0:0:
448,192,127650,1,0,0:0:0:0:
320,192,127650,1,0,0:0:0:0:
64,192,127725,1,0,0:0:0:0:
320,192,127800,1,0,0:0:0:0:
192,192,127800,1,0,0:0:0:0:
448,192,127875,1,0,0:0:0:0:
192,192,127950,1,0,0:0:0:0:
448,192,128025,1,0,0:0:0:0:
320,192,128100,1,0,0:0:0:0:
64,192,128100,1,0,0:0:0:0:
192,192,128175,1,0,0:0:0:0:
448,192,128250,1,0,0:0:0:0:
64,192,128325,1,0,0:0:0:0:
192,192,128400,1,0,0:0:0:0:
448,192,128400,1,0,0:0:0:0:
320,192,128475,1,0,0:0:0:0:
192,192,128550,1,0,0:0:0:0:
64,192,128550,1,0,0:0:0:0:
448,192,128625,1,0,0:0:0:0:
64,192,128700,1,0,0:0:0:0:
320,192,128700,1,0,0:0:0:0:
192,192,128775,1,0,0:0:0:0:
448,192,128850,1,0,0:0:0:0:
320,192,128850,1,0,0:0:0:0:
64,192,128925,1,0,0:0:0:0:
192,192,129000,1,0,0:0:0:0:
320,192,129000,1,0,0:0:0:0:
448,192,129075,1,0,0:0:0:0:
64,192,129150,1,0,0:0:0:0:
320,192,129225,1,0,0:0:0:0:
192,192,129300,1,0,0:0:0:0:
64,192,129300,1,0,0:0:0:0:
448,192,129375,1,0,0:0:0:0:
320,192,129450,1,0,0:0:0:0:
64,192,129525,1,0,0:0:0:0:
448,192,129600,1,0,0:0:0:0:
320,192,129600,1,0,0:0:0:0:
64,192,129675,1,0,0:0:0:0:
192,192,129750,1,0,0:0:0:0:
320,192,129750,1,0,0:0:0:0:
448,192,129825,1,0,0:0:0:0:
64,192,129900,1,0,0:0:0:0:
192,192,129900,1,0,0:0:0:0:
448,192,129975,1,0,0:0:0:0:
320,192,130050,1,0,0:0:0:0:
192,192,130050,1,0,0:0:0:0:
64,192,130125,1,0,0:0:0:0:
320,192,130200,1,0,0:0:0:0:
448,192,130200,1,0,0:0:0:0:
192,192,130275,1,0,0:0:0:0:
64,192,130350,1,0,0:0:0:0:
448,192,130425,1,0,0:0:0:0:
320,192,130500,1,0,0:0:0:0:
64,192,130500,1,0,0:0:0:0:
192,192,130575,1,0,0:0:0:0:
320,192,130650,1,0,0:0:0:0:
448,192,130725,1,0,0:0:0:0:
64,192,130800,1,0,0:0:0:0:
192,192,130800,1,0,0:0:0:0:
448,192,130875,1,0,0:0:0:0:
320,192,130950,1,0,0:0:0:0:
192,192,130950,1,0,0:0:0:0:
64,192,131025,1,0,0:0:0:0:
320,192,131100,1,0,0:0:0:0:
448,192,131100,1,0,0:0:0:0:
64,192,131175,1,0,0:0:0:0:
448,192,131250,1,0,0:0:0:0:
192,192,131250,1,0,0:0:0:0:
320,192,131325,1,0,0:0:0:0:
64,192,131400,1,0,0:0:0:0:
192,192,131400,1,0,0:0:0:0:
448,192,131475,1,0,0:0:0:0:
192,192,131550,1,0,0:0:0:0:
320,192,131625,1,0,0:0:0:0:
448,192,131700,1,0,0:0:0:0:
64,192,131700,1,0,0:0:0:0:
192,192,131775,1,0,0:0:0:0:
320,192,131850,1,0,0:0:0:0:
448,192,131925,1,0,0:0:0:0:
64,192,132000,1,0,0:0:0:0:
192,192,132000,1,0,0:0:0:0:
448,192,132075,1,0,0:0:0:0:
320,192,132150,1,0,0:0:0:0:
64,192,132225,1,0,0:0:0:0:
192,192,132300,1,0,0:0:0:0:
320,192,132300,1,0,0:0:0:0:
448,192,132375,1,0,0:0:0:0:
64,192,132450,1,0,0:0:0:0:
192,192,132450,1,0,0:0:0:0:
320,192,132525,1,0,0:0:0:0:
448,192,132600,1,0,0:0:0:0:
64,192,132600,1,0,0:0:0:0:
192,192,132675,1,0,0:0:0:0:
448,192,132750,1,0,0:0:0:0:
64,192,132825,1,0,0:0:0:0:
192,192,132900,1,0,0:0:0:0:
320,192,132900,1,0,0:0:0:0:
448,192,132975,1,0,0:0:0:0:
64,192,133050,1,0,0:0:0:0:
320,192,133125,1,0,0:0:0:0:
192,192,133200,1,0,0:0:0:0:
64,192,133200,1,0,0:0:0:0:
448,192,133275,1,0,0:0:0:0:
320,192,133350,1,0,0:0:0:0:
192,192,133350,1,0,0:0:0:0:
64,192,133425,1,0,0:0:0:0:
448,192,133500,1,0,0:0:0:0:
320,192,133500,1,0,0:0:0:0:
192,192,133575,1,0,0:0:0:0:
64,192,133650,1,0,0:0:0:0:
448,192,133650,1,0,0:0:0:0:
320,192,133725,1,0,0:0:0:0:
192,192,133800,1,0,0:0:0:0:
64,192,133800,1,0,0:0:0:0:
448,192,133875,1,0,0:0:0:0:
192,192,133950,1,0,0:0:0:0:
320,192,134025,1,0,0:0:0:0:
448,192,134100,1,0,0:0:0:0:
64,192,134100,1,0,0:0:0:0:
192,192,134175,1,0,0:0:0:0:
320,192,134250,1,0,0:0:0:0:
448,192,134325,1,0,0:0:0:0:
192,192,134400,1,0,0:0:0:0:
64,192,134400,1,0,0:0:0:0:
320,192,134475,1,0,0:0:0:0:
64,192,134550,1,0,0:0:0:0:
192,192,134550,1,0,0:0:0:0:
448,192,134625,1,0,0:0:0:0:
64,192,134700,1,0,0:0:0:0:
320,192,134700,1,0,0:0:0:0:
192,192,134775,1,0,0:0:0:0:
320,192,134850,1,0,0:0:0:0:
64,192,134850,1,0,0:0:0:0:
448,192,134850,1,0,0:0:0:0:
320,192,135150,1,0,0:0:0:0:
64,192,135150,1,0,0:0:0:0:
448,192,135150,1,0,0:0:0:0:
320,192,135450,1,0,0:0:0:0:
448,192,135450,1,0,0:0:0:0:
64,192,135450,1,0,0:0:0:0:
192,192,135600,1,0,0:0:0:0:
320,192,135600,1,0,0:0:0:0:
64,192,135750,1,0,0:0:0:0:
320,192,135750,1,0,0:0:0:0:
192,192,135900,1,0,0:0:0:0:
448,192,135900,1,0,0:0:0:0:
64,192,135900,1,0,0:0:0:0:
192,192,136050,1,0,0:0:0:0:
320,192,136050,1,0,0:0:0:0:
448,192,136200,1,0,0:0:0:0:
320,192,136200,1,0,0:0:0:0:
64,192,136200,1,0,0:0:0:0:
192,192,136275,1,0,0:0:0:0:
320,192,136350,1,0,0:0:0:0:
64,192,136425,1,0,0:0:0:0:
448,192,136500,1,0,0:0:0:0:
320,192,136500,1,0,0:0:0:0:
192,192,136575,1,0,0:0:0:0:
64,192,136650,1,0,0:0:0:0:
320,192,136725,1,0,0:0:0:0:
192,192,136800,1,0,0:0:0:0:
64,192,136800,1,0,0:0:0:0:
448,192,136875,1,0,0:0:0:0:
320,192,136950,1,0,0:0:0:0:
64,192,137025,1,0,0:0:0:0:
192,192,137100,1,0,0:0:0:0:
320,192,137100,1,0,0:0:0:0:
448,192,137175,1,0,0:0:0:0:
64,192,137250,1,0,0:0:0:0:
192,192,137250,1,0,0:0:0:0:
448,192,137325,1,0,0:0:0:0:
192,192,137400,1,0,0:0:0:0:
320,192,137400,1,0,0:0:0:0:
64,192,137475,1,0,0:0:0:0:
448,192,137550,1,0,0:0:0:0:
320,192,137625,1,0,0:0:0:0:
64,192,137700,1,0,0:0:0:0:
192,192,137700,1,0,0:0:0:0:
448,192,137775,1,0,0:0:0:0:
320,192,137850,1,0,0:0:0:0:
192,192,137850,1,0,0:0:0:0:
64,192,137925,1,0,0:0:0:0:
320,192,138000,1,0,0:0:0:0:
448,192,138000,1,0,0:0:0:0:
64,192,138075,1,0,0:0:0:0:
192,192,138150,1,0,0:0:0:0:
320,192,138225,1,0,0:0:0:0:
448,192,138225,1,0,0:0:0:0:
192,192,138300,1,0,0:0:0:0:
64,192,138300,1,0,0:0:0:0:
448,192,138375,1,0,0:0:0:0:
320,192,138450,1,0,0:0:0:0:
192,192,138450,1,0,0:0:0:0:
64,192,138525,1,0,0:0:0:0:
448,192,138600,1,0,0:0:0:0:
320,192,138600,1,0,0:0:0:0:
192,192,138675,1,0,0:0:0:0:
320,192,138750,1,0,0:0:0:0:
448,192,138750,1,0,0:0:0:0:
192,192,138825,1,0,0:0:0:0:
64,192,138825,1,0,0:0:0:0:
320,192,138900,1,0,0:0:0:0:
448,192,138900,1,0,0:0:0:0:
192,192,138975,1,0,0:0:0:0:
64,192,139050,1,0,0:0:0:0:
320,192,139050,1,0,0:0:0:0:
448,192,139050,1,0,0:0:0:0:
192,192,139350,1,0,0:0:0:0:
320,192,139350,1,0,0:0:0:0:
448,192,139350,1,0,0:0:0:0:
192,192,139650,1,0,0:0:0:0:
64,192,139650,1,0,0:0:0:0:
448,192,139650,1,0,0:0:0:0:
320,192,139950,1,0,0:0:0:0:
64,192,139950,1,0,0:0:0:0:
192,192,139950,1,0,0:0:0:0:
320,192,140100,1,0,0:0:0:0:
192,192,140100,1,0,0:0:0:0:
64,192,140100,1,0,0:0:0:0:
448,192,140400,1,0,0:0:0:0:
192,192,140400,1,0,0:0:0:0:
64,192,140400,1,0,0:0:0:0:
64,192,140550,1,0,0:0:0:0:
320,192,140550,1,0,0:0:0:0:
64,192,140700,1,0,0:0:0:0:
192,192,140700,1,0,0:0:0:0:
320,192,140700,1,0,0:0:0:0:
448,192,140775,1,0,0:0:0:0:
192,192,140850,1,0,0:0:0:0:
64,192,140850,1,0,0:0:0:0:
320,192,140925,1,0,0:0:0:0:
448,192,140925,1,0,0:0:0:0:
192,192,141000,1,0,0:0:0:0:
64,192,141000,1,0,0:0:0:0:
448,192,141075,1,0,0:0:0:0:
320,192,141150,1,0,0:0:0:0:
64,192,141225,1,0,0:0:0:0:
192,192,141300,1,0,0:0:0:0:
320,192,141300,1,0,0:0:0:0:
448,192,141375,1,0,0:0:0:0:
64,192,141450,1,0,0:0:0:0:
320,192,141525,1,0,0:0:0:0:
192,192,141600,1,0,0:0:0:0:
64,192,141600,1,0,0:0:0:0:
320,192,141675,1,0,0:0:0:0:
448,192,141750,1,0,0:0:0:0:
64,192,141825,1,0,0:0:0:0:
320,192,141900,1,0,0:0:0:0:
448,192,141900,1,0,0:0:0:0:
192,192,141975,1,0,0:0:0:0:
320,192,142050,1,0,0:0:0:0:
448,192,142050,1,0,0:0:0:0:
64,192,142125,1,0,0:0:0:0:
192,192,142200,1,0,0:0:0:0:
320,192,142200,1,0,0:0:0:0:
448,192,142275,1,0,0:0:0:0:
64,192,142350,1,0,0:0:0:0:
320,192,142425,1,0,0:0:0:0:
192,192,142500,1,0,0:0:0:0:
64,192,142500,1,0,0:0:0:0:
448,192,142575,1,0,0:0:0:0:
320,192,142650,1,0,0:0:0:0:
64,192,142725,1,0,0:0:0:0:
192,192,142800,1,0,0:0:0:0:
448,192,142800,1,0,0:0:0:0:
320,192,142875,1,0,0:0:0:0:
192,192,142950,1,0,0:0:0:0:
64,192,142950,1,0,0:0:0:0:
448,192,143025,1,0,0:0:0:0:
320,192,143100,1,0,0:0:0:0:
192,192,143100,1,0,0:0:0:0:
64,192,143175,1,0,0:0:0:0:
320,192,143250,1,0,0:0:0:0:
448,192,143250,1,0,0:0:0:0:
192,192,143325,1,0,0:0:0:0:
64,192,143400,1,0,0:0:0:0:
448,192,143400,1,0,0:0:0:0:
320,192,143475,1,0,0:0:0:0:
448,192,143550,1,0,0:0:0:0:
64,192,143550,1,0,0:0:0:0:
192,192,143625,1,0,0:0:0:0:
320,192,143700,1,0,0:0:0:0:
448,192,143700,1,0,0:0:0:0:
192,192,143775,1,0,0:0:0:0:
64,192,143850,1,0,0:0:0:0:
320,192,143850,1,0,0:0:0:0:
192,192,143925,1,0,0:0:0:0:
448,192,144000,1,0,0:0:0:0:
320,192,144000,1,0,0:0:0:0:
64,192,144075,1,0,0:0:0:0:
192,192,144150,1,0,0:0:0:0:
448,192,144150,1,0,0:0:0:0:
320,192,144225,1,0,0:0:0:0:
192,192,144300,1,0,0:0:0:0:
64,192,144300,1,0,0:0:0:0:
448,192,144375,5,0,0:0:0:0:
320,192,144450,1,0,0:0:0:0:
192,192,144450,1,0,0:0:0:0:
64,192,144525,1,0,0:0:0:0:
320,192,144600,1,0,0:0:0:0:
448,192,144600,1,0,0:0:0:0:
192,192,144675,1,0,0:0:0:0:
64,192,144675,1,0,0:0:0:0:
320,192,144750,1,0,0:0:0:0:
448,192,144750,1,0,0:0:0:0:
192,192,144825,1,0,0:0:0:0:
64,192,144825,1,0,0:0:0:0:
320,192,144900,1,0,0:0:0:0:
448,192,144900,1,0,0:0:0:0:
192,192,144975,1,0,0:0:0:0:
64,192,144975,1,0,0:0:0:0:
320,192,145050,1,0,0:0:0:0:
448,192,145050,1,0,0:0:0:0:
64,192,145125,1,0,0:0:0:0:
320,192,145200,1,0,0:0:0:0:
192,192,145200,1,0,0:0:0:0:
448,192,145500,5,0,0:0:0:0:
192,192,145500,1,0,0:0:0:0:
64,192,145500,1,0,0:0:0:0:
448,192,145800,1,0,0:0:0:0:
320,192,145800,1,0,0:0:0:0:
192,192,145950,1,0,0:0:0:0:
64,192,146100,1,0,0:0:0:0:
320,192,146100,1,0,0:0:0:0:
448,192,146250,1,0,0:0:0:0:
320,192,146250,1,0,0:0:0:0:
192,192,146250,1,0,0:0:0:0:
64,192,146400,1,0,0:0:0:0:
192,192,146400,1,0,0:0:0:0:
320,192,146550,1,0,0:0:0:0:
448,192,146700,1,0,0:0:0:0:
192,192,146700,1,0,0:0:0:0:
320,192,146850,1,0,0:0:0:0:
192,192,146925,1,0,0:0:0:0:
320,192,147000,1,0,0:0:0:0:
448,192,147000,1,0,0:0:0:0:
192,192,147150,1,0,0:0:0:0:
320,192,147225,1,0,0:0:0:0:
192,192,147300,1,0,0:0:0:0:
64,192,147300,1,0,0:0:0:0:
192,192,147450,1,0,0:0:0:0:
448,192,147525,1,0,0:0:0:0:
320,192,147600,1,0,0:0:0:0:
64,192,147600,1,0,0:0:0:0:
192,192,147750,1,0,0:0:0:0:
320,192,147900,1,0,0:0:0:0:
448,192,147900,1,0,0:0:0:0:
64,192,148050,128,0,148200:0:0:0:0:
320,192,148200,1,0,0:0:0:0:
192,192,148200,1,0,0:0:0:0:
448,192,148350,1,0,0:0:0:0:
192,192,148425,1,0,0:0:0:0:
192,192,148500,1,0,0:0:0:0:
64,192,148500,1,0,0:0:0:0:
448,192,148650,1,0,0:0:0:0:
320,192,148650,1,0,0:0:0:0:
192,192,148800,1,0,0:0:0:0:
448,192,148800,1,0,0:0:0:0:
64,192,148800,1,0,0:0:0:0:
192,192,148950,1,0,0:0:0:0:
448,192,148950,1,0,0:0:0:0:
64,192,148950,1,0,0:0:0:0:
192,192,149100,1,0,0:0:0:0:
320,192,149100,1,0,0:0:0:0:
448,192,149250,1,0,0:0:0:0:
320,192,149250,1,0,0:0:0:0:
64,192,149250,1,0,0:0:0:0:
192,192,149400,1,0,0:0:0:0:
64,192,149400,1,0,0:0:0:0:
320,192,149550,1,0,0:0:0:0:
64,192,149700,1,0,0:0:0:0:
448,192,149700,1,0,0:0:0:0:
192,192,149850,1,0,0:0:0:0:
64,192,149925,1,0,0:0:0:0:
320,192,150000,1,0,0:0:0:0:
448,192,150000,1,0,0:0:0:0:
192,192,150150,1,0,0:0:0:0:
64,192,150300,1,0,0:0:0:0:
448,192,150300,1,0,0:0:0:0:
320,192,150450,128,0,150600:0:0:0:0:
64,192,150600,1,0,0:0:0:0:
192,192,150600,1,0,0:0:0:0:
448,192,150750,1,0,0:0:0:0:
320,192,150900,1,0,0:0:0:0:
192,192,150900,1,0,0:0:0:0:
64,192,150975,1,0,0:0:0:0:
448,192,151050,1,0,0:0:0:0:
192,192,151125,1,0,0:0:0:0:
320,192,151200,1,0,0:0:0:0:
448,192,151200,1,0,0:0:0:0:
64,192,151350,1,0,0:0:0:0:
192,192,151500,1,0,0:0:0:0:
448,192,151500,1,0,0:0:0:0:
320,192,151650,1,0,0:0:0:0:
64,192,151800,1,0,0:0:0:0:
192,192,151800,1,0,0:0:0:0:
320,192,151800,1,0,0:0:0:0:
448,192,151950,1,0,0:0:0:0:
64,192,152025,1,0,0:0:0:0:
448,192,152100,1,0,0:0:0:0:
192,192,152175,1,0,0:0:0:0:
320,192,152250,1,0,0:0:0:0:
448,192,152325,1,0,0:0:0:0:
192,192,152362,1,0,0:0:0:0:
64,192,152400,1,0,0:0:0:0:
320,192,152550,1,0,0:0:0:0:
448,192,152700,1,0,0:0:0:0:
192,192,152700,1,0,0:0:0:0:
64,192,152700,1,0,0:0:0:0:
192,192,152850,1,0,0:0:0:0:
448,192,152850,128,0,153000:0:0:0:0:
64,192,152850,1,0,0:0:0:0:
320,192,153000,1,0,0:0:0:0:
64,192,153000,1,0,0:0:0:0:
192,192,153075,1,0,0:0:0:0:
320,192,153150,1,0,0:0:0:0:
448,192,153225,1,0,0:0:0:0:
192,192,153300,1,0,0:0:0:0:
64,192,153300,1,0,0:0:0:0:
320,192,153375,1,0,0:0:0:0:
448,192,153450,1,0,0:0:0:0:
192,192,153525,1,0,0:0:0:0:
320,192,153600,1,0,0:0:0:0:
448,192,153600,1,0,0:0:0:0:
192,192,153675,1,0,0:0:0:0:
448,192,153750,1,0,0:0:0:0:
64,192,153825,1,0,0:0:0:0:
192,192,153900,1,0,0:0:0:0:
448,192,153900,1,0,0:0:0:0:
320,192,153975,1,0,0:0:0:0:
192,192,154050,1,0,0:0:0:0:
320,192,154125,1,0,0:0:0:0:
64,192,154200,1,0,0:0:0:0:
192,192,154200,1,0,0:0:0:0:
320,192,154350,1,0,0:0:0:0:
448,192,154350,1,0,0:0:0:0:
64,192,154350,1,0,0:0:0:0:
192,192,154500,1,0,0:0:0:0:
64,192,154500,1,0,0:0:0:0:
320,192,154650,1,0,0:0:0:0:
64,192,154800,1,0,0:0:0:0:
448,192,154800,1,0,0:0:0:0:
192,192,154800,1,0,0:0:0:0:
320,192,154950,1,0,0:0:0:0:
192,192,155100,1,0,0:0:0:0:
64,192,155100,1,0,0:0:0:0:
448,192,155250,128,0,155400:0:0:0:0:
320,192,155400,1,0,0:0:0:0:
192,192,155400,1,0,0:0:0:0:
64,192,155550,1,0,0:0:0:0:
320,192,155700,1,0,0:0:0:0:
448,192,155700,1,0,0:0:0:0:
64,192,155775,1,0,0:0:0:0:
192,192,155850,1,0,0:0:0:0:
320,192,155850,1,0,0:0:0:0:
448,192,156000,1,0,0:0:0:0:
64,192,156000,1,0,0:0:0:0:
192,192,156150,1,0,0:0:0:0:
448,192,156300,1,0,0:0:0:0:
320,192,156300,1,0,0:0:0:0:
192,192,156375,1,0,0:0:0:0:
64,192,156450,1,0,0:0:0:0:
320,192,156525,1,0,0:0:0:0:
192,192,156600,1,0,0:0:0:0:
64,192,156600,1,0,0:0:0:0:
448,192,156750,1,0,0:0:0:0:
192,192,156825,1,0,0:0:0:0:
320,192,156900,1,0,0:0:0:0:
448,192,156900,1,0,0:0:0:0:
64,192,156975,1,0,0:0:0:0:
192,192,157050,1,0,0:0:0:0:
448,192,157125,1,0,0:0:0:0:
320,192,157200,1,0,0:0:0:0:
192,192,157200,1,0,0:0:0:0:
64,192,157350,1,0,0:0:0:0:
448,192,157500,1,0,0:0:0:0:
192,192,157500,1,0,0:0:0:0:
320,192,157575,1,0,0:0:0:0:
64,192,157650,1,0,0:0:0:0:
320,192,157800,1,0,0:0:0:0:
448,192,157800,1,0,0:0:0:0:
64,192,157950,1,0,0:0:0:0:
320,192,158025,1,0,0:0:0:0:
320,192,158100,1,0,0:0:0:0:
448,192,158100,1,0,0:0:0:0:
64,192,158175,1,0,0:0:0:0:
192,192,158250,1,0,0:0:0:0:
320,192,158250,1,0,0:0:0:0:
448,192,158400,1,0,0:0:0:0:
320,192,158400,1,0,0:0:0:0:
64,192,158400,1,0,0:0:0:0:
448,192,158550,1,0,0:0:0:0:
320,192,158550,1,0,0:0:0:0:
64,192,158550,1,0,0:0:0:0:
192,192,158700,1,0,0:0:0:0:
320,192,158700,1,0,0:0:0:0:
64,192,158775,1,0,0:0:0:0:
448,192,158850,1,0,0:0:0:0:
192,192,158850,1,0,0:0:0:0:
320,192,158850,1,0,0:0:0:0:
320,192,159000,1,0,0:0:0:0:
64,192,159000,1,0,0:0:0:0:
192,192,159100,1,0,0:0:0:0:
320,192,159200,1,0,0:0:0:0:
64,192,159300,1,0,0:0:0:0:
448,192,159300,1,0,0:0:0:0:
192,192,159375,1,0,0:0:0:0:
320,192,159400,1,0,0:0:0:0:
448,192,159450,1,0,0:0:0:0:
64,192,159500,1,0,0:0:0:0:
192,192,159600,1,0,0:0:0:0:
320,192,159600,1,0,0:0:0:0:
448,192,159700,1,0,0:0:0:0:
192,192,159800,1,0,0:0:0:0:
448,192,159900,1,0,0:0:0:0:
64,192,159900,1,0,0:0:0:0:
320,192,159975,1,0,0:0:0:0:
192,192,160000,1,0,0:0:0:0:
64,192,160050,1,0,0:0:0:0:
320,192,160100,1,0,0:0:0:0:
448,192,160200,1,0,0:0:0:0:
192,192,160200,1,0,0:0:0:0:
64,192,160200,1,0,0:0:0:0:
320,192,160350,1,0,0:0:0:0:
64,192,160500,1,0,0:0:0:0:
448,192,160500,1,0,0:0:0:0:
192,192,160575,1,0,0:0:0:0:
320,192,160650,1,0,0:0:0:0:
448,192,160725,1,0,0:0:0:0:
64,192,160800,1,0,0:0:0:0:
192,192,160800,1,0,0:0:0:0:
192,192,160950,1,0,0:0:0:0:
448,192,161100,1,0,0:0:0:0:
192,192,161100,1,0,0:0:0:0:
64,192,161175,1,0,0:0:0:0:
320,192,161250,1,0,0:0:0:0:
64,192,161400,1,0,0:0:0:0:
192,192,161400,1,0,0:0:0:0:
448,192,161400,1,0,0:0:0:0:
448,192,161550,1,0,0:0:0:0:
320,192,161700,1,0,0:0:0:0:
192,192,161700,1,0,0:0:0:0:
64,192,161775,1,0,0:0:0:0:
320,192,161850,1,0,0:0:0:0:
192,192,161925,1,0,0:0:0:0:
320,192,161962,1,0,0:0:0:0:
448,192,162000,1,0,0:0:0:0:
192,192,162075,1,0,0:0:0:0:
64,192,162150,1,0,0:0:0:0:
320,192,162225,1,0,0:0:0:0:
192,192,162300,1,0,0:0:0:0:
64,192,162300,1,0,0:0:0:0:
448,192,162375,1,0,0:0:0:0:
192,192,162450,1,0,0:0:0:0:
320,192,162525,1,0,0:0:0:0:
448,192,162600,1,0,0:0:0:0:
64,192,162600,1,0,0:0:0:0:
192,192,162600,1,0,0:0:0:0:
320,192,162750,1,0,0:0:0:0:
64,192,162900,1,0,0:0:0:0:
192,192,162900,1,0,0:0:0:0:
448,192,162975,1,0,0:0:0:0:
320,192,163050,1,0,0:0:0:0:
64,192,163200,1,0,0:0:0:0:
448,192,163200,1,0,0:0:0:0:
320,192,163350,1,0,0:0:0:0:
192,192,163350,1,0,0:0:0:0:
448,192,163500,1,0,0:0:0:0:
320,192,163500,1,0,0:0:0:0:
64,192,163500,1,0,0:0:0:0:
64,192,163650,1,0,0:0:0:0:
192,192,163650,1,0,0:0:0:0:
448,192,163650,1,0,0:0:0:0:
320,192,163800,1,0,0:0:0:0:
448,192,163800,1,0,0:0:0:0:
192,192,163800,1,0,0:0:0:0:
64,192,163875,1,0,0:0:0:0:
448,192,163950,1,0,0:0:0:0:
320,192,163950,1,0,0:0:0:0:
192,192,164025,1,0,0:0:0:0:
64,192,164025,1,0,0:0:0:0:
448,192,164100,1,0,0:0:0:0:
320,192,164100,1,0,0:0:0:0:
64,192,164175,1,0,0:0:0:0:
192,192,164175,1,0,0:0:0:0:
448,192,164250,1,0,0:0:0:0:
320,192,164250,1,0,0:0:0:0:
64,192,164325,1,0,0:0:0:0:
448,192,164400,1,0,0:0:0:0:
192,192,164400,1,0,0:0:0:0:
320,192,164700,1,0,0:0:0:0:
192,192,164700,1,0,0:0:0:0:
64,192,164700,1,0,0:0:0:0:
448,192,165000,1,0,0:0:0:0:
320,192,165000,1,0,0:0:0:0:
192,192,165000,1,0,0:0:0:0:
448,192,165150,1,0,0:0:0:0:
64,192,165150,1,0,0:0:0:0:
192,192,165300,1,0,0:0:0:0:
192,192,165450,1,0,0:0:0:0:
320,192,165450,1,0,0:0:0:0:
448,192,165450,1,0,0:0:0:0:
192,192,165750,1,0,0:0:0:0:
448,192,165900,1,0,0:0:0:0:
320,192,165900,1,0,0:0:0:0:
192,192,165900,1,0,0:0:0:0:
448,192,166050,1,0,0:0:0:0:
64,192,166050,1,0,0:0:0:0:
192,192,166200,1,0,0:0:0:0:
192,192,166350,1,0,0:0:0:0:
320,192,166350,1,0,0:0:0:0:
448,192,166350,1,0,0:0:0:0:
192,192,166650,1,0,0:0:0:0:
448,192,166800,1,0,0:0:0:0:
320,192,166800,1,0,0:0:0:0:
192,192,166800,1,0,0:0:0:0:
192,192,167100,1,0,0:0:0:0:
320,192,167100,1,0,0:0:0:0:
64,192,167100,1,0,0:0:0:0:
448,192,167400,1,0,0:0:0:0:
192,192,167400,1,0,0:0:0:0:
64,192,167400,1,0,0:0:0:0:
64,192,167550,1,0,0:0:0:0:
192,192,167700,1,0,0:0:0:0:
320,192,167700,1,0,0:0:0:0:
448,192,167850,1,0,0:0:0:0:
320,192,168000,1,0,0:0:0:0:
192,192,168000,1,0,0:0:0:0:
64,192,168000,1,0,0:0:0:0:
448,192,168150,1,0,0:0:0:0:
64,192,168300,1,0,0:0:0:0:
192,192,168300,1,0,0:0:0:0:
320,192,168375,1,0,0:0:0:0:
448,192,168450,1,0,0:0:0:0:
64,192,168600,1,0,0:0:0:0:
320,192,168600,1,0,0:0:0:0:
192,192,168750,1,0,0:0:0:0:
448,192,168750,1,0,0:0:0:0:
320,192,168900,1,0,0:0:0:0:
64,192,169050,1,0,0:0:0:0:
448,192,169050,1,0,0:0:0:0:
192,192,169200,1,0,0:0:0:0:
320,192,169200,1,0,0:0:0:0:
320,192,169350,1,0,0:0:0:0:
64,192,169350,1,0,0:0:0:0:
448,192,169500,1,0,0:0:0:0:
64,192,169500,1,0,0:0:0:0:
320,192,169650,1,0,0:0:0:0:
192,192,169800,1,0,0:0:0:0:
64,192,169800,1,0,0:0:0:0:
448,192,169800,1,0,0:0:0:0:
192,192,169950,1,0,0:0:0:0:
448,192,169950,1,0,0:0:0:0:
64,192,170100,1,0,0:0:0:0:
64,192,170250,1,0,0:0:0:0:
448,192,170250,1,0,0:0:0:0:
192,192,170250,1,0,0:0:0:0:
64,192,170550,1,0,0:0:0:0:
192,192,170700,1,0,0:0:0:0:
448,192,170700,1,0,0:0:0:0:
64,192,170700,1,0,0:0:0:0:
448,192,170850,1,0,0:0:0:0:
192,192,170850,1,0,0:0:0:0:
64,192,171000,1,0,0:0:0:0:
64,192,171150,1,0,0:0:0:0:
448,192,171150,1,0,0:0:0:0:
192,192,171150,1,0,0:0:0:0:
64,192,171450,1,0,0:0:0:0:
192,192,171600,1,0,0:0:0:0:
448,192,171600,1,0,0:0:0:0:
64,192,171600,1,0,0:0:0:0:
64,192,171900,1,0,0:0:0:0:
320,192,171900,1,0,0:0:0:0:
448,192,171900,1,0,0:0:0:0:
64,192,172200,1,0,0:0:0:0:
192,192,172200,1,0,0:0:0:0:
448,192,172200,1,0,0:0:0:0:
320,192,172350,1,0,0:0:0:0:
64,192,172500,1,0,0:0:0:0:
192,192,172500,1,0,0:0:0:0:
448,192,172650,1,0,0:0:0:0:
320,192,172800,1,0,0:0:0:0:
192,192,172800,1,0,0:0:0:0:
64,192,172800,1,0,0:0:0:0:
448,192,172950,1,0,0:0:0:0:
320,192,173100,1,0,0:0:0:0:
64,192,173100,1,0,0:0:0:0:
192,192,173175,1,0,0:0:0:0:
448,192,173250,1,0,0:0:0:0:
192,192,173400,1,0,0:0:0:0:
64,192,173400,1,0,0:0:0:0:
320,192,173550,1,0,0:0:0:0:
448,192,173550,1,0,0:0:0:0:
64,192,173700,1,0,0:0:0:0:
448,192,173850,1,0,0:0:0:0:
192,192,173850,1,0,0:0:0:0:
192,192,174000,1,0,0:0:0:0:
64,192,174000,1,0,0:0:0:0:
448,192,174150,1,0,0:0:0:0:
320,192,174150,1,0,0:0:0:0:
448,192,174300,1,0,0:0:0:0:
64,192,174300,1,0,0:0:0:0:
192,192,174450,1,0,0:0:0:0:
448,192,174600,1,0,0:0:0:0:
320,192,174600,1,0,0:0:0:0:
64,192,174675,1,0,0:0:0:0:
320,192,174750,1,0,0:0:0:0:
448,192,174750,1,0,0:0:0:0:
192,192,174825,1,0,0:0:0:0:
64,192,174900,1,0,0:0:0:0:
448,192,174900,1,0,0:0:0:0:
320,192,174975,1,0,0:0:0:0:
192,192,175050,1,0,0:0:0:0:
64,192,175050,1,0,0:0:0:0:
320,192,175125,1,0,0:0:0:0:
64,192,175200,1,0,0:0:0:0:
192,192,175275,1,0,0:0:0:0:
320,192,175350,1,0,0:0:0:0:
448,192,175350,1,0,0:0:0:0:
64,192,175425,1,0,0:0:0:0:
320,192,175500,1,0,0:0:0:0:
192,192,175500,1,0,0:0:0:0:
448,192,175575,1,0,0:0:0:0:
64,192,175650,1,0,0:0:0:0:
320,192,175725,1,0,0:0:0:0:
448,192,175800,1,0,0:0:0:0:
192,192,175800,1,0,0:0:0:0:
64,192,175875,1,0,0:0:0:0:
320,192,175950,1,0,0:0:0:0:
448,192,175950,1,0,0:0:0:0:
64,192,176025,1,0,0:0:0:0:
320,192,176100,1,0,0:0:0:0:
448,192,176175,1,0,0:0:0:0:
192,192,176250,1,0,0:0:0:0:
64,192,176250,1,0,0:0:0:0:
320,192,176325,1,0,0:0:0:0:
448,192,176400,1,0,0:0:0:0:
64,192,176400,1,0,0:0:0:0:
192,192,176475,1,0,0:0:0:0:
320,192,176550,1,0,0:0:0:0:
448,192,176625,1,0,0:0:0:0:
64,192,176700,1,0,0:0:0:0:
320,192,176700,1,0,0:0:0:0:
192,192,176775,1,0,0:0:0:0:
448,192,176850,1,0,0:0:0:0:
64,192,176925,1,0,0:0:0:0:
192,192,177000,1,0,0:0:0:0:
320,192,177000,1,0,0:0:0:0:
64,192,177075,1,0,0:0:0:0:
320,192,177150,1,0,0:0:0:0:
192,192,177225,1,0,0:0:0:0:
448,192,177300,1,0,0:0:0:0:
320,192,177300,1,0,0:0:0:0:
64,192,177375,1,0,0:0:0:0:
192,192,177450,1,0,0:0:0:0:
448,192,177525,1,0,0:0:0:0:
320,192,177600,1,0,0:0:0:0:
64,192,177600,1,0,0:0:0:0:
192,192,177675,1,0,0:0:0:0:
320,192,177750,1,0,0:0:0:0:
448,192,177750,1,0,0:0:0:0:
64,192,177825,1,0,0:0:0:0:
192,192,177900,1,0,0:0:0:0:
320,192,177900,1,0,0:0:0:0:
448,192,177975,1,0,0:0:0:0:
64,192,178050,1,0,0:0:0:0:
192,192,178050,1,0,0:0:0:0:
320,192,178125,1,0,0:0:0:0:
448,192,178200,1,0,0:0:0:0:
64,192,178275,1,0,0:0:0:0:
192,192,178350,1,0,0:0:0:0:
448,192,178350,1,0,0:0:0:0:
320,192,178425,1,0,0:0:0:0:
64,192,178500,1,0,0:0:0:0:
448,192,178575,1,0,0:0:0:0:
320,192,178650,1,0,0:0:0:0:
192,192,178650,1,0,0:0:0:0:
64,192,178725,1,0,0:0:0:0:
448,192,178800,1,0,0:0:0:0:
192,192,178875,1,0,0:0:0:0:
320,192,178950,1,0,0:0:0:0:
448,192,178950,1,0,0:0:0:0:
64,192,179025,1,0,0:0:0:0:
320,192,179100,1,0,0:0:0:0:
448,192,179100,1,0,0:0:0:0:
192,192,179175,1,0,0:0:0:0:
64,192,179250,1,0,0:0:0:0:
448,192,179325,1,0,0:0:0:0:
320,192,179400,1,0,0:0:0:0:
64,192,179400,1,0,0:0:0:0:
448,192,179475,1,0,0:0:0:0:
192,192,179550,1,0,0:0:0:0:
64,192,179550,1,0,0:0:0:0:
320,192,179625,1,0,0:0:0:0:
448,192,179700,1,0,0:0:0:0:
192,192,179700,1,0,0:0:0:0:
64,192,179775,1,0,0:0:0:0:
320,192,179850,1,0,0:0:0:0:
448,192,179850,1,0,0:0:0:0:
64,192,179925,1,0,0:0:0:0:
320,192,180000,1,0,0:0:0:0:
448,192,180000,1,0,0:0:0:0:
192,192,180075,1,0,0:0:0:0:
64,192,180150,1,0,0:0:0:0:
448,192,180150,1,0,0:0:0:0:
320,192,180225,1,0,0:0:0:0:
192,192,180300,1,0,0:0:0:0:
64,192,180300,1,0,0:0:0:0:
320,192,180375,1,0,0:0:0:0:
64,192,180450,1,0,0:0:0:0:
448,192,180450,1,0,0:0:0:0:
192,192,180525,1,0,0:0:0:0:
448,192,180600,1,0,0:0:0:0:
320,192,180600,1,0,0:0:0:0:
64,192,180675,1,0,0:0:0:0:
192,192,180750,1,0,0:0:0:0:
320,192,180750,1,0,0:0:0:0:
448,192,180825,1,0,0:0:0:0:
320,192,180900,1,0,0:0:0:0:
64,192,180900,1,0,0:0:0:0:
192,192,180975,1,0,0:0:0:0:
448,192,181050,1,0,0:0:0:0:
320,192,181050,1,0,0:0:0:0:
64,192,181125,1,0,0:0:0:0:
192,192,181200,1,0,0:0:0:0:
320,192,181200,1,0,0:0:0:0:
448,192,181275,1,0,0:0:0:0:
192,192,181350,1,0,0:0:0:0:
64,192,181350,1,0,0:0:0:0:
448,192,181425,1,0,0:0:0:0:
320,192,181500,1,0,0:0:0:0:
64,192,181500,1,0,0:0:0:0:
192,192,181575,1,0,0:0:0:0:
448,192,181650,1,0,0:0:0:0:
64,192,181650,1,0,0:0:0:0:
320,192,181725,1,0,0:0:0:0:
192,192,181800,1,0,0:0:0:0:
64,192,181800,1,0,0:0:0:0:
448,192,181875,1,0,0:0:0:0:
320,192,181875,1,0,0:0:0:0:
192,192,181950,1,0,0:0:0:0:
64,192,181950,1,0,0:0:0:0:
448,192,182025,1,0,0:0:0:0:
320,192,182100,1,0,0:0:0:0:
192,192,182100,1,0,0:0:0:0:
64,192,182175,1,0,0:0:0:0:
448,192,182175,1,0,0:0:0:0:
320,192,182250,1,0,0:0:0:0:
192,192,182250,1,0,0:0:0:0:
64,192,182325,1,0,0:0:0:0:
448,192,182400,1,0,0:0:0:0:
320,192,182400,1,0,0:0:0:0:
192,192,182475,1,0,0:0:0:0:
64,192,182475,1,0,0:0:0:0:
320,192,182550,1,0,0:0:0:0:
448,192,182550,1,0,0:0:0:0:
64,192,182625,1,0,0:0:0:0:
192,192,182700,1,0,0:0:0:0:
448,192,182700,1,0,0:0:0:0:
320,192,182775,1,0,0:0:0:0:
64,192,182775,1,0,0:0:0:0:
192,192,182850,1,0,0:0:0:0:
448,192,182850,1,0,0:0:0:0:
320,192,182925,1,0,0:0:0:0:
192,192,183000,1,0,0:0:0:0:
64,192,183000,1,0,0:0:0:0:
448,192,183075,1,0,0:0:0:0:
320,192,183075,1,0,0:0:0:0:
192,192,183150,1,0,0:0:0:0:
64,192,183150,1,0,0:0:0:0:
320,192,183225,1,0,0:0:0:0:
448,192,183225,1,0,0:0:0:0:
192,192,183300,1,0,0:0:0:0:
64,192,183300,1,0,0:0:0:0:
448,192,183375,1,0,0:0:0:0:
320,192,183375,1,0,0:0:0:0:
192,192,183450,1,0,0:0:0:0:
64,192,183450,1,0,0:0:0:0:
320,192,183525,1,0,0:0:0:0:
448,192,183525,1,0,0:0:0:0:
64,192,183600,1,0,0:0:0:0:
192,192,183600,1,0,0:0:0:0:
448,192,183675,1,0,0:0:0:0:
320,192,183675,1,0,0:0:0:0:
192,192,183750,1,0,0:0:0:0:
64,192,183750,1,0,0:0:0:0:
320,192,183825,1,0,0:0:0:0:
448,192,183825,1,0,0:0:0:0:
64,192,183900,1,0,0:0:0:0:
192,192,183900,1,0,0:0:0:0:
448,192,183975,1,0,0:0:0:0:
320,192,183975,1,0,0:0:0:0:
192,192,184050,1,0,0:0:0:0:
64,192,184050,1,0,0:0:0:0:
320,192,184125,1,0,0:0:0:0:
448,192,184125,1,0,0:0:0:0:
64,192,184200,128,0,185400:0:0:0:0:
192,192,186000,1,0,0:0:0:0:
320,192,186150,1,0,0:0:0:0:
448,192,186300,1,0,0:0:0:0:
64,192,186450,1,0,0:0:0:0:
320,192,186600,128,0,187200:0:0:0:0:
192,192,187200,128,0,187800:0:0:0:0:
448,192,187500,1,0,0:0:0:0:
64,192,187650,1,0,0:0:0:0:
448,192,187800,128,0,188400:0:0:0:0:
320,192,188400,128,0,189000:0:0:0:0:
192,192,188550,1,0,0:0:0:0:
64,192,188700,1,0,0:0:0:0:
448,192,188850,1,0,0:0:0:0:
64,192,189000,128,0,189600:0:0:0:0:
448,192,189600,128,0,190200:0:0:0:0:
320,192,189750,1,0,0:0:0:0:
192,192,189900,1,0,0:0:0:0:
64,192,190050,1,0,0:0:0:0:
192,192,190200,128,0,190800:0:0:0:0:
320,192,190800,128,0,191400:0:0:0:0:
64,192,190950,1,0,0:0:0:0:
448,192,191100,1,0,0:0:0:0:
192,192,191250,1,0,0:0:0:0:
64,192,191400,128,0,192000:0:0:0:0:
448,192,192000,128,0,192600:0:0:0:0:
320,192,192300,1,0,0:0:0:0:
320,192,192450,1,0,0:0:0:0:
192,192,192600,128,0,193200:0:0:0:0:
64,192,193200,128,0,193800:0:0:0:0:
448,192,193200,1,0,0:0:0:0:
320,192,193275,1,0,0:0:0:0:
448,192,193350,1,0,0:0:0:0:
320,192,193425,1,0,0:0:0:0:
448,192,193500,1,0,0:0:0:0:
192,192,193575,1,0,0:0:0:0:
448,192,193650,1,0,0:0:0:0:
192,192,193725,1,0,0:0:0:0:
448,192,193800,128,0,194400:0:0:0:0:
192,192,193875,1,0,0:0:0:0:
320,192,193950,1,0,0:0:0:0:
192,192,194025,1,0,0:0:0:0:
320,192,194100,1,0,0:0:0:0:
64,192,194175,1,0,0:0:0:0:
192,192,194250,1,0,0:0:0:0:
64,192,194325,1,0,0:0:0:0:
320,192,194400,1,0,0:0:0:0:
192,192,194475,1,0,0:0:0:0:
64,192,194475,1,0,0:0:0:0:
320,192,194550,1,0,0:0:0:0:
192,192,194625,1,0,0:0:0:0:
64,192,194625,1,0,0:0:0:0:
448,192,194700,1,0,0:0:0:0:
64,192,194775,1,0,0:0:0:0:
192,192,194775,1,0,0:0:0:0:
448,192,194850,1,0,0:0:0:0:
192,192,194925,1,0,0:0:0:0:
64,192,194925,1,0,0:0:0:0:
320,192,195600,1,0,0:0:0:0:
192,192,195600,1,0,0:0:0:0:
448,192,195750,1,0,0:0:0:0:
192,192,195750,1,0,0:0:0:0:
448,192,195900,1,0,0:0:0:0:
320,192,195900,1,0,0:0:0:0:
64,192,196050,1,0,0:0:0:0:
192,192,196050,1,0,0:0:0:0:
192,192,196200,1,0,0:0:0:0:
320,192,196200,1,0,0:0:0:0:
448,192,196200,1,0,0:0:0:0:
64,192,196275,1,0,0:0:0:0:
192,192,196350,1,0,0:0:0:0:
448,192,196425,1,0,0:0:0:0:
320,192,196500,1,0,0:0:0:0:
192,192,196500,1,0,0:0:0:0:
64,192,196575,1,0,0:0:0:0:
448,192,196650,1,0,0:0:0:0:
64,192,196725,1,0,0:0:0:0:
192,192,196800,1,0,0:0:0:0:
320,192,196800,1,0,0:0:0:0:
448,192,196875,1,0,0:0:0:0:
192,192,196950,1,0,0:0:0:0:
64,192,197025,1,0,0:0:0:0:
320,192,197100,1,0,0:0:0:0:
448,192,197100,1,0,0:0:0:0:
192,192,197175,1,0,0:0:0:0:
448,192,197250,1,0,0:0:0:0:
320,192,197250,1,0,0:0:0:0:
64,192,197325,1,0,0:0:0:0:
448,192,197400,1,0,0:0:0:0:
320,192,197400,1,0,0:0:0:0:
192,192,197400,1,0,0:0:0:0:
64,192,197475,1,0,0:0:0:0:
320,192,197550,1,0,0:0:0:0:
448,192,197625,1,0,0:0:0:0:
64,192,197700,1,0,0:0:0:0:
192,192,197700,1,0,0:0:0:0:
448,192,197775,1,0,0:0:0:0:
320,192,197850,1,0,0:0:0:0:
64,192,197925,1,0,0:0:0:0:
192,192,198000,1,0,0:0:0:0:
448,192,198000,1,0,0:0:0:0:
320,192,198075,1,0,0:0:0:0:
64,192,198150,1,0,0:0:0:0:
192,192,198150,1,0,0:0:0:0:
320,192,198225,1,0,0:0:0:0:
448,192,198300,1,0,0:0:0:0:
64,192,198300,1,0,0:0:0:0:
192,192,198375,1,0,0:0:0:0:
320,192,198450,1,0,0:0:0:0:
448,192,198450,1,0,0:0:0:0:
64,192,198525,1,0,0:0:0:0:
192,192,198600,1,0,0:0:0:0:
320,192,198600,1,0,0:0:0:0:
448,192,198600,1,0,0:0:0:0:
64,192,198675,1,0,0:0:0:0:
320,192,198750,1,0,0:0:0:0:
64,192,198825,1,0,0:0:0:0:
192,192,198900,1,0,0:0:0:0:
448,192,198900,1,0,0:0:0:0:
320,192,198975,1,0,0:0:0:0:
64,192,199050,1,0,0:0:0:0:
448,192,199125,1,0,0:0:0:0:
320,192,199200,1,0,0:0:0:0:
192,192,199200,1,0,0:0:0:0:
64,192,199275,1,0,0:0:0:0:
448,192,199350,1,0,0:0:0:0:
320,192,199350,1,0,0:0:0:0:
64,192,199425,1,0,0:0:0:0:
192,192,199500,1,0,0:0:0:0:
320,192,199500,1,0,0:0:0:0:
448,192,199575,1,0,0:0:0:0:
64,192,199650,1,0,0:0:0:0:
192,192,199650,1,0,0:0:0:0:
448,192,199725,1,0,0:0:0:0:
320,192,199800,1,0,0:0:0:0:
64,192,199800,1,0,0:0:0:0:
192,192,199800,1,0,0:0:0:0:
448,192,199875,1,0,0:0:0:0:
64,192,199950,1,0,0:0:0:0:
320,192,200025,1,0,0:0:0:0:
192,192,200100,1,0,0:0:0:0:
64,192,200100,1,0,0:0:0:0:
448,192,200175,1,0,0:0:0:0:
320,192,200250,1,0,0:0:0:0:
64,192,200325,1,0,0:0:0:0:
448,192,200400,1,0,0:0:0:0:
320,192,200400,1,0,0:0:0:0:
192,192,200475,1,0,0:0:0:0:
448,192,200550,1,0,0:0:0:0:
320,192,200550,1,0,0:0:0:0:
192,192,200625,1,0,0:0:0:0:
448,192,200700,1,0,0:0:0:0:
64,192,200700,1,0,0:0:0:0:
320,192,200775,1,0,0:0:0:0:
64,192,200850,1,0,0:0:0:0:
192,192,200850,1,0,0:0:0:0:
448,192,200925,1,0,0:0:0:0:
192,192,201000,1,0,0:0:0:0:
64,192,201000,1,0,0:0:0:0:
320,192,201000,1,0,0:0:0:0:
448,192,201075,1,0,0:0:0:0:
192,192,201150,1,0,0:0:0:0:
320,192,201225,1,0,0:0:0:0:
448,192,201300,1,0,0:0:0:0:
64,192,201300,1,0,0:0:0:0:
192,192,201375,1,0,0:0:0:0:
448,192,201450,1,0,0:0:0:0:
64,192,201525,1,0,0:0:0:0:
192,192,201600,1,0,0:0:0:0:
448,192,201600,1,0,0:0:0:0:
320,192,201675,1,0,0:0:0:0:
64,192,201750,1,0,0:0:0:0:
192,192,201825,1,0,0:0:0:0:
320,192,201900,1,0,0:0:0:0:
64,192,201900,1,0,0:0:0:0:
448,192,201975,1,0,0:0:0:0:
192,192,202050,1,0,0:0:0:0:
64,192,202050,1,0,0:0:0:0:
320,192,202125,1,0,0:0:0:0:
192,192,202200,1,0,0:0:0:0:
64,192,202200,1,0,0:0:0:0:
448,192,202200,1,0,0:0:0:0:
320,192,202275,1,0,0:0:0:0:
192,192,202350,1,0,0:0:0:0:
64,192,202425,1,0,0:0:0:0:
448,192,202500,1,0,0:0:0:0:
320,192,202500,1,0,0:0:0:0:
64,192,202575,1,0,0:0:0:0:
192,192,202650,1,0,0:0:0:0:
448,192,202725,1,0,0:0:0:0:
320,192,202800,1,0,0:0:0:0:
192,192,202800,1,0,0:0:0:0:
64,192,202875,1,0,0:0:0:0:
448,192,202950,1,0,0:0:0:0:
320,192,202950,1,0,0:0:0:0:
64,192,203025,1,0,0:0:0:0:
192,192,203100,1,0,0:0:0:0:
320,192,203100,1,0,0:0:0:0:
64,192,203175,1,0,0:0:0:0:
320,192,203250,1,0,0:0:0:0:
448,192,203250,1,0,0:0:0:0:
192,192,203325,1,0,0:0:0:0:
448,192,203400,1,0,0:0:0:0:
320,192,203400,1,0,0:0:0:0:
64,192,203400,1,0,0:0:0:0:
192,192,203475,1,0,0:0:0:0:
320,192,203550,1,0,0:0:0:0:
448,192,203625,1,0,0:0:0:0:
320,192,203700,1,0,0:0:0:0:
64,192,203700,1,0,0:0:0:0:
192,192,203775,1,0,0:0:0:0:
448,192,203850,1,0,0:0:0:0:
64,192,203925,1,0,0:0:0:0:
320,192,204000,1,0,0:0:0:0:
448,192,204000,1,0,0:0:0:0:
192,192,204075,1,0,0:0:0:0:
320,192,204150,1,0,0:0:0:0:
448,192,204150,1,0,0:0:0:0:
192,192,204225,1,0,0:0:0:0:
64,192,204300,1,0,0:0:0:0:
448,192,204300,1,0,0:0:0:0:
320,192,204375,1,0,0:0:0:0:
64,192,204450,1,0,0:0:0:0:
192,192,204450,1,0,0:0:0:0:
448,192,204450,1,0,0:0:0:0:
320,192,204750,1,0,0:0:0:0:
448,192,204750,1,0,0:0:0:0:
64,192,204750,1,0,0:0:0:0:
64,192,205050,1,0,0:0:0:0:
320,192,205050,1,0,0:0:0:0:
448,192,205050,1,0,0:0:0:0:
192,192,205200,1,0,0:0:0:0:
320,192,205200,1,0,0:0:0:0:
448,192,205350,1,0,0:0:0:0:
192,192,205350,1,0,0:0:0:0:
320,192,205500,1,0,0:0:0:0:
448,192,205500,1,0,0:0:0:0:
64,192,205500,1,0,0:0:0:0:
192,192,205650,1,0,0:0:0:0:
64,192,205650,1,0,0:0:0:0:
448,192,205800,1,0,0:0:0:0:
320,192,205800,1,0,0:0:0:0:
192,192,205800,1,0,0:0:0:0:
64,192,205875,1,0,0:0:0:0:
448,192,205950,1,0,0:0:0:0:
320,192,206025,1,0,0:0:0:0:
64,192,206100,1,0,0:0:0:0:
192,192,206100,1,0,0:0:0:0:
320,192,206175,1,0,0:0:0:0:
448,192,206250,1,0,0:0:0:0:
192,192,206325,1,0,0:0:0:0:
320,192,206400,1,0,0:0:0:0:
448,192,206400,1,0,0:0:0:0:
64,192,206475,1,0,0:0:0:0:
192,192,206550,1,0,0:0:0:0:
448,192,206625,1,0,0:0:0:0:
320,192,206700,1,0,0:0:0:0:
64,192,206700,1,0,0:0:0:0:
192,192,206775,1,0,0:0:0:0:
64,192,206850,1,0,0:0:0:0:
320,192,206850,1,0,0:0:0:0:
448,192,206925,1,0,0:0:0:0:
192,192,207000,1,0,0:0:0:0:
64,192,207000,1,0,0:0:0:0:
320,192,207000,1,0,0:0:0:0:
448,192,207075,1,0,0:0:0:0:
192,192,207150,1,0,0:0:0:0:
320,192,207225,1,0,0:0:0:0:
448,192,207300,1,0,0:0:0:0:
192,192,207300,1,0,0:0:0:0:
64,192,207375,1,0,0:0:0:0:
320,192,207450,1,0,0:0:0:0:
448,192,207450,1,0,0:0:0:0:
192,192,207525,1,0,0:0:0:0:
448,192,207600,1,0,0:0:0:0:
64,192,207600,1,0,0:0:0:0:
320,192,207675,1,0,0:0:0:0:
192,192,207750,1,0,0:0:0:0:
64,192,207825,1,0,0:0:0:0:
448,192,207825,1,0,0:0:0:0:
320,192,207900,1,0,0:0:0:0:
192,192,207900,1,0,0:0:0:0:
448,192,207975,1,0,0:0:0:0:
64,192,208050,1,0,0:0:0:0:
192,192,208050,1,0,0:0:0:0:
320,192,208125,1,0,0:0:0:0:
448,192,208200,1,0,0:0:0:0:
64,192,208200,1,0,0:0:0:0:
192,192,208275,1,0,0:0:0:0:
320,192,208350,1,0,0:0:0:0:
448,192,208350,1,0,0:0:0:0:
192,192,208425,1,0,0:0:0:0:
64,192,208425,1,0,0:0:0:0:
320,192,208500,1,0,0:0:0:0:
448,192,208500,1,0,0:0:0:0:
64,192,208575,1,0,0:0:0:0:
192,192,208650,1,0,0:0:0:0:
320,192,208650,1,0,0:0:0:0:
448,192,208650,1,0,0:0:0:0:
64,192,208950,1,0,0:0:0:0:
448,192,208950,1,0,0:0:0:0:
192,192,208950,1,0,0:0:0:0:
448,192,209250,1,0,0:0:0:0:
320,192,209250,1,0,0:0:0:0:
64,192,209250,1,0,0:0:0:0:
320,192,209550,1,0,0:0:0:0:
192,192,209550,1,0,0:0:0:0:
64,192,209550,1,0,0:0:0:0:
320,192,209700,1,0,0:0:0:0:
192,192,209700,1,0,0:0:0:0:
64,192,209700,1,0,0:0:0:0:
448,192,210000,1,0,0:0:0:0:
320,192,210000,1,0,0:0:0:0:
192,192,210000,1,0,0:0:0:0:
64,192,210150,1,0,0:0:0:0:
448,192,210150,1,0,0:0:0:0:
448,192,210300,1,0,0:0:0:0:
320,192,210300,1,0,0:0:0:0:
64,192,210300,1,0,0:0:0:0:
192,192,210375,1,0,0:0:0:0:
320,192,210450,1,0,0:0:0:0:
448,192,210450,1,0,0:0:0:0:
64,192,210525,1,0,0:0:0:0:
192,192,210525,1,0,0:0:0:0:
320,192,210600,1,0,0:0:0:0:
448,192,210600,1,0,0:0:0:0:
64,192,210675,1,0,0:0:0:0:
448,192,210750,1,0,0:0:0:0:
320,192,210825,1,0,0:0:0:0:
64,192,210900,1,0,0:0:0:0:
192,192,210900,1,0,0:0:0:0:
448,192,210975,1,0,0:0:0:0:
192,192,211050,1,0,0:0:0:0:
320,192,211125,1,0,0:0:0:0:
448,192,211200,1,0,0:0:0:0:
64,192,211200,1,0,0:0:0:0:
192,192,211275,1,0,0:0:0:0:
448,192,211350,1,0,0:0:0:0:
64,192,211425,1,0,0:0:0:0:
192,192,211500,1,0,0:0:0:0:
320,192,211500,1,0,0:0:0:0:
64,192,211575,1,0,0:0:0:0:
320,192,211650,1,0,0:0:0:0:
448,192,211650,1,0,0:0:0:0:
64,192,211725,1,0,0:0:0:0:
448,192,211800,1,0,0:0:0:0:
320,192,211800,1,0,0:0:0:0:
192,192,211800,1,0,0:0:0:0:
64,192,211875,1,0,0:0:0:0:
320,192,211950,1,0,0:0:0:0:
192,192,212025,1,0,0:0:0:0:
320,192,212100,1,0,0:0:0:0:
448,192,212100,1,0,0:0:0:0:
64,192,212175,1,0,0:0:0:0:
448,192,212250,1,0,0:0:0:0:
192,192,212325,1,0,0:0:0:0:
64,192,212400,1,0,0:0:0:0:
320,192,212400,1,0,0:0:0:0:
448,192,212475,1,0,0:0:0:0:
64,192,212550,1,0,0:0:0:0:
192,192,212550,1,0,0:0:0:0:
320,192,212625,1,0,0:0:0:0:
448,192,212700,1,0,0:0:0:0:
64,192,212700,1,0,0:0:0:0:
192,192,212775,1,0,0:0:0:0:
320,192,212850,1,0,0:0:0:0:
448,192,212850,1,0,0:0:0:0:
64,192,212925,1,0,0:0:0:0:
192,192,213000,1,0,0:0:0:0:
320,192,213000,1,0,0:0:0:0:
448,192,213075,1,0,0:0:0:0:
320,192,213150,1,0,0:0:0:0:
192,192,213150,1,0,0:0:0:0:
64,192,213225,1,0,0:0:0:0:
192,192,213300,1,0,0:0:0:0:
320,192,213300,1,0,0:0:0:0:
448,192,213375,1,0,0:0:0:0:
192,192,213450,1,0,0:0:0:0:
320,192,213450,1,0,0:0:0:0:
64,192,213525,1,0,0:0:0:0:
192,192,213600,1,0,0:0:0:0:
320,192,213600,1,0,0:0:0:0:
448,192,213675,1,0,0:0:0:0:
320,192,213750,1,0,0:0:0:0:
192,192,213750,1,0,0:0:0:0:
64,192,213825,1,0,0:0:0:0:
192,192,213900,1,0,0:0:0:0:
320,192,213900,1,0,0:0:0:0:
448,192,213900,1,0,0:0:0:0:
64,192,213975,1,0,0:0:0:0:
192,192,214050,1,0,0:0:0:0:
448,192,214050,1,0,0:0:0:0:
320,192,214050,1,0,0:0:0:0:
192,192,214200,1,0,0:0:0:0:
64,192,214200,1,0,0:0:0:0:
320,192,214275,1,0,0:0:0:0:
448,192,214275,1,0,0:0:0:0:
192,192,214350,1,0,0:0:0:0:
64,192,214350,1,0,0:0:0:0:
320,192,214425,1,0,0:0:0:0:
448,192,214425,1,0,0:0:0:0:
192,192,214500,1,0,0:0:0:0:
64,192,214500,1,0,0:0:0:0:
320,192,214575,1,0,0:0:0:0:
448,192,214575,1,0,0:0:0:0:
192,192,214650,1,0,0:0:0:0:
64,192,214650,1,0,0:0:0:0:
448,192,214725,1,0,0:0:0:0:
64,192,214800,1,0,0:0:0:0:
320,192,214800,1,0,0:0:0:0:
320,192,215100,1,0,0:0:0:0:
448,192,215100,1,0,0:0:0:0:
192,192,215100,1,0,0:0:0:0:
192,192,215400,1,0,0:0:0:0:
64,192,215400,1,0,0:0:0:0:
320,192,215400,1,0,0:0:0:0:
448,192,215475,1,0,0:0:0:0:
320,192,215550,1,0,0:0:0:0:
64,192,215625,1,0,0:0:0:0:
192,192,215700,1,0,0:0:0:0:
448,192,215700,1,0,0:0:0:0:
64,192,215775,1,0,0:0:0:0:
320,192,215850,1,0,0:0:0:0:
192,192,215925,1,0,0:0:0:0:
448,192,216000,1,0,0:0:0:0:
320,192,216000,1,0,0:0:0:0:
64,192,216000,1,0,0:0:0:0:
192,192,216075,1,0,0:0:0:0:
448,192,216150,1,0,0:0:0:0:
64,192,216225,1,0,0:0:0:0:
192,192,216300,1,0,0:0:0:0:
448,192,216300,1,0,0:0:0:0:
320,192,216375,1,0,0:0:0:0:
64,192,216450,1,0,0:0:0:0:
192,192,216450,1,0,0:0:0:0:
448,192,216525,1,0,0:0:0:0:
320,192,216600,1,0,0:0:0:0:
192,192,216600,1,0,0:0:0:0:
64,192,216600,1,0,0:0:0:0:
448,192,216675,1,0,0:0:0:0:
64,192,216750,1,0,0:0:0:0:
192,192,216825,1,0,0:0:0:0:
320,192,216900,1,0,0:0:0:0:
448,192,216900,1,0,0:0:0:0:
64,192,216975,1,0,0:0:0:0:
448,192,217050,1,0,0:0:0:0:
192,192,217125,1,0,0:0:0:0:
64,192,217200,1,0,0:0:0:0:
320,192,217200,1,0,0:0:0:0:
448,192,217200,1,0,0:0:0:0:
192,192,217275,1,0,0:0:0:0:
320,192,217350,1,0,0:0:0:0:
448,192,217350,1,0,0:0:0:0:
64,192,217425,1,0,0:0:0:0:
448,192,217500,1,0,0:0:0:0:
192,192,217500,1,0,0:0:0:0:
320,192,217575,1,0,0:0:0:0:
64,192,217650,1,0,0:0:0:0:
192,192,217650,1,0,0:0:0:0:
448,192,217725,1,0,0:0:0:0:
320,192,217800,1,0,0:0:0:0:
192,192,217800,1,0,0:0:0:0:
64,192,217800,1,0,0:0:0:0:
448,192,217875,1,0,0:0:0:0:
64,192,217950,1,0,0:0:0:0:
192,192,218025,1,0,0:0:0:0:
320,192,218100,1,0,0:0:0:0:
448,192,218100,1,0,0:0:0:0:
192,192,218175,1,0,0:0:0:0:
448,192,218250,1,0,0:0:0:0:
192,192,218325,1,0,0:0:0:0:
320,192,218400,1,0,0:0:0:0:
64,192,218400,1,0,0:0:0:0:
448,192,218400,1,0,0:0:0:0:
192,192,218475,1,0,0:0:0:0:
64,192,218550,1,0,0:0:0:0:
448,192,218625,1,0,0:0:0:0:
320,192,218700,1,0,0:0:0:0:
192,192,218700,1,0,0:0:0:0:
64,192,218775,1,0,0:0:0:0:
448,192,218850,1,0,0:0:0:0:
192,192,218925,1,0,0:0:0:0:
320,192,219000,1,0,0:0:0:0:
448,192,219000,1,0,0:0:0:0:
64,192,219000,1,0,0:0:0:0:
192,192,219075,1,0,0:0:0:0:
320,192,219150,1,0,0:0:0:0:
448,192,219150,1,0,0:0:0:0:
64,192,219225,1,0,0:0:0:0:
320,192,219300,1,0,0:0:0:0:
192,192,219300,1,0,0:0:0:0:
448,192,219375,1,0,0:0:0:0:
64,192,219450,1,0,0:0:0:0:
192,192,219450,1,0,0:0:0:0:
448,192,219525,1,0,0:0:0:0:
320,192,219600,1,0,0:0:0:0:
64,192,219600,1,0,0:0:0:0:
192,192,219600,1,0,0:0:0:0:
448,192,219675,1,0,0:0:0:0:
320,192,219750,1,0,0:0:0:0:
64,192,219750,1,0,0:0:0:0:
192,192,219825,1,0,0:0:0:0:
448,192,219900,1,0,0:0:0:0:
320,192,219900,1,0,0:0:0:0:
64,192,219975,1,0,0:0:0:0:
448,192,220050,1,0,0:0:0:0:
320,192,220050,1,0,0:0:0:0:
192,192,220125,1,0,0:0:0:0:
448,192,220200,1,0,0:0:0:0:
64,192,220200,1,0,0:0:0:0:
320,192,220200,1,0,0:0:0:0:
192,192,220275,1,0,0:0:0:0:
448,192,220350,1,0,0:0:0:0:
64,192,220425,1,0,0:0:0:0:
192,192,220500,1,0,0:0:0:0:
320,192,220500,1,0,0:0:0:0:
448,192,220575,1,0,0:0:0:0:
64,192,220650,1,0,0:0:0:0:
448,192,220725,1,0,0:0:0:0:
192,192,220800,1,0,0:0:0:0:
320,192,220800,1,0,0:0:0:0:
64,192,220800,1,0,0:0:0:0:
448,192,220875,1,0,0:0:0:0:
192,192,220950,1,0,0:0:0:0:
64,192,220950,1,0,0:0:0:0:
320,192,221025,1,0,0:0:0:0:
64,192,221100,1,0,0:0:0:0:
192,192,221100,1,0,0:0:0:0:
448,192,221175,1,0,0:0:0:0:
320,192,221250,1,0,0:0:0:0:
192,192,221250,1,0,0:0:0:0:
64,192,221325,1,0,0:0:0:0:
192,192,221400,1,0,0:0:0:0:
320,192,221400,1,0,0:0:0:0:
448,192,221400,1,0,0:0:0:0:
64,192,221475,1,0,0:0:0:0:
448,192,221550,1,0,0:0:0:0:
192,192,221625,1,0,0:0:0:0:
320,192,221700,1,0,0:0:0:0:
448,192,221700,1,0,0:0:0:0:
64,192,221775,1,0,0:0:0:0:
192,192,221850,1,0,0:0:0:0:
448,192,221925,1,0,0:0:0:0:
64,192,222000,1,0,0:0:0:0:
192,192,222000,1,0,0:0:0:0:
320,192,222000,1,0,0:0:0:0:
448,192,222075,1,0,0:0:0:0:
64,192,222150,1,0,0:0:0:0:
192,192,222150,1,0,0:0:0:0:
320,192,222225,1,0,0:0:0:0:
448,192,222300,1,0,0:0:0:0:
64,192,222300,1,0,0:0:0:0:
192,192,222375,1,0,0:0:0:0:
320,192,222450,1,0,0:0:0:0:
448,192,222450,1,0,0:0:0:0:
64,192,222525,1,0,0:0:0:0:
192,192,222600,1,0,0:0:0:0:
320,192,222600,1,0,0:0:0:0:
448,192,222600,1,0,0:0:0:0:
64,192,222675,1,0,0:0:0:0:
448,192,222750,1,0,0:0:0:0:
192,192,222825,1,0,0:0:0:0:
320,192,222900,1,0,0:0:0:0:
448,192,222900,1,0,0:0:0:0:
64,192,222975,1,0,0:0:0:0:
192,192,223050,1,0,0:0:0:0:
320,192,223050,1,0,0:0:0:0:
448,192,223125,1,0,0:0:0:0:
64,192,223200,1,0,0:0:0:0:
192,192,223200,1,0,0:0:0:0:
320,192,223200,1,0,0:0:0:0:
448,192,223275,1,0,0:0:0:0:
192,192,223350,1,0,0:0:0:0:
64,192,223350,1,0,0:0:0:0:
320,192,223425,1,0,0:0:0:0:
192,192,223500,1,0,0:0:0:0:
64,192,223500,1,0,0:0:0:0:
320,192,223575,1,0,0:0:0:0:
448,192,223650,1,0,0:0:0:0:
64,192,223650,1,0,0:0:0:0:
192,192,223650,1,0,0:0:0:0:
192,192,223950,1,0,0:0:0:0:
64,192,223950,1,0,0:0:0:0:
448,192,223950,1,0,0:0:0:0:
192,192,224250,1,0,0:0:0:0:
64,192,224250,1,0,0:0:0:0:
448,192,224250,1,0,0:0:0:0:
320,192,224400,1,0,0:0:0:0:
448,192,224400,1,0,0:0:0:0:
192,192,224400,1,0,0:0:0:0:
64,192,224475,1,0,0:0:0:0:
448,192,224550,1,0,0:0:0:0:
320,192,224625,1,0,0:0:0:0:
192,192,224700,1,0,0:0:0:0:
64,192,224700,1,0,0:0:0:0:
448,192,224700,1,0,0:0:0:0:
320,192,224775,1,0,0:0:0:0:
64,192,224850,1,0,0:0:0:0:
192,192,224925,1,0,0:0:0:0:
320,192,225000,1,0,0:0:0:0:
448,192,225000,1,0,0:0:0:0:
64,192,225000,1,0,0:0:0:0:
192,192,225075,1,0,0:0:0:0:
320,192,225150,1,0,0:0:0:0:
448,192,225225,1,0,0:0:0:0:
64,192,225300,1,0,0:0:0:0:
192,192,225300,1,0,0:0:0:0:
320,192,225300,1,0,0:0:0:0:
448,192,225375,1,0,0:0:0:0:
64,192,225450,1,0,0:0:0:0:
192,192,225525,1,0,0:0:0:0:
320,192,225600,1,0,0:0:0:0:
448,192,225600,1,0,0:0:0:0:
64,192,225600,1,0,0:0:0:0:
192,192,225675,1,0,0:0:0:0:
448,192,225750,1,0,0:0:0:0:
64,192,225825,1,0,0:0:0:0:
192,192,225900,1,0,0:0:0:0:
320,192,225900,1,0,0:0:0:0:
448,192,225900,1,0,0:0:0:0:
64,192,225975,1,0,0:0:0:0:
320,192,226050,1,0,0:0:0:0:
192,192,226050,1,0,0:0:0:0:
448,192,226125,1,0,0:0:0:0:
64,192,226200,1,0,0:0:0:0:
192,192,226200,1,0,0:0:0:0:
320,192,226200,1,0,0:0:0:0:
448,192,226275,1,0,0:0:0:0:
64,192,226350,1,0,0:0:0:0:
192,192,226425,1,0,0:0:0:0:
320,192,226500,1,0,0:0:0:0:
448,192,226500,1,0,0:0:0:0:
64,192,226500,1,0,0:0:0:0:
192,192,226575,1,0,0:0:0:0:
448,192,226650,1,0,0:0:0:0:
64,192,226725,1,0,0:0:0:0:
192,192,226800,1,0,0:0:0:0:
320,192,226800,1,0,0:0:0:0:
448,192,226800,1,0,0:0:0:0:
64,192,226875,1,0,0:0:0:0:
448,192,226950,1,0,0:0:0:0:
192,192,226950,1,0,0:0:0:0:
320,192,227025,1,0,0:0:0:0:
192,192,227100,1,0,0:0:0:0:
64,192,227100,1,0,0:0:0:0:
448,192,227100,1,0,0:0:0:0:
320,192,227175,1,0,0:0:0:0:
192,192,227250,1,0,0:0:0:0:
64,192,227250,1,0,0:0:0:0:
448,192,227325,1,0,0:0:0:0:
192,192,227400,1,0,0:0:0:0:
320,192,227400,1,0,0:0:0:0:
64,192,227400,1,0,0:0:0:0:
320,192,227550,1,0,0:0:0:0:
192,192,227550,1,0,0:0:0:0:
64,192,227625,1,0,0:0:0:0:
320,192,227700,1,0,0:0:0:0:
192,192,227700,1,0,0:0:0:0:
448,192,227700,1,0,0:0:0:0:
64,192,227850,1,0,0:0:0:0:
320,192,227850,1,0,0:0:0:0:
448,192,227850,1,0,0:0:0:0:
192,192,228000,1,0,0:0:0:0:
64,192,228000,1,0,0:0:0:0:
192,192,228150,1,0,0:0:0:0:
320,192,228150,1,0,0:0:0:0:
448,192,228150,1,0,0:0:0:0:
64,192,228300,1,0,0:0:0:0:
320,192,228300,1,0,0:0:0:0:
192,192,228450,1,0,0:0:0:0:
320,192,228450,1,0,0:0:0:0:
448,192,228450,1,0,0:0:0:0:
64,192,228600,1,0,0:0:0:0:
192,192,228600,1,0,0:0:0:0:
320,192,228600,1,0,0:0:0:0:
448,192,228750,1,0,0:0:0:0:
320,192,228750,1,0,0:0:0:0:
64,192,228825,1,0,0:0:0:0:
192,192,228900,1,0,0:0:0:0:
320,192,228900,1,0,0:0:0:0:
448,192,228975,1,0,0:0:0:0:
64,192,229050,1,0,0:0:0:0:
192,192,229125,1,0,0:0:0:0:
320,192,229200,1,0,0:0:0:0:
448,192,229200,1,0,0:0:0:0:
64,192,229200,1,0,0:0:0:0:
192,192,229275,1,0,0:0:0:0:
320,192,229350,1,0,0:0:0:0:
192,192,229425,1,0,0:0:0:0:
64,192,229500,1,0,0:0:0:0:
448,192,229500,1,0,0:0:0:0:
320,192,229575,1,0,0:0:0:0:
192,192,229575,1,0,0:0:0:0:
64,192,229650,1,0,0:0:0:0:
448,192,229650,1,0,0:0:0:0:
320,192,229725,1,0,0:0:0:0:
192,192,229800,1,0,0:0:0:0:
64,192,229800,1,0,0:0:0:0:
448,192,229800,1,0,0:0:0:0:
320,192,229875,1,0,0:0:0:0:
192,192,229950,1,0,0:0:0:0:
64,192,229950,1,0,0:0:0:0:
448,192,230025,1,0,0:0:0:0:
320,192,230100,1,0,0:0:0:0:
192,192,230100,1,0,0:0:0:0:
64,192,230100,1,0,0:0:0:0:
448,192,230175,1,0,0:0:0:0:
192,192,230250,1,0,0:0:0:0:
320,192,230250,1,0,0:0:0:0:
64,192,230325,1,0,0:0:0:0:
192,192,230400,1,0,0:0:0:0:
320,192,230400,1,0,0:0:0:0:
448,192,230400,1,0,0:0:0:0:
64,192,230475,1,0,0:0:0:0:
448,192,230550,1,0,0:0:0:0:
320,192,230550,1,0,0:0:0:0:
64,192,230625,1,0,0:0:0:0:
448,192,230700,1,0,0:0:0:0:
192,192,230700,1,0,0:0:0:0:
320,192,230700,1,0,0:0:0:0:
64,192,230775,1,0,0:0:0:0:
192,192,230850,1,0,0:0:0:0:
320,192,230850,1,0,0:0:0:0:
448,192,230925,1,0,0:0:0:0:
64,192,231000,1,0,0:0:0:0:
192,192,231000,1,0,0:0:0:0:
320,192,231000,1,0,0:0:0:0:
448,192,231075,1,0,0:0:0:0:
64,192,231150,1,0,0:0:0:0:
320,192,231150,1,0,0:0:0:0:
192,192,231225,1,0,0:0:0:0:
320,192,231300,1,0,0:0:0:0:
448,192,231300,1,0,0:0:0:0:
64,192,231300,1,0,0:0:0:0:
192,192,231375,1,0,0:0:0:0:
320,192,231450,1,0,0:0:0:0:
448,192,231450,1,0,0:0:0:0:
64,192,231525,1,0,0:0:0:0:
192,192,231600,1,0,0:0:0:0:
320,192,231600,1,0,0:0:0:0:
448,192,231600,1,0,0:0:0:0:
64,192,231675,1,0,0:0:0:0:
192,192,231750,1,0,0:0:0:0:
320,192,231750,1,0,0:0:0:0:
448,192,231825,1,0,0:0:0:0:
320,192,231900,1,0,0:0:0:0:
192,192,231900,1,0,0:0:0:0:
64,192,231900,1,0,0:0:0:0:
448,192,231975,1,0,0:0:0:0:
192,192,232050,1,0,0:0:0:0:
320,192,232050,1,0,0:0:0:0:
64,192,232125,5,0,0:0:0:0:
320,192,232200,1,0,0:0:0:0:
448,192,232200,1,0,0:0:0:0:
192,192,232200,1,0,0:0:0:0:
64,192,232275,1,0,0:0:0:0:
320,192,232350,1,0,0:0:0:0:
448,192,232350,1,0,0:0:0:0:
192,192,232425,1,0,0:0:0:0:
320,192,232500,1,0,0:0:0:0:
448,192,232500,1,0,0:0:0:0:
64,192,232500,1,0,0:0:0:0:
192,192,232575,1,0,0:0:0:0:
320,192,232650,1,0,0:0:0:0:
448,192,232650,1,0,0:0:0:0:
64,192,232650,1,0,0:0:0:0:
192,192,232725,1,0,0:0:0:0:
320,192,232800,1,0,0:0:0:0:
448,192,232800,1,0,0:0:0:0:
64,192,232875,1,0,0:0:0:0:
448,192,232950,1,0,0:0:0:0:
320,192,232950,1,0,0:0:0:0:
192,192,232950,1,0,0:0:0:0:
192,192,233100,1,0,0:0:0:0:
320,192,233100,1,0,0:0:0:0:
64,192,233100,1,0,0:0:0:0:
64,192,233250,128,0,234000:0:0:0:0:
320,192,233250,1,0,0:0:0:0:
448,192,233250,1,0,0:0:0:0:
192,192,233325,1,0,0:0:0:0:
320,192,233400,1,0,0:0:0:0:
448,192,233400,1,0,0:0:0:0:
192,192,233475,1,0,0:0:0:0:
320,192,233550,1,0,0:0:0:0:
448,192,233550,1,0,0:0:0:0:
192,192,233625,1,0,0:0:0:0:
320,192,233700,1,0,0:0:0:0:
448,192,233700,1,0,0:0:0:0:
192,192,233775,1,0,0:0:0:0:
320,192,233850,1,0,0:0:0:0:
448,192,233850,1,0,0:0:0:0:
192,192,233925,1,0,0:0:0:0:
320,192,234000,1,0,0:0:0:0:
448,192,234000,1,0,0:0:0:0:
192,192,234300,128,0,234450:0:0:0:0:
64,192,234300,1,0,0:0:0:0:
64,192,234600,1,0,0:0:0:0:
320,192,234600,128,0,235800:0:0:0:0:
448,192,234600,1,0,0:0:0:0:
192,192,234750,1,0,0:0:0:0:
448,192,234900,1,0,0:0:0:0:
64,192,234900,1,0,0:0:0:0:
192,192,234975,1,0,0:0:0:0:
448,192,235050,1,0,0:0:0:0:
64,192,235200,1,0,0:0:0:0:
192,192,235200,1,0,0:0:0:0:
448,192,235350,1,0,0:0:0:0:
64,192,235500,1,0,0:0:0:0:
192,192,235500,1,0,0:0:0:0:
448,192,235575,1,0,0:0:0:0:
192,192,235650,1,0,0:0:0:0:
64,192,235800,1,0,0:0:0:0:
448,192,235800,1,0,0:0:0:0:
192,192,235950,1,0,0:0:0:0:
320,192,235950,1,0,0:0:0:0:
448,192,235950,1,0,0:0:0:0:
64,192,236100,1,0,0:0:0:0:
320,192,236100,1,0,0:0:0:0:
192,192,236175,1,0,0:0:0:0:
448,192,236250,1,0,0:0:0:0:
320,192,236400,1,0,0:0:0:0:
192,192,236400,1,0,0:0:0:0:
64,192,236550,1,0,0:0:0:0:
448,192,236700,1,0,0:0:0:0:
320,192,236700,1,0,0:0:0:0:
64,192,236775,1,0,0:0:0:0:
192,192,236850,1,0,0:0:0:0:
448,192,237000,1,0,0:0:0:0:
64,192,237000,1,0,0:0:0:0:
320,192,237150,1,0,0:0:0:0:
192,192,237300,1,0,0:0:0:0:
448,192,237300,1,0,0:0:0:0:
64,192,237375,1,0,0:0:0:0:
320,192,237450,1,0,0:0:0:0:
192,192,237600,1,0,0:0:0:0:
64,192,237600,1,0,0:0:0:0:
448,192,237750,1,0,0:0:0:0:
320,192,237900,1,0,0:0:0:0:
192,192,237900,1,0,0:0:0:0:
64,192,237975,1,0,0:0:0:0:
448,192,238050,1,0,0:0:0:0:
320,192,238125,1,0,0:0:0:0:
192,192,238200,1,0,0:0:0:0:
64,192,238200,1,0,0:0:0:0:
448,192,238350,1,0,0:0:0:0:
64,192,238500,1,0,0:0:0:0:
320,192,238500,1,0,0:0:0:0:
192,192,238575,1,0,0:0:0:0:
448,192,238650,1,0,0:0:0:0:
320,192,238650,1,0,0:0:0:0:
64,192,238800,1,0,0:0:0:0:
192,192,238800,1,0,0:0:0:0:
448,192,238950,1,0,0:0:0:0:
64,192,239100,1,0,0:0:0:0:
320,192,239100,1,0,0:0:0:0:
192,192,239175,1,0,0:0:0:0:
448,192,239250,1,0,0:0:0:0:
320,192,239250,1,0,0:0:0:0:
192,192,239400,1,0,0:0:0:0:
320,192,239400,1,0,0:0:0:0:
64,192,239550,1,0,0:0:0:0:
448,192,239700,1,0,0:0:0:0:
320,192,239700,1,0,0:0:0:0:
64,192,239775,1,0,0:0:0:0:
192,192,239850,1,0,0:0:0:0:
320,192,239850,1,0,0:0:0:0:
448,192,240000,1,0,0:0:0:0:
64,192,240000,1,0,0:0:0:0:
320,192,240150,1,0,0:0:0:0:
64,192,240300,1,0,0:0:0:0:
192,192,240300,1,0,0:0:0:0:
448,192,240375,1,0,0:0:0:0:
320,192,240450,1,0,0:0:0:0:
64,192,240600,1,0,0:0:0:0:
192,192,240600,1,0,0:0:0:0:
448,192,240750,1,0,0:0:0:0:
320,192,240750,1,0,0:0:0:0:
192,192,240750,1,0,0:0:0:0:
64,192,240900,1,0,0:0:0:0:
192,192,240900,1,0,0:0:0:0:
448,192,240975,1,0,0:0:0:0:
64,192,241050,1,0,0:0:0:0:
192,192,241200,1,0,0:0:0:0:
320,192,241200,1,0,0:0:0:0:
64,192,241350,1,0,0:0:0:0:
448,192,241500,1,0,0:0:0:0:
192,192,241500,1,0,0:0:0:0:
320,192,241575,1,0,0:0:0:0:
64,192,241650,1,0,0:0:0:0:
192,192,241800,1,0,0:0:0:0:
320,192,241800,1,0,0:0:0:0:
448,192,241950,1,0,0:0:0:0:
64,192,242100,1,0,0:0:0:0:
192,192,242100,1,0,0:0:0:0:
448,192,242175,1,0,0:0:0:0:
192,192,242250,1,0,0:0:0:0:
320,192,242400,1,0,0:0:0:0:
448,192,242400,1,0,0:0:0:0:
64,192,242550,1,0,0:0:0:0:
320,192,242625,1,0,0:0:0:0:
448,192,242625,1,0,0:0:0:0:
64,192,242700,1,0,0:0:0:0:
192,192,242700,1,0,0:0:0:0:
448,192,242775,1,0,0:0:0:0:
192,192,242850,1,0,0:0:0:0:
64,192,243000,1,0,0:0:0:0:
448,192,243000,1,0,0:0:0:0:
448,192,243150,1,0,0:0:0:0:
320,192,243150,1,0,0:0:0:0:
448,192,243300,1,0,0:0:0:0:
192,192,243300,1,0,0:0:0:0:
64,192,243375,1,0,0:0:0:0:
320,192,243450,1,0,0:0:0:0:
192,192,243450,1,0,0:0:0:0:
320,192,243600,1,0,0:0:0:0:
64,192,243600,1,0,0:0:0:0:
192,192,243750,1,0,0:0:0:0:
64,192,243750,1,0,0:0:0:0:
448,192,243900,1,0,0:0:0:0:
192,192,243900,1,0,0:0:0:0:
320,192,243975,1,0,0:0:0:0:
448,192,244050,1,0,0:0:0:0:
64,192,244050,1,0,0:0:0:0:
192,192,244200,1,0,0:0:0:0:
320,192,244200,1,0,0:0:0:0:
448,192,244200,1,0,0:0:0:0:
320,192,244350,1,0,0:0:0:0:
448,192,244500,1,0,0:0:0:0:
192,192,244500,1,0,0:0:0:0:
64,192,244500,1,0,0:0:0:0:
320,192,244650,1,0,0:0:0:0:
320,192,244800,1,0,0:0:0:0:
192,192,244800,1,0,0:0:0:0:
64,192,244800,1,0,0:0:0:0:
448,192,244950,1,0,0:0:0:0:
192,192,245100,1,0,0:0:0:0:
320,192,245100,1,0,0:0:0:0:
448,192,245100,1,0,0:0:0:0:
64,192,245250,1,0,0:0:0:0:
192,192,245400,1,0,0:0:0:0:
64,192,245400,1,0,0:0:0:0:
320,192,245400,1,0,0:0:0:0:
448,192,245550,1,0,0:0:0:0:
320,192,245550,1,0,0:0:0:0:
192,192,245550,1,0,0:0:0:0:
64,192,245700,1,0,0:0:0:0:
192,192,245700,1,0,0:0:0:0:
320,192,245700,1,0,0:0:0:0:
448,192,245850,1,0,0:0:0:0:
192,192,246000,1,0,0:0:0:0:
448,192,246000,1,0,0:0:0:0:
64,192,246000,1,0,0:0:0:0:
192,192,246150,1,0,0:0:0:0:
320,192,246150,1,0,0:0:0:0:
448,192,246300,1,0,0:0:0:0:
320,192,246300,1,0,0:0:0:0:
64,192,246300,1,0,0:0:0:0:
64,192,246450,1,0,0:0:0:0:
192,192,246450,1,0,0:0:0:0:
448,192,246600,1,0,0:0:0:0:
320,192,246600,1,0,0:0:0:0:
192,192,246600,1,0,0:0:0:0:
64,192,246750,1,0,0:0:0:0:
64,192,246900,1,0,0:0:0:0:
448,192,246900,1,0,0:0:0:0:
320,192,246900,1,0,0:0:0:0:
192,192,247050,1,0,0:0:0:0:
448,192,247200,1,0,0:0:0:0:
320,192,247200,1,0,0:0:0:0:
64,192,247200,1,0,0:0:0:0:
320,192,247350,1,0,0:0:0:0:
448,192,247500,1,0,0:0:0:0:
320,192,247500,1,0,0:0:0:0:
192,192,247500,1,0,0:0:0:0:
64,192,247650,1,0,0:0:0:0:
448,192,247725,1,0,0:0:0:0:
320,192,247800,1,0,0:0:0:0:
192,192,247800,1,0,0:0:0:0:
64,192,247800,1,0,0:0:0:0:
448,192,247950,1,0,0:0:0:0:
64,192,248100,1,0,0:0:0:0:
192,192,248100,1,0,0:0:0:0:
448,192,248100,1,0,0:0:0:0:
320,192,248250,1,0,0:0:0:0:
192,192,248400,1,0,0:0:0:0:
320,192,248400,1,0,0:0:0:0:
448,192,248400,1,0,0:0:0:0:
64,192,248550,1,0,0:0:0:0:
192,192,248550,1,0,0:0:0:0:
64,192,248700,1,0,0:0:0:0:
448,192,248700,1,0,0:0:0:0:
320,192,248700,1,0,0:0:0:0:
192,192,248850,1,0,0:0:0:0:
320,192,248850,1,0,0:0:0:0:
448,192,249000,1,0,0:0:0:0:
64,192,249000,1,0,0:0:0:0:
192,192,249000,1,0,0:0:0:0:
320,192,249150,1,0,0:0:0:0:
192,192,249150,1,0,0:0:0:0:
448,192,249300,1,0,0:0:0:0:
64,192,249300,1,0,0:0:0:0:
192,192,249300,1,0,0:0:0:0:
320,192,249450,1,0,0:0:0:0:
448,192,249450,1,0,0:0:0:0:
320,192,249600,1,0,0:0:0:0:
192,192,249600,1,0,0:0:0:0:
64,192,249600,1,0,0:0:0:0:
448,192,249750,1,0,0:0:0:0:
192,192,249750,1,0,0:0:0:0:
64,192,249900,1,0,0:0:0:0:
320,192,249900,1,0,0:0:0:0:
192,192,249900,1,0,0:0:0:0:
64,192,250050,1,0,0:0:0:0:
448,192,250050,1,0,0:0:0:0:
192,192,250200,1,0,0:0:0:0:
320,192,250200,1,0,0:0:0:0:
448,192,250200,1,0,0:0:0:0:
64,192,250350,1,0,0:0:0:0:
320,192,250350,1,0,0:0:0:0:
448,192,250350,1,0,0:0:0:0:
64,192,250500,1,0,0:0:0:0:
192,192,250500,1,0,0:0:0:0:
320,192,250500,1,0,0:0:0:0:
448,192,250650,1,0,0:0:0:0:
192,192,250650,1,0,0:0:0:0:
320,192,250800,1,0,0:0:0:0:
192,192,250800,1,0,0:0:0:0:
64,192,250800,1,0,0:0:0:0:
448,192,250950,1,0,0:0:0:0:
64,192,250950,1,0,0:0:0:0:
192,192,251100,1,0,0:0:0:0:
320,192,251100,1,0,0:0:0:0:
448,192,251100,1,0,0:0:0:0:
64,192,251250,1,0,0:0:0:0:
192,192,251250,1,0,0:0:0:0:
448,192,251400,1,0,0:0:0:0:
64,192,251400,1,0,0:0:0:0:
192,192,251475,1,0,0:0:0:0:
320,192,251475,1,0,0:0:0:0:
448,192,251550,1,0,0:0:0:0:
64,192,251550,1,0,0:0:0:0:
320,192,251625,1,0,0:0:0:0:
192,192,251700,1,0,0:0:0:0:
64,192,251700,1,0,0:0:0:0:
448,192,251775,1,0,0:0:0:0:
320,192,251775,1,0,0:0:0:0:
192,192,251850,1,0,0:0:0:0:
64,192,251850,1,0,0:0:0:0:
448,192,251925,1,0,0:0:0:0:
320,192,252000,1,0,0:0:0:0:
64,192,252000,1,0,0:0:0:0:
192,192,252075,1,0,0:0:0:0:
448,192,252075,1,0,0:0:0:0:
64,192,252150,1,0,0:0:0:0:
320,192,252225,1,0,0:0:0:0:
448,192,252225,1,0,0:0:0:0:
192,192,252300,1,0,0:0:0:0:
64,192,252300,1,0,0:0:0:0:
448,192,252375,1,0,0:0:0:0:
320,192,252450,1,0,0:0:0:0:
192,192,252450,1,0,0:0:0:0:
64,192,252525,1,0,0:0:0:0:
320,192,252600,1,0,0:0:0:0:
448,192,252600,1,0,0:0:0:0:
64,192,252675,5,0,0:0:0:0:
192,192,252750,1,0,0:0:0:0:
320,192,252750,1,0,0:0:0:0:
448,192,252825,1,0,0:0:0:0:
64,192,252900,1,0,0:0:0:0:
320,192,252900,1,0,0:0:0:0:
192,192,252975,1,0,0:0:0:0:
448,192,253050,1,0,0:0:0:0:
320,192,253050,1,0,0:0:0:0:
192,192,253125,1,0,0:0:0:0:
64,192,253200,1,0,0:0:0:0:
448,192,253200,1,0,0:0:0:0:
320,192,253275,1,0,0:0:0:0:
64,192,253350,1,0,0:0:0:0:
192,192,253350,1,0,0:0:0:0:
320,192,253425,1,0,0:0:0:0:
448,192,253500,1,0,0:0:0:0:
64,192,253500,1,0,0:0:0:0:
192,192,253575,1,0,0:0:0:0:
448,192,253650,1,0,0:0:0:0:
320,192,253650,1,0,0:0:0:0:
192,192,253725,1,0,0:0:0:0:
320,192,253800,128,0,256200:0:0:0:0:
64,192,253800,128,0,256200:0:0:0:0:
