osu file format v14

[General]
AudioFilename: audio.mp3
AudioLeadIn: 0
PreviewTime: 51975
Countdown: 0
SampleSet: None
StackLeniency: 0.7
Mode: 3
LetterboxInBreaks: 0
SpecialStyle: 0
WidescreenStoryboard: 0

[Editor]
Bookmarks: 46857,74285,178285,219428,244571
DistanceSpacing: 0.1
BeatDivisor: 4
GridSize: 32
TimelineZoom: 1.8

[Metadata]
Title:Sakuramichi Overture feat. Rizuna
TitleUnicode:Sakuramichi Overture feat. リズナ
Artist:t+pazolite
ArtistUnicode:t+pazolite
Creator:Kawawa
Version:*wa7. Cherry Blossom Road(210)
Source:
Tags:
BeatmapID:1871467
BeatmapSetID:895663

[Difficulty]
HPDrainRate:8
CircleSize:7
OverallDifficulty:8
ApproachRate:5
SliderMultiplier:1.4
SliderTickRate:1

[Events]
//Background and Video events
0,0,"72011363_p0.jpg",0,0
//Break Periods
//Storyboard Layer 0 (Background)
//Storyboard Layer 1 (Fail)
//Storyboard Layer 2 (Pass)
//Storyboard Layer 3 (Foreground)
//Storyboard Sound Samples

[TimingPoints]
5690,285.714285714286,4,2,0,0,1,0

[HitObjects]
182,192,5689,5,0,0:0:0:0:
329,192,5689,128,0,5832:0:0:0:0:
36,192,5689,1,0,0:0:0:0:
329,192,5975,128,0,6118:0:0:0:0:
36,192,5975,1,0,0:0:0:0:
182,192,5975,1,0,0:0:0:0:
329,192,6261,128,0,6404:0:0:0:0:
36,192,6261,1,0,0:0:0:0:
182,192,6261,1,0,0:0:0:0:
475,192,6404,128,0,6547:0:0:0:0:
402,192,6547,128,0,6689:0:0:0:0:
182,192,6547,1,0,0:0:0:0:
36,192,6547,1,0,0:0:0:0:
329,192,6689,128,0,6832:0:0:0:0:
402,192,6832,1,0,0:0:0:0:
256,192,6832,1,0,0:0:0:0:
109,192,6975,128,0,7118:0:0:0:0:
256,192,7118,1,0,0:0:0:0:
402,192,7118,1,0,0:0:0:0:
109,192,7261,128,0,7404:0:0:0:0:
402,192,7404,1,0,0:0:0:0:
256,192,7404,1,0,0:0:0:0:
109,192,7547,128,0,7689:0:0:0:0:
475,192,7689,128,0,7832:0:0:0:0:
182,192,7689,1,0,0:0:0:0:
329,192,7689,1,0,0:0:0:0:
402,192,7975,128,0,8118:0:0:0:0:
256,192,7975,1,0,0:0:0:0:
109,192,7975,1,0,0:0:0:0:
402,192,8261,128,0,8404:0:0:0:0:
109,192,8261,1,0,0:0:0:0:
256,192,8261,1,0,0:0:0:0:
402,192,8547,128,0,8690:0:0:0:0:
256,192,8547,1,0,0:0:0:0:
109,192,8547,1,0,0:0:0:0:
182,192,8690,128,0,8832:0:0:0:0:
329,192,8832,128,0,8975:0:0:0:0:
109,192,8832,1,0,0:0:0:0:
256,192,8832,1,0,0:0:0:0:
36,192,8975,128,0,9118:0:0:0:0:
475,192,9118,1,0,0:0:0:0:
256,192,9118,1,0,0:0:0:0:
109,192,9261,128,0,9404:0:0:0:0:
256,192,9404,1,0,0:0:0:0:
475,192,9404,1,0,0:0:0:0:
329,192,9547,128,0,9690:0:0:0:0:
402,192,9690,1,0,0:0:0:0:
109,192,9690,1,0,0:0:0:0:
182,192,9832,128,0,9975:0:0:0:0:
402,192,9975,128,0,10118:0:0:0:0:
256,192,9975,1,0,0:0:0:0:
475,192,9975,1,0,0:0:0:0:
329,192,10261,1,0,0:0:0:0:
475,192,10261,128,0,10404:0:0:0:0:
36,192,10261,1,0,0:0:0:0:
182,192,10261,1,0,0:0:0:0:
402,192,10547,1,0,0:0:0:0:
256,192,10547,128,0,10690:0:0:0:0:
36,192,10547,1,0,0:0:0:0:
182,192,10547,1,0,0:0:0:0:
402,192,10832,1,0,0:0:0:0:
109,192,10832,1,0,0:0:0:0:
329,192,10832,128,0,10975:0:0:0:0:
475,192,10975,128,0,11118:0:0:0:0:
182,192,10975,1,0,0:0:0:0:
36,192,10975,1,0,0:0:0:0:
402,192,11118,1,0,0:0:0:0:
329,192,11118,128,0,11261:0:0:0:0:
109,192,11118,1,0,0:0:0:0:
256,192,11118,1,0,0:0:0:0:
182,192,11261,128,0,11404:0:0:0:0:
402,192,11404,1,0,0:0:0:0:
256,192,11404,1,0,0:0:0:0:
109,192,11547,128,0,11690:0:0:0:0:
36,192,11690,1,0,0:0:0:0:
329,192,11690,1,0,0:0:0:0:
182,192,11690,1,0,0:0:0:0:
109,192,11832,128,0,11975:0:0:0:0:
36,192,11975,1,0,0:0:0:0:
329,192,11975,1,0,0:0:0:0:
182,192,12118,1,0,0:0:0:0:
402,192,12118,1,0,0:0:0:0:
256,192,12118,128,0,12261:0:0:0:0:
475,192,12261,1,0,0:0:0:0:
36,192,12261,1,0,0:0:0:0:
109,192,12261,128,0,12404:0:0:0:0:
329,192,12261,1,0,0:0:0:0:
256,192,12547,1,0,0:0:0:0:
109,192,12547,1,0,0:0:0:0:
329,192,12547,128,0,12690:0:0:0:0:
475,192,12832,1,0,0:0:0:0:
36,192,12832,1,0,0:0:0:0:
329,192,12832,128,0,12975:0:0:0:0:
182,192,12832,1,0,0:0:0:0:
36,192,13118,1,0,0:0:0:0:
256,192,13118,1,0,0:0:0:0:
329,192,13118,128,0,13261:0:0:0:0:
182,192,13261,1,0,0:0:0:0:
402,192,13261,1,0,0:0:0:0:
109,192,13261,128,0,13404:0:0:0:0:
36,192,13404,1,0,0:0:0:0:
329,192,13404,1,0,0:0:0:0:
256,192,13404,128,0,13547:0:0:0:0:
475,192,13404,1,0,0:0:0:0:
182,192,13547,1,0,0:0:0:0:
36,192,13547,1,0,0:0:0:0:
402,192,13547,128,0,13690:0:0:0:0:
475,192,13690,1,0,0:0:0:0:
256,192,13690,1,0,0:0:0:0:
109,192,13690,1,0,0:0:0:0:
182,192,13832,1,0,0:0:0:0:
329,192,13832,1,0,0:0:0:0:
402,192,13832,128,0,13975:0:0:0:0:
109,192,13904,1,0,0:0:0:0:
475,192,13975,1,0,0:0:0:0:
256,192,13975,1,0,0:0:0:0:
36,192,13975,1,0,0:0:0:0:
36,192,14118,1,0,0:0:0:0:
182,192,14118,1,0,0:0:0:0:
402,192,14118,128,0,14261:0:0:0:0:
329,192,14190,1,0,0:0:0:0:
475,192,14261,1,0,0:0:0:0:
109,192,14261,1,0,0:0:0:0:
256,192,14261,1,0,0:0:0:0:
329,192,14404,1,0,0:0:0:0:
36,192,14404,1,0,0:0:0:0:
402,192,14404,128,0,14547:0:0:0:0:
182,192,14475,1,0,0:0:0:0:
36,192,14547,1,0,0:0:0:0:
475,192,14547,1,0,0:0:0:0:
109,192,14547,128,0,14690:0:0:0:0:
256,192,14547,1,0,0:0:0:0:
329,192,14832,1,0,0:0:0:0:
402,192,14832,1,0,0:0:0:0:
475,192,14832,1,0,0:0:0:0:
182,192,14832,1,0,0:0:0:0:
36,192,14832,1,0,0:0:0:0:
109,192,14832,1,0,0:0:0:0:
329,192,14975,1,0,0:0:0:0:
402,192,15118,1,0,0:0:0:0:
475,192,15118,1,0,0:0:0:0:
36,192,15118,1,0,0:0:0:0:
256,192,15118,1,0,0:0:0:0:
109,192,15118,1,0,0:0:0:0:
109,192,15261,1,0,0:0:0:0:
475,192,15404,1,0,0:0:0:0:
36,192,15404,1,0,0:0:0:0:
402,192,15404,1,0,0:0:0:0:
182,192,15404,1,0,0:0:0:0:
256,192,15404,1,0,0:0:0:0:
109,192,15547,1,0,0:0:0:0:
256,192,15547,1,0,0:0:0:0:
402,192,15547,1,0,0:0:0:0:
329,192,15690,1,0,0:0:0:0:
475,192,15690,1,0,0:0:0:0:
36,192,15690,1,0,0:0:0:0:
182,192,15690,1,0,0:0:0:0:
475,192,15832,1,0,0:0:0:0:
36,192,15832,1,0,0:0:0:0:
402,192,15832,1,0,0:0:0:0:
109,192,15832,1,0,0:0:0:0:
256,192,15832,1,0,0:0:0:0:
109,192,15975,1,0,0:0:0:0:
36,192,16118,1,0,0:0:0:0:
475,192,16118,1,0,0:0:0:0:
182,192,16118,1,0,0:0:0:0:
329,192,16118,1,0,0:0:0:0:
402,192,16118,1,0,0:0:0:0:
329,192,16261,1,0,0:0:0:0:
475,192,16404,1,0,0:0:0:0:
402,192,16404,1,0,0:0:0:0:
109,192,16404,1,0,0:0:0:0:
256,192,16404,1,0,0:0:0:0:
36,192,16404,1,0,0:0:0:0:
256,192,16547,1,0,0:0:0:0:
329,192,16690,1,0,0:0:0:0:
475,192,16690,1,0,0:0:0:0:
36,192,16690,1,0,0:0:0:0:
109,192,16690,1,0,0:0:0:0:
182,192,16690,1,0,0:0:0:0:
475,192,16832,1,0,0:0:0:0:
402,192,16832,1,0,0:0:0:0:
329,192,16832,1,0,0:0:0:0:
182,192,16832,1,0,0:0:0:0:
36,192,16832,1,0,0:0:0:0:
402,192,16975,1,0,0:0:0:0:
475,192,17118,1,0,0:0:0:0:
329,192,17118,1,0,0:0:0:0:
36,192,17118,1,0,0:0:0:0:
256,192,17118,1,0,0:0:0:0:
109,192,17118,1,0,0:0:0:0:
109,192,17261,1,0,0:0:0:0:
402,192,17404,1,0,0:0:0:0:
329,192,17404,1,0,0:0:0:0:
256,192,17404,1,0,0:0:0:0:
182,192,17404,1,0,0:0:0:0:
36,192,17404,1,0,0:0:0:0:
329,192,17547,1,0,0:0:0:0:
109,192,17690,1,0,0:0:0:0:
36,192,17690,1,0,0:0:0:0:
475,192,17690,1,0,0:0:0:0:
256,192,17690,1,0,0:0:0:0:
402,192,17690,1,0,0:0:0:0:
182,192,17832,1,0,0:0:0:0:
402,192,17832,1,0,0:0:0:0:
256,192,17832,1,0,0:0:0:0:
329,192,17975,1,0,0:0:0:0:
475,192,17975,1,0,0:0:0:0:
182,192,17975,1,0,0:0:0:0:
36,192,17975,1,0,0:0:0:0:
329,192,18118,1,0,0:0:0:0:
475,192,18118,1,0,0:0:0:0:
256,192,18118,1,0,0:0:0:0:
109,192,18118,1,0,0:0:0:0:
36,192,18118,1,0,0:0:0:0:
256,192,18261,1,0,0:0:0:0:
329,192,18404,1,0,0:0:0:0:
475,192,18404,1,0,0:0:0:0:
36,192,18404,1,0,0:0:0:0:
182,192,18404,1,0,0:0:0:0:
402,192,18404,1,0,0:0:0:0:
475,192,18547,1,0,0:0:0:0:
329,192,18690,1,0,0:0:0:0:
402,192,18690,1,0,0:0:0:0:
256,192,18690,1,0,0:0:0:0:
109,192,18690,1,0,0:0:0:0:
36,192,18690,1,0,0:0:0:0:
109,192,18832,1,0,0:0:0:0:
402,192,18975,1,0,0:0:0:0:
475,192,18975,1,0,0:0:0:0:
329,192,18975,1,0,0:0:0:0:
182,192,18975,1,0,0:0:0:0:
36,192,18975,1,0,0:0:0:0:
256,192,19118,1,0,0:0:0:0:
402,192,19118,1,0,0:0:0:0:
329,192,19118,1,0,0:0:0:0:
109,192,19118,1,0,0:0:0:0:
36,192,19118,1,0,0:0:0:0:
256,192,19261,1,0,0:0:0:0:
329,192,19404,1,0,0:0:0:0:
475,192,19404,1,0,0:0:0:0:
36,192,19404,1,0,0:0:0:0:
182,192,19404,1,0,0:0:0:0:
109,192,19404,1,0,0:0:0:0:
475,192,19547,1,0,0:0:0:0:
36,192,19690,1,0,0:0:0:0:
109,192,19690,1,0,0:0:0:0:
182,192,19690,1,0,0:0:0:0:
402,192,19690,1,0,0:0:0:0:
256,192,19690,1,0,0:0:0:0:
109,192,19832,1,0,0:0:0:0:
329,192,19975,1,0,0:0:0:0:
475,192,19975,1,0,0:0:0:0:
256,192,19975,1,0,0:0:0:0:
182,192,19975,1,0,0:0:0:0:
36,192,19975,1,0,0:0:0:0:
402,192,20118,1,0,0:0:0:0:
182,192,20118,1,0,0:0:0:0:
329,192,20118,1,0,0:0:0:0:
36,192,20261,1,0,0:0:0:0:
402,192,20261,1,0,0:0:0:0:
256,192,20261,1,0,0:0:0:0:
109,192,20261,1,0,0:0:0:0:
109,192,20404,1,0,0:0:0:0:
182,192,20404,1,0,0:0:0:0:
256,192,20404,1,0,0:0:0:0:
329,192,20404,1,0,0:0:0:0:
475,192,20404,1,0,0:0:0:0:
329,192,20547,1,0,0:0:0:0:
402,192,20690,1,0,0:0:0:0:
475,192,20690,1,0,0:0:0:0:
109,192,20690,1,0,0:0:0:0:
256,192,20690,1,0,0:0:0:0:
36,192,20690,1,0,0:0:0:0:
109,192,20832,1,0,0:0:0:0:
402,192,20975,1,0,0:0:0:0:
475,192,20975,1,0,0:0:0:0:
256,192,20975,1,0,0:0:0:0:
182,192,20975,1,0,0:0:0:0:
36,192,20975,1,0,0:0:0:0:
402,192,21118,1,0,0:0:0:0:
329,192,21261,1,0,0:0:0:0:
475,192,21261,1,0,0:0:0:0:
36,192,21261,1,0,0:0:0:0:
256,192,21261,1,0,0:0:0:0:
182,192,21261,1,0,0:0:0:0:
402,192,21404,1,0,0:0:0:0:
475,192,21404,1,0,0:0:0:0:
256,192,21404,1,0,0:0:0:0:
36,192,21404,1,0,0:0:0:0:
109,192,21404,1,0,0:0:0:0:
109,192,21547,1,0,0:0:0:0:
329,192,21690,1,0,0:0:0:0:
475,192,21690,1,0,0:0:0:0:
36,192,21690,1,0,0:0:0:0:
256,192,21690,1,0,0:0:0:0:
182,192,21690,1,0,0:0:0:0:
329,192,21832,1,0,0:0:0:0:
402,192,21975,1,0,0:0:0:0:
475,192,21975,1,0,0:0:0:0:
36,192,21975,1,0,0:0:0:0:
256,192,21975,1,0,0:0:0:0:
109,192,21975,1,0,0:0:0:0:
36,192,22118,1,0,0:0:0:0:
329,192,22261,1,0,0:0:0:0:
475,192,22261,1,0,0:0:0:0:
256,192,22261,1,0,0:0:0:0:
109,192,22261,1,0,0:0:0:0:
182,192,22261,1,0,0:0:0:0:
109,192,22404,1,0,0:0:0:0:
402,192,22404,1,0,0:0:0:0:
256,192,22404,1,0,0:0:0:0:
256,192,22547,1,0,0:0:0:0:
475,192,22547,1,0,0:0:0:0:
36,192,22547,1,0,0:0:0:0:
329,192,22547,1,0,0:0:0:0:
182,192,22547,1,0,0:0:0:0:
329,192,22690,1,0,0:0:0:0:
36,192,22690,1,0,0:0:0:0:
182,192,22690,1,0,0:0:0:0:
475,192,22832,1,0,0:0:0:0:
402,192,22832,1,0,0:0:0:0:
329,192,22832,1,0,0:0:0:0:
109,192,22832,1,0,0:0:0:0:
256,192,22832,1,0,0:0:0:0:
402,192,22975,1,0,0:0:0:0:
475,192,22975,1,0,0:0:0:0:
36,192,22975,1,0,0:0:0:0:
109,192,22975,1,0,0:0:0:0:
256,192,22975,1,0,0:0:0:0:
329,192,23118,1,0,0:0:0:0:
36,192,23261,1,0,0:0:0:0:
475,192,23261,1,0,0:0:0:0:
109,192,23261,1,0,0:0:0:0:
329,192,23261,1,0,0:0:0:0:
182,192,23261,1,0,0:0:0:0:
109,192,23404,1,0,0:0:0:0:
36,192,23404,1,0,0:0:0:0:
475,192,23404,1,0,0:0:0:0:
256,192,23404,1,0,0:0:0:0:
402,192,23404,1,0,0:0:0:0:
402,192,23547,1,0,0:0:0:0:
475,192,23547,1,0,0:0:0:0:
329,192,23547,1,0,0:0:0:0:
109,192,23547,1,0,0:0:0:0:
182,192,23547,1,0,0:0:0:0:
36,192,23690,1,0,0:0:0:0:
109,192,23725,1,0,0:0:0:0:
475,192,23761,1,0,0:0:0:0:
182,192,23761,1,0,0:0:0:0:
402,192,23797,1,0,0:0:0:0:
329,192,23832,1,0,0:0:0:0:
256,192,23868,1,0,0:0:0:0:
182,192,23904,1,0,0:0:0:0:
109,192,23940,1,0,0:0:0:0:
402,192,23975,1,0,0:0:0:0:
475,192,23975,128,0,24404:0:0:0:0:
36,192,23975,1,0,0:0:0:0:
329,192,23975,1,0,0:0:0:0:
109,192,24261,1,0,0:0:0:0:
402,192,24261,1,0,0:0:0:0:
36,192,24261,1,0,0:0:0:0:
256,192,24261,1,0,0:0:0:0:
329,192,24404,128,0,24547:0:0:0:0:
475,192,24547,128,0,24690:0:0:0:0:
36,192,24690,1,0,0:0:0:0:
329,192,24690,1,0,0:0:0:0:
182,192,24690,1,0,0:0:0:0:
475,192,24832,1,0,0:0:0:0:
109,192,24832,128,0,24975:0:0:0:0:
329,192,24832,1,0,0:0:0:0:
256,192,24832,1,0,0:0:0:0:
182,192,24832,1,0,0:0:0:0:
402,192,24975,128,0,25547:0:0:0:0:
256,192,25118,1,0,0:0:0:0:
36,192,25118,1,0,0:0:0:0:
109,192,25118,1,0,0:0:0:0:
475,192,25404,1,0,0:0:0:0:
329,192,25404,1,0,0:0:0:0:
182,192,25404,1,0,0:0:0:0:
36,192,25404,1,0,0:0:0:0:
36,192,25547,1,0,0:0:0:0:
182,192,25547,1,0,0:0:0:0:
109,192,25832,1,0,0:0:0:0:
402,192,25832,1,0,0:0:0:0:
256,192,25832,1,0,0:0:0:0:
329,192,25975,1,0,0:0:0:0:
475,192,25975,1,0,0:0:0:0:
256,192,25975,1,0,0:0:0:0:
36,192,25975,128,0,26261:0:0:0:0:
182,192,25975,1,0,0:0:0:0:
256,192,26261,1,0,0:0:0:0:
475,192,26261,1,0,0:0:0:0:
329,192,26261,128,0,26547:0:0:0:0:
109,192,26261,1,0,0:0:0:0:
36,192,26547,1,0,0:0:0:0:
109,192,26547,1,0,0:0:0:0:
475,192,26547,1,0,0:0:0:0:
182,192,26547,128,0,26690:0:0:0:0:
402,192,26547,1,0,0:0:0:0:
402,192,26832,128,0,26975:0:0:0:0:
36,192,26975,1,0,0:0:0:0:
329,192,26975,1,0,0:0:0:0:
182,192,26975,1,0,0:0:0:0:
182,192,27118,1,0,0:0:0:0:
36,192,27118,1,0,0:0:0:0:
475,192,27118,1,0,0:0:0:0:
109,192,27118,128,0,27261:0:0:0:0:
256,192,27118,1,0,0:0:0:0:
329,192,27261,128,0,27832:0:0:0:0:
475,192,27404,1,0,0:0:0:0:
256,192,27404,1,0,0:0:0:0:
109,192,27404,1,0,0:0:0:0:
402,192,27690,1,0,0:0:0:0:
475,192,27690,1,0,0:0:0:0:
182,192,27690,1,0,0:0:0:0:
36,192,27690,1,0,0:0:0:0:
36,192,27832,1,0,0:0:0:0:
182,192,27832,1,0,0:0:0:0:
402,192,28118,1,0,0:0:0:0:
256,192,28118,1,0,0:0:0:0:
36,192,28118,1,0,0:0:0:0:
329,192,28261,1,0,0:0:0:0:
475,192,28261,1,0,0:0:0:0:
256,192,28261,1,0,0:0:0:0:
109,192,28261,128,0,28332:0:0:0:0:
182,192,28261,1,0,0:0:0:0:
36,192,28547,1,0,0:0:0:0:
329,192,28547,1,0,0:0:0:0:
402,192,28547,128,0,28832:0:0:0:0:
182,192,28547,1,0,0:0:0:0:
109,192,28832,1,0,0:0:0:0:
329,192,28832,1,0,0:0:0:0:
256,192,28832,1,0,0:0:0:0:
475,192,28832,1,0,0:0:0:0:
402,192,29118,128,0,29261:0:0:0:0:
182,192,29261,1,0,0:0:0:0:
475,192,29261,1,0,0:0:0:0:
329,192,29261,128,0,29404:0:0:0:0:
36,192,29261,1,0,0:0:0:0:
402,192,29404,1,0,0:0:0:0:
36,192,29404,1,0,0:0:0:0:
475,192,29404,1,0,0:0:0:0:
109,192,29404,128,0,29547:0:0:0:0:
256,192,29404,1,0,0:0:0:0:
182,192,29547,128,0,29690:0:0:0:0:
402,192,29690,1,0,0:0:0:0:
256,192,29690,1,0,0:0:0:0:
109,192,29690,1,0,0:0:0:0:
475,192,29832,128,0,30118:0:0:0:0:
182,192,29975,1,0,0:0:0:0:
402,192,29975,1,0,0:0:0:0:
256,192,29975,1,0,0:0:0:0:
109,192,29975,1,0,0:0:0:0:
402,192,30118,1,0,0:0:0:0:
182,192,30118,1,0,0:0:0:0:
36,192,30118,128,0,30261:0:0:0:0:
402,192,30404,128,0,30690:0:0:0:0:
36,192,30404,1,0,0:0:0:0:
256,192,30404,1,0,0:0:0:0:
109,192,30547,1,0,0:0:0:0:
36,192,30547,1,0,0:0:0:0:
329,192,30547,1,0,0:0:0:0:
182,192,30547,1,0,0:0:0:0:
475,192,30690,128,0,30832:0:0:0:0:
256,192,30832,1,0,0:0:0:0:
402,192,30832,1,0,0:0:0:0:
329,192,30832,128,0,30975:0:0:0:0:
109,192,30832,1,0,0:0:0:0:
256,192,31118,1,0,0:0:0:0:
475,192,31118,1,0,0:0:0:0:
36,192,31118,1,0,0:0:0:0:
109,192,31118,128,0,31261:0:0:0:0:
182,192,31118,1,0,0:0:0:0:
329,192,31404,128,0,31547:0:0:0:0:
402,192,31547,1,0,0:0:0:0:
256,192,31547,1,0,0:0:0:0:
109,192,31547,1,0,0:0:0:0:
36,192,31690,1,0,0:0:0:0:
109,192,31690,1,0,0:0:0:0:
402,192,31690,1,0,0:0:0:0:
182,192,31690,128,0,31832:0:0:0:0:
475,192,31690,1,0,0:0:0:0:
329,192,31832,128,0,31975:0:0:0:0:
475,192,31975,1,0,0:0:0:0:
256,192,31975,1,0,0:0:0:0:
109,192,31975,1,0,0:0:0:0:
402,192,32118,1,0,0:0:0:0:
182,192,32118,1,0,0:0:0:0:
36,192,32118,128,0,32261:0:0:0:0:
256,192,32261,1,0,0:0:0:0:
475,192,32261,1,0,0:0:0:0:
329,192,32261,1,0,0:0:0:0:
109,192,32261,1,0,0:0:0:0:
182,192,32404,1,0,0:0:0:0:
36,192,32404,1,0,0:0:0:0:
402,192,32404,128,0,32690:0:0:0:0:
329,192,32547,1,0,0:0:0:0:
109,192,32547,1,0,0:0:0:0:
36,192,32690,1,0,0:0:0:0:
475,192,32690,1,0,0:0:0:0:
256,192,32690,1,0,0:0:0:0:
402,192,32832,1,0,0:0:0:0:
475,192,32832,1,0,0:0:0:0:
109,192,32832,1,0,0:0:0:0:
329,192,32832,1,0,0:0:0:0:
329,192,32975,1,0,0:0:0:0:
182,192,32975,1,0,0:0:0:0:
109,192,33118,1,0,0:0:0:0:
36,192,33118,1,0,0:0:0:0:
475,192,33118,1,0,0:0:0:0:
256,192,33118,128,0,33404:0:0:0:0:
402,192,33118,1,0,0:0:0:0:
329,192,33404,1,0,0:0:0:0:
475,192,33404,1,0,0:0:0:0:
36,192,33404,1,0,0:0:0:0:
182,192,33404,1,0,0:0:0:0:
402,192,33547,128,0,33690:0:0:0:0:
329,192,33690,128,0,33832:0:0:0:0:
475,192,33832,1,0,0:0:0:0:
36,192,33832,1,0,0:0:0:0:
182,192,33832,1,0,0:0:0:0:
475,192,33975,1,0,0:0:0:0:
36,192,33975,1,0,0:0:0:0:
402,192,33975,1,0,0:0:0:0:
109,192,33975,128,0,34118:0:0:0:0:
256,192,33975,1,0,0:0:0:0:
182,192,34118,128,0,34690:0:0:0:0:
475,192,34261,1,0,0:0:0:0:
329,192,34261,1,0,0:0:0:0:
109,192,34261,1,0,0:0:0:0:
402,192,34547,1,0,0:0:0:0:
475,192,34547,1,0,0:0:0:0:
256,192,34547,1,0,0:0:0:0:
36,192,34547,1,0,0:0:0:0:
402,192,34690,1,0,0:0:0:0:
256,192,34690,1,0,0:0:0:0:
329,192,34975,1,0,0:0:0:0:
182,192,34975,1,0,0:0:0:0:
109,192,34975,1,0,0:0:0:0:
109,192,35118,1,0,0:0:0:0:
475,192,35118,1,0,0:0:0:0:
36,192,35118,1,0,0:0:0:0:
402,192,35118,128,0,35404:0:0:0:0:
256,192,35118,1,0,0:0:0:0:
182,192,35404,1,0,0:0:0:0:
329,192,35404,1,0,0:0:0:0:
36,192,35404,128,0,35690:0:0:0:0:
109,192,35404,1,0,0:0:0:0:
402,192,35690,1,0,0:0:0:0:
475,192,35690,1,0,0:0:0:0:
109,192,35690,1,0,0:0:0:0:
329,192,35690,128,0,35975:0:0:0:0:
256,192,35690,1,0,0:0:0:0:
182,192,35975,128,0,36118:0:0:0:0:
36,192,36118,1,0,0:0:0:0:
329,192,36118,1,0,0:0:0:0:
402,192,36118,128,0,36261:0:0:0:0:
109,192,36118,1,0,0:0:0:0:
329,192,36261,1,0,0:0:0:0:
36,192,36261,1,0,0:0:0:0:
182,192,36261,1,0,0:0:0:0:
256,192,36261,128,0,36404:0:0:0:0:
109,192,36261,1,0,0:0:0:0:
475,192,36404,128,0,36547:0:0:0:0:
402,192,36547,1,0,0:0:0:0:
36,192,36547,1,0,0:0:0:0:
182,192,36547,1,0,0:0:0:0:
109,192,36690,128,0,36832:0:0:0:0:
402,192,36832,1,0,0:0:0:0:
475,192,36832,1,0,0:0:0:0:
182,192,36832,1,0,0:0:0:0:
256,192,36832,1,0,0:0:0:0:
36,192,36975,1,0,0:0:0:0:
182,192,36975,1,0,0:0:0:0:
329,192,36975,128,0,37261:0:0:0:0:
475,192,37261,1,0,0:0:0:0:
256,192,37261,1,0,0:0:0:0:
109,192,37261,1,0,0:0:0:0:
475,192,37404,1,0,0:0:0:0:
402,192,37404,1,0,0:0:0:0:
256,192,37404,1,0,0:0:0:0:
36,192,37404,128,0,37547:0:0:0:0:
182,192,37404,1,0,0:0:0:0:
109,192,37690,1,0,0:0:0:0:
36,192,37690,1,0,0:0:0:0:
256,192,37690,128,0,37975:0:0:0:0:
329,192,37690,1,0,0:0:0:0:
475,192,37975,1,0,0:0:0:0:
182,192,37975,1,0,0:0:0:0:
109,192,37975,1,0,0:0:0:0:
329,192,37975,1,0,0:0:0:0:
402,192,38261,128,0,38404:0:0:0:0:
109,192,38404,1,0,0:0:0:0:
475,192,38404,1,0,0:0:0:0:
182,192,38404,128,0,38547:0:0:0:0:
256,192,38404,1,0,0:0:0:0:
109,192,38547,1,0,0:0:0:0:
36,192,38547,1,0,0:0:0:0:
256,192,38547,1,0,0:0:0:0:
329,192,38547,128,0,38690:0:0:0:0:
402,192,38547,1,0,0:0:0:0:
475,192,38690,128,0,38975:0:0:0:0:
329,192,38832,1,0,0:0:0:0:
182,192,38832,1,0,0:0:0:0:
109,192,38832,1,0,0:0:0:0:
36,192,38975,128,0,39118:0:0:0:0:
402,192,39118,1,0,0:0:0:0:
475,192,39118,1,0,0:0:0:0:
182,192,39118,1,0,0:0:0:0:
329,192,39118,1,0,0:0:0:0:
36,192,39261,1,0,0:0:0:0:
182,192,39261,1,0,0:0:0:0:
256,192,39261,128,0,39404:0:0:0:0:
182,192,39547,1,0,0:0:0:0:
329,192,39547,1,0,0:0:0:0:
402,192,39547,128,0,39690:0:0:0:0:
109,192,39547,1,0,0:0:0:0:
475,192,39690,1,0,0:0:0:0:
36,192,39690,1,0,0:0:0:0:
182,192,39690,1,0,0:0:0:0:
256,192,39690,1,0,0:0:0:0:
109,192,39832,128,0,39975:0:0:0:0:
402,192,39975,1,0,0:0:0:0:
475,192,39975,1,0,0:0:0:0:
329,192,39975,128,0,40118:0:0:0:0:
182,192,39975,1,0,0:0:0:0:
36,192,40261,1,0,0:0:0:0:
402,192,40261,1,0,0:0:0:0:
109,192,40261,1,0,0:0:0:0:
182,192,40261,128,0,40404:0:0:0:0:
256,192,40261,1,0,0:0:0:0:
402,192,40547,128,0,40690:0:0:0:0:
475,192,40690,1,0,0:0:0:0:
36,192,40690,1,0,0:0:0:0:
182,192,40690,1,0,0:0:0:0:
475,192,40832,1,0,0:0:0:0:
402,192,40832,1,0,0:0:0:0:
256,192,40832,1,0,0:0:0:0:
329,192,40832,128,0,40975:0:0:0:0:
182,192,40832,1,0,0:0:0:0:
36,192,40975,1,0,0:0:0:0:
402,192,40975,1,0,0:0:0:0:
109,192,40975,128,0,41118:0:0:0:0:
256,192,40975,1,0,0:0:0:0:
475,192,41118,1,0,0:0:0:0:
36,192,41118,1,0,0:0:0:0:
182,192,41118,1,0,0:0:0:0:
329,192,41118,1,0,0:0:0:0:
109,192,41261,1,0,0:0:0:0:
402,192,41261,1,0,0:0:0:0:
256,192,41261,128,0,41404:0:0:0:0:
182,192,41332,1,0,0:0:0:0:
329,192,41332,1,0,0:0:0:0:
402,192,41404,1,0,0:0:0:0:
475,192,41404,1,0,0:0:0:0:
109,192,41404,1,0,0:0:0:0:
36,192,41404,1,0,0:0:0:0:
182,192,41547,1,0,0:0:0:0:
36,192,41547,1,0,0:0:0:0:
329,192,41547,128,0,41832:0:0:0:0:
475,192,41618,1,0,0:0:0:0:
402,192,41618,1,0,0:0:0:0:
256,192,41690,1,0,0:0:0:0:
109,192,41690,1,0,0:0:0:0:
182,192,41690,1,0,0:0:0:0:
36,192,41690,1,0,0:0:0:0:
475,192,41832,1,0,0:0:0:0:
402,192,41832,1,0,0:0:0:0:
256,192,41904,1,0,0:0:0:0:
109,192,41904,1,0,0:0:0:0:
329,192,41975,1,0,0:0:0:0:
475,192,41975,1,0,0:0:0:0:
182,192,41975,1,0,0:0:0:0:
36,192,41975,1,0,0:0:0:0:
256,192,42118,1,0,0:0:0:0:
402,192,42118,1,0,0:0:0:0:
109,192,42118,1,0,0:0:0:0:
36,192,42118,1,0,0:0:0:0:
402,192,42261,1,0,0:0:0:0:
475,192,42261,1,0,0:0:0:0:
182,192,42261,128,0,42547:0:0:0:0:
36,192,42261,1,0,0:0:0:0:
109,192,42261,1,0,0:0:0:0:
329,192,42261,1,0,0:0:0:0:
402,192,42690,1,0,0:0:0:0:
256,192,42690,1,0,0:0:0:0:
182,192,42690,1,0,0:0:0:0:
36,192,42832,1,0,0:0:0:0:
475,192,42832,1,0,0:0:0:0:
109,192,42832,128,0,42975:0:0:0:0:
329,192,42832,1,0,0:0:0:0:
256,192,42832,1,0,0:0:0:0:
402,192,42975,128,0,43118:0:0:0:0:
182,192,43118,128,0,43261:0:0:0:0:
329,192,43261,128,0,43404:0:0:0:0:
402,192,43404,1,0,0:0:0:0:
36,192,43404,1,0,0:0:0:0:
182,192,43404,1,0,0:0:0:0:
109,192,43547,128,0,43690:0:0:0:0:
36,192,43690,1,0,0:0:0:0:
402,192,43690,1,0,0:0:0:0:
182,192,43690,1,0,0:0:0:0:
256,192,43832,128,0,43975:0:0:0:0:
329,192,43975,1,0,0:0:0:0:
475,192,43975,1,0,0:0:0:0:
109,192,43975,1,0,0:0:0:0:
182,192,43975,1,0,0:0:0:0:
36,192,44118,128,0,44261:0:0:0:0:
182,192,44261,128,0,44404:0:0:0:0:
256,192,44547,1,0,0:0:0:0:
475,192,44547,1,0,0:0:0:0:
329,192,44547,128,0,44832:0:0:0:0:
109,192,44547,1,0,0:0:0:0:
109,192,44832,128,0,44975:0:0:0:0:
475,192,44975,1,0,0:0:0:0:
182,192,44975,1,0,0:0:0:0:
256,192,44975,1,0,0:0:0:0:
36,192,45118,1,0,0:0:0:0:
109,192,45118,1,0,0:0:0:0:
182,192,45118,1,0,0:0:0:0:
402,192,45118,128,0,45404:0:0:0:0:
329,192,45118,1,0,0:0:0:0:
182,192,45404,128,0,45547:0:0:0:0:
475,192,45547,1,0,0:0:0:0:
36,192,45547,1,0,0:0:0:0:
329,192,45547,128,0,45690:0:0:0:0:
256,192,45547,1,0,0:0:0:0:
109,192,45832,128,0,45975:0:0:0:0:
475,192,45975,1,0,0:0:0:0:
36,192,45975,1,0,0:0:0:0:
256,192,45975,1,0,0:0:0:0:
402,192,46118,128,0,46404:0:0:0:0:
36,192,46261,1,0,0:0:0:0:
329,192,46261,1,0,0:0:0:0:
182,192,46261,1,0,0:0:0:0:
109,192,46261,1,0,0:0:0:0:
36,192,46547,128,0,46690:0:0:0:0:
182,192,46832,1,0,0:0:0:0:
256,192,46832,1,0,0:0:0:0:
475,192,46832,128,0,46975:0:0:0:0:
109,192,46832,1,0,0:0:0:0:
475,192,47118,128,0,47261:0:0:0:0:
402,192,47261,1,0,0:0:0:0:
256,192,47261,1,0,0:0:0:0:
182,192,47261,1,0,0:0:0:0:
36,192,47404,1,0,0:0:0:0:
402,192,47404,1,0,0:0:0:0:
182,192,47404,1,0,0:0:0:0:
109,192,47404,128,0,47690:0:0:0:0:
329,192,47404,1,0,0:0:0:0:
329,192,47690,128,0,47832:0:0:0:0:
475,192,47832,1,0,0:0:0:0:
36,192,47832,1,0,0:0:0:0:
182,192,47832,128,0,47975:0:0:0:0:
256,192,47832,1,0,0:0:0:0:
402,192,48118,128,0,48261:0:0:0:0:
329,192,48261,1,0,0:0:0:0:
475,192,48261,1,0,0:0:0:0:
109,192,48261,128,0,48404:0:0:0:0:
182,192,48261,1,0,0:0:0:0:
256,192,48404,128,0,48547:0:0:0:0:
36,192,48547,1,0,0:0:0:0:
402,192,48547,1,0,0:0:0:0:
109,192,48547,1,0,0:0:0:0:
329,192,48547,128,0,48690:0:0:0:0:
182,192,48547,1,0,0:0:0:0:
182,192,48832,128,0,48975:0:0:0:0:
36,192,49118,1,0,0:0:0:0:
402,192,49118,1,0,0:0:0:0:
475,192,49118,128,0,49261:0:0:0:0:
256,192,49118,1,0,0:0:0:0:
109,192,49261,128,0,49404:0:0:0:0:
329,192,49404,128,0,49547:0:0:0:0:
36,192,49547,1,0,0:0:0:0:
475,192,49547,1,0,0:0:0:0:
182,192,49547,128,0,49690:0:0:0:0:
256,192,49547,1,0,0:0:0:0:
36,192,49690,1,0,0:0:0:0:
475,192,49690,1,0,0:0:0:0:
109,192,49690,1,0,0:0:0:0:
402,192,49690,128,0,49975:0:0:0:0:
256,192,49690,1,0,0:0:0:0:
109,192,49975,128,0,50118:0:0:0:0:
475,192,50118,1,0,0:0:0:0:
182,192,50118,1,0,0:0:0:0:
256,192,50118,128,0,51118:0:0:0:0:
329,192,50118,1,0,0:0:0:0:
402,192,50547,1,0,0:0:0:0:
36,192,50547,1,0,0:0:0:0:
182,192,50547,1,0,0:0:0:0:
329,192,50832,1,0,0:0:0:0:
475,192,50832,1,0,0:0:0:0:
182,192,50832,1,0,0:0:0:0:
109,192,50832,1,0,0:0:0:0:
182,192,51404,1,0,0:0:0:0:
109,192,51404,1,0,0:0:0:0:
475,192,51404,1,0,0:0:0:0:
329,192,51475,1,0,0:0:0:0:
109,192,51547,1,0,0:0:0:0:
182,192,51547,1,0,0:0:0:0:
475,192,51547,1,0,0:0:0:0:
329,192,51618,1,0,0:0:0:0:
109,192,51690,1,0,0:0:0:0:
256,192,51690,1,0,0:0:0:0:
36,192,51690,1,0,0:0:0:0:
402,192,51690,1,0,0:0:0:0:
182,192,51832,1,0,0:0:0:0:
329,192,51832,1,0,0:0:0:0:
475,192,51904,1,0,0:0:0:0:
402,192,51904,1,0,0:0:0:0:
182,192,51975,1,0,0:0:0:0:
329,192,51975,1,0,0:0:0:0:
109,192,52047,1,0,0:0:0:0:
36,192,52047,1,0,0:0:0:0:
256,192,52118,1,0,0:0:0:0:
402,192,52118,1,0,0:0:0:0:
109,192,52190,1,0,0:0:0:0:
182,192,52190,1,0,0:0:0:0:
329,192,52261,1,0,0:0:0:0:
475,192,52261,1,0,0:0:0:0:
182,192,52332,1,0,0:0:0:0:
256,192,52332,1,0,0:0:0:0:
402,192,52404,1,0,0:0:0:0:
109,192,52404,1,0,0:0:0:0:
256,192,52475,1,0,0:0:0:0:
329,192,52475,1,0,0:0:0:0:
475,192,52547,1,0,0:0:0:0:
182,192,52547,1,0,0:0:0:0:
36,192,52547,1,0,0:0:0:0:
402,192,52547,1,0,0:0:0:0:
256,192,52618,1,0,0:0:0:0:
109,192,52690,1,0,0:0:0:0:
329,192,52690,1,0,0:0:0:0:
182,192,52761,1,0,0:0:0:0:
475,192,52832,1,0,0:0:0:0:
109,192,52832,1,0,0:0:0:0:
402,192,52832,1,0,0:0:0:0:
256,192,52832,1,0,0:0:0:0:
36,192,52832,1,0,0:0:0:0:
329,192,52904,1,0,0:0:0:0:
36,192,52975,1,0,0:0:0:0:
256,192,52975,1,0,0:0:0:0:
109,192,53047,1,0,0:0:0:0:
475,192,53118,1,0,0:0:0:0:
402,192,53118,1,0,0:0:0:0:
329,192,53118,1,0,0:0:0:0:
182,192,53118,1,0,0:0:0:0:
36,192,53118,1,0,0:0:0:0:
256,192,53190,1,0,0:0:0:0:
182,192,53261,1,0,0:0:0:0:
402,192,53261,1,0,0:0:0:0:
329,192,53332,1,0,0:0:0:0:
36,192,53404,1,0,0:0:0:0:
109,192,53404,1,0,0:0:0:0:
475,192,53404,1,0,0:0:0:0:
182,192,53404,1,0,0:0:0:0:
402,192,53404,1,0,0:0:0:0:
256,192,53475,1,0,0:0:0:0:
329,192,53547,1,0,0:0:0:0:
109,192,53547,1,0,0:0:0:0:
402,192,53618,1,0,0:0:0:0:
36,192,53690,1,0,0:0:0:0:
182,192,53690,1,0,0:0:0:0:
109,192,53690,1,0,0:0:0:0:
475,192,53690,1,0,0:0:0:0:
256,192,53690,1,0,0:0:0:0:
402,192,53761,1,0,0:0:0:0:
329,192,53832,1,0,0:0:0:0:
182,192,53832,1,0,0:0:0:0:
109,192,53904,1,0,0:0:0:0:
475,192,53975,1,0,0:0:0:0:
329,192,53975,1,0,0:0:0:0:
402,192,53975,1,0,0:0:0:0:
36,192,53975,1,0,0:0:0:0:
256,192,53975,1,0,0:0:0:0:
109,192,54047,1,0,0:0:0:0:
475,192,54118,1,0,0:0:0:0:
402,192,54118,1,0,0:0:0:0:
182,192,54118,1,0,0:0:0:0:
329,192,54118,1,0,0:0:0:0:
256,192,54190,1,0,0:0:0:0:
402,192,54261,1,0,0:0:0:0:
109,192,54261,1,0,0:0:0:0:
329,192,54332,1,0,0:0:0:0:
475,192,54404,1,0,0:0:0:0:
36,192,54404,1,0,0:0:0:0:
402,192,54404,1,0,0:0:0:0:
109,192,54404,1,0,0:0:0:0:
256,192,54404,1,0,0:0:0:0:
182,192,54475,1,0,0:0:0:0:
36,192,54547,1,0,0:0:0:0:
329,192,54547,1,0,0:0:0:0:
109,192,54618,1,0,0:0:0:0:
475,192,54690,1,0,0:0:0:0:
182,192,54690,1,0,0:0:0:0:
402,192,54690,1,0,0:0:0:0:
329,192,54690,1,0,0:0:0:0:
256,192,54761,1,0,0:0:0:0:
475,192,54832,1,0,0:0:0:0:
109,192,54832,1,0,0:0:0:0:
329,192,54904,1,0,0:0:0:0:
182,192,54975,1,0,0:0:0:0:
36,192,54975,1,0,0:0:0:0:
256,192,55047,1,0,0:0:0:0:
475,192,55118,1,0,0:0:0:0:
36,192,55118,1,0,0:0:0:0:
329,192,55118,1,0,0:0:0:0:
402,192,55118,1,0,0:0:0:0:
109,192,55118,1,0,0:0:0:0:
182,192,55190,1,0,0:0:0:0:
475,192,55261,1,0,0:0:0:0:
256,192,55261,1,0,0:0:0:0:
402,192,55332,1,0,0:0:0:0:
182,192,55404,1,0,0:0:0:0:
475,192,55404,1,0,0:0:0:0:
329,192,55404,1,0,0:0:0:0:
109,192,55404,1,0,0:0:0:0:
36,192,55404,1,0,0:0:0:0:
256,192,55475,1,0,0:0:0:0:
402,192,55547,1,0,0:0:0:0:
182,192,55547,1,0,0:0:0:0:
329,192,55618,1,0,0:0:0:0:
475,192,55690,1,0,0:0:0:0:
402,192,55690,1,0,0:0:0:0:
36,192,55690,1,0,0:0:0:0:
256,192,55690,1,0,0:0:0:0:
109,192,55690,1,0,0:0:0:0:
182,192,55761,1,0,0:0:0:0:
329,192,55832,1,0,0:0:0:0:
109,192,55832,1,0,0:0:0:0:
402,192,55904,1,0,0:0:0:0:
475,192,55975,1,0,0:0:0:0:
256,192,55975,1,0,0:0:0:0:
182,192,55975,1,0,0:0:0:0:
36,192,55975,1,0,0:0:0:0:
109,192,55975,1,0,0:0:0:0:
329,192,56047,1,0,0:0:0:0:
182,192,56118,1,0,0:0:0:0:
36,192,56118,1,0,0:0:0:0:
475,192,56118,1,0,0:0:0:0:
402,192,56118,1,0,0:0:0:0:
256,192,56190,1,0,0:0:0:0:
402,192,56261,1,0,0:0:0:0:
36,192,56261,1,0,0:0:0:0:
109,192,56261,1,0,0:0:0:0:
329,192,56261,1,0,0:0:0:0:
475,192,56261,1,0,0:0:0:0:
256,192,56332,1,0,0:0:0:0:
109,192,56404,1,0,0:0:0:0:
475,192,56404,1,0,0:0:0:0:
402,192,56404,1,0,0:0:0:0:
182,192,56404,1,0,0:0:0:0:
329,192,56475,1,0,0:0:0:0:
36,192,56547,1,0,0:0:0:0:
256,192,56547,1,0,0:0:0:0:
109,192,56618,1,0,0:0:0:0:
402,192,56690,1,0,0:0:0:0:
182,192,56690,1,0,0:0:0:0:
329,192,56761,1,0,0:0:0:0:
182,192,56832,1,0,0:0:0:0:
36,192,56832,1,0,0:0:0:0:
402,192,56832,1,0,0:0:0:0:
109,192,56832,1,0,0:0:0:0:
475,192,56832,1,0,0:0:0:0:
256,192,56904,1,0,0:0:0:0:
109,192,56975,1,0,0:0:0:0:
329,192,56975,1,0,0:0:0:0:
475,192,57047,1,0,0:0:0:0:
36,192,57118,1,0,0:0:0:0:
182,192,57118,1,0,0:0:0:0:
109,192,57118,1,0,0:0:0:0:
402,192,57118,1,0,0:0:0:0:
256,192,57118,1,0,0:0:0:0:
475,192,57190,1,0,0:0:0:0:
329,192,57261,1,0,0:0:0:0:
182,192,57261,1,0,0:0:0:0:
109,192,57332,1,0,0:0:0:0:
36,192,57404,1,0,0:0:0:0:
329,192,57404,1,0,0:0:0:0:
256,192,57404,1,0,0:0:0:0:
475,192,57404,1,0,0:0:0:0:
402,192,57404,1,0,0:0:0:0:
182,192,57475,1,0,0:0:0:0:
402,192,57547,1,0,0:0:0:0:
109,192,57547,1,0,0:0:0:0:
329,192,57618,1,0,0:0:0:0:
475,192,57690,1,0,0:0:0:0:
182,192,57690,1,0,0:0:0:0:
36,192,57690,1,0,0:0:0:0:
256,192,57690,1,0,0:0:0:0:
109,192,57690,1,0,0:0:0:0:
329,192,57761,1,0,0:0:0:0:
36,192,57832,1,0,0:0:0:0:
402,192,57832,1,0,0:0:0:0:
182,192,57904,1,0,0:0:0:0:
329,192,57975,1,0,0:0:0:0:
109,192,57975,1,0,0:0:0:0:
256,192,58047,1,0,0:0:0:0:
109,192,58118,1,0,0:0:0:0:
36,192,58118,1,0,0:0:0:0:
182,192,58118,1,0,0:0:0:0:
402,192,58118,1,0,0:0:0:0:
475,192,58118,1,0,0:0:0:0:
329,192,58190,1,0,0:0:0:0:
36,192,58261,1,0,0:0:0:0:
256,192,58261,1,0,0:0:0:0:
109,192,58332,1,0,0:0:0:0:
475,192,58404,1,0,0:0:0:0:
36,192,58404,1,0,0:0:0:0:
329,192,58404,1,0,0:0:0:0:
182,192,58404,1,0,0:0:0:0:
402,192,58404,1,0,0:0:0:0:
256,192,58475,1,0,0:0:0:0:
402,192,58547,1,0,0:0:0:0:
182,192,58547,1,0,0:0:0:0:
329,192,58618,1,0,0:0:0:0:
402,192,58690,1,0,0:0:0:0:
475,192,58690,1,0,0:0:0:0:
36,192,58690,1,0,0:0:0:0:
256,192,58690,1,0,0:0:0:0:
109,192,58690,1,0,0:0:0:0:
182,192,58761,1,0,0:0:0:0:
329,192,58832,1,0,0:0:0:0:
36,192,58832,1,0,0:0:0:0:
256,192,58904,1,0,0:0:0:0:
475,192,58975,1,0,0:0:0:0:
182,192,58975,1,0,0:0:0:0:
329,192,59047,1,0,0:0:0:0:
36,192,59118,1,0,0:0:0:0:
475,192,59118,1,0,0:0:0:0:
402,192,59118,1,0,0:0:0:0:
182,192,59118,1,0,0:0:0:0:
109,192,59118,1,0,0:0:0:0:
256,192,59190,1,0,0:0:0:0:
36,192,59261,1,0,0:0:0:0:
329,192,59261,1,0,0:0:0:0:
182,192,59332,1,0,0:0:0:0:
109,192,59404,128,0,59547:0:0:0:0:
36,192,59404,128,0,59547:0:0:0:0:
256,192,59404,128,0,59547:0:0:0:0:
402,192,59404,128,0,59547:0:0:0:0:
475,192,59404,128,0,59547:0:0:0:0:
256,192,59832,128,0,59975:0:0:0:0:
329,192,59832,128,0,59975:0:0:0:0:
475,192,59832,128,0,59975:0:0:0:0:
36,192,59832,128,0,59975:0:0:0:0:
109,192,59832,128,0,59975:0:0:0:0:
182,192,59832,128,0,59975:0:0:0:0:
182,192,60261,128,0,60404:0:0:0:0:
109,192,60261,128,0,60404:0:0:0:0:
36,192,60261,128,0,60404:0:0:0:0:
475,192,60261,128,0,60404:0:0:0:0:
402,192,60261,128,0,60404:0:0:0:0:
329,192,60261,128,0,60404:0:0:0:0:
475,192,60547,1,0,0:0:0:0:
256,192,60547,1,0,0:0:0:0:
402,192,60547,1,0,0:0:0:0:
109,192,60547,1,0,0:0:0:0:
36,192,60547,1,0,0:0:0:0:
182,192,60547,1,0,0:0:0:0:
329,192,60618,1,0,0:0:0:0:
182,192,60690,1,0,0:0:0:0:
329,192,60761,1,0,0:0:0:0:
182,192,60832,1,0,0:0:0:0:
329,192,60904,1,0,0:0:0:0:
182,192,60975,1,0,0:0:0:0:
329,192,61047,1,0,0:0:0:0:
109,192,61118,1,0,0:0:0:0:
182,192,61118,1,0,0:0:0:0:
402,192,61190,1,0,0:0:0:0:
329,192,61190,1,0,0:0:0:0:
36,192,61261,1,0,0:0:0:0:
109,192,61261,1,0,0:0:0:0:
475,192,61332,1,0,0:0:0:0:
402,192,61332,1,0,0:0:0:0:
182,192,61404,1,0,0:0:0:0:
109,192,61404,1,0,0:0:0:0:
402,192,61475,1,0,0:0:0:0:
329,192,61475,1,0,0:0:0:0:
109,192,61547,1,0,0:0:0:0:
36,192,61547,1,0,0:0:0:0:
329,192,61618,1,0,0:0:0:0:
256,192,61618,1,0,0:0:0:0:
475,192,61690,1,0,0:0:0:0:
109,192,61690,1,0,0:0:0:0:
402,192,61690,1,0,0:0:0:0:
36,192,61690,1,0,0:0:0:0:
182,192,61690,1,0,0:0:0:0:
329,192,61761,1,0,0:0:0:0:
36,192,61832,1,0,0:0:0:0:
256,192,61832,1,0,0:0:0:0:
109,192,61904,1,0,0:0:0:0:
402,192,61975,1,0,0:0:0:0:
475,192,61975,1,0,0:0:0:0:
329,192,61975,1,0,0:0:0:0:
182,192,61975,1,0,0:0:0:0:
36,192,61975,1,0,0:0:0:0:
256,192,62047,1,0,0:0:0:0:
109,192,62118,1,0,0:0:0:0:
402,192,62118,1,0,0:0:0:0:
329,192,62190,1,0,0:0:0:0:
402,192,62261,1,0,0:0:0:0:
475,192,62261,1,0,0:0:0:0:
36,192,62261,1,0,0:0:0:0:
256,192,62261,1,0,0:0:0:0:
109,192,62261,1,0,0:0:0:0:
182,192,62332,1,0,0:0:0:0:
36,192,62404,1,0,0:0:0:0:
329,192,62404,1,0,0:0:0:0:
256,192,62475,1,0,0:0:0:0:
402,192,62547,1,0,0:0:0:0:
475,192,62547,1,0,0:0:0:0:
329,192,62547,1,0,0:0:0:0:
109,192,62547,1,0,0:0:0:0:
36,192,62547,1,0,0:0:0:0:
182,192,62618,1,0,0:0:0:0:
329,192,62690,1,0,0:0:0:0:
109,192,62690,1,0,0:0:0:0:
402,192,62761,1,0,0:0:0:0:
36,192,62832,1,0,0:0:0:0:
475,192,62832,1,0,0:0:0:0:
109,192,62832,1,0,0:0:0:0:
329,192,62832,1,0,0:0:0:0:
182,192,62832,1,0,0:0:0:0:
256,192,62904,1,0,0:0:0:0:
402,192,62975,1,0,0:0:0:0:
329,192,62975,1,0,0:0:0:0:
109,192,62975,1,0,0:0:0:0:
36,192,62975,1,0,0:0:0:0:
182,192,63047,1,0,0:0:0:0:
402,192,63118,1,0,0:0:0:0:
475,192,63118,1,0,0:0:0:0:
109,192,63118,1,0,0:0:0:0:
256,192,63118,1,0,0:0:0:0:
36,192,63118,1,0,0:0:0:0:
329,192,63190,1,0,0:0:0:0:
402,192,63261,1,0,0:0:0:0:
475,192,63261,1,0,0:0:0:0:
182,192,63261,1,0,0:0:0:0:
36,192,63261,1,0,0:0:0:0:
256,192,63332,1,0,0:0:0:0:
329,192,63404,1,0,0:0:0:0:
109,192,63404,1,0,0:0:0:0:
256,192,63475,1,0,0:0:0:0:
402,192,63547,1,0,0:0:0:0:
109,192,63547,1,0,0:0:0:0:
36,192,63547,1,0,0:0:0:0:
475,192,63547,1,0,0:0:0:0:
182,192,63547,1,0,0:0:0:0:
329,192,63618,1,0,0:0:0:0:
36,192,63690,1,0,0:0:0:0:
256,192,63690,1,0,0:0:0:0:
182,192,63761,1,0,0:0:0:0:
475,192,63832,1,0,0:0:0:0:
36,192,63832,1,0,0:0:0:0:
402,192,63832,1,0,0:0:0:0:
329,192,63832,1,0,0:0:0:0:
109,192,63832,1,0,0:0:0:0:
256,192,63904,1,0,0:0:0:0:
109,192,63975,1,0,0:0:0:0:
329,192,63975,1,0,0:0:0:0:
182,192,64047,1,0,0:0:0:0:
475,192,64118,1,0,0:0:0:0:
256,192,64118,1,0,0:0:0:0:
402,192,64190,1,0,0:0:0:0:
109,192,64261,1,0,0:0:0:0:
36,192,64261,1,0,0:0:0:0:
182,192,64261,1,0,0:0:0:0:
329,192,64261,1,0,0:0:0:0:
402,192,64332,1,0,0:0:0:0:
109,192,64404,1,0,0:0:0:0:
475,192,64404,1,0,0:0:0:0:
256,192,64475,1,0,0:0:0:0:
402,192,64547,1,0,0:0:0:0:
475,192,64547,1,0,0:0:0:0:
329,192,64547,1,0,0:0:0:0:
182,192,64547,1,0,0:0:0:0:
36,192,64547,1,0,0:0:0:0:
109,192,64618,1,0,0:0:0:0:
182,192,64690,1,0,0:0:0:0:
329,192,64690,1,0,0:0:0:0:
402,192,64761,1,0,0:0:0:0:
109,192,64832,1,0,0:0:0:0:
36,192,64832,1,0,0:0:0:0:
182,192,64832,1,0,0:0:0:0:
475,192,64832,1,0,0:0:0:0:
256,192,64832,1,0,0:0:0:0:
402,192,64904,1,0,0:0:0:0:
329,192,64975,1,0,0:0:0:0:
109,192,64975,1,0,0:0:0:0:
182,192,65047,1,0,0:0:0:0:
475,192,65118,1,0,0:0:0:0:
36,192,65118,1,0,0:0:0:0:
402,192,65118,1,0,0:0:0:0:
109,192,65118,1,0,0:0:0:0:
256,192,65118,1,0,0:0:0:0:
329,192,65190,1,0,0:0:0:0:
402,192,65261,1,0,0:0:0:0:
475,192,65261,1,0,0:0:0:0:
109,192,65261,1,0,0:0:0:0:
182,192,65261,1,0,0:0:0:0:
256,192,65332,1,0,0:0:0:0:
109,192,65404,1,0,0:0:0:0:
329,192,65404,1,0,0:0:0:0:
256,192,65475,1,0,0:0:0:0:
475,192,65547,1,0,0:0:0:0:
36,192,65547,1,0,0:0:0:0:
402,192,65547,1,0,0:0:0:0:
109,192,65547,1,0,0:0:0:0:
182,192,65547,1,0,0:0:0:0:
329,192,65618,1,0,0:0:0:0:
36,192,65690,1,0,0:0:0:0:
402,192,65690,1,0,0:0:0:0:
182,192,65761,1,0,0:0:0:0:
329,192,65832,1,0,0:0:0:0:
109,192,65832,1,0,0:0:0:0:
402,192,65904,1,0,0:0:0:0:
36,192,65975,1,0,0:0:0:0:
182,192,65975,1,0,0:0:0:0:
109,192,65975,1,0,0:0:0:0:
475,192,65975,1,0,0:0:0:0:
256,192,65975,1,0,0:0:0:0:
329,192,66047,1,0,0:0:0:0:
402,192,66118,1,0,0:0:0:0:
182,192,66118,1,0,0:0:0:0:
109,192,66190,1,0,0:0:0:0:
402,192,66261,1,0,0:0:0:0:
475,192,66261,1,0,0:0:0:0:
329,192,66261,1,0,0:0:0:0:
36,192,66261,1,0,0:0:0:0:
256,192,66261,1,0,0:0:0:0:
182,192,66332,1,0,0:0:0:0:
109,192,66404,1,0,0:0:0:0:
329,192,66404,1,0,0:0:0:0:
475,192,66475,1,0,0:0:0:0:
402,192,66547,1,0,0:0:0:0:
36,192,66547,1,0,0:0:0:0:
182,192,66618,1,0,0:0:0:0:
329,192,66690,1,0,0:0:0:0:
109,192,66690,1,0,0:0:0:0:
402,192,66761,1,0,0:0:0:0:
36,192,66832,1,0,0:0:0:0:
256,192,66832,1,0,0:0:0:0:
182,192,66904,1,0,0:0:0:0:
329,192,66975,1,0,0:0:0:0:
109,192,66975,1,0,0:0:0:0:
402,192,67047,1,0,0:0:0:0:
182,192,67118,1,0,0:0:0:0:
475,192,67118,1,0,0:0:0:0:
329,192,67190,1,0,0:0:0:0:
402,192,67261,1,0,0:0:0:0:
475,192,67261,1,0,0:0:0:0:
36,192,67261,1,0,0:0:0:0:
256,192,67261,1,0,0:0:0:0:
109,192,67261,1,0,0:0:0:0:
182,192,67332,1,0,0:0:0:0:
36,192,67404,1,0,0:0:0:0:
329,192,67404,1,0,0:0:0:0:
402,192,67475,1,0,0:0:0:0:
256,192,67547,1,0,0:0:0:0:
36,192,67547,1,0,0:0:0:0:
109,192,67547,1,0,0:0:0:0:
475,192,67547,1,0,0:0:0:0:
182,192,67547,1,0,0:0:0:0:
329,192,67618,1,0,0:0:0:0:
109,192,67690,1,0,0:0:0:0:
256,192,67690,1,0,0:0:0:0:
402,192,67761,1,0,0:0:0:0:
36,192,67832,1,0,0:0:0:0:
475,192,67832,1,0,0:0:0:0:
109,192,67832,1,0,0:0:0:0:
182,192,67832,1,0,0:0:0:0:
329,192,67832,1,0,0:0:0:0:
256,192,67904,1,0,0:0:0:0:
402,192,67975,1,0,0:0:0:0:
36,192,67975,1,0,0:0:0:0:
182,192,68047,1,0,0:0:0:0:
475,192,68118,1,0,0:0:0:0:
329,192,68118,1,0,0:0:0:0:
256,192,68190,1,0,0:0:0:0:
402,192,68261,1,0,0:0:0:0:
475,192,68261,1,0,0:0:0:0:
36,192,68261,1,0,0:0:0:0:
109,192,68261,1,0,0:0:0:0:
182,192,68261,1,0,0:0:0:0:
256,192,68332,1,0,0:0:0:0:
36,192,68404,1,0,0:0:0:0:
329,192,68404,1,0,0:0:0:0:
182,192,68475,1,0,0:0:0:0:
475,192,68547,1,0,0:0:0:0:
402,192,68547,1,0,0:0:0:0:
109,192,68547,1,0,0:0:0:0:
256,192,68547,1,0,0:0:0:0:
329,192,68618,1,0,0:0:0:0:
109,192,68690,1,0,0:0:0:0:
402,192,68690,1,0,0:0:0:0:
36,192,68690,1,0,0:0:0:0:
182,192,68690,1,0,0:0:0:0:
256,192,68761,1,0,0:0:0:0:
475,192,68832,1,0,0:0:0:0:
36,192,68832,1,0,0:0:0:0:
329,192,68832,1,0,0:0:0:0:
402,192,68832,1,0,0:0:0:0:
182,192,68904,1,0,0:0:0:0:
402,192,68975,1,0,0:0:0:0:
475,192,68975,1,0,0:0:0:0:
109,192,68975,1,0,0:0:0:0:
329,192,68975,1,0,0:0:0:0:
256,192,69047,1,0,0:0:0:0:
36,192,69118,1,0,0:0:0:0:
402,192,69118,1,0,0:0:0:0:
182,192,69118,1,0,0:0:0:0:
109,192,69118,1,0,0:0:0:0:
329,192,69190,1,0,0:0:0:0:
36,192,69261,1,0,0:0:0:0:
109,192,69261,1,0,0:0:0:0:
256,192,69261,1,0,0:0:0:0:
475,192,69261,1,0,0:0:0:0:
329,192,69332,1,0,0:0:0:0:
36,192,69404,1,0,0:0:0:0:
182,192,69404,1,0,0:0:0:0:
402,192,69404,1,0,0:0:0:0:
475,192,69404,1,0,0:0:0:0:
256,192,69475,1,0,0:0:0:0:
402,192,69547,1,0,0:0:0:0:
109,192,69547,1,0,0:0:0:0:
182,192,69547,1,0,0:0:0:0:
36,192,69547,1,0,0:0:0:0:
329,192,69618,1,0,0:0:0:0:
36,192,69690,1,0,0:0:0:0:
475,192,69690,1,0,0:0:0:0:
256,192,69690,1,0,0:0:0:0:
109,192,69690,1,0,0:0:0:0:
402,192,69761,1,0,0:0:0:0:
329,192,69761,1,0,0:0:0:0:
36,192,69832,1,0,0:0:0:0:
109,192,69832,1,0,0:0:0:0:
182,192,69832,1,0,0:0:0:0:
329,192,69904,1,0,0:0:0:0:
256,192,69904,1,0,0:0:0:0:
402,192,69975,1,0,0:0:0:0:
109,192,69975,1,0,0:0:0:0:
475,192,69975,1,0,0:0:0:0:
36,192,69975,1,0,0:0:0:0:
256,192,70047,1,0,0:0:0:0:
182,192,70047,1,0,0:0:0:0:
329,192,70118,1,0,0:0:0:0:
402,192,70118,1,0,0:0:0:0:
475,192,70118,1,0,0:0:0:0:
109,192,70190,1,0,0:0:0:0:
36,192,70190,1,0,0:0:0:0:
329,192,70261,1,0,0:0:0:0:
256,192,70261,1,0,0:0:0:0:
182,192,70261,1,0,0:0:0:0:
475,192,70332,1,0,0:0:0:0:
402,192,70332,1,0,0:0:0:0:
329,192,70404,1,0,0:0:0:0:
36,192,70404,1,0,0:0:0:0:
109,192,70404,1,0,0:0:0:0:
256,192,70475,1,0,0:0:0:0:
182,192,70475,1,0,0:0:0:0:
109,192,70547,1,0,0:0:0:0:
475,192,70547,1,0,0:0:0:0:
402,192,70547,1,0,0:0:0:0:
329,192,70618,1,0,0:0:0:0:
256,192,70618,1,0,0:0:0:0:
475,192,70690,1,0,0:0:0:0:
182,192,70690,1,0,0:0:0:0:
36,192,70690,1,0,0:0:0:0:
402,192,70761,1,0,0:0:0:0:
329,192,70761,1,0,0:0:0:0:
36,192,70832,1,0,0:0:0:0:
475,192,70832,1,0,0:0:0:0:
256,192,70832,1,0,0:0:0:0:
109,192,70832,1,0,0:0:0:0:
329,192,70904,1,0,0:0:0:0:
182,192,70975,1,0,0:0:0:0:
329,192,71047,1,0,0:0:0:0:
402,192,71118,1,0,0:0:0:0:
475,192,71118,1,0,0:0:0:0:
182,192,71118,1,0,0:0:0:0:
256,192,71118,1,0,0:0:0:0:
36,192,71118,1,0,0:0:0:0:
109,192,71118,1,0,0:0:0:0:
329,192,71190,1,0,0:0:0:0:
109,192,71261,1,0,0:0:0:0:
256,192,71332,1,0,0:0:0:0:
402,192,71404,1,0,0:0:0:0:
475,192,71404,1,0,0:0:0:0:
329,192,71404,1,0,0:0:0:0:
182,192,71404,1,0,0:0:0:0:
36,192,71404,1,0,0:0:0:0:
109,192,71404,1,0,0:0:0:0:
256,192,71475,1,0,0:0:0:0:
475,192,71547,1,0,0:0:0:0:
329,192,71618,1,0,0:0:0:0:
36,192,71690,1,0,0:0:0:0:
109,192,71690,1,0,0:0:0:0:
182,192,71690,1,0,0:0:0:0:
256,192,71690,1,0,0:0:0:0:
402,192,71690,1,0,0:0:0:0:
475,192,71690,1,0,0:0:0:0:
329,192,71761,1,0,0:0:0:0:
109,192,71832,1,0,0:0:0:0:
256,192,71904,1,0,0:0:0:0:
475,192,71975,1,0,0:0:0:0:
182,192,71975,1,0,0:0:0:0:
109,192,71975,1,0,0:0:0:0:
36,192,71975,1,0,0:0:0:0:
329,192,71975,1,0,0:0:0:0:
402,192,71975,1,0,0:0:0:0:
256,192,72047,1,0,0:0:0:0:
402,192,72118,1,0,0:0:0:0:
182,192,72190,1,0,0:0:0:0:
109,192,72261,1,0,0:0:0:0:
36,192,72261,1,0,0:0:0:0:
402,192,72261,1,0,0:0:0:0:
329,192,72261,1,0,0:0:0:0:
475,192,72261,1,0,0:0:0:0:
256,192,72261,1,0,0:0:0:0:
182,192,72332,1,0,0:0:0:0:
329,192,72404,1,0,0:0:0:0:
475,192,72475,1,0,0:0:0:0:
36,192,72547,1,0,0:0:0:0:
256,192,72547,1,0,0:0:0:0:
182,192,72547,1,0,0:0:0:0:
329,192,72547,1,0,0:0:0:0:
402,192,72547,1,0,0:0:0:0:
109,192,72547,1,0,0:0:0:0:
475,192,72618,1,0,0:0:0:0:
109,192,72690,1,0,0:0:0:0:
256,192,72761,1,0,0:0:0:0:
36,192,72832,1,0,0:0:0:0:
109,192,72832,1,0,0:0:0:0:
329,192,72832,1,0,0:0:0:0:
475,192,72832,1,0,0:0:0:0:
182,192,72832,1,0,0:0:0:0:
402,192,72832,1,0,0:0:0:0:
256,192,72904,1,0,0:0:0:0:
475,192,72975,1,0,0:0:0:0:
402,192,72975,1,0,0:0:0:0:
36,192,72975,1,0,0:0:0:0:
109,192,72975,1,0,0:0:0:0:
182,192,73047,1,0,0:0:0:0:
475,192,73118,1,0,0:0:0:0:
109,192,73118,1,0,0:0:0:0:
256,192,73118,1,0,0:0:0:0:
329,192,73118,1,0,0:0:0:0:
402,192,73118,1,0,0:0:0:0:
36,192,73118,1,0,0:0:0:0:
182,192,73190,1,0,0:0:0:0:
329,192,73261,1,0,0:0:0:0:
109,192,73332,1,0,0:0:0:0:
256,192,73404,1,0,0:0:0:0:
402,192,73404,1,0,0:0:0:0:
329,192,73404,1,0,0:0:0:0:
475,192,73404,1,0,0:0:0:0:
182,192,73404,1,0,0:0:0:0:
36,192,73404,1,0,0:0:0:0:
109,192,73475,1,0,0:0:0:0:
402,192,73547,1,0,0:0:0:0:
256,192,73618,1,0,0:0:0:0:
329,192,73690,1,0,0:0:0:0:
402,192,73690,1,0,0:0:0:0:
475,192,73690,1,0,0:0:0:0:
182,192,73690,1,0,0:0:0:0:
109,192,73690,1,0,0:0:0:0:
36,192,73690,1,0,0:0:0:0:
256,192,73761,1,0,0:0:0:0:
109,192,73832,1,0,0:0:0:0:
402,192,73904,1,0,0:0:0:0:
109,192,73975,1,0,0:0:0:0:
36,192,73975,1,0,0:0:0:0:
256,192,73975,1,0,0:0:0:0:
329,192,73975,1,0,0:0:0:0:
475,192,73975,1,0,0:0:0:0:
182,192,73975,1,0,0:0:0:0:
402,192,74047,1,0,0:0:0:0:
182,192,74118,1,0,0:0:0:0:
329,192,74190,1,0,0:0:0:0:
402,192,74261,1,0,0:0:0:0:
475,192,74261,1,0,0:0:0:0:
182,192,74261,1,0,0:0:0:0:
256,192,74261,1,0,0:0:0:0:
109,192,74261,1,0,0:0:0:0:
36,192,74261,1,0,0:0:0:0:
329,192,74332,1,0,0:0:0:0:
475,192,74404,1,0,0:0:0:0:
36,192,74475,1,0,0:0:0:0:
329,192,74547,1,0,0:0:0:0:
402,192,74547,1,0,0:0:0:0:
475,192,74547,1,0,0:0:0:0:
109,192,74547,1,0,0:0:0:0:
182,192,74547,1,0,0:0:0:0:
256,192,74547,1,0,0:0:0:0:
36,192,74618,1,0,0:0:0:0:
329,192,74690,1,0,0:0:0:0:
182,192,74761,1,0,0:0:0:0:
109,192,74832,1,0,0:0:0:0:
36,192,74832,1,0,0:0:0:0:
329,192,74832,1,0,0:0:0:0:
256,192,74832,1,0,0:0:0:0:
402,192,74832,1,0,0:0:0:0:
475,192,74832,1,0,0:0:0:0:
182,192,74904,1,0,0:0:0:0:
475,192,74975,1,0,0:0:0:0:
402,192,74975,1,0,0:0:0:0:
109,192,74975,1,0,0:0:0:0:
256,192,75047,1,0,0:0:0:0:
329,192,75047,1,0,0:0:0:0:
475,192,75118,1,0,0:0:0:0:
109,192,75118,1,0,0:0:0:0:
402,192,75118,1,0,0:0:0:0:
182,192,75118,1,0,0:0:0:0:
36,192,75118,1,0,0:0:0:0:
36,192,75261,1,0,0:0:0:0:
475,192,75261,1,0,0:0:0:0:
329,192,75261,1,0,0:0:0:0:
182,192,75261,1,0,0:0:0:0:
256,192,75261,1,0,0:0:0:0:
329,192,75404,1,0,0:0:0:0:
402,192,75404,1,0,0:0:0:0:
475,192,75404,1,0,0:0:0:0:
109,192,75404,1,0,0:0:0:0:
36,192,75404,1,0,0:0:0:0:
256,192,75404,1,0,0:0:0:0:
182,192,75475,1,0,0:0:0:0:
109,192,75547,1,0,0:0:0:0:
329,192,75618,1,0,0:0:0:0:
109,192,75690,1,0,0:0:0:0:
475,192,75690,1,0,0:0:0:0:
402,192,75690,1,0,0:0:0:0:
256,192,75690,1,0,0:0:0:0:
182,192,75690,1,0,0:0:0:0:
36,192,75690,1,0,0:0:0:0:
329,192,75761,1,0,0:0:0:0:
36,192,75832,1,0,0:0:0:0:
256,192,75904,1,0,0:0:0:0:
36,192,75975,1,0,0:0:0:0:
109,192,75975,1,0,0:0:0:0:
182,192,75975,1,0,0:0:0:0:
329,192,75975,1,0,0:0:0:0:
402,192,75975,1,0,0:0:0:0:
475,192,75975,1,0,0:0:0:0:
256,192,76047,1,0,0:0:0:0:
109,192,76118,1,0,0:0:0:0:
402,192,76190,1,0,0:0:0:0:
475,192,76261,1,0,0:0:0:0:
36,192,76261,1,0,0:0:0:0:
109,192,76261,1,0,0:0:0:0:
329,192,76261,1,0,0:0:0:0:
256,192,76261,1,0,0:0:0:0:
182,192,76261,1,0,0:0:0:0:
402,192,76332,1,0,0:0:0:0:
182,192,76404,1,0,0:0:0:0:
329,192,76475,1,0,0:0:0:0:
36,192,76547,1,0,0:0:0:0:
402,192,76547,1,0,0:0:0:0:
475,192,76547,1,0,0:0:0:0:
256,192,76547,1,0,0:0:0:0:
182,192,76547,1,0,0:0:0:0:
109,192,76547,1,0,0:0:0:0:
329,192,76618,1,0,0:0:0:0:
475,192,76690,1,0,0:0:0:0:
182,192,76761,1,0,0:0:0:0:
329,192,76832,1,0,0:0:0:0:
475,192,76832,1,0,0:0:0:0:
402,192,76832,1,0,0:0:0:0:
109,192,76832,1,0,0:0:0:0:
36,192,76832,1,0,0:0:0:0:
256,192,76832,1,0,0:0:0:0:
182,192,76904,1,0,0:0:0:0:
402,192,76975,1,0,0:0:0:0:
256,192,77047,1,0,0:0:0:0:
36,192,77118,1,0,0:0:0:0:
475,192,77118,1,0,0:0:0:0:
402,192,77118,1,0,0:0:0:0:
329,192,77118,1,0,0:0:0:0:
182,192,77118,1,0,0:0:0:0:
109,192,77118,1,0,0:0:0:0:
256,192,77190,1,0,0:0:0:0:
109,192,77261,1,0,0:0:0:0:
329,192,77332,1,0,0:0:0:0:
256,192,77404,1,0,0:0:0:0:
402,192,77404,1,0,0:0:0:0:
475,192,77404,1,0,0:0:0:0:
182,192,77404,1,0,0:0:0:0:
109,192,77404,1,0,0:0:0:0:
36,192,77404,1,0,0:0:0:0:
329,192,77475,1,0,0:0:0:0:
36,192,77547,1,0,0:0:0:0:
475,192,77547,1,0,0:0:0:0:
402,192,77547,1,0,0:0:0:0:
182,192,77547,1,0,0:0:0:0:
256,192,77618,1,0,0:0:0:0:
36,192,77690,1,0,0:0:0:0:
182,192,77690,1,0,0:0:0:0:
109,192,77690,1,0,0:0:0:0:
329,192,77690,1,0,0:0:0:0:
402,192,77690,1,0,0:0:0:0:
475,192,77690,1,0,0:0:0:0:
256,192,77761,1,0,0:0:0:0:
475,192,77832,1,0,0:0:0:0:
36,192,77832,1,0,0:0:0:0:
109,192,77832,1,0,0:0:0:0:
402,192,77832,1,0,0:0:0:0:
182,192,77904,1,0,0:0:0:0:
475,192,77975,1,0,0:0:0:0:
402,192,77975,1,0,0:0:0:0:
36,192,77975,1,0,0:0:0:0:
256,192,77975,1,0,0:0:0:0:
329,192,77975,1,0,0:0:0:0:
109,192,78047,1,0,0:0:0:0:
402,192,78118,1,0,0:0:0:0:
475,192,78118,1,0,0:0:0:0:
182,192,78118,1,0,0:0:0:0:
329,192,78118,1,0,0:0:0:0:
256,192,78190,1,0,0:0:0:0:
402,192,78261,1,0,0:0:0:0:
475,192,78261,1,0,0:0:0:0:
182,192,78261,1,0,0:0:0:0:
36,192,78261,1,0,0:0:0:0:
109,192,78261,1,0,0:0:0:0:
329,192,78332,1,0,0:0:0:0:
36,192,78404,1,0,0:0:0:0:
402,192,78404,1,0,0:0:0:0:
256,192,78404,1,0,0:0:0:0:
109,192,78404,1,0,0:0:0:0:
182,192,78475,1,0,0:0:0:0:
36,192,78547,1,0,0:0:0:0:
475,192,78547,1,0,0:0:0:0:
109,192,78547,1,0,0:0:0:0:
402,192,78547,1,0,0:0:0:0:
329,192,78547,1,0,0:0:0:0:
256,192,78618,1,0,0:0:0:0:
475,192,78690,1,0,0:0:0:0:
402,192,78690,1,0,0:0:0:0:
182,192,78690,1,0,0:0:0:0:
36,192,78690,1,0,0:0:0:0:
329,192,78761,1,0,0:0:0:0:
109,192,78832,1,0,0:0:0:0:
475,192,78832,1,0,0:0:0:0:
256,192,78832,1,0,0:0:0:0:
36,192,78832,1,0,0:0:0:0:
329,192,78904,1,0,0:0:0:0:
182,192,78904,1,0,0:0:0:0:
402,192,78904,1,0,0:0:0:0:
475,192,78975,1,0,0:0:0:0:
256,192,78975,1,0,0:0:0:0:
36,192,78975,1,0,0:0:0:0:
329,192,79047,1,0,0:0:0:0:
182,192,79047,1,0,0:0:0:0:
109,192,79047,1,0,0:0:0:0:
475,192,79118,1,0,0:0:0:0:
402,192,79118,1,0,0:0:0:0:
256,192,79118,1,0,0:0:0:0:
36,192,79190,1,0,0:0:0:0:
109,192,79190,1,0,0:0:0:0:
182,192,79190,1,0,0:0:0:0:
475,192,79261,1,0,0:0:0:0:
402,192,79261,1,0,0:0:0:0:
329,192,79261,1,0,0:0:0:0:
182,192,79332,1,0,0:0:0:0:
256,192,79332,1,0,0:0:0:0:
475,192,79404,1,0,0:0:0:0:
36,192,79404,1,0,0:0:0:0:
109,192,79404,1,0,0:0:0:0:
402,192,79440,1,0,0:0:0:0:
329,192,79475,1,0,0:0:0:0:
36,192,79511,1,0,0:0:0:0:
109,192,79547,1,0,0:0:0:0:
475,192,79582,1,0,0:0:0:0:
182,192,79582,1,0,0:0:0:0:
402,192,79618,1,0,0:0:0:0:
329,192,79654,1,0,0:0:0:0:
36,192,79690,1,0,0:0:0:0:
109,192,79725,1,0,0:0:0:0:
475,192,79761,1,0,0:0:0:0:
182,192,79761,1,0,0:0:0:0:
402,192,79797,1,0,0:0:0:0:
329,192,79832,1,0,0:0:0:0:
256,192,79868,1,0,0:0:0:0:
182,192,79904,1,0,0:0:0:0:
109,192,79940,1,0,0:0:0:0:
475,192,79975,1,0,0:0:0:0:
329,192,79975,1,0,0:0:0:0:
36,192,79975,1,0,0:0:0:0:
402,192,79975,1,0,0:0:0:0:
36,192,80118,1,0,0:0:0:0:
402,192,80261,1,0,0:0:0:0:
475,192,80261,1,0,0:0:0:0:
256,192,80261,1,0,0:0:0:0:
109,192,80261,1,0,0:0:0:0:
182,192,80261,1,0,0:0:0:0:
256,192,80404,1,0,0:0:0:0:
329,192,80547,1,0,0:0:0:0:
475,192,80547,1,0,0:0:0:0:
109,192,80547,1,0,0:0:0:0:
182,192,80547,1,0,0:0:0:0:
36,192,80547,1,0,0:0:0:0:
109,192,80690,1,0,0:0:0:0:
256,192,80690,1,0,0:0:0:0:
402,192,80690,1,0,0:0:0:0:
475,192,80832,1,0,0:0:0:0:
329,192,80832,1,0,0:0:0:0:
256,192,80832,1,0,0:0:0:0:
36,192,80832,1,0,0:0:0:0:
475,192,80975,1,0,0:0:0:0:
329,192,80975,1,0,0:0:0:0:
402,192,80975,1,0,0:0:0:0:
109,192,80975,1,0,0:0:0:0:
182,192,80975,1,0,0:0:0:0:
182,192,81118,1,0,0:0:0:0:
402,192,81261,1,0,0:0:0:0:
475,192,81261,1,0,0:0:0:0:
256,192,81261,1,0,0:0:0:0:
36,192,81261,1,0,0:0:0:0:
109,192,81261,1,0,0:0:0:0:
402,192,81404,1,0,0:0:0:0:
329,192,81547,1,0,0:0:0:0:
475,192,81547,1,0,0:0:0:0:
36,192,81547,1,0,0:0:0:0:
182,192,81547,1,0,0:0:0:0:
109,192,81547,1,0,0:0:0:0:
182,192,81690,1,0,0:0:0:0:
475,192,81832,1,0,0:0:0:0:
36,192,81832,1,0,0:0:0:0:
402,192,81832,1,0,0:0:0:0:
109,192,81832,1,0,0:0:0:0:
256,192,81832,1,0,0:0:0:0:
109,192,81975,1,0,0:0:0:0:
182,192,81975,1,0,0:0:0:0:
402,192,81975,1,0,0:0:0:0:
475,192,81975,1,0,0:0:0:0:
329,192,81975,1,0,0:0:0:0:
329,192,82118,1,0,0:0:0:0:
402,192,82261,1,0,0:0:0:0:
475,192,82261,1,0,0:0:0:0:
182,192,82261,1,0,0:0:0:0:
256,192,82261,1,0,0:0:0:0:
36,192,82261,1,0,0:0:0:0:
36,192,82404,1,0,0:0:0:0:
402,192,82547,1,0,0:0:0:0:
475,192,82547,1,0,0:0:0:0:
256,192,82547,1,0,0:0:0:0:
109,192,82547,1,0,0:0:0:0:
182,192,82547,1,0,0:0:0:0:
256,192,82690,1,0,0:0:0:0:
329,192,82832,1,0,0:0:0:0:
475,192,82832,1,0,0:0:0:0:
36,192,82832,1,0,0:0:0:0:
182,192,82832,1,0,0:0:0:0:
109,192,82832,1,0,0:0:0:0:
109,192,82975,1,0,0:0:0:0:
256,192,82975,1,0,0:0:0:0:
475,192,82975,1,0,0:0:0:0:
329,192,83118,1,0,0:0:0:0:
402,192,83118,1,0,0:0:0:0:
182,192,83118,1,0,0:0:0:0:
36,192,83118,1,0,0:0:0:0:
329,192,83261,1,0,0:0:0:0:
475,192,83261,1,0,0:0:0:0:
256,192,83261,1,0,0:0:0:0:
109,192,83261,1,0,0:0:0:0:
182,192,83261,1,0,0:0:0:0:
256,192,83404,1,0,0:0:0:0:
329,192,83547,1,0,0:0:0:0:
475,192,83547,1,0,0:0:0:0:
109,192,83547,1,0,0:0:0:0:
182,192,83547,1,0,0:0:0:0:
36,192,83547,1,0,0:0:0:0:
109,192,83690,1,0,0:0:0:0:
402,192,83832,1,0,0:0:0:0:
36,192,83832,1,0,0:0:0:0:
329,192,83832,1,0,0:0:0:0:
182,192,83832,1,0,0:0:0:0:
256,192,83832,1,0,0:0:0:0:
402,192,83975,1,0,0:0:0:0:
182,192,84118,1,0,0:0:0:0:
256,192,84118,1,0,0:0:0:0:
109,192,84118,1,0,0:0:0:0:
329,192,84118,1,0,0:0:0:0:
475,192,84118,1,0,0:0:0:0:
402,192,84261,1,0,0:0:0:0:
36,192,84261,1,0,0:0:0:0:
475,192,84261,1,0,0:0:0:0:
182,192,84261,1,0,0:0:0:0:
329,192,84261,1,0,0:0:0:0:
36,192,84404,1,0,0:0:0:0:
256,192,84547,1,0,0:0:0:0:
475,192,84547,1,0,0:0:0:0:
329,192,84547,1,0,0:0:0:0:
109,192,84547,1,0,0:0:0:0:
182,192,84547,1,0,0:0:0:0:
256,192,84690,1,0,0:0:0:0:
182,192,84832,1,0,0:0:0:0:
36,192,84832,1,0,0:0:0:0:
475,192,84832,1,0,0:0:0:0:
329,192,84832,1,0,0:0:0:0:
402,192,84832,1,0,0:0:0:0:
402,192,84975,1,0,0:0:0:0:
36,192,85118,1,0,0:0:0:0:
329,192,85118,1,0,0:0:0:0:
109,192,85118,1,0,0:0:0:0:
256,192,85118,1,0,0:0:0:0:
182,192,85118,1,0,0:0:0:0:
402,192,85261,1,0,0:0:0:0:
256,192,85261,1,0,0:0:0:0:
109,192,85261,1,0,0:0:0:0:
36,192,85404,1,0,0:0:0:0:
182,192,85404,1,0,0:0:0:0:
329,192,85404,1,0,0:0:0:0:
475,192,85404,1,0,0:0:0:0:
256,192,85547,1,0,0:0:0:0:
475,192,85547,1,0,0:0:0:0:
402,192,85547,1,0,0:0:0:0:
36,192,85547,1,0,0:0:0:0:
109,192,85547,1,0,0:0:0:0:
109,192,85690,1,0,0:0:0:0:
256,192,85832,1,0,0:0:0:0:
475,192,85832,1,0,0:0:0:0:
329,192,85832,1,0,0:0:0:0:
182,192,85832,1,0,0:0:0:0:
36,192,85832,1,0,0:0:0:0:
329,192,85975,1,0,0:0:0:0:
402,192,86118,1,0,0:0:0:0:
475,192,86118,1,0,0:0:0:0:
182,192,86118,1,0,0:0:0:0:
256,192,86118,1,0,0:0:0:0:
109,192,86118,1,0,0:0:0:0:
182,192,86261,1,0,0:0:0:0:
402,192,86404,1,0,0:0:0:0:
475,192,86404,1,0,0:0:0:0:
256,192,86404,1,0,0:0:0:0:
109,192,86404,1,0,0:0:0:0:
36,192,86404,1,0,0:0:0:0:
402,192,86547,1,0,0:0:0:0:
109,192,86547,1,0,0:0:0:0:
329,192,86547,1,0,0:0:0:0:
182,192,86547,1,0,0:0:0:0:
256,192,86547,1,0,0:0:0:0:
329,192,86690,1,0,0:0:0:0:
36,192,86832,1,0,0:0:0:0:
402,192,86832,1,0,0:0:0:0:
109,192,86832,1,0,0:0:0:0:
256,192,86832,1,0,0:0:0:0:
182,192,86832,1,0,0:0:0:0:
182,192,86975,1,0,0:0:0:0:
475,192,87118,1,0,0:0:0:0:
109,192,87118,1,0,0:0:0:0:
402,192,87118,1,0,0:0:0:0:
256,192,87118,1,0,0:0:0:0:
329,192,87118,1,0,0:0:0:0:
402,192,87261,1,0,0:0:0:0:
109,192,87404,1,0,0:0:0:0:
475,192,87404,1,0,0:0:0:0:
36,192,87404,1,0,0:0:0:0:
329,192,87404,1,0,0:0:0:0:
256,192,87404,1,0,0:0:0:0:
329,192,87547,1,0,0:0:0:0:
182,192,87547,1,0,0:0:0:0:
109,192,87547,1,0,0:0:0:0:
36,192,87690,1,0,0:0:0:0:
109,192,87690,1,0,0:0:0:0:
475,192,87690,1,0,0:0:0:0:
256,192,87690,1,0,0:0:0:0:
402,192,87690,1,0,0:0:0:0:
402,192,87832,1,0,0:0:0:0:
256,192,87832,1,0,0:0:0:0:
182,192,87832,1,0,0:0:0:0:
36,192,87975,1,0,0:0:0:0:
475,192,87975,1,0,0:0:0:0:
109,192,87975,1,0,0:0:0:0:
329,192,87975,1,0,0:0:0:0:
182,192,87975,1,0,0:0:0:0:
402,192,88118,1,0,0:0:0:0:
109,192,88118,1,0,0:0:0:0:
475,192,88118,1,0,0:0:0:0:
256,192,88118,1,0,0:0:0:0:
329,192,88118,1,0,0:0:0:0:
256,192,88261,1,0,0:0:0:0:
329,192,88404,1,0,0:0:0:0:
475,192,88404,1,0,0:0:0:0:
36,192,88404,1,0,0:0:0:0:
182,192,88404,1,0,0:0:0:0:
109,192,88404,1,0,0:0:0:0:
36,192,88547,1,0,0:0:0:0:
109,192,88547,1,0,0:0:0:0:
475,192,88547,1,0,0:0:0:0:
256,192,88547,1,0,0:0:0:0:
402,192,88547,1,0,0:0:0:0:
402,192,88690,1,0,0:0:0:0:
475,192,88690,1,0,0:0:0:0:
329,192,88690,1,0,0:0:0:0:
109,192,88690,1,0,0:0:0:0:
182,192,88690,1,0,0:0:0:0:
256,192,88832,1,0,0:0:0:0:
329,192,88868,1,0,0:0:0:0:
36,192,88904,1,0,0:0:0:0:
402,192,88904,1,0,0:0:0:0:
109,192,88940,1,0,0:0:0:0:
475,192,88940,1,0,0:0:0:0:
182,192,88975,1,0,0:0:0:0:
256,192,89011,1,0,0:0:0:0:
329,192,89047,1,0,0:0:0:0:
402,192,89082,1,0,0:0:0:0:
182,192,89118,1,0,0:0:0:0:
36,192,89118,128,0,89547:0:0:0:0:
475,192,89118,1,0,0:0:0:0:
109,192,89118,1,0,0:0:0:0:
402,192,89404,1,0,0:0:0:0:
329,192,89404,1,0,0:0:0:0:
475,192,89404,1,0,0:0:0:0:
182,192,89404,1,0,0:0:0:0:
256,192,89547,128,0,89690:0:0:0:0:
109,192,89690,128,0,89832:0:0:0:0:
36,192,89832,1,0,0:0:0:0:
475,192,89832,1,0,0:0:0:0:
256,192,89832,1,0,0:0:0:0:
475,192,89975,1,0,0:0:0:0:
182,192,89975,128,0,90118:0:0:0:0:
329,192,89975,1,0,0:0:0:0:
36,192,89975,1,0,0:0:0:0:
109,192,89975,1,0,0:0:0:0:
402,192,90118,128,0,90690:0:0:0:0:
329,192,90261,1,0,0:0:0:0:
36,192,90261,1,0,0:0:0:0:
182,192,90261,1,0,0:0:0:0:
475,192,90547,1,0,0:0:0:0:
256,192,90547,1,0,0:0:0:0:
109,192,90547,1,0,0:0:0:0:
36,192,90547,1,0,0:0:0:0:
256,192,90690,1,0,0:0:0:0:
109,192,90690,1,0,0:0:0:0:
182,192,90975,1,0,0:0:0:0:
475,192,90975,1,0,0:0:0:0:
329,192,90975,1,0,0:0:0:0:
329,192,91118,1,0,0:0:0:0:
475,192,91118,1,0,0:0:0:0:
36,192,91118,1,0,0:0:0:0:
182,192,91118,128,0,91261:0:0:0:0:
109,192,91118,1,0,0:0:0:0:
256,192,91404,1,0,0:0:0:0:
475,192,91404,1,0,0:0:0:0:
402,192,91404,128,0,91690:0:0:0:0:
36,192,91404,1,0,0:0:0:0:
36,192,91690,1,0,0:0:0:0:
182,192,91690,1,0,0:0:0:0:
475,192,91690,1,0,0:0:0:0:
109,192,91690,128,0,91832:0:0:0:0:
329,192,91690,1,0,0:0:0:0:
256,192,91975,128,0,92118:0:0:0:0:
36,192,92118,1,0,0:0:0:0:
402,192,92118,1,0,0:0:0:0:
182,192,92118,1,0,0:0:0:0:
182,192,92261,1,0,0:0:0:0:
36,192,92261,1,0,0:0:0:0:
475,192,92261,1,0,0:0:0:0:
329,192,92261,128,0,92404:0:0:0:0:
402,192,92261,1,0,0:0:0:0:
109,192,92404,128,0,92975:0:0:0:0:
475,192,92547,1,0,0:0:0:0:
256,192,92547,1,0,0:0:0:0:
402,192,92547,1,0,0:0:0:0:
402,192,92832,1,0,0:0:0:0:
475,192,92832,1,0,0:0:0:0:
182,192,92832,1,0,0:0:0:0:
329,192,92832,1,0,0:0:0:0:
329,192,92975,1,0,0:0:0:0:
182,192,92975,1,0,0:0:0:0:
256,192,93261,1,0,0:0:0:0:
109,192,93261,1,0,0:0:0:0:
36,192,93261,1,0,0:0:0:0:
329,192,93404,1,0,0:0:0:0:
475,192,93404,1,0,0:0:0:0:
182,192,93404,1,0,0:0:0:0:
402,192,93404,128,0,93475:0:0:0:0:
36,192,93404,1,0,0:0:0:0:
109,192,93690,1,0,0:0:0:0:
402,192,93690,1,0,0:0:0:0:
256,192,93690,128,0,93975:0:0:0:0:
36,192,93690,1,0,0:0:0:0:
36,192,93975,1,0,0:0:0:0:
182,192,93975,1,0,0:0:0:0:
402,192,93975,1,0,0:0:0:0:
475,192,93975,1,0,0:0:0:0:
329,192,94261,128,0,94404:0:0:0:0:
182,192,94404,1,0,0:0:0:0:
475,192,94404,1,0,0:0:0:0:
402,192,94404,128,0,94547:0:0:0:0:
36,192,94404,1,0,0:0:0:0:
256,192,94547,1,0,0:0:0:0:
36,192,94547,1,0,0:0:0:0:
475,192,94547,1,0,0:0:0:0:
109,192,94547,128,0,94690:0:0:0:0:
182,192,94547,1,0,0:0:0:0:
329,192,94690,128,0,94832:0:0:0:0:
402,192,94832,1,0,0:0:0:0:
182,192,94832,1,0,0:0:0:0:
109,192,94832,1,0,0:0:0:0:
256,192,94975,128,0,95118:0:0:0:0:
182,192,95118,1,0,0:0:0:0:
475,192,95118,1,0,0:0:0:0:
329,192,95118,1,0,0:0:0:0:
36,192,95118,1,0,0:0:0:0:
329,192,95261,1,0,0:0:0:0:
475,192,95261,1,0,0:0:0:0:
109,192,95261,128,0,95404:0:0:0:0:
329,192,95547,128,0,95832:0:0:0:0:
182,192,95547,1,0,0:0:0:0:
475,192,95547,1,0,0:0:0:0:
109,192,95690,1,0,0:0:0:0:
36,192,95690,1,0,0:0:0:0:
475,192,95690,1,0,0:0:0:0:
182,192,95690,1,0,0:0:0:0:
256,192,95832,128,0,95975:0:0:0:0:
36,192,95975,1,0,0:0:0:0:
475,192,95975,1,0,0:0:0:0:
329,192,95975,128,0,96118:0:0:0:0:
109,192,95975,1,0,0:0:0:0:
256,192,96261,1,0,0:0:0:0:
475,192,96261,1,0,0:0:0:0:
109,192,96261,1,0,0:0:0:0:
36,192,96261,128,0,96404:0:0:0:0:
402,192,96261,1,0,0:0:0:0:
402,192,96547,128,0,96690:0:0:0:0:
329,192,96690,1,0,0:0:0:0:
256,192,96690,1,0,0:0:0:0:
109,192,96690,1,0,0:0:0:0:
36,192,96832,1,0,0:0:0:0:
109,192,96832,1,0,0:0:0:0:
402,192,96832,1,0,0:0:0:0:
182,192,96832,128,0,96975:0:0:0:0:
475,192,96832,1,0,0:0:0:0:
329,192,96975,128,0,97118:0:0:0:0:
475,192,97118,1,0,0:0:0:0:
182,192,97118,1,0,0:0:0:0:
36,192,97118,1,0,0:0:0:0:
402,192,97261,1,0,0:0:0:0:
256,192,97261,1,0,0:0:0:0:
109,192,97261,128,0,97404:0:0:0:0:
182,192,97404,1,0,0:0:0:0:
475,192,97404,1,0,0:0:0:0:
329,192,97404,1,0,0:0:0:0:
36,192,97404,1,0,0:0:0:0:
402,192,97547,1,0,0:0:0:0:
109,192,97547,1,0,0:0:0:0:
256,192,97547,128,0,97832:0:0:0:0:
329,192,97690,1,0,0:0:0:0:
182,192,97690,1,0,0:0:0:0:
36,192,97832,1,0,0:0:0:0:
329,192,97832,1,0,0:0:0:0:
109,192,97832,1,0,0:0:0:0:
402,192,97975,1,0,0:0:0:0:
475,192,97975,1,0,0:0:0:0:
109,192,97975,1,0,0:0:0:0:
256,192,97975,1,0,0:0:0:0:
329,192,98118,1,0,0:0:0:0:
182,192,98118,1,0,0:0:0:0:
256,192,98261,1,0,0:0:0:0:
36,192,98261,1,0,0:0:0:0:
475,192,98261,1,0,0:0:0:0:
109,192,98261,128,0,98547:0:0:0:0:
402,192,98261,1,0,0:0:0:0:
329,192,98547,1,0,0:0:0:0:
475,192,98547,1,0,0:0:0:0:
36,192,98547,1,0,0:0:0:0:
182,192,98547,1,0,0:0:0:0:
402,192,98690,128,0,98832:0:0:0:0:
256,192,98832,128,0,98975:0:0:0:0:
475,192,98975,1,0,0:0:0:0:
109,192,98975,1,0,0:0:0:0:
329,192,98975,1,0,0:0:0:0:
475,192,99118,1,0,0:0:0:0:
109,192,99118,1,0,0:0:0:0:
402,192,99118,1,0,0:0:0:0:
182,192,99118,128,0,99261:0:0:0:0:
329,192,99118,1,0,0:0:0:0:
36,192,99261,128,0,99832:0:0:0:0:
402,192,99404,1,0,0:0:0:0:
256,192,99404,1,0,0:0:0:0:
109,192,99404,1,0,0:0:0:0:
402,192,99690,1,0,0:0:0:0:
475,192,99690,1,0,0:0:0:0:
329,192,99690,1,0,0:0:0:0:
182,192,99690,1,0,0:0:0:0:
329,192,99832,1,0,0:0:0:0:
182,192,99832,1,0,0:0:0:0:
36,192,100118,1,0,0:0:0:0:
256,192,100118,1,0,0:0:0:0:
109,192,100118,1,0,0:0:0:0:
109,192,100261,1,0,0:0:0:0:
402,192,100261,1,0,0:0:0:0:
36,192,100261,1,0,0:0:0:0:
475,192,100261,128,0,100404:0:0:0:0:
256,192,100261,1,0,0:0:0:0:
36,192,100547,1,0,0:0:0:0:
402,192,100547,1,0,0:0:0:0:
256,192,100547,128,0,100832:0:0:0:0:
182,192,100547,1,0,0:0:0:0:
402,192,100832,1,0,0:0:0:0:
475,192,100832,1,0,0:0:0:0:
109,192,100832,1,0,0:0:0:0:
329,192,100832,128,0,101118:0:0:0:0:
36,192,100832,1,0,0:0:0:0:
182,192,101118,128,0,101261:0:0:0:0:
329,192,101261,1,0,0:0:0:0:
402,192,101261,1,0,0:0:0:0:
36,192,101261,128,0,101404:0:0:0:0:
109,192,101261,1,0,0:0:0:0:
402,192,101404,1,0,0:0:0:0:
109,192,101404,1,0,0:0:0:0:
182,192,101404,1,0,0:0:0:0:
256,192,101404,128,0,101547:0:0:0:0:
475,192,101404,1,0,0:0:0:0:
329,192,101547,128,0,101690:0:0:0:0:
475,192,101690,1,0,0:0:0:0:
36,192,101690,1,0,0:0:0:0:
182,192,101690,1,0,0:0:0:0:
109,192,101832,128,0,101975:0:0:0:0:
402,192,101975,1,0,0:0:0:0:
475,192,101975,1,0,0:0:0:0:
182,192,101975,1,0,0:0:0:0:
329,192,101975,1,0,0:0:0:0:
36,192,102118,1,0,0:0:0:0:
182,192,102118,1,0,0:0:0:0:
256,192,102118,128,0,102404:0:0:0:0:
475,192,102404,1,0,0:0:0:0:
329,192,102404,1,0,0:0:0:0:
109,192,102404,1,0,0:0:0:0:
475,192,102547,1,0,0:0:0:0:
402,192,102547,1,0,0:0:0:0:
329,192,102547,1,0,0:0:0:0:
182,192,102547,128,0,102690:0:0:0:0:
36,192,102547,1,0,0:0:0:0:
109,192,102832,1,0,0:0:0:0:
36,192,102832,1,0,0:0:0:0:
256,192,102832,128,0,102975:0:0:0:0:
402,192,102832,1,0,0:0:0:0:
256,192,103118,1,0,0:0:0:0:
402,192,103118,1,0,0:0:0:0:
109,192,103118,1,0,0:0:0:0:
36,192,103118,1,0,0:0:0:0:
329,192,103404,128,0,103547:0:0:0:0:
109,192,103547,1,0,0:0:0:0:
475,192,103547,1,0,0:0:0:0:
182,192,103547,128,0,103690:0:0:0:0:
256,192,103547,1,0,0:0:0:0:
109,192,103690,1,0,0:0:0:0:
36,192,103690,1,0,0:0:0:0:
329,192,103690,1,0,0:0:0:0:
256,192,103690,128,0,103832:0:0:0:0:
475,192,103690,1,0,0:0:0:0:
402,192,103832,128,0,103975:0:0:0:0:
329,192,103975,1,0,0:0:0:0:
182,192,103975,1,0,0:0:0:0:
36,192,103975,1,0,0:0:0:0:
109,192,104118,128,0,104261:0:0:0:0:
402,192,104261,1,0,0:0:0:0:
475,192,104261,1,0,0:0:0:0:
182,192,104261,1,0,0:0:0:0:
256,192,104261,1,0,0:0:0:0:
36,192,104404,1,0,0:0:0:0:
182,192,104404,1,0,0:0:0:0:
329,192,104404,128,0,104547:0:0:0:0:
109,192,104690,1,0,0:0:0:0:
256,192,104690,1,0,0:0:0:0:
182,192,104690,128,0,104832:0:0:0:0:
402,192,104690,1,0,0:0:0:0:
475,192,104832,1,0,0:0:0:0:
36,192,104832,1,0,0:0:0:0:
256,192,104832,1,0,0:0:0:0:
402,192,104832,1,0,0:0:0:0:
329,192,104975,128,0,105118:0:0:0:0:
402,192,105118,1,0,0:0:0:0:
475,192,105118,1,0,0:0:0:0:
182,192,105118,128,0,105261:0:0:0:0:
36,192,105118,1,0,0:0:0:0:
36,192,105404,1,0,0:0:0:0:
475,192,105404,1,0,0:0:0:0:
109,192,105404,1,0,0:0:0:0:
402,192,105404,128,0,105547:0:0:0:0:
256,192,105404,1,0,0:0:0:0:
109,192,105690,128,0,105832:0:0:0:0:
475,192,105832,1,0,0:0:0:0:
36,192,105832,1,0,0:0:0:0:
329,192,105832,1,0,0:0:0:0:
475,192,105975,1,0,0:0:0:0:
329,192,105975,1,0,0:0:0:0:
182,192,105975,1,0,0:0:0:0:
256,192,105975,128,0,106118:0:0:0:0:
36,192,105975,1,0,0:0:0:0:
475,192,106118,1,0,0:0:0:0:
402,192,106118,1,0,0:0:0:0:
109,192,106118,128,0,106261:0:0:0:0:
182,192,106118,1,0,0:0:0:0:
402,192,106261,1,0,0:0:0:0:
36,192,106261,1,0,0:0:0:0:
256,192,106261,1,0,0:0:0:0:
475,192,106261,1,0,0:0:0:0:
109,192,106404,1,0,0:0:0:0:
36,192,106404,1,0,0:0:0:0:
329,192,106404,128,0,106547:0:0:0:0:
182,192,106475,1,0,0:0:0:0:
256,192,106475,1,0,0:0:0:0:
402,192,106547,1,0,0:0:0:0:
475,192,106547,1,0,0:0:0:0:
109,192,106547,1,0,0:0:0:0:
36,192,106547,1,0,0:0:0:0:
182,192,106690,1,0,0:0:0:0:
329,192,106690,1,0,0:0:0:0:
36,192,106690,128,0,106975:0:0:0:0:
256,192,106761,1,0,0:0:0:0:
402,192,106761,1,0,0:0:0:0:
182,192,106832,1,0,0:0:0:0:
329,192,106832,1,0,0:0:0:0:
109,192,106832,1,0,0:0:0:0:
475,192,106832,1,0,0:0:0:0:
256,192,106975,1,0,0:0:0:0:
109,192,106975,1,0,0:0:0:0:
402,192,107047,1,0,0:0:0:0:
475,192,107047,1,0,0:0:0:0:
329,192,107118,1,0,0:0:0:0:
109,192,107118,1,0,0:0:0:0:
182,192,107118,1,0,0:0:0:0:
36,192,107118,1,0,0:0:0:0:
256,192,107261,1,0,0:0:0:0:
402,192,107261,1,0,0:0:0:0:
109,192,107261,1,0,0:0:0:0:
475,192,107261,1,0,0:0:0:0:
402,192,107404,1,0,0:0:0:0:
475,192,107404,1,0,0:0:0:0:
182,192,107404,128,0,107690:0:0:0:0:
36,192,107404,1,0,0:0:0:0:
109,192,107404,1,0,0:0:0:0:
329,192,107404,1,0,0:0:0:0:
402,192,107832,1,0,0:0:0:0:
256,192,107832,1,0,0:0:0:0:
109,192,107832,1,0,0:0:0:0:
36,192,107975,1,0,0:0:0:0:
475,192,107975,1,0,0:0:0:0:
329,192,107975,128,0,108118:0:0:0:0:
182,192,107975,1,0,0:0:0:0:
109,192,107975,1,0,0:0:0:0:
402,192,108118,128,0,108261:0:0:0:0:
109,192,108261,128,0,108404:0:0:0:0:
256,192,108404,128,0,108547:0:0:0:0:
402,192,108547,1,0,0:0:0:0:
36,192,108547,1,0,0:0:0:0:
182,192,108547,1,0,0:0:0:0:
475,192,108690,128,0,108832:0:0:0:0:
36,192,108832,1,0,0:0:0:0:
402,192,108832,1,0,0:0:0:0:
182,192,108832,1,0,0:0:0:0:
256,192,108975,128,0,109118:0:0:0:0:
329,192,109118,1,0,0:0:0:0:
475,192,109118,1,0,0:0:0:0:
109,192,109118,1,0,0:0:0:0:
36,192,109118,1,0,0:0:0:0:
182,192,109261,128,0,109404:0:0:0:0:
402,192,109404,128,0,109547:0:0:0:0:
329,192,109690,1,0,0:0:0:0:
475,192,109690,1,0,0:0:0:0:
256,192,109690,128,0,109975:0:0:0:0:
109,192,109690,1,0,0:0:0:0:
36,192,109975,128,0,110118:0:0:0:0:
475,192,110118,1,0,0:0:0:0:
182,192,110118,1,0,0:0:0:0:
329,192,110118,1,0,0:0:0:0:
36,192,110261,1,0,0:0:0:0:
109,192,110261,1,0,0:0:0:0:
182,192,110261,1,0,0:0:0:0:
329,192,110261,128,0,110547:0:0:0:0:
475,192,110261,1,0,0:0:0:0:
109,192,110547,128,0,110690:0:0:0:0:
475,192,110690,1,0,0:0:0:0:
182,192,110690,1,0,0:0:0:0:
402,192,110690,128,0,110832:0:0:0:0:
329,192,110690,1,0,0:0:0:0:
36,192,110975,128,0,111118:0:0:0:0:
475,192,111118,1,0,0:0:0:0:
182,192,111118,1,0,0:0:0:0:
329,192,111118,1,0,0:0:0:0:
256,192,111261,128,0,111547:0:0:0:0:
36,192,111404,1,0,0:0:0:0:
402,192,111404,1,0,0:0:0:0:
109,192,111404,1,0,0:0:0:0:
475,192,111404,1,0,0:0:0:0:
182,192,111690,128,0,111832:0:0:0:0:
36,192,111975,1,0,0:0:0:0:
256,192,111975,1,0,0:0:0:0:
402,192,111975,128,0,112118:0:0:0:0:
109,192,111975,1,0,0:0:0:0:
402,192,112261,128,0,112404:0:0:0:0:
475,192,112404,1,0,0:0:0:0:
256,192,112404,1,0,0:0:0:0:
109,192,112404,1,0,0:0:0:0:
109,192,112547,1,0,0:0:0:0:
402,192,112547,1,0,0:0:0:0:
182,192,112547,1,0,0:0:0:0:
36,192,112547,128,0,112832:0:0:0:0:
329,192,112547,1,0,0:0:0:0:
256,192,112832,128,0,112975:0:0:0:0:
475,192,112975,1,0,0:0:0:0:
36,192,112975,1,0,0:0:0:0:
182,192,112975,128,0,113118:0:0:0:0:
402,192,112975,1,0,0:0:0:0:
329,192,113261,128,0,113404:0:0:0:0:
402,192,113404,1,0,0:0:0:0:
475,192,113404,1,0,0:0:0:0:
109,192,113404,128,0,113547:0:0:0:0:
182,192,113404,1,0,0:0:0:0:
256,192,113547,128,0,113690:0:0:0:0:
36,192,113690,1,0,0:0:0:0:
475,192,113690,1,0,0:0:0:0:
109,192,113690,1,0,0:0:0:0:
402,192,113690,128,0,113832:0:0:0:0:
182,192,113690,1,0,0:0:0:0:
182,192,113975,128,0,114118:0:0:0:0:
36,192,114261,1,0,0:0:0:0:
475,192,114261,1,0,0:0:0:0:
402,192,114261,128,0,114404:0:0:0:0:
256,192,114261,1,0,0:0:0:0:
182,192,114404,128,0,114547:0:0:0:0:
329,192,114547,128,0,114690:0:0:0:0:
36,192,114690,1,0,0:0:0:0:
475,192,114690,1,0,0:0:0:0:
109,192,114690,128,0,114832:0:0:0:0:
256,192,114690,1,0,0:0:0:0:
36,192,114832,1,0,0:0:0:0:
475,192,114832,1,0,0:0:0:0:
329,192,114832,1,0,0:0:0:0:
402,192,114832,128,0,115118:0:0:0:0:
182,192,114832,1,0,0:0:0:0:
256,192,115118,128,0,115261:0:0:0:0:
475,192,115261,1,0,0:0:0:0:
36,192,115261,1,0,0:0:0:0:
109,192,115261,128,0,116261:0:0:0:0:
329,192,115261,1,0,0:0:0:0:
329,192,115690,1,0,0:0:0:0:
475,192,115690,1,0,0:0:0:0:
36,192,115690,1,0,0:0:0:0:
329,192,115975,1,0,0:0:0:0:
475,192,115975,1,0,0:0:0:0:
182,192,115975,1,0,0:0:0:0:
36,192,115975,1,0,0:0:0:0:
256,192,116261,1,0,0:0:0:0:
402,192,116261,1,0,0:0:0:0:
329,192,116547,1,0,0:0:0:0:
402,192,116547,1,0,0:0:0:0:
182,192,116547,1,0,0:0:0:0:
36,192,116618,1,0,0:0:0:0:
402,192,116690,1,0,0:0:0:0:
329,192,116690,1,0,0:0:0:0:
182,192,116690,1,0,0:0:0:0:
36,192,116761,1,0,0:0:0:0:
109,192,116832,1,0,0:0:0:0:
256,192,116832,1,0,0:0:0:0:
475,192,116832,1,0,0:0:0:0:
402,192,116832,1,0,0:0:0:0:
182,192,116975,1,0,0:0:0:0:
475,192,116975,1,0,0:0:0:0:
329,192,117047,1,0,0:0:0:0:
402,192,117047,1,0,0:0:0:0:
182,192,117118,1,0,0:0:0:0:
475,192,117118,1,0,0:0:0:0:
256,192,117190,1,0,0:0:0:0:
36,192,117190,1,0,0:0:0:0:
109,192,117261,1,0,0:0:0:0:
329,192,117261,1,0,0:0:0:0:
182,192,117332,1,0,0:0:0:0:
402,192,117332,1,0,0:0:0:0:
109,192,117404,1,0,0:0:0:0:
329,192,117404,1,0,0:0:0:0:
182,192,117475,1,0,0:0:0:0:
475,192,117475,1,0,0:0:0:0:
402,192,117547,1,0,0:0:0:0:
256,192,117547,1,0,0:0:0:0:
329,192,117618,1,0,0:0:0:0:
182,192,117618,1,0,0:0:0:0:
475,192,117690,1,0,0:0:0:0:
109,192,117690,1,0,0:0:0:0:
36,192,117690,1,0,0:0:0:0:
402,192,117690,1,0,0:0:0:0:
256,192,117761,1,0,0:0:0:0:
402,192,117832,1,0,0:0:0:0:
182,192,117832,1,0,0:0:0:0:
329,192,117904,1,0,0:0:0:0:
36,192,117975,1,0,0:0:0:0:
402,192,117975,1,0,0:0:0:0:
109,192,117975,1,0,0:0:0:0:
256,192,117975,1,0,0:0:0:0:
475,192,117975,1,0,0:0:0:0:
182,192,118047,1,0,0:0:0:0:
109,192,118118,1,0,0:0:0:0:
329,192,118118,1,0,0:0:0:0:
256,192,118190,1,0,0:0:0:0:
475,192,118261,1,0,0:0:0:0:
109,192,118261,1,0,0:0:0:0:
402,192,118261,1,0,0:0:0:0:
182,192,118261,1,0,0:0:0:0:
36,192,118261,1,0,0:0:0:0:
329,192,118332,1,0,0:0:0:0:
182,192,118404,1,0,0:0:0:0:
402,192,118404,1,0,0:0:0:0:
256,192,118475,1,0,0:0:0:0:
36,192,118547,1,0,0:0:0:0:
109,192,118547,1,0,0:0:0:0:
475,192,118547,1,0,0:0:0:0:
329,192,118547,1,0,0:0:0:0:
402,192,118547,1,0,0:0:0:0:
182,192,118618,1,0,0:0:0:0:
329,192,118690,1,0,0:0:0:0:
109,192,118690,1,0,0:0:0:0:
256,192,118761,1,0,0:0:0:0:
36,192,118832,1,0,0:0:0:0:
182,192,118832,1,0,0:0:0:0:
109,192,118832,1,0,0:0:0:0:
475,192,118832,1,0,0:0:0:0:
402,192,118832,1,0,0:0:0:0:
329,192,118904,1,0,0:0:0:0:
256,192,118975,1,0,0:0:0:0:
36,192,118975,1,0,0:0:0:0:
109,192,119047,1,0,0:0:0:0:
475,192,119118,1,0,0:0:0:0:
329,192,119118,1,0,0:0:0:0:
402,192,119118,1,0,0:0:0:0:
182,192,119118,1,0,0:0:0:0:
36,192,119118,1,0,0:0:0:0:
256,192,119190,1,0,0:0:0:0:
475,192,119261,1,0,0:0:0:0:
402,192,119261,1,0,0:0:0:0:
182,192,119261,1,0,0:0:0:0:
109,192,119261,1,0,0:0:0:0:
329,192,119332,1,0,0:0:0:0:
256,192,119404,1,0,0:0:0:0:
36,192,119404,1,0,0:0:0:0:
182,192,119475,1,0,0:0:0:0:
475,192,119547,1,0,0:0:0:0:
36,192,119547,1,0,0:0:0:0:
402,192,119547,1,0,0:0:0:0:
109,192,119547,1,0,0:0:0:0:
329,192,119547,1,0,0:0:0:0:
256,192,119618,1,0,0:0:0:0:
182,192,119690,1,0,0:0:0:0:
329,192,119690,1,0,0:0:0:0:
402,192,119761,1,0,0:0:0:0:
475,192,119832,1,0,0:0:0:0:
109,192,119832,1,0,0:0:0:0:
36,192,119832,1,0,0:0:0:0:
256,192,119832,1,0,0:0:0:0:
402,192,119904,1,0,0:0:0:0:
329,192,119975,1,0,0:0:0:0:
109,192,119975,1,0,0:0:0:0:
182,192,120047,1,0,0:0:0:0:
329,192,120118,1,0,0:0:0:0:
36,192,120118,1,0,0:0:0:0:
256,192,120190,1,0,0:0:0:0:
475,192,120261,1,0,0:0:0:0:
36,192,120261,1,0,0:0:0:0:
109,192,120261,1,0,0:0:0:0:
402,192,120261,1,0,0:0:0:0:
182,192,120261,1,0,0:0:0:0:
329,192,120332,1,0,0:0:0:0:
109,192,120404,1,0,0:0:0:0:
256,192,120404,1,0,0:0:0:0:
182,192,120475,1,0,0:0:0:0:
329,192,120547,1,0,0:0:0:0:
475,192,120547,1,0,0:0:0:0:
402,192,120547,1,0,0:0:0:0:
109,192,120547,1,0,0:0:0:0:
36,192,120547,1,0,0:0:0:0:
256,192,120618,1,0,0:0:0:0:
329,192,120690,1,0,0:0:0:0:
36,192,120690,1,0,0:0:0:0:
182,192,120761,1,0,0:0:0:0:
475,192,120832,1,0,0:0:0:0:
402,192,120832,1,0,0:0:0:0:
36,192,120832,1,0,0:0:0:0:
329,192,120832,1,0,0:0:0:0:
109,192,120832,1,0,0:0:0:0:
256,192,120904,1,0,0:0:0:0:
402,192,120975,1,0,0:0:0:0:
182,192,120975,1,0,0:0:0:0:
329,192,121047,1,0,0:0:0:0:
475,192,121118,1,0,0:0:0:0:
256,192,121118,1,0,0:0:0:0:
182,192,121118,1,0,0:0:0:0:
36,192,121118,1,0,0:0:0:0:
109,192,121118,1,0,0:0:0:0:
402,192,121190,1,0,0:0:0:0:
182,192,121261,1,0,0:0:0:0:
36,192,121261,1,0,0:0:0:0:
109,192,121261,1,0,0:0:0:0:
329,192,121261,1,0,0:0:0:0:
256,192,121332,1,0,0:0:0:0:
402,192,121404,1,0,0:0:0:0:
36,192,121404,1,0,0:0:0:0:
109,192,121404,1,0,0:0:0:0:
329,192,121404,1,0,0:0:0:0:
475,192,121404,1,0,0:0:0:0:
182,192,121475,1,0,0:0:0:0:
36,192,121547,1,0,0:0:0:0:
475,192,121547,1,0,0:0:0:0:
402,192,121547,1,0,0:0:0:0:
256,192,121547,1,0,0:0:0:0:
109,192,121618,1,0,0:0:0:0:
182,192,121690,1,0,0:0:0:0:
402,192,121690,1,0,0:0:0:0:
329,192,121761,1,0,0:0:0:0:
256,192,121832,1,0,0:0:0:0:
36,192,121832,1,0,0:0:0:0:
109,192,121904,1,0,0:0:0:0:
182,192,121975,1,0,0:0:0:0:
36,192,121975,1,0,0:0:0:0:
402,192,121975,1,0,0:0:0:0:
329,192,121975,1,0,0:0:0:0:
475,192,121975,1,0,0:0:0:0:
256,192,122047,1,0,0:0:0:0:
109,192,122118,1,0,0:0:0:0:
402,192,122118,1,0,0:0:0:0:
329,192,122190,1,0,0:0:0:0:
36,192,122261,1,0,0:0:0:0:
182,192,122261,1,0,0:0:0:0:
109,192,122261,1,0,0:0:0:0:
475,192,122261,1,0,0:0:0:0:
256,192,122261,1,0,0:0:0:0:
402,192,122332,1,0,0:0:0:0:
329,192,122404,1,0,0:0:0:0:
36,192,122404,1,0,0:0:0:0:
182,192,122475,1,0,0:0:0:0:
109,192,122547,1,0,0:0:0:0:
329,192,122547,1,0,0:0:0:0:
256,192,122547,1,0,0:0:0:0:
475,192,122547,1,0,0:0:0:0:
402,192,122547,1,0,0:0:0:0:
36,192,122618,1,0,0:0:0:0:
402,192,122690,1,0,0:0:0:0:
182,192,122690,1,0,0:0:0:0:
256,192,122761,1,0,0:0:0:0:
475,192,122832,1,0,0:0:0:0:
182,192,122832,1,0,0:0:0:0:
36,192,122832,1,0,0:0:0:0:
329,192,122832,1,0,0:0:0:0:
109,192,122832,1,0,0:0:0:0:
402,192,122904,1,0,0:0:0:0:
109,192,122975,1,0,0:0:0:0:
329,192,122975,1,0,0:0:0:0:
182,192,123047,1,0,0:0:0:0:
256,192,123118,1,0,0:0:0:0:
109,192,123118,1,0,0:0:0:0:
329,192,123190,1,0,0:0:0:0:
109,192,123261,1,0,0:0:0:0:
36,192,123261,1,0,0:0:0:0:
182,192,123261,1,0,0:0:0:0:
402,192,123261,1,0,0:0:0:0:
475,192,123261,1,0,0:0:0:0:
329,192,123332,1,0,0:0:0:0:
36,192,123404,1,0,0:0:0:0:
256,192,123404,1,0,0:0:0:0:
109,192,123475,1,0,0:0:0:0:
475,192,123547,1,0,0:0:0:0:
36,192,123547,1,0,0:0:0:0:
329,192,123547,1,0,0:0:0:0:
182,192,123547,1,0,0:0:0:0:
402,192,123547,1,0,0:0:0:0:
256,192,123618,1,0,0:0:0:0:
475,192,123690,1,0,0:0:0:0:
182,192,123690,1,0,0:0:0:0:
402,192,123761,1,0,0:0:0:0:
475,192,123832,1,0,0:0:0:0:
182,192,123832,1,0,0:0:0:0:
36,192,123832,1,0,0:0:0:0:
329,192,123832,1,0,0:0:0:0:
109,192,123832,1,0,0:0:0:0:
256,192,123904,1,0,0:0:0:0:
329,192,123975,1,0,0:0:0:0:
109,192,123975,1,0,0:0:0:0:
182,192,124047,1,0,0:0:0:0:
36,192,124118,1,0,0:0:0:0:
402,192,124118,1,0,0:0:0:0:
256,192,124190,1,0,0:0:0:0:
36,192,124261,1,0,0:0:0:0:
475,192,124261,1,0,0:0:0:0:
402,192,124261,1,0,0:0:0:0:
109,192,124261,1,0,0:0:0:0:
329,192,124261,1,0,0:0:0:0:
182,192,124332,1,0,0:0:0:0:
329,192,124404,1,0,0:0:0:0:
109,192,124404,1,0,0:0:0:0:
256,192,124475,1,0,0:0:0:0:
182,192,124547,128,0,124690:0:0:0:0:
36,192,124547,128,0,124690:0:0:0:0:
329,192,124547,128,0,124690:0:0:0:0:
402,192,124547,128,0,124690:0:0:0:0:
475,192,124547,128,0,124690:0:0:0:0:
329,192,124975,128,0,125118:0:0:0:0:
402,192,124975,128,0,125118:0:0:0:0:
475,192,124975,128,0,125118:0:0:0:0:
36,192,124975,128,0,125118:0:0:0:0:
109,192,124975,128,0,125118:0:0:0:0:
256,192,124975,128,0,125118:0:0:0:0:
182,192,125404,128,0,125547:0:0:0:0:
109,192,125404,128,0,125547:0:0:0:0:
36,192,125404,128,0,125547:0:0:0:0:
475,192,125404,128,0,125547:0:0:0:0:
402,192,125404,128,0,125547:0:0:0:0:
256,192,125404,128,0,125547:0:0:0:0:
475,192,125690,1,0,0:0:0:0:
256,192,125690,1,0,0:0:0:0:
402,192,125690,1,0,0:0:0:0:
109,192,125690,1,0,0:0:0:0:
36,192,125690,1,0,0:0:0:0:
182,192,125690,1,0,0:0:0:0:
329,192,125761,1,0,0:0:0:0:
36,192,125832,1,0,0:0:0:0:
109,192,125832,1,0,0:0:0:0:
329,192,125904,1,0,0:0:0:0:
109,192,125975,1,0,0:0:0:0:
182,192,125975,1,0,0:0:0:0:
329,192,126047,1,0,0:0:0:0:
182,192,126118,1,0,0:0:0:0:
256,192,126118,1,0,0:0:0:0:
329,192,126190,1,0,0:0:0:0:
109,192,126261,1,0,0:0:0:0:
36,192,126261,1,0,0:0:0:0:
182,192,126332,1,0,0:0:0:0:
329,192,126332,1,0,0:0:0:0:
475,192,126404,1,0,0:0:0:0:
402,192,126404,1,0,0:0:0:0:
182,192,126475,1,0,0:0:0:0:
329,192,126475,1,0,0:0:0:0:
36,192,126547,1,0,0:0:0:0:
109,192,126547,1,0,0:0:0:0:
329,192,126618,1,0,0:0:0:0:
182,192,126618,1,0,0:0:0:0:
402,192,126690,1,0,0:0:0:0:
475,192,126690,1,0,0:0:0:0:
182,192,126761,1,0,0:0:0:0:
329,192,126761,1,0,0:0:0:0:
475,192,126832,1,0,0:0:0:0:
109,192,126832,1,0,0:0:0:0:
402,192,126832,1,0,0:0:0:0:
36,192,126832,1,0,0:0:0:0:
256,192,126832,1,0,0:0:0:0:
329,192,126904,1,0,0:0:0:0:
182,192,126975,1,0,0:0:0:0:
402,192,126975,1,0,0:0:0:0:
256,192,127047,1,0,0:0:0:0:
402,192,127118,1,0,0:0:0:0:
475,192,127118,1,0,0:0:0:0:
109,192,127118,1,0,0:0:0:0:
182,192,127118,1,0,0:0:0:0:
36,192,127118,1,0,0:0:0:0:
329,192,127190,1,0,0:0:0:0:
109,192,127261,1,0,0:0:0:0:
256,192,127261,1,0,0:0:0:0:
329,192,127332,1,0,0:0:0:0:
402,192,127404,1,0,0:0:0:0:
475,192,127404,1,0,0:0:0:0:
36,192,127404,1,0,0:0:0:0:
182,192,127404,1,0,0:0:0:0:
109,192,127404,1,0,0:0:0:0:
256,192,127475,1,0,0:0:0:0:
36,192,127547,1,0,0:0:0:0:
329,192,127547,1,0,0:0:0:0:
182,192,127618,1,0,0:0:0:0:
256,192,127690,1,0,0:0:0:0:
475,192,127690,1,0,0:0:0:0:
402,192,127690,1,0,0:0:0:0:
109,192,127690,1,0,0:0:0:0:
36,192,127690,1,0,0:0:0:0:
329,192,127761,1,0,0:0:0:0:
402,192,127832,1,0,0:0:0:0:
109,192,127832,1,0,0:0:0:0:
182,192,127904,1,0,0:0:0:0:
36,192,127975,1,0,0:0:0:0:
475,192,127975,1,0,0:0:0:0:
109,192,127975,1,0,0:0:0:0:
402,192,127975,1,0,0:0:0:0:
256,192,127975,1,0,0:0:0:0:
329,192,128047,1,0,0:0:0:0:
402,192,128118,1,0,0:0:0:0:
182,192,128118,1,0,0:0:0:0:
109,192,128118,1,0,0:0:0:0:
36,192,128118,1,0,0:0:0:0:
256,192,128190,1,0,0:0:0:0:
402,192,128261,1,0,0:0:0:0:
475,192,128261,1,0,0:0:0:0:
109,192,128261,1,0,0:0:0:0:
329,192,128261,1,0,0:0:0:0:
182,192,128261,1,0,0:0:0:0:
36,192,128332,1,0,0:0:0:0:
329,192,128404,1,0,0:0:0:0:
475,192,128404,1,0,0:0:0:0:
182,192,128404,1,0,0:0:0:0:
109,192,128404,1,0,0:0:0:0:
402,192,128475,1,0,0:0:0:0:
256,192,128547,1,0,0:0:0:0:
109,192,128547,1,0,0:0:0:0:
182,192,128618,1,0,0:0:0:0:
109,192,128690,1,0,0:0:0:0:
329,192,128690,1,0,0:0:0:0:
402,192,128690,1,0,0:0:0:0:
475,192,128690,1,0,0:0:0:0:
36,192,128690,1,0,0:0:0:0:
256,192,128761,1,0,0:0:0:0:
36,192,128832,1,0,0:0:0:0:
329,192,128832,1,0,0:0:0:0:
109,192,128904,1,0,0:0:0:0:
475,192,128975,1,0,0:0:0:0:
36,192,128975,1,0,0:0:0:0:
402,192,128975,1,0,0:0:0:0:
329,192,128975,1,0,0:0:0:0:
182,192,128975,1,0,0:0:0:0:
256,192,129047,1,0,0:0:0:0:
109,192,129118,1,0,0:0:0:0:
402,192,129118,1,0,0:0:0:0:
329,192,129190,1,0,0:0:0:0:
402,192,129261,1,0,0:0:0:0:
182,192,129261,1,0,0:0:0:0:
256,192,129332,1,0,0:0:0:0:
109,192,129404,1,0,0:0:0:0:
36,192,129404,1,0,0:0:0:0:
475,192,129404,1,0,0:0:0:0:
329,192,129404,1,0,0:0:0:0:
256,192,129475,1,0,0:0:0:0:
402,192,129547,1,0,0:0:0:0:
109,192,129547,1,0,0:0:0:0:
182,192,129618,1,0,0:0:0:0:
402,192,129690,1,0,0:0:0:0:
475,192,129690,1,0,0:0:0:0:
329,192,129690,1,0,0:0:0:0:
256,192,129690,1,0,0:0:0:0:
36,192,129690,1,0,0:0:0:0:
109,192,129761,1,0,0:0:0:0:
182,192,129832,1,0,0:0:0:0:
329,192,129832,1,0,0:0:0:0:
475,192,129904,1,0,0:0:0:0:
109,192,129975,1,0,0:0:0:0:
36,192,129975,1,0,0:0:0:0:
182,192,129975,1,0,0:0:0:0:
402,192,129975,1,0,0:0:0:0:
256,192,129975,1,0,0:0:0:0:
329,192,130047,1,0,0:0:0:0:
256,192,130118,1,0,0:0:0:0:
109,192,130118,1,0,0:0:0:0:
182,192,130190,1,0,0:0:0:0:
475,192,130261,1,0,0:0:0:0:
36,192,130261,1,0,0:0:0:0:
402,192,130261,1,0,0:0:0:0:
109,192,130261,1,0,0:0:0:0:
329,192,130261,1,0,0:0:0:0:
256,192,130332,1,0,0:0:0:0:
402,192,130404,1,0,0:0:0:0:
475,192,130404,1,0,0:0:0:0:
109,192,130404,1,0,0:0:0:0:
182,192,130404,1,0,0:0:0:0:
329,192,130475,1,0,0:0:0:0:
36,192,130547,1,0,0:0:0:0:
256,192,130547,1,0,0:0:0:0:
109,192,130618,1,0,0:0:0:0:
475,192,130690,1,0,0:0:0:0:
36,192,130690,1,0,0:0:0:0:
402,192,130690,1,0,0:0:0:0:
329,192,130690,1,0,0:0:0:0:
182,192,130690,1,0,0:0:0:0:
256,192,130761,1,0,0:0:0:0:
109,192,130832,1,0,0:0:0:0:
402,192,130832,1,0,0:0:0:0:
329,192,130904,1,0,0:0:0:0:
256,192,130975,1,0,0:0:0:0:
109,192,130975,1,0,0:0:0:0:
182,192,131047,1,0,0:0:0:0:
36,192,131118,1,0,0:0:0:0:
402,192,131118,1,0,0:0:0:0:
109,192,131118,1,0,0:0:0:0:
475,192,131118,1,0,0:0:0:0:
329,192,131118,1,0,0:0:0:0:
256,192,131190,1,0,0:0:0:0:
329,192,131261,1,0,0:0:0:0:
182,192,131261,1,0,0:0:0:0:
402,192,131332,1,0,0:0:0:0:
182,192,131404,1,0,0:0:0:0:
475,192,131404,1,0,0:0:0:0:
36,192,131404,1,0,0:0:0:0:
109,192,131404,1,0,0:0:0:0:
256,192,131404,1,0,0:0:0:0:
402,192,131475,1,0,0:0:0:0:
109,192,131547,1,0,0:0:0:0:
329,192,131547,1,0,0:0:0:0:
182,192,131618,1,0,0:0:0:0:
256,192,131690,1,0,0:0:0:0:
402,192,131690,1,0,0:0:0:0:
475,192,131761,1,0,0:0:0:0:
329,192,131832,1,0,0:0:0:0:
109,192,131832,1,0,0:0:0:0:
182,192,131904,1,0,0:0:0:0:
36,192,131975,1,0,0:0:0:0:
256,192,131975,1,0,0:0:0:0:
402,192,132047,1,0,0:0:0:0:
329,192,132118,1,0,0:0:0:0:
182,192,132118,1,0,0:0:0:0:
36,192,132190,1,0,0:0:0:0:
109,192,132261,1,0,0:0:0:0:
329,192,132261,1,0,0:0:0:0:
402,192,132332,1,0,0:0:0:0:
182,192,132404,1,0,0:0:0:0:
475,192,132404,1,0,0:0:0:0:
36,192,132404,1,0,0:0:0:0:
256,192,132404,1,0,0:0:0:0:
109,192,132404,1,0,0:0:0:0:
329,192,132475,1,0,0:0:0:0:
402,192,132547,1,0,0:0:0:0:
182,192,132547,1,0,0:0:0:0:
109,192,132618,1,0,0:0:0:0:
329,192,132690,1,0,0:0:0:0:
36,192,132690,1,0,0:0:0:0:
256,192,132690,1,0,0:0:0:0:
475,192,132690,1,0,0:0:0:0:
402,192,132690,1,0,0:0:0:0:
182,192,132761,1,0,0:0:0:0:
109,192,132832,1,0,0:0:0:0:
329,192,132832,1,0,0:0:0:0:
256,192,132904,1,0,0:0:0:0:
36,192,132975,1,0,0:0:0:0:
475,192,132975,1,0,0:0:0:0:
182,192,132975,1,0,0:0:0:0:
329,192,132975,1,0,0:0:0:0:
402,192,132975,1,0,0:0:0:0:
109,192,133047,1,0,0:0:0:0:
402,192,133118,1,0,0:0:0:0:
182,192,133118,1,0,0:0:0:0:
329,192,133190,1,0,0:0:0:0:
402,192,133261,1,0,0:0:0:0:
109,192,133261,1,0,0:0:0:0:
256,192,133332,1,0,0:0:0:0:
329,192,133404,1,0,0:0:0:0:
475,192,133404,1,0,0:0:0:0:
36,192,133404,1,0,0:0:0:0:
109,192,133404,1,0,0:0:0:0:
182,192,133404,1,0,0:0:0:0:
402,192,133475,1,0,0:0:0:0:
182,192,133547,1,0,0:0:0:0:
329,192,133547,1,0,0:0:0:0:
109,192,133618,1,0,0:0:0:0:
475,192,133690,1,0,0:0:0:0:
402,192,133690,1,0,0:0:0:0:
36,192,133690,1,0,0:0:0:0:
256,192,133690,1,0,0:0:0:0:
182,192,133761,1,0,0:0:0:0:
109,192,133832,1,0,0:0:0:0:
402,192,133832,1,0,0:0:0:0:
36,192,133832,1,0,0:0:0:0:
329,192,133832,1,0,0:0:0:0:
256,192,133904,1,0,0:0:0:0:
475,192,133975,1,0,0:0:0:0:
109,192,133975,1,0,0:0:0:0:
182,192,133975,1,0,0:0:0:0:
402,192,133975,1,0,0:0:0:0:
329,192,134047,1,0,0:0:0:0:
402,192,134118,1,0,0:0:0:0:
475,192,134118,1,0,0:0:0:0:
109,192,134118,1,0,0:0:0:0:
182,192,134118,1,0,0:0:0:0:
256,192,134190,1,0,0:0:0:0:
36,192,134261,1,0,0:0:0:0:
329,192,134261,1,0,0:0:0:0:
109,192,134261,1,0,0:0:0:0:
475,192,134261,1,0,0:0:0:0:
182,192,134332,1,0,0:0:0:0:
36,192,134404,1,0,0:0:0:0:
109,192,134404,1,0,0:0:0:0:
329,192,134404,1,0,0:0:0:0:
475,192,134404,1,0,0:0:0:0:
256,192,134475,1,0,0:0:0:0:
36,192,134547,1,0,0:0:0:0:
109,192,134547,1,0,0:0:0:0:
182,192,134547,1,0,0:0:0:0:
402,192,134547,1,0,0:0:0:0:
329,192,134618,1,0,0:0:0:0:
475,192,134690,1,0,0:0:0:0:
109,192,134690,1,0,0:0:0:0:
256,192,134690,1,0,0:0:0:0:
36,192,134690,1,0,0:0:0:0:
402,192,134761,1,0,0:0:0:0:
36,192,134832,1,0,0:0:0:0:
329,192,134832,1,0,0:0:0:0:
182,192,134832,1,0,0:0:0:0:
109,192,134832,1,0,0:0:0:0:
402,192,134904,1,0,0:0:0:0:
475,192,134904,1,0,0:0:0:0:
36,192,134975,1,0,0:0:0:0:
109,192,134975,1,0,0:0:0:0:
256,192,134975,1,0,0:0:0:0:
329,192,135047,1,0,0:0:0:0:
182,192,135047,1,0,0:0:0:0:
402,192,135118,1,0,0:0:0:0:
256,192,135118,1,0,0:0:0:0:
475,192,135118,1,0,0:0:0:0:
36,192,135118,1,0,0:0:0:0:
109,192,135190,1,0,0:0:0:0:
182,192,135190,1,0,0:0:0:0:
329,192,135261,1,0,0:0:0:0:
402,192,135261,1,0,0:0:0:0:
475,192,135261,1,0,0:0:0:0:
182,192,135332,1,0,0:0:0:0:
256,192,135332,1,0,0:0:0:0:
329,192,135404,1,0,0:0:0:0:
36,192,135404,1,0,0:0:0:0:
109,192,135404,1,0,0:0:0:0:
475,192,135475,1,0,0:0:0:0:
402,192,135475,1,0,0:0:0:0:
256,192,135547,1,0,0:0:0:0:
36,192,135547,1,0,0:0:0:0:
109,192,135547,1,0,0:0:0:0:
329,192,135618,1,0,0:0:0:0:
182,192,135618,1,0,0:0:0:0:
256,192,135690,1,0,0:0:0:0:
475,192,135690,1,0,0:0:0:0:
402,192,135690,1,0,0:0:0:0:
109,192,135761,1,0,0:0:0:0:
36,192,135761,1,0,0:0:0:0:
475,192,135832,1,0,0:0:0:0:
182,192,135832,1,0,0:0:0:0:
329,192,135832,1,0,0:0:0:0:
402,192,135904,1,0,0:0:0:0:
256,192,135904,1,0,0:0:0:0:
36,192,135975,1,0,0:0:0:0:
475,192,135975,1,0,0:0:0:0:
182,192,135975,1,0,0:0:0:0:
329,192,135975,1,0,0:0:0:0:
109,192,136047,1,0,0:0:0:0:
256,192,136118,1,0,0:0:0:0:
402,192,136190,1,0,0:0:0:0:
329,192,136261,1,0,0:0:0:0:
475,192,136261,1,0,0:0:0:0:
182,192,136261,1,0,0:0:0:0:
256,192,136261,1,0,0:0:0:0:
36,192,136261,1,0,0:0:0:0:
109,192,136261,1,0,0:0:0:0:
402,192,136332,1,0,0:0:0:0:
36,192,136404,1,0,0:0:0:0:
182,192,136475,1,0,0:0:0:0:
402,192,136547,1,0,0:0:0:0:
475,192,136547,1,0,0:0:0:0:
329,192,136547,1,0,0:0:0:0:
256,192,136547,1,0,0:0:0:0:
36,192,136547,1,0,0:0:0:0:
109,192,136547,1,0,0:0:0:0:
182,192,136618,1,0,0:0:0:0:
329,192,136690,1,0,0:0:0:0:
475,192,136761,1,0,0:0:0:0:
36,192,136832,1,0,0:0:0:0:
109,192,136832,1,0,0:0:0:0:
182,192,136832,1,0,0:0:0:0:
256,192,136832,1,0,0:0:0:0:
402,192,136832,1,0,0:0:0:0:
329,192,136832,1,0,0:0:0:0:
475,192,136904,1,0,0:0:0:0:
256,192,136975,1,0,0:0:0:0:
109,192,137047,1,0,0:0:0:0:
475,192,137118,1,0,0:0:0:0:
256,192,137118,1,0,0:0:0:0:
182,192,137118,1,0,0:0:0:0:
36,192,137118,1,0,0:0:0:0:
329,192,137118,1,0,0:0:0:0:
402,192,137118,1,0,0:0:0:0:
109,192,137190,1,0,0:0:0:0:
329,192,137261,1,0,0:0:0:0:
182,192,137332,1,0,0:0:0:0:
109,192,137404,1,0,0:0:0:0:
36,192,137404,1,0,0:0:0:0:
402,192,137404,1,0,0:0:0:0:
329,192,137404,1,0,0:0:0:0:
475,192,137404,1,0,0:0:0:0:
256,192,137404,1,0,0:0:0:0:
182,192,137475,1,0,0:0:0:0:
402,192,137547,1,0,0:0:0:0:
256,192,137618,1,0,0:0:0:0:
36,192,137690,1,0,0:0:0:0:
329,192,137690,1,0,0:0:0:0:
182,192,137690,1,0,0:0:0:0:
475,192,137690,1,0,0:0:0:0:
402,192,137690,1,0,0:0:0:0:
109,192,137690,1,0,0:0:0:0:
256,192,137761,1,0,0:0:0:0:
109,192,137832,1,0,0:0:0:0:
329,192,137904,1,0,0:0:0:0:
256,192,137975,1,0,0:0:0:0:
109,192,137975,1,0,0:0:0:0:
36,192,137975,1,0,0:0:0:0:
475,192,137975,1,0,0:0:0:0:
182,192,137975,1,0,0:0:0:0:
402,192,137975,1,0,0:0:0:0:
329,192,138047,1,0,0:0:0:0:
475,192,138118,1,0,0:0:0:0:
402,192,138118,1,0,0:0:0:0:
182,192,138118,1,0,0:0:0:0:
109,192,138118,1,0,0:0:0:0:
256,192,138190,1,0,0:0:0:0:
475,192,138261,1,0,0:0:0:0:
109,192,138261,1,0,0:0:0:0:
182,192,138261,1,0,0:0:0:0:
329,192,138261,1,0,0:0:0:0:
402,192,138261,1,0,0:0:0:0:
36,192,138261,1,0,0:0:0:0:
256,192,138332,1,0,0:0:0:0:
36,192,138404,1,0,0:0:0:0:
182,192,138475,1,0,0:0:0:0:
256,192,138547,1,0,0:0:0:0:
402,192,138547,1,0,0:0:0:0:
329,192,138547,1,0,0:0:0:0:
475,192,138547,1,0,0:0:0:0:
109,192,138547,1,0,0:0:0:0:
36,192,138547,1,0,0:0:0:0:
182,192,138618,1,0,0:0:0:0:
475,192,138690,1,0,0:0:0:0:
329,192,138761,1,0,0:0:0:0:
36,192,138832,1,0,0:0:0:0:
402,192,138832,1,0,0:0:0:0:
475,192,138832,1,0,0:0:0:0:
256,192,138832,1,0,0:0:0:0:
182,192,138832,1,0,0:0:0:0:
109,192,138832,1,0,0:0:0:0:
329,192,138904,1,0,0:0:0:0:
109,192,138975,1,0,0:0:0:0:
256,192,139047,1,0,0:0:0:0:
109,192,139118,1,0,0:0:0:0:
36,192,139118,1,0,0:0:0:0:
182,192,139118,1,0,0:0:0:0:
329,192,139118,1,0,0:0:0:0:
475,192,139118,1,0,0:0:0:0:
402,192,139118,1,0,0:0:0:0:
256,192,139190,1,0,0:0:0:0:
475,192,139261,1,0,0:0:0:0:
329,192,139332,1,0,0:0:0:0:
402,192,139404,1,0,0:0:0:0:
475,192,139404,1,0,0:0:0:0:
182,192,139404,1,0,0:0:0:0:
256,192,139404,1,0,0:0:0:0:
109,192,139404,1,0,0:0:0:0:
36,192,139404,1,0,0:0:0:0:
329,192,139475,1,0,0:0:0:0:
109,192,139547,1,0,0:0:0:0:
182,192,139618,1,0,0:0:0:0:
329,192,139690,1,0,0:0:0:0:
402,192,139690,1,0,0:0:0:0:
475,192,139690,1,0,0:0:0:0:
109,192,139690,1,0,0:0:0:0:
36,192,139690,1,0,0:0:0:0:
256,192,139690,1,0,0:0:0:0:
182,192,139761,1,0,0:0:0:0:
402,192,139832,1,0,0:0:0:0:
256,192,139904,1,0,0:0:0:0:
109,192,139975,1,0,0:0:0:0:
36,192,139975,1,0,0:0:0:0:
329,192,139975,1,0,0:0:0:0:
182,192,139975,1,0,0:0:0:0:
402,192,139975,1,0,0:0:0:0:
475,192,139975,1,0,0:0:0:0:
256,192,140047,1,0,0:0:0:0:
475,192,140118,1,0,0:0:0:0:
402,192,140118,1,0,0:0:0:0:
109,192,140118,1,0,0:0:0:0:
182,192,140190,1,0,0:0:0:0:
329,192,140190,1,0,0:0:0:0:
475,192,140261,1,0,0:0:0:0:
109,192,140261,1,0,0:0:0:0:
402,192,140261,1,0,0:0:0:0:
256,192,140261,1,0,0:0:0:0:
36,192,140261,1,0,0:0:0:0:
36,192,140404,1,0,0:0:0:0:
475,192,140404,1,0,0:0:0:0:
329,192,140404,1,0,0:0:0:0:
109,192,140404,1,0,0:0:0:0:
182,192,140404,1,0,0:0:0:0:
329,192,140547,1,0,0:0:0:0:
402,192,140547,1,0,0:0:0:0:
475,192,140547,1,0,0:0:0:0:
109,192,140547,1,0,0:0:0:0:
36,192,140547,1,0,0:0:0:0:
256,192,140547,1,0,0:0:0:0:
182,192,140618,1,0,0:0:0:0:
402,192,140690,1,0,0:0:0:0:
329,192,140690,1,0,0:0:0:0:
109,192,140690,1,0,0:0:0:0:
256,192,140761,1,0,0:0:0:0:
109,192,140832,1,0,0:0:0:0:
475,192,140832,1,0,0:0:0:0:
402,192,140832,1,0,0:0:0:0:
329,192,140832,1,0,0:0:0:0:
182,192,140832,1,0,0:0:0:0:
36,192,140832,1,0,0:0:0:0:
256,192,140904,1,0,0:0:0:0:
402,192,140975,1,0,0:0:0:0:
109,192,140975,1,0,0:0:0:0:
329,192,140975,1,0,0:0:0:0:
182,192,141047,1,0,0:0:0:0:
36,192,141118,1,0,0:0:0:0:
329,192,141118,1,0,0:0:0:0:
109,192,141118,1,0,0:0:0:0:
256,192,141118,1,0,0:0:0:0:
402,192,141118,1,0,0:0:0:0:
475,192,141118,1,0,0:0:0:0:
182,192,141190,1,0,0:0:0:0:
36,192,141261,1,0,0:0:0:0:
109,192,141261,1,0,0:0:0:0:
329,192,141261,1,0,0:0:0:0:
475,192,141332,1,0,0:0:0:0:
402,192,141404,1,0,0:0:0:0:
36,192,141404,1,0,0:0:0:0:
109,192,141404,1,0,0:0:0:0:
329,192,141404,1,0,0:0:0:0:
256,192,141404,1,0,0:0:0:0:
182,192,141404,1,0,0:0:0:0:
475,192,141475,1,0,0:0:0:0:
109,192,141547,1,0,0:0:0:0:
402,192,141547,1,0,0:0:0:0:
182,192,141547,1,0,0:0:0:0:
256,192,141618,1,0,0:0:0:0:
36,192,141690,1,0,0:0:0:0:
402,192,141690,1,0,0:0:0:0:
475,192,141690,1,0,0:0:0:0:
329,192,141690,1,0,0:0:0:0:
182,192,141690,1,0,0:0:0:0:
109,192,141690,1,0,0:0:0:0:
256,192,141761,1,0,0:0:0:0:
36,192,141832,1,0,0:0:0:0:
402,192,141832,1,0,0:0:0:0:
109,192,141832,1,0,0:0:0:0:
182,192,141904,1,0,0:0:0:0:
329,192,141975,1,0,0:0:0:0:
475,192,141975,1,0,0:0:0:0:
402,192,141975,1,0,0:0:0:0:
109,192,141975,1,0,0:0:0:0:
36,192,141975,1,0,0:0:0:0:
256,192,141975,1,0,0:0:0:0:
182,192,142047,1,0,0:0:0:0:
329,192,142118,1,0,0:0:0:0:
402,192,142118,1,0,0:0:0:0:
182,192,142190,1,0,0:0:0:0:
36,192,142261,1,0,0:0:0:0:
475,192,142261,1,0,0:0:0:0:
402,192,142261,1,0,0:0:0:0:
329,192,142261,1,0,0:0:0:0:
256,192,142261,1,0,0:0:0:0:
109,192,142261,1,0,0:0:0:0:
182,192,142332,1,0,0:0:0:0:
475,192,142404,1,0,0:0:0:0:
109,192,142404,1,0,0:0:0:0:
329,192,142404,1,0,0:0:0:0:
256,192,142475,1,0,0:0:0:0:
329,192,142547,1,0,0:0:0:0:
402,192,142547,1,0,0:0:0:0:
475,192,142547,1,0,0:0:0:0:
182,192,142547,1,0,0:0:0:0:
109,192,142547,1,0,0:0:0:0:
36,192,142547,1,0,0:0:0:0:
256,192,142618,1,0,0:0:0:0:
36,192,142690,1,0,0:0:0:0:
475,192,142690,1,0,0:0:0:0:
402,192,142690,1,0,0:0:0:0:
109,192,142690,1,0,0:0:0:0:
256,192,142761,1,0,0:0:0:0:
182,192,142832,1,0,0:0:0:0:
109,192,142832,1,0,0:0:0:0:
36,192,142832,1,0,0:0:0:0:
329,192,142832,1,0,0:0:0:0:
475,192,142832,1,0,0:0:0:0:
402,192,142904,1,0,0:0:0:0:
256,192,142904,1,0,0:0:0:0:
36,192,142975,1,0,0:0:0:0:
475,192,142975,1,0,0:0:0:0:
329,192,142975,1,0,0:0:0:0:
256,192,143047,1,0,0:0:0:0:
182,192,143047,1,0,0:0:0:0:
109,192,143047,1,0,0:0:0:0:
36,192,143118,1,0,0:0:0:0:
402,192,143118,1,0,0:0:0:0:
475,192,143118,1,0,0:0:0:0:
182,192,143190,1,0,0:0:0:0:
329,192,143190,1,0,0:0:0:0:
256,192,143190,1,0,0:0:0:0:
36,192,143261,1,0,0:0:0:0:
475,192,143261,1,0,0:0:0:0:
109,192,143261,1,0,0:0:0:0:
402,192,143332,1,0,0:0:0:0:
329,192,143332,1,0,0:0:0:0:
256,192,143332,1,0,0:0:0:0:
475,192,143404,1,0,0:0:0:0:
182,192,143404,1,0,0:0:0:0:
36,192,143404,1,0,0:0:0:0:
109,192,143404,1,0,0:0:0:0:
402,192,143440,1,0,0:0:0:0:
329,192,143475,1,0,0:0:0:0:
109,192,143511,1,0,0:0:0:0:
182,192,143547,1,0,0:0:0:0:
402,192,143582,1,0,0:0:0:0:
329,192,143618,1,0,0:0:0:0:
109,192,143654,1,0,0:0:0:0:
182,192,143690,1,0,0:0:0:0:
402,192,143725,1,0,0:0:0:0:
329,192,143761,1,0,0:0:0:0:
109,192,143797,1,0,0:0:0:0:
182,192,143832,1,0,0:0:0:0:
256,192,143868,1,0,0:0:0:0:
329,192,143904,1,0,0:0:0:0:
402,192,143940,1,0,0:0:0:0:
182,192,143975,1,0,0:0:0:0:
475,192,143975,128,0,144547:0:0:0:0:
109,192,143975,1,0,0:0:0:0:
36,192,143975,1,0,0:0:0:0:
329,192,144118,1,0,0:0:0:0:
402,192,144261,1,0,0:0:0:0:
36,192,144261,1,0,0:0:0:0:
109,192,144261,1,0,0:0:0:0:
256,192,144261,1,0,0:0:0:0:
329,192,144404,1,0,0:0:0:0:
402,192,144547,1,0,0:0:0:0:
109,192,144547,1,0,0:0:0:0:
36,192,144547,128,0,144832:0:0:0:0:
182,192,144547,1,0,0:0:0:0:
256,192,144690,1,0,0:0:0:0:
475,192,144832,1,0,0:0:0:0:
402,192,144832,1,0,0:0:0:0:
329,192,144832,128,0,145118:0:0:0:0:
109,192,144832,1,0,0:0:0:0:
182,192,144975,1,0,0:0:0:0:
36,192,145118,1,0,0:0:0:0:
475,192,145118,1,0,0:0:0:0:
109,192,145118,128,0,145261:0:0:0:0:
256,192,145118,1,0,0:0:0:0:
402,192,145261,1,0,0:0:0:0:
256,192,145261,128,0,145404:0:0:0:0:
329,192,145404,1,0,0:0:0:0:
475,192,145404,1,0,0:0:0:0:
109,192,145404,128,0,145547:0:0:0:0:
182,192,145404,1,0,0:0:0:0:
402,192,145547,1,0,0:0:0:0:
256,192,145547,128,0,145690:0:0:0:0:
329,192,145690,1,0,0:0:0:0:
182,192,145690,1,0,0:0:0:0:
36,192,145690,1,0,0:0:0:0:
109,192,145832,1,0,0:0:0:0:
402,192,145832,128,0,146118:0:0:0:0:
475,192,145975,1,0,0:0:0:0:
329,192,145975,1,0,0:0:0:0:
36,192,145975,1,0,0:0:0:0:
256,192,145975,1,0,0:0:0:0:
109,192,146118,1,0,0:0:0:0:
182,192,146118,128,0,146404:0:0:0:0:
402,192,146261,1,0,0:0:0:0:
36,192,146261,1,0,0:0:0:0:
256,192,146261,1,0,0:0:0:0:
475,192,146261,1,0,0:0:0:0:
329,192,146404,1,0,0:0:0:0:
109,192,146547,1,0,0:0:0:0:
402,192,146547,1,0,0:0:0:0:
475,192,146547,128,0,146832:0:0:0:0:
256,192,146547,1,0,0:0:0:0:
36,192,146690,1,0,0:0:0:0:
109,192,146832,1,0,0:0:0:0:
402,192,146832,1,0,0:0:0:0:
329,192,146832,128,0,146975:0:0:0:0:
182,192,146832,1,0,0:0:0:0:
256,192,146975,1,0,0:0:0:0:
36,192,147118,1,0,0:0:0:0:
475,192,147118,1,0,0:0:0:0:
402,192,147118,128,0,147261:0:0:0:0:
182,192,147118,1,0,0:0:0:0:
329,192,147261,1,0,0:0:0:0:
402,192,147404,1,0,0:0:0:0:
475,192,147404,1,0,0:0:0:0:
109,192,147404,128,0,147547:0:0:0:0:
256,192,147404,1,0,0:0:0:0:
36,192,147547,1,0,0:0:0:0:
329,192,147547,128,0,147690:0:0:0:0:
402,192,147690,1,0,0:0:0:0:
475,192,147690,1,0,0:0:0:0:
182,192,147690,128,0,147832:0:0:0:0:
256,192,147690,1,0,0:0:0:0:
36,192,147832,1,0,0:0:0:0:
402,192,147832,128,0,147975:0:0:0:0:
329,192,147975,1,0,0:0:0:0:
182,192,147975,1,0,0:0:0:0:
475,192,147975,1,0,0:0:0:0:
109,192,147975,1,0,0:0:0:0:
256,192,148118,1,0,0:0:0:0:
402,192,148261,1,0,0:0:0:0:
475,192,148261,1,0,0:0:0:0:
109,192,148261,128,0,148547:0:0:0:0:
36,192,148261,1,0,0:0:0:0:
329,192,148404,1,0,0:0:0:0:
182,192,148547,1,0,0:0:0:0:
36,192,148547,1,0,0:0:0:0:
256,192,148547,128,0,148832:0:0:0:0:
475,192,148547,1,0,0:0:0:0:
402,192,148690,1,0,0:0:0:0:
182,192,148832,1,0,0:0:0:0:
475,192,148832,1,0,0:0:0:0:
329,192,148832,128,0,148975:0:0:0:0:
109,192,148832,1,0,0:0:0:0:
36,192,148975,1,0,0:0:0:0:
182,192,149118,1,0,0:0:0:0:
475,192,149118,1,0,0:0:0:0:
329,192,149118,128,0,149261:0:0:0:0:
109,192,149118,1,0,0:0:0:0:
256,192,149261,1,0,0:0:0:0:
475,192,149404,1,0,0:0:0:0:
36,192,149404,1,0,0:0:0:0:
182,192,149404,1,0,0:0:0:0:
329,192,149404,1,0,0:0:0:0:
402,192,149547,1,0,0:0:0:0:
109,192,149547,128,0,149832:0:0:0:0:
256,192,149690,1,0,0:0:0:0:
475,192,149690,1,0,0:0:0:0:
329,192,149690,1,0,0:0:0:0:
182,192,149690,1,0,0:0:0:0:
36,192,149832,1,0,0:0:0:0:
402,192,149832,128,0,150118:0:0:0:0:
329,192,149975,1,0,0:0:0:0:
475,192,149975,1,0,0:0:0:0:
109,192,149975,1,0,0:0:0:0:
256,192,149975,1,0,0:0:0:0:
36,192,150118,1,0,0:0:0:0:
182,192,150118,128,0,150404:0:0:0:0:
475,192,150261,1,0,0:0:0:0:
109,192,150261,1,0,0:0:0:0:
256,192,150261,1,0,0:0:0:0:
329,192,150261,1,0,0:0:0:0:
402,192,150404,1,0,0:0:0:0:
109,192,150547,1,0,0:0:0:0:
36,192,150547,1,0,0:0:0:0:
329,192,150547,128,0,150832:0:0:0:0:
256,192,150547,1,0,0:0:0:0:
475,192,150690,1,0,0:0:0:0:
109,192,150832,1,0,0:0:0:0:
182,192,150832,1,0,0:0:0:0:
256,192,150832,1,0,0:0:0:0:
36,192,150832,128,0,152832:0:0:0:0:
402,192,150832,1,0,0:0:0:0:
402,192,151118,1,0,0:0:0:0:
182,192,151118,1,0,0:0:0:0:
109,192,151118,1,0,0:0:0:0:
256,192,151118,1,0,0:0:0:0:
329,192,151404,1,0,0:0:0:0:
475,192,151404,1,0,0:0:0:0:
182,192,151404,1,0,0:0:0:0:
256,192,151404,1,0,0:0:0:0:
182,192,151547,1,0,0:0:0:0:
475,192,151547,1,0,0:0:0:0:
402,192,151547,1,0,0:0:0:0:
329,192,151690,1,0,0:0:0:0:
109,192,151690,1,0,0:0:0:0:
256,192,151690,1,0,0:0:0:0:
402,192,151832,1,0,0:0:0:0:
475,192,151832,1,0,0:0:0:0:
182,192,151832,1,0,0:0:0:0:
329,192,151832,1,0,0:0:0:0:
402,192,152118,1,0,0:0:0:0:
475,192,152118,1,0,0:0:0:0:
182,192,152118,1,0,0:0:0:0:
329,192,152118,1,0,0:0:0:0:
402,192,152404,1,0,0:0:0:0:
475,192,152404,1,0,0:0:0:0:
182,192,152404,1,0,0:0:0:0:
329,192,152404,1,0,0:0:0:0:
402,192,152690,1,0,0:0:0:0:
109,192,152690,1,0,0:0:0:0:
256,192,152690,1,0,0:0:0:0:
182,192,152832,1,0,0:0:0:0:
329,192,152832,1,0,0:0:0:0:
109,192,152832,1,0,0:0:0:0:
402,192,152832,1,0,0:0:0:0:
475,192,152832,1,0,0:0:0:0:
256,192,153118,128,0,153690:0:0:0:0:
402,192,153118,1,0,0:0:0:0:
329,192,153118,1,0,0:0:0:0:
109,192,153118,1,0,0:0:0:0:
36,192,153118,1,0,0:0:0:0:
475,192,153118,1,0,0:0:0:0:
182,192,153261,1,0,0:0:0:0:
109,192,153404,1,0,0:0:0:0:
36,192,153404,1,0,0:0:0:0:
475,192,153404,1,0,0:0:0:0:
402,192,153404,1,0,0:0:0:0:
329,192,153547,1,0,0:0:0:0:
402,192,153690,1,0,0:0:0:0:
36,192,153690,1,0,0:0:0:0:
182,192,153690,128,0,153975:0:0:0:0:
475,192,153690,1,0,0:0:0:0:
329,192,153832,1,0,0:0:0:0:
475,192,153975,1,0,0:0:0:0:
36,192,153975,1,0,0:0:0:0:
256,192,153975,128,0,154261:0:0:0:0:
109,192,153975,1,0,0:0:0:0:
402,192,154118,1,0,0:0:0:0:
36,192,154261,1,0,0:0:0:0:
475,192,154261,1,0,0:0:0:0:
109,192,154261,128,0,154404:0:0:0:0:
329,192,154261,1,0,0:0:0:0:
256,192,154404,1,0,0:0:0:0:
402,192,154404,128,0,154547:0:0:0:0:
329,192,154547,1,0,0:0:0:0:
475,192,154547,1,0,0:0:0:0:
109,192,154547,128,0,154690:0:0:0:0:
182,192,154547,1,0,0:0:0:0:
256,192,154690,1,0,0:0:0:0:
402,192,154690,128,0,154832:0:0:0:0:
329,192,154832,1,0,0:0:0:0:
182,192,154832,1,0,0:0:0:0:
109,192,154832,1,0,0:0:0:0:
256,192,154975,1,0,0:0:0:0:
36,192,154975,128,0,155261:0:0:0:0:
475,192,155118,1,0,0:0:0:0:
329,192,155118,1,0,0:0:0:0:
109,192,155118,1,0,0:0:0:0:
402,192,155118,1,0,0:0:0:0:
182,192,155261,1,0,0:0:0:0:
256,192,155261,128,0,155547:0:0:0:0:
402,192,155404,1,0,0:0:0:0:
36,192,155404,1,0,0:0:0:0:
109,192,155404,1,0,0:0:0:0:
475,192,155404,1,0,0:0:0:0:
329,192,155547,1,0,0:0:0:0:
475,192,155690,1,0,0:0:0:0:
402,192,155690,128,0,155975:0:0:0:0:
256,192,155690,1,0,0:0:0:0:
109,192,155690,1,0,0:0:0:0:
182,192,155832,1,0,0:0:0:0:
475,192,155975,1,0,0:0:0:0:
256,192,155975,128,0,156118:0:0:0:0:
36,192,155975,1,0,0:0:0:0:
109,192,155975,1,0,0:0:0:0:
329,192,156118,1,0,0:0:0:0:
36,192,156261,1,0,0:0:0:0:
475,192,156261,1,0,0:0:0:0:
109,192,156261,128,0,156404:0:0:0:0:
256,192,156261,1,0,0:0:0:0:
329,192,156404,1,0,0:0:0:0:
402,192,156547,1,0,0:0:0:0:
475,192,156547,1,0,0:0:0:0:
36,192,156547,128,0,156690:0:0:0:0:
182,192,156547,1,0,0:0:0:0:
329,192,156690,1,0,0:0:0:0:
256,192,156690,128,0,156832:0:0:0:0:
402,192,156832,1,0,0:0:0:0:
475,192,156832,1,0,0:0:0:0:
182,192,156832,128,0,156975:0:0:0:0:
109,192,156832,1,0,0:0:0:0:
36,192,156975,1,0,0:0:0:0:
329,192,156975,128,0,157118:0:0:0:0:
402,192,157118,1,0,0:0:0:0:
182,192,157118,1,0,0:0:0:0:
475,192,157118,1,0,0:0:0:0:
109,192,157118,1,0,0:0:0:0:
256,192,157261,1,0,0:0:0:0:
329,192,157404,1,0,0:0:0:0:
475,192,157404,1,0,0:0:0:0:
109,192,157404,128,0,157690:0:0:0:0:
36,192,157404,1,0,0:0:0:0:
402,192,157547,1,0,0:0:0:0:
182,192,157690,1,0,0:0:0:0:
36,192,157690,1,0,0:0:0:0:
256,192,157690,128,0,157975:0:0:0:0:
475,192,157690,1,0,0:0:0:0:
402,192,157832,1,0,0:0:0:0:
182,192,157975,1,0,0:0:0:0:
329,192,157975,1,0,0:0:0:0:
475,192,157975,128,0,158118:0:0:0:0:
36,192,157975,1,0,0:0:0:0:
109,192,158118,1,0,0:0:0:0:
182,192,158261,1,0,0:0:0:0:
329,192,158261,1,0,0:0:0:0:
475,192,158261,128,0,158404:0:0:0:0:
36,192,158261,1,0,0:0:0:0:
256,192,158404,1,0,0:0:0:0:
475,192,158547,1,0,0:0:0:0:
36,192,158547,1,0,0:0:0:0:
182,192,158547,1,0,0:0:0:0:
402,192,158547,1,0,0:0:0:0:
256,192,158690,1,0,0:0:0:0:
109,192,158690,128,0,158975:0:0:0:0:
329,192,158832,1,0,0:0:0:0:
475,192,158832,1,0,0:0:0:0:
402,192,158832,1,0,0:0:0:0:
182,192,158832,1,0,0:0:0:0:
36,192,158975,1,0,0:0:0:0:
256,192,158975,128,0,159261:0:0:0:0:
329,192,159118,1,0,0:0:0:0:
475,192,159118,1,0,0:0:0:0:
109,192,159118,1,0,0:0:0:0:
402,192,159118,1,0,0:0:0:0:
182,192,159261,1,0,0:0:0:0:
36,192,159261,128,0,159547:0:0:0:0:
475,192,159404,1,0,0:0:0:0:
109,192,159404,1,0,0:0:0:0:
329,192,159404,1,0,0:0:0:0:
402,192,159404,1,0,0:0:0:0:
256,192,159547,1,0,0:0:0:0:
182,192,159690,1,0,0:0:0:0:
36,192,159690,1,0,0:0:0:0:
475,192,159690,128,0,159975:0:0:0:0:
329,192,159690,1,0,0:0:0:0:
109,192,159832,1,0,0:0:0:0:
36,192,159975,1,0,0:0:0:0:
402,192,159975,1,0,0:0:0:0:
182,192,159975,1,0,0:0:0:0:
256,192,159975,128,0,161975:0:0:0:0:
329,192,159975,1,0,0:0:0:0:
402,192,160118,1,0,0:0:0:0:
475,192,160118,1,0,0:0:0:0:
109,192,160118,1,0,0:0:0:0:
182,192,160118,1,0,0:0:0:0:
36,192,160261,1,0,0:0:0:0:
475,192,160261,1,0,0:0:0:0:
329,192,160261,1,0,0:0:0:0:
109,192,160261,1,0,0:0:0:0:
329,192,160404,1,0,0:0:0:0:
402,192,160404,1,0,0:0:0:0:
36,192,160404,1,0,0:0:0:0:
182,192,160404,1,0,0:0:0:0:
402,192,160547,1,0,0:0:0:0:
475,192,160547,1,0,0:0:0:0:
109,192,160547,1,0,0:0:0:0:
182,192,160547,1,0,0:0:0:0:
109,192,160690,1,0,0:0:0:0:
36,192,160690,1,0,0:0:0:0:
329,192,160690,1,0,0:0:0:0:
475,192,160690,1,0,0:0:0:0:
329,192,160832,1,0,0:0:0:0:
402,192,160832,1,0,0:0:0:0:
36,192,160832,1,0,0:0:0:0:
182,192,160832,1,0,0:0:0:0:
402,192,160975,1,0,0:0:0:0:
475,192,160975,1,0,0:0:0:0:
109,192,160975,1,0,0:0:0:0:
182,192,160975,1,0,0:0:0:0:
329,192,161118,1,0,0:0:0:0:
109,192,161118,1,0,0:0:0:0:
36,192,161118,1,0,0:0:0:0:
475,192,161190,1,0,0:0:0:0:
402,192,161190,1,0,0:0:0:0:
329,192,161261,1,0,0:0:0:0:
182,192,161261,1,0,0:0:0:0:
109,192,161261,1,0,0:0:0:0:
475,192,161332,1,0,0:0:0:0:
36,192,161332,1,0,0:0:0:0:
182,192,161404,1,0,0:0:0:0:
402,192,161404,1,0,0:0:0:0:
329,192,161404,1,0,0:0:0:0:
36,192,161475,1,0,0:0:0:0:
109,192,161475,1,0,0:0:0:0:
475,192,161547,1,0,0:0:0:0:
402,192,161547,1,0,0:0:0:0:
329,192,161547,1,0,0:0:0:0:
182,192,161618,1,0,0:0:0:0:
109,192,161618,1,0,0:0:0:0:
475,192,161690,1,0,0:0:0:0:
402,192,161690,1,0,0:0:0:0:
36,192,161690,1,0,0:0:0:0:
182,192,161761,1,0,0:0:0:0:
329,192,161761,1,0,0:0:0:0:
475,192,161832,1,0,0:0:0:0:
36,192,161832,1,0,0:0:0:0:
109,192,161832,1,0,0:0:0:0:
329,192,161904,1,0,0:0:0:0:
402,192,161904,1,0,0:0:0:0:
182,192,161975,1,0,0:0:0:0:
36,192,161975,1,0,0:0:0:0:
109,192,161975,1,0,0:0:0:0:
475,192,162047,1,0,0:0:0:0:
329,192,162047,1,0,0:0:0:0:
402,192,162047,1,0,0:0:0:0:
36,192,162118,1,0,0:0:0:0:
109,192,162118,1,0,0:0:0:0:
182,192,162118,1,0,0:0:0:0:
475,192,162190,1,0,0:0:0:0:
402,192,162190,1,0,0:0:0:0:
329,192,162190,1,0,0:0:0:0:
36,192,162261,128,0,162832:0:0:0:0:
109,192,162261,1,0,0:0:0:0:
182,192,162261,1,0,0:0:0:0:
402,192,163404,128,0,163690:0:0:0:0:
109,192,163832,128,0,164118:0:0:0:0:
329,192,164261,128,0,164404:0:0:0:0:
182,192,164547,128,0,164832:0:0:0:0:
402,192,164975,128,0,165261:0:0:0:0:
109,192,165404,128,0,165547:0:0:0:0:
329,192,165690,128,0,166118:0:0:0:0:
182,192,166547,128,0,166690:0:0:0:0:
402,192,166690,128,0,166832:0:0:0:0:
256,192,166832,128,0,167261:0:0:0:0:
475,192,167690,128,0,167832:0:0:0:0:
109,192,167975,128,0,168261:0:0:0:0:
402,192,168404,128,0,168690:0:0:0:0:
182,192,168832,128,0,168975:0:0:0:0:
402,192,169118,1,0,0:0:0:0:
475,192,169118,1,0,0:0:0:0:
256,192,169118,1,0,0:0:0:0:
36,192,169118,128,0,173297:0:0:0:0:
109,192,169118,1,0,0:0:0:0:
402,192,169261,1,0,0:0:0:0:
329,192,169261,1,0,0:0:0:0:
182,192,169261,1,0,0:0:0:0:
109,192,169404,1,0,0:0:0:0:
475,192,169404,1,0,0:0:0:0:
256,192,169404,1,0,0:0:0:0:
182,192,169475,1,0,0:0:0:0:
402,192,169475,1,0,0:0:0:0:
109,192,169547,1,0,0:0:0:0:
329,192,169547,1,0,0:0:0:0:
402,192,169690,1,0,0:0:0:0:
475,192,169690,1,0,0:0:0:0:
182,192,169690,1,0,0:0:0:0:
256,192,169690,1,0,0:0:0:0:
329,192,169832,1,0,0:0:0:0:
109,192,169832,1,0,0:0:0:0:
475,192,169904,1,0,0:0:0:0:
402,192,169904,1,0,0:0:0:0:
182,192,169904,1,0,0:0:0:0:
256,192,169904,1,0,0:0:0:0:
402,192,170118,1,0,0:0:0:0:
475,192,170118,1,0,0:0:0:0:
182,192,170118,1,0,0:0:0:0:
256,192,170118,1,0,0:0:0:0:
329,192,170261,1,0,0:0:0:0:
475,192,170261,1,0,0:0:0:0:
109,192,170261,1,0,0:0:0:0:
182,192,170261,1,0,0:0:0:0:
402,192,170404,1,0,0:0:0:0:
256,192,170404,1,0,0:0:0:0:
109,192,170404,1,0,0:0:0:0:
475,192,170547,1,0,0:0:0:0:
329,192,170547,1,0,0:0:0:0:
182,192,170547,1,0,0:0:0:0:
256,192,170618,1,0,0:0:0:0:
402,192,170618,1,0,0:0:0:0:
109,192,170690,1,0,0:0:0:0:
329,192,170690,1,0,0:0:0:0:
402,192,170832,1,0,0:0:0:0:
475,192,170832,1,0,0:0:0:0:
109,192,170832,1,0,0:0:0:0:
256,192,170832,1,0,0:0:0:0:
329,192,170975,1,0,0:0:0:0:
182,192,170975,1,0,0:0:0:0:
475,192,171047,1,0,0:0:0:0:
109,192,171047,1,0,0:0:0:0:
256,192,171047,1,0,0:0:0:0:
402,192,171047,1,0,0:0:0:0:
402,192,171261,1,0,0:0:0:0:
475,192,171261,1,0,0:0:0:0:
109,192,171261,1,0,0:0:0:0:
256,192,171261,1,0,0:0:0:0:
402,192,171404,1,0,0:0:0:0:
475,192,171404,1,0,0:0:0:0:
182,192,171404,1,0,0:0:0:0:
329,192,171404,1,0,0:0:0:0:
256,192,171547,1,0,0:0:0:0:
329,192,171547,1,0,0:0:0:0:
109,192,171547,1,0,0:0:0:0:
182,192,171547,1,0,0:0:0:0:
475,192,171690,1,0,0:0:0:0:
109,192,171690,1,0,0:0:0:0:
256,192,171690,1,0,0:0:0:0:
402,192,171690,1,0,0:0:0:0:
402,192,171832,1,0,0:0:0:0:
475,192,171832,1,0,0:0:0:0:
182,192,171832,1,0,0:0:0:0:
329,192,171832,1,0,0:0:0:0:
109,192,171975,1,0,0:0:0:0:
182,192,171975,1,0,0:0:0:0:
329,192,171975,1,0,0:0:0:0:
256,192,171975,1,0,0:0:0:0:
475,192,172118,1,0,0:0:0:0:
109,192,172118,1,0,0:0:0:0:
256,192,172118,1,0,0:0:0:0:
402,192,172118,1,0,0:0:0:0:
475,192,172261,1,0,0:0:0:0:
402,192,172261,1,0,0:0:0:0:
182,192,172261,1,0,0:0:0:0:
329,192,172261,1,0,0:0:0:0:
109,192,172404,1,0,0:0:0:0:
182,192,172404,1,0,0:0:0:0:
256,192,172404,1,0,0:0:0:0:
329,192,172404,1,0,0:0:0:0:
475,192,172547,1,0,0:0:0:0:
256,192,172547,1,0,0:0:0:0:
402,192,172547,1,0,0:0:0:0:
109,192,172618,1,0,0:0:0:0:
182,192,172618,1,0,0:0:0:0:
475,192,172690,1,0,0:0:0:0:
402,192,172690,1,0,0:0:0:0:
329,192,172690,1,0,0:0:0:0:
182,192,172761,1,0,0:0:0:0:
256,192,172761,1,0,0:0:0:0:
475,192,172832,1,0,0:0:0:0:
402,192,172832,1,0,0:0:0:0:
109,192,172832,1,0,0:0:0:0:
256,192,172904,1,0,0:0:0:0:
329,192,172904,1,0,0:0:0:0:
475,192,172975,1,0,0:0:0:0:
109,192,172975,1,0,0:0:0:0:
182,192,172975,1,0,0:0:0:0:
402,192,173047,1,0,0:0:0:0:
329,192,173047,1,0,0:0:0:0:
182,192,173118,128,0,173154:0:0:0:0:
475,192,173118,1,0,0:0:0:0:
109,192,173118,1,0,0:0:0:0:
256,192,173154,128,0,173190:0:0:0:0:
329,192,173190,128,0,173225:0:0:0:0:
402,192,173225,128,0,173261:0:0:0:0:
109,192,173261,128,0,173297:0:0:0:0:
475,192,173261,128,0,173297:0:0:0:0:
182,192,173297,128,0,173332:0:0:0:0:
256,192,173332,128,0,173368:0:0:0:0:
329,192,173368,128,0,173404:0:0:0:0:
402,192,173404,128,0,173440:0:0:0:0:
36,192,173404,128,0,173440:0:0:0:0:
475,192,173440,128,0,173475:0:0:0:0:
109,192,173440,128,0,173475:0:0:0:0:
182,192,173475,128,0,173511:0:0:0:0:
256,192,173511,128,0,173547:0:0:0:0:
329,192,173547,128,0,173582:0:0:0:0:
402,192,173582,128,0,173618:0:0:0:0:
475,192,173618,128,0,173654:0:0:0:0:
182,192,173690,1,0,0:0:0:0:
256,192,173690,1,0,0:0:0:0:
36,192,173690,1,0,0:0:0:0:
109,192,173690,1,0,0:0:0:0:
402,192,173975,1,0,0:0:0:0:
475,192,173975,1,0,0:0:0:0:
329,192,173975,1,0,0:0:0:0:
109,192,173975,1,0,0:0:0:0:
182,192,173975,1,0,0:0:0:0:
36,192,174261,1,0,0:0:0:0:
109,192,174261,1,0,0:0:0:0:
256,192,174261,1,0,0:0:0:0:
182,192,174261,1,0,0:0:0:0:
36,192,174404,1,0,0:0:0:0:
256,192,174404,1,0,0:0:0:0:
402,192,174547,1,0,0:0:0:0:
475,192,174547,1,0,0:0:0:0:
329,192,174547,1,0,0:0:0:0:
182,192,174547,1,0,0:0:0:0:
109,192,174547,1,0,0:0:0:0:
36,192,174832,1,0,0:0:0:0:
182,192,174832,1,0,0:0:0:0:
256,192,174832,1,0,0:0:0:0:
109,192,174832,1,0,0:0:0:0:
36,192,174975,1,0,0:0:0:0:
256,192,174975,1,0,0:0:0:0:
402,192,175118,1,0,0:0:0:0:
475,192,175118,1,0,0:0:0:0:
329,192,175118,1,0,0:0:0:0:
182,192,175118,1,0,0:0:0:0:
109,192,175118,1,0,0:0:0:0:
402,192,175261,1,0,0:0:0:0:
182,192,175261,1,0,0:0:0:0:
329,192,175261,1,0,0:0:0:0:
475,192,175404,128,0,175475:0:0:0:0:
182,192,175404,128,0,175475:0:0:0:0:
402,192,175475,128,0,175547:0:0:0:0:
109,192,175475,128,0,175547:0:0:0:0:
329,192,175547,128,0,175618:0:0:0:0:
36,192,175547,128,0,175618:0:0:0:0:
402,192,175618,128,0,175690:0:0:0:0:
182,192,175618,128,0,175690:0:0:0:0:
329,192,175690,128,0,175761:0:0:0:0:
109,192,175690,128,0,175761:0:0:0:0:
256,192,175761,128,0,175832:0:0:0:0:
475,192,175761,128,0,175832:0:0:0:0:
402,192,175832,128,0,175904:0:0:0:0:
182,192,175832,128,0,175904:0:0:0:0:
329,192,175904,128,0,175975:0:0:0:0:
109,192,175904,128,0,175975:0:0:0:0:
475,192,175975,1,0,0:0:0:0:
182,192,175975,1,0,0:0:0:0:
402,192,175975,1,0,0:0:0:0:
36,192,175975,1,0,0:0:0:0:
256,192,175975,1,0,0:0:0:0:
402,192,176261,1,0,0:0:0:0:
475,192,176261,1,0,0:0:0:0:
256,192,176261,1,0,0:0:0:0:
36,192,176261,1,0,0:0:0:0:
182,192,176261,1,0,0:0:0:0:
109,192,176547,128,0,176618:0:0:0:0:
256,192,176547,128,0,176618:0:0:0:0:
256,192,176832,128,0,176904:0:0:0:0:
109,192,176832,128,0,176904:0:0:0:0:
329,192,177118,1,0,0:0:0:0:
402,192,177118,1,0,0:0:0:0:
36,192,177118,1,0,0:0:0:0:
182,192,177118,1,0,0:0:0:0:
109,192,177118,1,0,0:0:0:0:
109,192,177404,1,0,0:0:0:0:
36,192,177404,1,0,0:0:0:0:
182,192,177404,1,0,0:0:0:0:
329,192,177404,1,0,0:0:0:0:
402,192,177404,1,0,0:0:0:0:
475,192,177690,128,0,177761:0:0:0:0:
256,192,177690,128,0,177761:0:0:0:0:
256,192,177975,128,0,178047:0:0:0:0:
475,192,177975,128,0,178047:0:0:0:0:
256,192,178261,1,0,0:0:0:0:
109,192,178261,1,0,0:0:0:0:
475,192,178261,1,0,0:0:0:0:
329,192,178261,1,0,0:0:0:0:
402,192,178261,1,0,0:0:0:0:
402,192,178547,1,0,0:0:0:0:
475,192,178547,1,0,0:0:0:0:
329,192,178547,1,0,0:0:0:0:
109,192,178547,1,0,0:0:0:0:
256,192,178547,1,0,0:0:0:0:
36,192,178832,128,0,178904:0:0:0:0:
182,192,178832,128,0,178904:0:0:0:0:
36,192,179118,128,0,179190:0:0:0:0:
182,192,179118,128,0,179190:0:0:0:0:
402,192,179404,1,0,0:0:0:0:
475,192,179404,1,0,0:0:0:0:
329,192,179404,1,0,0:0:0:0:
109,192,179404,1,0,0:0:0:0:
182,192,179404,1,0,0:0:0:0:
402,192,179690,1,0,0:0:0:0:
475,192,179690,1,0,0:0:0:0:
329,192,179690,1,0,0:0:0:0:
109,192,179690,1,0,0:0:0:0:
182,192,179690,1,0,0:0:0:0:
256,192,179975,128,0,180047:0:0:0:0:
36,192,179975,128,0,180047:0:0:0:0:
36,192,180261,128,0,180332:0:0:0:0:
256,192,180261,128,0,180332:0:0:0:0:
402,192,180547,1,0,0:0:0:0:
475,192,180547,1,0,0:0:0:0:
36,192,180547,1,0,0:0:0:0:
109,192,180547,1,0,0:0:0:0:
182,192,180547,1,0,0:0:0:0:
329,192,180832,128,0,180904:0:0:0:0:
256,192,180832,128,0,180904:0:0:0:0:
109,192,181118,1,0,0:0:0:0:
36,192,181118,1,0,0:0:0:0:
182,192,181118,1,0,0:0:0:0:
402,192,181118,1,0,0:0:0:0:
475,192,181118,1,0,0:0:0:0:
329,192,181404,128,0,181475:0:0:0:0:
256,192,181404,128,0,181475:0:0:0:0:
182,192,181690,1,0,0:0:0:0:
109,192,181690,1,0,0:0:0:0:
36,192,181690,1,0,0:0:0:0:
329,192,181690,1,0,0:0:0:0:
475,192,181690,1,0,0:0:0:0:
402,192,181975,128,0,182047:0:0:0:0:
256,192,181975,128,0,182047:0:0:0:0:
109,192,182261,1,0,0:0:0:0:
36,192,182261,1,0,0:0:0:0:
182,192,182261,1,0,0:0:0:0:
329,192,182261,1,0,0:0:0:0:
475,192,182261,1,0,0:0:0:0:
256,192,182547,128,0,182618:0:0:0:0:
402,192,182547,128,0,182618:0:0:0:0:
182,192,182832,128,0,182975:0:0:0:0:
109,192,182832,128,0,182975:0:0:0:0:
36,192,182832,128,0,182975:0:0:0:0:
329,192,182832,128,0,182975:0:0:0:0:
402,192,182832,128,0,182975:0:0:0:0:
475,192,182832,128,0,182975:0:0:0:0:
182,192,183261,128,0,183404:0:0:0:0:
36,192,183261,128,0,183404:0:0:0:0:
109,192,183261,128,0,183404:0:0:0:0:
402,192,183261,128,0,183404:0:0:0:0:
329,192,183261,128,0,183404:0:0:0:0:
256,192,183261,128,0,183404:0:0:0:0:
329,192,183690,128,0,183832:0:0:0:0:
402,192,183690,128,0,183832:0:0:0:0:
475,192,183690,128,0,183832:0:0:0:0:
109,192,183690,128,0,183832:0:0:0:0:
182,192,183690,128,0,183832:0:0:0:0:
256,192,183690,128,0,183832:0:0:0:0:
475,192,183975,1,0,0:0:0:0:
256,192,183975,1,0,0:0:0:0:
109,192,183975,1,0,0:0:0:0:
182,192,183975,1,0,0:0:0:0:
36,192,183975,1,0,0:0:0:0:
402,192,183975,1,0,0:0:0:0:
329,192,184047,1,0,0:0:0:0:
182,192,184118,1,0,0:0:0:0:
329,192,184190,1,0,0:0:0:0:
182,192,184261,1,0,0:0:0:0:
329,192,184332,1,0,0:0:0:0:
182,192,184404,1,0,0:0:0:0:
329,192,184475,1,0,0:0:0:0:
109,192,184547,1,0,0:0:0:0:
182,192,184547,1,0,0:0:0:0:
329,192,184618,1,0,0:0:0:0:
402,192,184618,1,0,0:0:0:0:
182,192,184690,1,0,0:0:0:0:
109,192,184690,1,0,0:0:0:0:
402,192,184761,1,0,0:0:0:0:
329,192,184761,1,0,0:0:0:0:
36,192,184832,1,0,0:0:0:0:
109,192,184832,1,0,0:0:0:0:
256,192,184832,1,0,0:0:0:0:
475,192,184904,1,0,0:0:0:0:
402,192,184904,1,0,0:0:0:0:
329,192,184904,1,0,0:0:0:0:
36,192,184975,1,0,0:0:0:0:
109,192,184975,1,0,0:0:0:0:
182,192,184975,1,0,0:0:0:0:
475,192,185047,1,0,0:0:0:0:
402,192,185047,1,0,0:0:0:0:
256,192,185047,1,0,0:0:0:0:
329,192,185118,1,0,0:0:0:0:
109,192,185118,1,0,0:0:0:0:
36,192,185118,1,0,0:0:0:0:
182,192,185118,1,0,0:0:0:0:
475,192,185190,1,0,0:0:0:0:
109,192,185261,1,0,0:0:0:0:
329,192,185261,1,0,0:0:0:0:
182,192,185332,1,0,0:0:0:0:
475,192,185404,1,0,0:0:0:0:
109,192,185404,1,0,0:0:0:0:
402,192,185404,1,0,0:0:0:0:
256,192,185404,1,0,0:0:0:0:
36,192,185404,1,0,0:0:0:0:
329,192,185475,1,0,0:0:0:0:
109,192,185547,1,0,0:0:0:0:
256,192,185547,1,0,0:0:0:0:
402,192,185618,1,0,0:0:0:0:
475,192,185690,1,0,0:0:0:0:
109,192,185690,1,0,0:0:0:0:
329,192,185690,1,0,0:0:0:0:
182,192,185690,1,0,0:0:0:0:
36,192,185690,1,0,0:0:0:0:
256,192,185761,1,0,0:0:0:0:
36,192,185832,1,0,0:0:0:0:
402,192,185832,1,0,0:0:0:0:
182,192,185904,1,0,0:0:0:0:
36,192,185975,1,0,0:0:0:0:
256,192,185975,1,0,0:0:0:0:
475,192,185975,1,0,0:0:0:0:
109,192,185975,1,0,0:0:0:0:
402,192,185975,1,0,0:0:0:0:
329,192,186047,1,0,0:0:0:0:
475,192,186118,1,0,0:0:0:0:
182,192,186118,1,0,0:0:0:0:
256,192,186190,1,0,0:0:0:0:
36,192,186261,1,0,0:0:0:0:
182,192,186261,1,0,0:0:0:0:
109,192,186261,1,0,0:0:0:0:
475,192,186261,1,0,0:0:0:0:
402,192,186261,1,0,0:0:0:0:
329,192,186332,1,0,0:0:0:0:
36,192,186404,1,0,0:0:0:0:
475,192,186404,1,0,0:0:0:0:
402,192,186404,1,0,0:0:0:0:
109,192,186404,1,0,0:0:0:0:
182,192,186404,1,0,0:0:0:0:
256,192,186475,1,0,0:0:0:0:
475,192,186547,1,0,0:0:0:0:
329,192,186547,1,0,0:0:0:0:
402,192,186547,1,0,0:0:0:0:
36,192,186547,1,0,0:0:0:0:
109,192,186547,1,0,0:0:0:0:
182,192,186618,1,0,0:0:0:0:
475,192,186690,1,0,0:0:0:0:
109,192,186690,1,0,0:0:0:0:
256,192,186690,1,0,0:0:0:0:
36,192,186690,1,0,0:0:0:0:
402,192,186761,1,0,0:0:0:0:
329,192,186832,1,0,0:0:0:0:
109,192,186832,1,0,0:0:0:0:
182,192,186904,1,0,0:0:0:0:
475,192,186975,1,0,0:0:0:0:
36,192,186975,1,0,0:0:0:0:
402,192,186975,1,0,0:0:0:0:
109,192,186975,1,0,0:0:0:0:
256,192,186975,1,0,0:0:0:0:
329,192,187047,1,0,0:0:0:0:
36,192,187118,1,0,0:0:0:0:
182,192,187118,1,0,0:0:0:0:
329,192,187190,1,0,0:0:0:0:
475,192,187261,1,0,0:0:0:0:
109,192,187261,1,0,0:0:0:0:
402,192,187261,1,0,0:0:0:0:
256,192,187261,1,0,0:0:0:0:
36,192,187332,1,0,0:0:0:0:
329,192,187404,1,0,0:0:0:0:
182,192,187404,1,0,0:0:0:0:
475,192,187475,1,0,0:0:0:0:
256,192,187547,1,0,0:0:0:0:
109,192,187547,1,0,0:0:0:0:
402,192,187618,1,0,0:0:0:0:
475,192,187690,1,0,0:0:0:0:
36,192,187690,1,0,0:0:0:0:
329,192,187690,1,0,0:0:0:0:
182,192,187690,1,0,0:0:0:0:
109,192,187690,1,0,0:0:0:0:
256,192,187761,1,0,0:0:0:0:
402,192,187832,1,0,0:0:0:0:
109,192,187832,1,0,0:0:0:0:
182,192,187904,1,0,0:0:0:0:
36,192,187975,1,0,0:0:0:0:
475,192,187975,1,0,0:0:0:0:
329,192,187975,1,0,0:0:0:0:
109,192,187975,1,0,0:0:0:0:
402,192,187975,1,0,0:0:0:0:
256,192,188047,1,0,0:0:0:0:
402,192,188118,1,0,0:0:0:0:
182,192,188118,1,0,0:0:0:0:
329,192,188190,1,0,0:0:0:0:
475,192,188261,1,0,0:0:0:0:
402,192,188261,1,0,0:0:0:0:
36,192,188261,1,0,0:0:0:0:
256,192,188261,1,0,0:0:0:0:
109,192,188261,1,0,0:0:0:0:
182,192,188332,1,0,0:0:0:0:
402,192,188404,1,0,0:0:0:0:
109,192,188404,1,0,0:0:0:0:
329,192,188475,1,0,0:0:0:0:
475,192,188547,1,0,0:0:0:0:
402,192,188547,1,0,0:0:0:0:
256,192,188547,1,0,0:0:0:0:
36,192,188547,1,0,0:0:0:0:
109,192,188547,1,0,0:0:0:0:
182,192,188618,1,0,0:0:0:0:
109,192,188690,1,0,0:0:0:0:
36,192,188690,1,0,0:0:0:0:
475,192,188690,1,0,0:0:0:0:
329,192,188690,1,0,0:0:0:0:
256,192,188761,1,0,0:0:0:0:
182,192,188832,1,0,0:0:0:0:
402,192,188832,1,0,0:0:0:0:
256,192,188904,1,0,0:0:0:0:
109,192,188975,1,0,0:0:0:0:
475,192,188975,1,0,0:0:0:0:
329,192,188975,1,0,0:0:0:0:
36,192,188975,1,0,0:0:0:0:
182,192,189047,1,0,0:0:0:0:
475,192,189118,1,0,0:0:0:0:
256,192,189118,1,0,0:0:0:0:
329,192,189190,1,0,0:0:0:0:
36,192,189261,1,0,0:0:0:0:
182,192,189261,1,0,0:0:0:0:
256,192,189332,1,0,0:0:0:0:
329,192,189404,1,0,0:0:0:0:
36,192,189404,1,0,0:0:0:0:
402,192,189404,1,0,0:0:0:0:
109,192,189404,1,0,0:0:0:0:
475,192,189404,1,0,0:0:0:0:
182,192,189475,1,0,0:0:0:0:
109,192,189547,1,0,0:0:0:0:
402,192,189547,1,0,0:0:0:0:
329,192,189618,1,0,0:0:0:0:
36,192,189690,1,0,0:0:0:0:
182,192,189690,1,0,0:0:0:0:
109,192,189690,1,0,0:0:0:0:
475,192,189690,1,0,0:0:0:0:
256,192,189690,1,0,0:0:0:0:
402,192,189761,1,0,0:0:0:0:
329,192,189832,1,0,0:0:0:0:
36,192,189832,1,0,0:0:0:0:
182,192,189904,1,0,0:0:0:0:
109,192,189975,1,0,0:0:0:0:
329,192,189975,1,0,0:0:0:0:
36,192,190047,1,0,0:0:0:0:
402,192,190118,1,0,0:0:0:0:
182,192,190118,1,0,0:0:0:0:
256,192,190190,1,0,0:0:0:0:
109,192,190261,1,0,0:0:0:0:
402,192,190261,1,0,0:0:0:0:
329,192,190332,1,0,0:0:0:0:
36,192,190404,1,0,0:0:0:0:
256,192,190404,1,0,0:0:0:0:
109,192,190475,1,0,0:0:0:0:
329,192,190547,1,0,0:0:0:0:
182,192,190547,1,0,0:0:0:0:
402,192,190618,1,0,0:0:0:0:
109,192,190690,1,0,0:0:0:0:
36,192,190690,1,0,0:0:0:0:
182,192,190690,1,0,0:0:0:0:
256,192,190690,1,0,0:0:0:0:
475,192,190690,1,0,0:0:0:0:
402,192,190761,1,0,0:0:0:0:
329,192,190832,1,0,0:0:0:0:
109,192,190832,1,0,0:0:0:0:
182,192,190904,1,0,0:0:0:0:
475,192,190975,1,0,0:0:0:0:
36,192,190975,1,0,0:0:0:0:
329,192,190975,1,0,0:0:0:0:
256,192,190975,1,0,0:0:0:0:
402,192,190975,1,0,0:0:0:0:
109,192,191047,1,0,0:0:0:0:
402,192,191118,1,0,0:0:0:0:
182,192,191118,1,0,0:0:0:0:
329,192,191190,1,0,0:0:0:0:
402,192,191261,1,0,0:0:0:0:
475,192,191261,1,0,0:0:0:0:
36,192,191261,1,0,0:0:0:0:
256,192,191261,1,0,0:0:0:0:
109,192,191261,1,0,0:0:0:0:
182,192,191332,1,0,0:0:0:0:
329,192,191404,1,0,0:0:0:0:
36,192,191404,1,0,0:0:0:0:
109,192,191475,1,0,0:0:0:0:
402,192,191547,1,0,0:0:0:0:
256,192,191547,1,0,0:0:0:0:
182,192,191618,1,0,0:0:0:0:
36,192,191690,1,0,0:0:0:0:
475,192,191690,1,0,0:0:0:0:
402,192,191690,1,0,0:0:0:0:
329,192,191690,1,0,0:0:0:0:
109,192,191690,1,0,0:0:0:0:
256,192,191761,1,0,0:0:0:0:
109,192,191832,1,0,0:0:0:0:
329,192,191832,1,0,0:0:0:0:
182,192,191904,1,0,0:0:0:0:
109,192,191975,128,0,192118:0:0:0:0:
36,192,191975,128,0,192118:0:0:0:0:
256,192,191975,128,0,192118:0:0:0:0:
402,192,191975,128,0,192118:0:0:0:0:
475,192,191975,128,0,192118:0:0:0:0:
402,192,192404,128,0,192547:0:0:0:0:
329,192,192404,128,0,192547:0:0:0:0:
475,192,192404,128,0,192547:0:0:0:0:
36,192,192404,128,0,192547:0:0:0:0:
109,192,192404,128,0,192547:0:0:0:0:
256,192,192404,128,0,192547:0:0:0:0:
182,192,192832,128,0,192975:0:0:0:0:
109,192,192832,128,0,192975:0:0:0:0:
36,192,192832,128,0,192975:0:0:0:0:
402,192,192832,128,0,192975:0:0:0:0:
329,192,192832,128,0,192975:0:0:0:0:
256,192,192832,128,0,192975:0:0:0:0:
475,192,193118,1,0,0:0:0:0:
256,192,193118,1,0,0:0:0:0:
402,192,193118,1,0,0:0:0:0:
109,192,193118,1,0,0:0:0:0:
36,192,193118,1,0,0:0:0:0:
329,192,193118,1,0,0:0:0:0:
182,192,193190,1,0,0:0:0:0:
109,192,193261,1,0,0:0:0:0:
402,192,193261,1,0,0:0:0:0:
329,192,193332,1,0,0:0:0:0:
36,192,193404,1,0,0:0:0:0:
256,192,193404,1,0,0:0:0:0:
109,192,193475,1,0,0:0:0:0:
475,192,193547,1,0,0:0:0:0:
182,192,193547,1,0,0:0:0:0:
329,192,193618,1,0,0:0:0:0:
109,192,193690,1,0,0:0:0:0:
256,192,193690,1,0,0:0:0:0:
329,192,193761,1,0,0:0:0:0:
475,192,193761,1,0,0:0:0:0:
36,192,193832,1,0,0:0:0:0:
182,192,193832,1,0,0:0:0:0:
475,192,193904,1,0,0:0:0:0:
329,192,193904,1,0,0:0:0:0:
256,192,193975,1,0,0:0:0:0:
182,192,193975,1,0,0:0:0:0:
109,192,193975,1,0,0:0:0:0:
475,192,194047,1,0,0:0:0:0:
402,192,194047,1,0,0:0:0:0:
329,192,194047,1,0,0:0:0:0:
182,192,194118,1,0,0:0:0:0:
109,192,194118,1,0,0:0:0:0:
36,192,194118,1,0,0:0:0:0:
402,192,194190,1,0,0:0:0:0:
329,192,194190,1,0,0:0:0:0:
256,192,194190,1,0,0:0:0:0:
475,192,194261,1,0,0:0:0:0:
109,192,194261,1,0,0:0:0:0:
36,192,194261,1,0,0:0:0:0:
182,192,194261,1,0,0:0:0:0:
402,192,194332,1,0,0:0:0:0:
109,192,194404,1,0,0:0:0:0:
329,192,194404,1,0,0:0:0:0:
182,192,194475,1,0,0:0:0:0:
402,192,194547,1,0,0:0:0:0:
475,192,194547,1,0,0:0:0:0:
256,192,194547,1,0,0:0:0:0:
109,192,194547,1,0,0:0:0:0:
36,192,194547,1,0,0:0:0:0:
329,192,194618,1,0,0:0:0:0:
109,192,194690,1,0,0:0:0:0:
182,192,194690,1,0,0:0:0:0:
329,192,194761,1,0,0:0:0:0:
402,192,194832,1,0,0:0:0:0:
475,192,194832,1,0,0:0:0:0:
36,192,194832,1,0,0:0:0:0:
256,192,194832,1,0,0:0:0:0:
109,192,194832,1,0,0:0:0:0:
182,192,194904,1,0,0:0:0:0:
402,192,194975,1,0,0:0:0:0:
256,192,194975,1,0,0:0:0:0:
109,192,195047,1,0,0:0:0:0:
402,192,195118,1,0,0:0:0:0:
475,192,195118,1,0,0:0:0:0:
329,192,195118,1,0,0:0:0:0:
182,192,195118,1,0,0:0:0:0:
36,192,195118,1,0,0:0:0:0:
256,192,195190,1,0,0:0:0:0:
475,192,195261,1,0,0:0:0:0:
109,192,195261,1,0,0:0:0:0:
329,192,195332,1,0,0:0:0:0:
36,192,195404,1,0,0:0:0:0:
475,192,195404,1,0,0:0:0:0:
109,192,195404,1,0,0:0:0:0:
402,192,195404,1,0,0:0:0:0:
182,192,195404,1,0,0:0:0:0:
256,192,195475,1,0,0:0:0:0:
329,192,195547,1,0,0:0:0:0:
36,192,195547,1,0,0:0:0:0:
109,192,195618,1,0,0:0:0:0:
402,192,195690,1,0,0:0:0:0:
475,192,195690,1,0,0:0:0:0:
182,192,195690,1,0,0:0:0:0:
329,192,195690,1,0,0:0:0:0:
36,192,195690,1,0,0:0:0:0:
256,192,195761,1,0,0:0:0:0:
402,192,195832,1,0,0:0:0:0:
475,192,195832,1,0,0:0:0:0:
182,192,195832,1,0,0:0:0:0:
36,192,195832,1,0,0:0:0:0:
329,192,195904,1,0,0:0:0:0:
256,192,195975,1,0,0:0:0:0:
109,192,195975,1,0,0:0:0:0:
329,192,196047,1,0,0:0:0:0:
402,192,196118,1,0,0:0:0:0:
109,192,196118,1,0,0:0:0:0:
36,192,196118,1,0,0:0:0:0:
475,192,196118,1,0,0:0:0:0:
182,192,196118,1,0,0:0:0:0:
256,192,196190,1,0,0:0:0:0:
109,192,196261,1,0,0:0:0:0:
329,192,196261,1,0,0:0:0:0:
182,192,196332,1,0,0:0:0:0:
475,192,196404,1,0,0:0:0:0:
36,192,196404,1,0,0:0:0:0:
402,192,196404,1,0,0:0:0:0:
329,192,196404,1,0,0:0:0:0:
109,192,196404,1,0,0:0:0:0:
256,192,196475,1,0,0:0:0:0:
182,192,196547,1,0,0:0:0:0:
475,192,196547,1,0,0:0:0:0:
329,192,196618,1,0,0:0:0:0:
109,192,196690,1,0,0:0:0:0:
256,192,196690,1,0,0:0:0:0:
402,192,196761,1,0,0:0:0:0:
36,192,196832,1,0,0:0:0:0:
109,192,196832,1,0,0:0:0:0:
475,192,196832,1,0,0:0:0:0:
182,192,196832,1,0,0:0:0:0:
329,192,196832,1,0,0:0:0:0:
256,192,196904,1,0,0:0:0:0:
109,192,196975,1,0,0:0:0:0:
402,192,196975,1,0,0:0:0:0:
182,192,197047,1,0,0:0:0:0:
402,192,197118,1,0,0:0:0:0:
475,192,197118,1,0,0:0:0:0:
329,192,197118,1,0,0:0:0:0:
256,192,197118,1,0,0:0:0:0:
36,192,197118,1,0,0:0:0:0:
109,192,197190,1,0,0:0:0:0:
182,192,197261,1,0,0:0:0:0:
329,192,197261,1,0,0:0:0:0:
256,192,197332,1,0,0:0:0:0:
109,192,197404,1,0,0:0:0:0:
36,192,197404,1,0,0:0:0:0:
182,192,197404,1,0,0:0:0:0:
475,192,197404,1,0,0:0:0:0:
402,192,197404,1,0,0:0:0:0:
329,192,197475,1,0,0:0:0:0:
402,192,197547,1,0,0:0:0:0:
109,192,197547,1,0,0:0:0:0:
182,192,197618,1,0,0:0:0:0:
475,192,197690,1,0,0:0:0:0:
36,192,197690,1,0,0:0:0:0:
402,192,197690,1,0,0:0:0:0:
109,192,197690,1,0,0:0:0:0:
256,192,197690,1,0,0:0:0:0:
329,192,197761,1,0,0:0:0:0:
36,192,197832,1,0,0:0:0:0:
402,192,197832,1,0,0:0:0:0:
109,192,197832,1,0,0:0:0:0:
182,192,197832,1,0,0:0:0:0:
256,192,197904,1,0,0:0:0:0:
402,192,197975,1,0,0:0:0:0:
475,192,197975,1,0,0:0:0:0:
36,192,197975,1,0,0:0:0:0:
329,192,197975,1,0,0:0:0:0:
109,192,197975,1,0,0:0:0:0:
182,192,198047,1,0,0:0:0:0:
475,192,198118,1,0,0:0:0:0:
36,192,198118,1,0,0:0:0:0:
402,192,198118,1,0,0:0:0:0:
109,192,198118,1,0,0:0:0:0:
256,192,198118,1,0,0:0:0:0:
329,192,198190,1,0,0:0:0:0:
36,192,198261,1,0,0:0:0:0:
182,192,198261,1,0,0:0:0:0:
402,192,198332,1,0,0:0:0:0:
256,192,198404,1,0,0:0:0:0:
109,192,198404,1,0,0:0:0:0:
475,192,198475,1,0,0:0:0:0:
36,192,198547,1,0,0:0:0:0:
182,192,198547,1,0,0:0:0:0:
109,192,198547,1,0,0:0:0:0:
329,192,198547,1,0,0:0:0:0:
402,192,198547,1,0,0:0:0:0:
256,192,198618,1,0,0:0:0:0:
402,192,198690,1,0,0:0:0:0:
109,192,198690,1,0,0:0:0:0:
182,192,198761,1,0,0:0:0:0:
402,192,198832,1,0,0:0:0:0:
475,192,198832,1,0,0:0:0:0:
329,192,198832,1,0,0:0:0:0:
36,192,198832,1,0,0:0:0:0:
256,192,198832,1,0,0:0:0:0:
109,192,198904,1,0,0:0:0:0:
182,192,198975,1,0,0:0:0:0:
329,192,198975,1,0,0:0:0:0:
475,192,199047,1,0,0:0:0:0:
256,192,199118,1,0,0:0:0:0:
329,192,199118,1,0,0:0:0:0:
109,192,199118,1,0,0:0:0:0:
36,192,199118,1,0,0:0:0:0:
402,192,199118,1,0,0:0:0:0:
182,192,199190,1,0,0:0:0:0:
402,192,199261,1,0,0:0:0:0:
109,192,199261,1,0,0:0:0:0:
329,192,199332,1,0,0:0:0:0:
402,192,199404,1,0,0:0:0:0:
475,192,199404,1,0,0:0:0:0:
182,192,199404,1,0,0:0:0:0:
256,192,199404,1,0,0:0:0:0:
36,192,199404,1,0,0:0:0:0:
109,192,199475,1,0,0:0:0:0:
402,192,199547,1,0,0:0:0:0:
256,192,199547,1,0,0:0:0:0:
182,192,199618,1,0,0:0:0:0:
109,192,199690,1,0,0:0:0:0:
329,192,199690,1,0,0:0:0:0:
402,192,199761,1,0,0:0:0:0:
182,192,199832,1,0,0:0:0:0:
475,192,199832,1,0,0:0:0:0:
36,192,199832,1,0,0:0:0:0:
256,192,199832,1,0,0:0:0:0:
109,192,199832,1,0,0:0:0:0:
329,192,199904,1,0,0:0:0:0:
36,192,199975,1,0,0:0:0:0:
182,192,199975,1,0,0:0:0:0:
256,192,200047,1,0,0:0:0:0:
402,192,200118,1,0,0:0:0:0:
36,192,200118,1,0,0:0:0:0:
109,192,200118,1,0,0:0:0:0:
475,192,200118,1,0,0:0:0:0:
329,192,200118,1,0,0:0:0:0:
182,192,200190,1,0,0:0:0:0:
109,192,200261,1,0,0:0:0:0:
329,192,200261,1,0,0:0:0:0:
256,192,200332,1,0,0:0:0:0:
36,192,200404,1,0,0:0:0:0:
475,192,200404,1,0,0:0:0:0:
109,192,200404,1,0,0:0:0:0:
182,192,200404,1,0,0:0:0:0:
402,192,200404,1,0,0:0:0:0:
329,192,200475,1,0,0:0:0:0:
402,192,200547,1,0,0:0:0:0:
36,192,200547,1,0,0:0:0:0:
182,192,200618,1,0,0:0:0:0:
329,192,200690,1,0,0:0:0:0:
109,192,200690,1,0,0:0:0:0:
256,192,200761,1,0,0:0:0:0:
109,192,200832,1,0,0:0:0:0:
475,192,200832,1,0,0:0:0:0:
402,192,200832,1,0,0:0:0:0:
182,192,200832,1,0,0:0:0:0:
36,192,200832,1,0,0:0:0:0:
256,192,200904,1,0,0:0:0:0:
36,192,200975,1,0,0:0:0:0:
329,192,200975,1,0,0:0:0:0:
182,192,201047,1,0,0:0:0:0:
475,192,201118,128,0,201261:0:0:0:0:
109,192,201118,128,0,201261:0:0:0:0:
36,192,201118,128,0,201261:0:0:0:0:
256,192,201118,128,0,201261:0:0:0:0:
329,192,201118,128,0,201261:0:0:0:0:
402,192,201118,128,0,201261:0:0:0:0:
402,192,201547,128,0,201690:0:0:0:0:
475,192,201547,128,0,201690:0:0:0:0:
36,192,201547,128,0,201690:0:0:0:0:
109,192,201547,128,0,201690:0:0:0:0:
182,192,201547,128,0,201690:0:0:0:0:
256,192,201547,128,0,201690:0:0:0:0:
329,192,201975,128,0,202118:0:0:0:0:
402,192,201975,128,0,202118:0:0:0:0:
475,192,201975,128,0,202118:0:0:0:0:
182,192,201975,128,0,202118:0:0:0:0:
36,192,201975,128,0,202118:0:0:0:0:
256,192,201975,128,0,202118:0:0:0:0:
36,192,202261,1,0,0:0:0:0:
182,192,202261,1,0,0:0:0:0:
109,192,202261,1,0,0:0:0:0:
475,192,202261,1,0,0:0:0:0:
402,192,202261,1,0,0:0:0:0:
256,192,202332,1,0,0:0:0:0:
329,192,202332,1,0,0:0:0:0:
109,192,202404,1,0,0:0:0:0:
36,192,202404,1,0,0:0:0:0:
402,192,202475,1,0,0:0:0:0:
329,192,202475,1,0,0:0:0:0:
182,192,202547,1,0,0:0:0:0:
109,192,202547,1,0,0:0:0:0:
475,192,202618,1,0,0:0:0:0:
402,192,202618,1,0,0:0:0:0:
256,192,202690,1,0,0:0:0:0:
182,192,202690,1,0,0:0:0:0:
402,192,202761,1,0,0:0:0:0:
329,192,202761,1,0,0:0:0:0:
36,192,202832,1,0,0:0:0:0:
182,192,202832,1,0,0:0:0:0:
109,192,202832,1,0,0:0:0:0:
329,192,202904,1,0,0:0:0:0:
256,192,202904,1,0,0:0:0:0:
109,192,202975,1,0,0:0:0:0:
36,192,202975,1,0,0:0:0:0:
256,192,203047,1,0,0:0:0:0:
182,192,203047,1,0,0:0:0:0:
475,192,203118,1,0,0:0:0:0:
329,192,203118,1,0,0:0:0:0:
402,192,203118,1,0,0:0:0:0:
182,192,203190,1,0,0:0:0:0:
109,192,203190,1,0,0:0:0:0:
329,192,203261,1,0,0:0:0:0:
256,192,203261,1,0,0:0:0:0:
475,192,203332,1,0,0:0:0:0:
402,192,203332,1,0,0:0:0:0:
36,192,203404,1,0,0:0:0:0:
182,192,203404,1,0,0:0:0:0:
256,192,203404,1,0,0:0:0:0:
329,192,203404,1,0,0:0:0:0:
109,192,203404,1,0,0:0:0:0:
475,192,203475,1,0,0:0:0:0:
329,192,203547,1,0,0:0:0:0:
109,192,203547,1,0,0:0:0:0:
182,192,203618,1,0,0:0:0:0:
256,192,203690,1,0,0:0:0:0:
36,192,203690,1,0,0:0:0:0:
109,192,203690,1,0,0:0:0:0:
402,192,203690,1,0,0:0:0:0:
475,192,203690,1,0,0:0:0:0:
329,192,203761,1,0,0:0:0:0:
182,192,203832,1,0,0:0:0:0:
109,192,203832,1,0,0:0:0:0:
256,192,203904,1,0,0:0:0:0:
329,192,203975,1,0,0:0:0:0:
182,192,203975,1,0,0:0:0:0:
36,192,203975,1,0,0:0:0:0:
402,192,203975,1,0,0:0:0:0:
475,192,203975,1,0,0:0:0:0:
109,192,204047,1,0,0:0:0:0:
402,192,204118,1,0,0:0:0:0:
256,192,204118,1,0,0:0:0:0:
329,192,204190,1,0,0:0:0:0:
109,192,204261,1,0,0:0:0:0:
36,192,204261,1,0,0:0:0:0:
402,192,204261,1,0,0:0:0:0:
182,192,204261,1,0,0:0:0:0:
475,192,204261,1,0,0:0:0:0:
256,192,204332,1,0,0:0:0:0:
109,192,204404,1,0,0:0:0:0:
329,192,204404,1,0,0:0:0:0:
182,192,204475,1,0,0:0:0:0:
402,192,204547,1,0,0:0:0:0:
329,192,204547,1,0,0:0:0:0:
109,192,204547,1,0,0:0:0:0:
36,192,204547,1,0,0:0:0:0:
475,192,204547,1,0,0:0:0:0:
256,192,204618,1,0,0:0:0:0:
109,192,204690,1,0,0:0:0:0:
36,192,204690,1,0,0:0:0:0:
402,192,204690,1,0,0:0:0:0:
475,192,204690,1,0,0:0:0:0:
182,192,204761,1,0,0:0:0:0:
329,192,204832,1,0,0:0:0:0:
36,192,204832,1,0,0:0:0:0:
256,192,204832,1,0,0:0:0:0:
402,192,204832,1,0,0:0:0:0:
475,192,204832,1,0,0:0:0:0:
109,192,204904,1,0,0:0:0:0:
182,192,204975,1,0,0:0:0:0:
36,192,204975,1,0,0:0:0:0:
329,192,204975,1,0,0:0:0:0:
475,192,204975,1,0,0:0:0:0:
402,192,205047,1,0,0:0:0:0:
109,192,205118,1,0,0:0:0:0:
256,192,205118,1,0,0:0:0:0:
329,192,205190,1,0,0:0:0:0:
475,192,205261,1,0,0:0:0:0:
36,192,205261,1,0,0:0:0:0:
402,192,205261,1,0,0:0:0:0:
182,192,205261,1,0,0:0:0:0:
109,192,205261,1,0,0:0:0:0:
329,192,205332,1,0,0:0:0:0:
256,192,205404,1,0,0:0:0:0:
36,192,205404,1,0,0:0:0:0:
109,192,205475,1,0,0:0:0:0:
329,192,205547,1,0,0:0:0:0:
182,192,205547,1,0,0:0:0:0:
402,192,205547,1,0,0:0:0:0:
475,192,205547,1,0,0:0:0:0:
36,192,205547,1,0,0:0:0:0:
256,192,205618,1,0,0:0:0:0:
475,192,205690,1,0,0:0:0:0:
109,192,205690,1,0,0:0:0:0:
402,192,205761,1,0,0:0:0:0:
109,192,205832,1,0,0:0:0:0:
329,192,205832,1,0,0:0:0:0:
182,192,205904,1,0,0:0:0:0:
329,192,205975,1,0,0:0:0:0:
256,192,205975,1,0,0:0:0:0:
402,192,205975,1,0,0:0:0:0:
36,192,205975,1,0,0:0:0:0:
475,192,205975,1,0,0:0:0:0:
182,192,206047,1,0,0:0:0:0:
109,192,206118,1,0,0:0:0:0:
329,192,206118,1,0,0:0:0:0:
256,192,206190,1,0,0:0:0:0:
109,192,206261,1,0,0:0:0:0:
36,192,206261,1,0,0:0:0:0:
182,192,206261,1,0,0:0:0:0:
402,192,206261,1,0,0:0:0:0:
475,192,206261,1,0,0:0:0:0:
329,192,206332,1,0,0:0:0:0:
402,192,206404,1,0,0:0:0:0:
182,192,206404,1,0,0:0:0:0:
109,192,206475,1,0,0:0:0:0:
402,192,206547,1,0,0:0:0:0:
256,192,206547,1,0,0:0:0:0:
329,192,206547,1,0,0:0:0:0:
475,192,206547,1,0,0:0:0:0:
36,192,206547,1,0,0:0:0:0:
182,192,206618,1,0,0:0:0:0:
109,192,206690,1,0,0:0:0:0:
329,192,206690,1,0,0:0:0:0:
402,192,206761,1,0,0:0:0:0:
109,192,206832,1,0,0:0:0:0:
256,192,206832,1,0,0:0:0:0:
182,192,206832,1,0,0:0:0:0:
475,192,206832,1,0,0:0:0:0:
36,192,206832,1,0,0:0:0:0:
402,192,206904,1,0,0:0:0:0:
109,192,206975,1,0,0:0:0:0:
182,192,206975,1,0,0:0:0:0:
329,192,206975,1,0,0:0:0:0:
36,192,206975,1,0,0:0:0:0:
256,192,207047,1,0,0:0:0:0:
402,192,207118,1,0,0:0:0:0:
109,192,207118,1,0,0:0:0:0:
182,192,207190,1,0,0:0:0:0:
329,192,207261,1,0,0:0:0:0:
109,192,207261,1,0,0:0:0:0:
402,192,207261,1,0,0:0:0:0:
475,192,207261,1,0,0:0:0:0:
36,192,207261,1,0,0:0:0:0:
256,192,207332,1,0,0:0:0:0:
329,192,207404,1,0,0:0:0:0:
182,192,207404,1,0,0:0:0:0:
475,192,207475,1,0,0:0:0:0:
109,192,207547,1,0,0:0:0:0:
402,192,207547,1,0,0:0:0:0:
256,192,207618,1,0,0:0:0:0:
475,192,207690,1,0,0:0:0:0:
182,192,207690,1,0,0:0:0:0:
109,192,207690,1,0,0:0:0:0:
36,192,207690,1,0,0:0:0:0:
329,192,207690,1,0,0:0:0:0:
402,192,207761,1,0,0:0:0:0:
109,192,207832,1,0,0:0:0:0:
256,192,207832,1,0,0:0:0:0:
182,192,207904,1,0,0:0:0:0:
109,192,207975,1,0,0:0:0:0:
329,192,207975,1,0,0:0:0:0:
36,192,207975,1,0,0:0:0:0:
402,192,207975,1,0,0:0:0:0:
475,192,207975,1,0,0:0:0:0:
256,192,208047,1,0,0:0:0:0:
329,192,208118,1,0,0:0:0:0:
109,192,208118,1,0,0:0:0:0:
182,192,208190,1,0,0:0:0:0:
256,192,208261,1,0,0:0:0:0:
36,192,208261,1,0,0:0:0:0:
475,192,208332,1,0,0:0:0:0:
109,192,208404,1,0,0:0:0:0:
329,192,208404,1,0,0:0:0:0:
182,192,208475,1,0,0:0:0:0:
256,192,208547,1,0,0:0:0:0:
402,192,208547,1,0,0:0:0:0:
475,192,208618,1,0,0:0:0:0:
182,192,208690,1,0,0:0:0:0:
329,192,208690,1,0,0:0:0:0:
109,192,208761,1,0,0:0:0:0:
256,192,208832,1,0,0:0:0:0:
36,192,208832,1,0,0:0:0:0:
329,192,208904,1,0,0:0:0:0:
402,192,208975,1,0,0:0:0:0:
109,192,208975,1,0,0:0:0:0:
36,192,208975,1,0,0:0:0:0:
182,192,208975,1,0,0:0:0:0:
475,192,208975,1,0,0:0:0:0:
256,192,209047,1,0,0:0:0:0:
109,192,209118,1,0,0:0:0:0:
329,192,209118,1,0,0:0:0:0:
182,192,209190,1,0,0:0:0:0:
475,192,209261,1,0,0:0:0:0:
402,192,209261,1,0,0:0:0:0:
109,192,209261,1,0,0:0:0:0:
329,192,209261,1,0,0:0:0:0:
36,192,209261,1,0,0:0:0:0:
256,192,209332,1,0,0:0:0:0:
402,192,209404,1,0,0:0:0:0:
182,192,209404,1,0,0:0:0:0:
329,192,209475,1,0,0:0:0:0:
256,192,209547,1,0,0:0:0:0:
402,192,209547,1,0,0:0:0:0:
109,192,209547,1,0,0:0:0:0:
36,192,209547,1,0,0:0:0:0:
475,192,209547,1,0,0:0:0:0:
182,192,209618,1,0,0:0:0:0:
109,192,209690,1,0,0:0:0:0:
329,192,209690,1,0,0:0:0:0:
475,192,209761,1,0,0:0:0:0:
182,192,209832,1,0,0:0:0:0:
329,192,209832,1,0,0:0:0:0:
109,192,209904,1,0,0:0:0:0:
402,192,209975,1,0,0:0:0:0:
256,192,209975,1,0,0:0:0:0:
36,192,209975,1,0,0:0:0:0:
329,192,209975,1,0,0:0:0:0:
475,192,209975,1,0,0:0:0:0:
109,192,210047,1,0,0:0:0:0:
182,192,210118,1,0,0:0:0:0:
402,192,210118,1,0,0:0:0:0:
329,192,210190,1,0,0:0:0:0:
36,192,210261,1,0,0:0:0:0:
256,192,210261,1,0,0:0:0:0:
475,192,210261,1,0,0:0:0:0:
109,192,210261,1,0,0:0:0:0:
402,192,210332,1,0,0:0:0:0:
36,192,210404,1,0,0:0:0:0:
329,192,210404,1,0,0:0:0:0:
109,192,210404,1,0,0:0:0:0:
182,192,210404,1,0,0:0:0:0:
475,192,210475,1,0,0:0:0:0:
182,192,210547,1,0,0:0:0:0:
256,192,210547,1,0,0:0:0:0:
402,192,210547,1,0,0:0:0:0:
109,192,210547,1,0,0:0:0:0:
36,192,210618,1,0,0:0:0:0:
475,192,210690,1,0,0:0:0:0:
256,192,210690,1,0,0:0:0:0:
182,192,210690,1,0,0:0:0:0:
402,192,210690,1,0,0:0:0:0:
329,192,210761,1,0,0:0:0:0:
256,192,210832,1,0,0:0:0:0:
402,192,210832,1,0,0:0:0:0:
36,192,210832,1,0,0:0:0:0:
109,192,210832,1,0,0:0:0:0:
182,192,210904,1,0,0:0:0:0:
109,192,210975,1,0,0:0:0:0:
329,192,210975,1,0,0:0:0:0:
36,192,210975,1,0,0:0:0:0:
475,192,210975,1,0,0:0:0:0:
256,192,211047,1,0,0:0:0:0:
402,192,211118,1,0,0:0:0:0:
475,192,211118,1,0,0:0:0:0:
36,192,211118,1,0,0:0:0:0:
182,192,211118,1,0,0:0:0:0:
329,192,211190,1,0,0:0:0:0:
402,192,211261,1,0,0:0:0:0:
36,192,211261,1,0,0:0:0:0:
475,192,211261,1,0,0:0:0:0:
182,192,211261,1,0,0:0:0:0:
256,192,211332,1,0,0:0:0:0:
109,192,211404,1,0,0:0:0:0:
182,192,211404,1,0,0:0:0:0:
36,192,211404,1,0,0:0:0:0:
329,192,211404,1,0,0:0:0:0:
475,192,211475,1,0,0:0:0:0:
402,192,211475,1,0,0:0:0:0:
256,192,211547,1,0,0:0:0:0:
109,192,211547,1,0,0:0:0:0:
36,192,211547,1,0,0:0:0:0:
402,192,211618,1,0,0:0:0:0:
329,192,211618,1,0,0:0:0:0:
475,192,211690,1,0,0:0:0:0:
36,192,211690,1,0,0:0:0:0:
109,192,211690,1,0,0:0:0:0:
256,192,211690,1,0,0:0:0:0:
182,192,211761,1,0,0:0:0:0:
329,192,211761,1,0,0:0:0:0:
475,192,211832,1,0,0:0:0:0:
109,192,211832,1,0,0:0:0:0:
256,192,211832,1,0,0:0:0:0:
329,192,211904,1,0,0:0:0:0:
402,192,211904,1,0,0:0:0:0:
109,192,211975,1,0,0:0:0:0:
36,192,211975,1,0,0:0:0:0:
182,192,211975,1,0,0:0:0:0:
329,192,212047,1,0,0:0:0:0:
256,192,212047,1,0,0:0:0:0:
475,192,212118,1,0,0:0:0:0:
36,192,212118,1,0,0:0:0:0:
402,192,212118,1,0,0:0:0:0:
182,192,212190,1,0,0:0:0:0:
109,192,212190,1,0,0:0:0:0:
402,192,212261,1,0,0:0:0:0:
475,192,212261,1,0,0:0:0:0:
256,192,212261,1,0,0:0:0:0:
329,192,212332,1,0,0:0:0:0:
182,192,212332,1,0,0:0:0:0:
36,192,212404,1,0,0:0:0:0:
256,192,212404,1,0,0:0:0:0:
109,192,212404,1,0,0:0:0:0:
475,192,212475,1,0,0:0:0:0:
402,192,212475,1,0,0:0:0:0:
182,192,212547,1,0,0:0:0:0:
256,192,212547,1,0,0:0:0:0:
109,192,212547,1,0,0:0:0:0:
36,192,212547,1,0,0:0:0:0:
329,192,212547,1,0,0:0:0:0:
329,192,212690,1,0,0:0:0:0:
182,192,212690,1,0,0:0:0:0:
256,192,212832,1,0,0:0:0:0:
36,192,212832,1,0,0:0:0:0:
109,192,212832,1,0,0:0:0:0:
402,192,212832,1,0,0:0:0:0:
475,192,212832,1,0,0:0:0:0:
182,192,212832,1,0,0:0:0:0:
109,192,212975,1,0,0:0:0:0:
402,192,212975,1,0,0:0:0:0:
182,192,213118,1,0,0:0:0:0:
36,192,213118,1,0,0:0:0:0:
109,192,213118,1,0,0:0:0:0:
402,192,213118,1,0,0:0:0:0:
475,192,213118,1,0,0:0:0:0:
329,192,213118,1,0,0:0:0:0:
329,192,213261,1,0,0:0:0:0:
182,192,213261,1,0,0:0:0:0:
256,192,213404,1,0,0:0:0:0:
402,192,213404,1,0,0:0:0:0:
329,192,213404,1,0,0:0:0:0:
36,192,213404,1,0,0:0:0:0:
109,192,213404,1,0,0:0:0:0:
182,192,213404,1,0,0:0:0:0:
256,192,213547,1,0,0:0:0:0:
402,192,213547,1,0,0:0:0:0:
36,192,213690,1,0,0:0:0:0:
329,192,213690,1,0,0:0:0:0:
402,192,213690,1,0,0:0:0:0:
475,192,213690,1,0,0:0:0:0:
256,192,213690,1,0,0:0:0:0:
182,192,213690,1,0,0:0:0:0:
182,192,213832,1,0,0:0:0:0:
36,192,213832,1,0,0:0:0:0:
329,192,213975,1,0,0:0:0:0:
475,192,213975,1,0,0:0:0:0:
256,192,213975,1,0,0:0:0:0:
109,192,213975,1,0,0:0:0:0:
36,192,213975,1,0,0:0:0:0:
402,192,213975,1,0,0:0:0:0:
329,192,214118,1,0,0:0:0:0:
109,192,214118,1,0,0:0:0:0:
475,192,214261,1,0,0:0:0:0:
402,192,214261,1,0,0:0:0:0:
109,192,214261,1,0,0:0:0:0:
36,192,214261,1,0,0:0:0:0:
329,192,214261,1,0,0:0:0:0:
256,192,214261,1,0,0:0:0:0:
402,192,214404,1,0,0:0:0:0:
256,192,214404,1,0,0:0:0:0:
475,192,214547,1,0,0:0:0:0:
182,192,214547,1,0,0:0:0:0:
402,192,214547,1,0,0:0:0:0:
256,192,214547,1,0,0:0:0:0:
109,192,214547,1,0,0:0:0:0:
36,192,214547,1,0,0:0:0:0:
329,192,214618,1,0,0:0:0:0:
182,192,214690,1,0,0:0:0:0:
109,192,214690,1,0,0:0:0:0:
475,192,214690,1,0,0:0:0:0:
36,192,214690,1,0,0:0:0:0:
329,192,214761,1,0,0:0:0:0:
256,192,214832,1,0,0:0:0:0:
402,192,214832,1,0,0:0:0:0:
36,192,214832,1,0,0:0:0:0:
475,192,214832,1,0,0:0:0:0:
109,192,214832,1,0,0:0:0:0:
182,192,214832,1,0,0:0:0:0:
402,192,214975,1,0,0:0:0:0:
182,192,214975,1,0,0:0:0:0:
475,192,215118,1,0,0:0:0:0:
109,192,215118,1,0,0:0:0:0:
36,192,215118,1,0,0:0:0:0:
256,192,215118,1,0,0:0:0:0:
402,192,215118,1,0,0:0:0:0:
329,192,215118,1,0,0:0:0:0:
256,192,215261,1,0,0:0:0:0:
109,192,215261,1,0,0:0:0:0:
256,192,215404,1,0,0:0:0:0:
182,192,215404,1,0,0:0:0:0:
109,192,215404,1,0,0:0:0:0:
36,192,215404,1,0,0:0:0:0:
402,192,215404,1,0,0:0:0:0:
475,192,215404,1,0,0:0:0:0:
402,192,215547,1,0,0:0:0:0:
182,192,215547,1,0,0:0:0:0:
329,192,215690,1,0,0:0:0:0:
475,192,215690,1,0,0:0:0:0:
402,192,215690,1,0,0:0:0:0:
109,192,215690,1,0,0:0:0:0:
36,192,215690,1,0,0:0:0:0:
182,192,215690,1,0,0:0:0:0:
109,192,215832,1,0,0:0:0:0:
329,192,215832,1,0,0:0:0:0:
256,192,215975,1,0,0:0:0:0:
109,192,215975,1,0,0:0:0:0:
36,192,215975,1,0,0:0:0:0:
402,192,215975,1,0,0:0:0:0:
475,192,215975,1,0,0:0:0:0:
182,192,215975,1,0,0:0:0:0:
402,192,216118,1,0,0:0:0:0:
256,192,216118,1,0,0:0:0:0:
109,192,216261,1,0,0:0:0:0:
36,192,216261,1,0,0:0:0:0:
256,192,216261,1,0,0:0:0:0:
329,192,216261,1,0,0:0:0:0:
402,192,216261,1,0,0:0:0:0:
475,192,216261,1,0,0:0:0:0:
329,192,216404,1,0,0:0:0:0:
36,192,216404,1,0,0:0:0:0:
182,192,216547,1,0,0:0:0:0:
402,192,216547,1,0,0:0:0:0:
475,192,216547,1,0,0:0:0:0:
109,192,216547,1,0,0:0:0:0:
36,192,216547,1,0,0:0:0:0:
329,192,216547,1,0,0:0:0:0:
256,192,216618,1,0,0:0:0:0:
109,192,216690,1,0,0:0:0:0:
36,192,216690,1,0,0:0:0:0:
475,192,216690,1,0,0:0:0:0:
402,192,216690,1,0,0:0:0:0:
329,192,216761,1,0,0:0:0:0:
182,192,216761,1,0,0:0:0:0:
256,192,216832,1,0,0:0:0:0:
36,192,216832,1,0,0:0:0:0:
402,192,216832,1,0,0:0:0:0:
475,192,216832,1,0,0:0:0:0:
109,192,216832,1,0,0:0:0:0:
109,192,216975,1,0,0:0:0:0:
182,192,216975,1,0,0:0:0:0:
402,192,216975,1,0,0:0:0:0:
36,192,216975,1,0,0:0:0:0:
475,192,216975,1,0,0:0:0:0:
329,192,216975,1,0,0:0:0:0:
109,192,217118,1,0,0:0:0:0:
36,192,217118,1,0,0:0:0:0:
256,192,217118,1,0,0:0:0:0:
329,192,217118,1,0,0:0:0:0:
402,192,217118,1,0,0:0:0:0:
475,192,217118,1,0,0:0:0:0:
109,192,217261,1,0,0:0:0:0:
402,192,217261,1,0,0:0:0:0:
256,192,217261,1,0,0:0:0:0:
329,192,217404,1,0,0:0:0:0:
182,192,217404,1,0,0:0:0:0:
36,192,217404,1,0,0:0:0:0:
109,192,217404,1,0,0:0:0:0:
475,192,217404,1,0,0:0:0:0:
402,192,217404,1,0,0:0:0:0:
329,192,217547,1,0,0:0:0:0:
36,192,217547,1,0,0:0:0:0:
182,192,217547,1,0,0:0:0:0:
256,192,217690,1,0,0:0:0:0:
402,192,217690,1,0,0:0:0:0:
475,192,217690,1,0,0:0:0:0:
36,192,217690,1,0,0:0:0:0:
329,192,217690,1,0,0:0:0:0:
109,192,217690,1,0,0:0:0:0:
329,192,217832,1,0,0:0:0:0:
182,192,217832,1,0,0:0:0:0:
109,192,217832,1,0,0:0:0:0:
329,192,217975,1,0,0:0:0:0:
256,192,217975,1,0,0:0:0:0:
182,192,217975,1,0,0:0:0:0:
402,192,217975,1,0,0:0:0:0:
36,192,217975,1,0,0:0:0:0:
109,192,217975,1,0,0:0:0:0:
256,192,218118,1,0,0:0:0:0:
475,192,218118,1,0,0:0:0:0:
402,192,218118,1,0,0:0:0:0:
329,192,218261,1,0,0:0:0:0:
182,192,218261,1,0,0:0:0:0:
109,192,218261,1,0,0:0:0:0:
36,192,218261,1,0,0:0:0:0:
402,192,218261,1,0,0:0:0:0:
475,192,218261,1,0,0:0:0:0:
109,192,218404,1,0,0:0:0:0:
402,192,218404,1,0,0:0:0:0:
256,192,218404,1,0,0:0:0:0:
109,192,218547,1,0,0:0:0:0:
36,192,218547,1,0,0:0:0:0:
256,192,218547,1,0,0:0:0:0:
329,192,218547,1,0,0:0:0:0:
475,192,218547,1,0,0:0:0:0:
402,192,218547,1,0,0:0:0:0:
329,192,218690,1,0,0:0:0:0:
182,192,218690,1,0,0:0:0:0:
36,192,218690,1,0,0:0:0:0:
329,192,218832,1,0,0:0:0:0:
256,192,218832,1,0,0:0:0:0:
109,192,218832,1,0,0:0:0:0:
36,192,218832,1,0,0:0:0:0:
475,192,218832,1,0,0:0:0:0:
402,192,218832,1,0,0:0:0:0:
109,192,218975,1,0,0:0:0:0:
329,192,218975,1,0,0:0:0:0:
182,192,218975,1,0,0:0:0:0:
475,192,218975,1,0,0:0:0:0:
182,192,219118,1,0,0:0:0:0:
109,192,219118,1,0,0:0:0:0:
36,192,219118,1,0,0:0:0:0:
329,192,219118,1,0,0:0:0:0:
402,192,219118,1,0,0:0:0:0:
475,192,219118,1,0,0:0:0:0:
256,192,219190,1,0,0:0:0:0:
402,192,219261,1,0,0:0:0:0:
109,192,219261,1,0,0:0:0:0:
36,192,219261,1,0,0:0:0:0:
475,192,219261,1,0,0:0:0:0:
256,192,219332,1,0,0:0:0:0:
329,192,219404,1,0,0:0:0:0:
475,192,219404,1,0,0:0:0:0:
402,192,219404,1,0,0:0:0:0:
182,192,219404,1,0,0:0:0:0:
109,192,219404,1,0,0:0:0:0:
36,192,219404,1,0,0:0:0:0:
329,192,219547,1,0,0:0:0:0:
475,192,219547,1,0,0:0:0:0:
182,192,219547,1,0,0:0:0:0:
329,192,219690,1,0,0:0:0:0:
402,192,219690,1,0,0:0:0:0:
475,192,219690,1,0,0:0:0:0:
109,192,219690,1,0,0:0:0:0:
36,192,219690,1,0,0:0:0:0:
256,192,219690,1,0,0:0:0:0:
402,192,219832,1,0,0:0:0:0:
182,192,219832,1,0,0:0:0:0:
109,192,219832,1,0,0:0:0:0:
256,192,219975,1,0,0:0:0:0:
329,192,219975,1,0,0:0:0:0:
402,192,219975,1,0,0:0:0:0:
182,192,219975,1,0,0:0:0:0:
109,192,219975,1,0,0:0:0:0:
36,192,219975,1,0,0:0:0:0:
36,192,220118,1,0,0:0:0:0:
329,192,220118,1,0,0:0:0:0:
256,192,220118,1,0,0:0:0:0:
402,192,220261,1,0,0:0:0:0:
329,192,220261,1,0,0:0:0:0:
475,192,220261,1,0,0:0:0:0:
182,192,220261,1,0,0:0:0:0:
109,192,220261,1,0,0:0:0:0:
256,192,220261,1,0,0:0:0:0:
402,192,220404,1,0,0:0:0:0:
182,192,220404,1,0,0:0:0:0:
109,192,220404,1,0,0:0:0:0:
402,192,220547,1,0,0:0:0:0:
256,192,220547,128,0,220690:0:0:0:0:
475,192,220547,128,0,220654:0:0:0:0:
109,192,220547,1,0,0:0:0:0:
36,192,220547,1,0,0:0:0:0:
329,192,220547,1,0,0:0:0:0:
109,192,220690,128,0,220832:0:0:0:0:
36,192,220690,128,0,220832:0:0:0:0:
329,192,220832,1,0,0:0:0:0:
402,192,220832,1,0,0:0:0:0:
182,192,220832,1,0,0:0:0:0:
475,192,220832,128,0,220975:0:0:0:0:
256,192,220832,128,0,220975:0:0:0:0:
36,192,220975,128,0,221118:0:0:0:0:
109,192,220975,128,0,221118:0:0:0:0:
475,192,221118,128,0,221261:0:0:0:0:
256,192,221118,1,0,0:0:0:0:
402,192,221118,128,0,221261:0:0:0:0:
182,192,221118,1,0,0:0:0:0:
329,192,221118,1,0,0:0:0:0:
109,192,221261,1,0,0:0:0:0:
182,192,221261,1,0,0:0:0:0:
36,192,221261,1,0,0:0:0:0:
402,192,221332,1,0,0:0:0:0:
475,192,221332,1,0,0:0:0:0:
256,192,221332,1,0,0:0:0:0:
36,192,221404,1,0,0:0:0:0:
109,192,221404,1,0,0:0:0:0:
329,192,221404,1,0,0:0:0:0:
182,192,221404,1,0,0:0:0:0:
475,192,221547,1,0,0:0:0:0:
402,192,221547,1,0,0:0:0:0:
256,192,221547,1,0,0:0:0:0:
36,192,221547,1,0,0:0:0:0:
109,192,221547,1,0,0:0:0:0:
329,192,221690,1,0,0:0:0:0:
475,192,221690,1,0,0:0:0:0:
402,192,221690,1,0,0:0:0:0:
182,192,221690,1,0,0:0:0:0:
109,192,221690,1,0,0:0:0:0:
36,192,221690,1,0,0:0:0:0:
256,192,221761,1,0,0:0:0:0:
402,192,221832,1,0,0:0:0:0:
109,192,221832,1,0,0:0:0:0:
329,192,221904,1,0,0:0:0:0:
109,192,221975,1,0,0:0:0:0:
402,192,221975,1,0,0:0:0:0:
475,192,221975,1,0,0:0:0:0:
256,192,221975,1,0,0:0:0:0:
182,192,221975,1,0,0:0:0:0:
36,192,221975,1,0,0:0:0:0:
329,192,222047,1,0,0:0:0:0:
36,192,222118,1,0,0:0:0:0:
182,192,222118,1,0,0:0:0:0:
402,192,222190,1,0,0:0:0:0:
109,192,222261,1,0,0:0:0:0:
36,192,222261,1,0,0:0:0:0:
182,192,222261,1,0,0:0:0:0:
256,192,222261,1,0,0:0:0:0:
329,192,222261,1,0,0:0:0:0:
475,192,222261,1,0,0:0:0:0:
402,192,222332,1,0,0:0:0:0:
329,192,222404,1,0,0:0:0:0:
36,192,222404,1,0,0:0:0:0:
182,192,222475,1,0,0:0:0:0:
329,192,222547,1,0,0:0:0:0:
402,192,222547,1,0,0:0:0:0:
475,192,222547,1,0,0:0:0:0:
256,192,222547,1,0,0:0:0:0:
109,192,222547,1,0,0:0:0:0:
36,192,222547,1,0,0:0:0:0:
182,192,222618,1,0,0:0:0:0:
109,192,222690,1,0,0:0:0:0:
402,192,222690,1,0,0:0:0:0:
256,192,222761,1,0,0:0:0:0:
329,192,222832,1,0,0:0:0:0:
402,192,222832,1,0,0:0:0:0:
475,192,222832,1,0,0:0:0:0:
182,192,222832,1,0,0:0:0:0:
109,192,222832,1,0,0:0:0:0:
36,192,222832,1,0,0:0:0:0:
256,192,222904,1,0,0:0:0:0:
329,192,222975,1,0,0:0:0:0:
182,192,222975,1,0,0:0:0:0:
475,192,223047,1,0,0:0:0:0:
329,192,223118,1,0,0:0:0:0:
182,192,223118,1,0,0:0:0:0:
256,192,223118,1,0,0:0:0:0:
36,192,223118,1,0,0:0:0:0:
109,192,223118,1,0,0:0:0:0:
402,192,223118,1,0,0:0:0:0:
475,192,223190,1,0,0:0:0:0:
36,192,223261,1,0,0:0:0:0:
329,192,223261,1,0,0:0:0:0:
182,192,223332,1,0,0:0:0:0:
329,192,223404,1,0,0:0:0:0:
402,192,223404,1,0,0:0:0:0:
475,192,223404,1,0,0:0:0:0:
109,192,223404,1,0,0:0:0:0:
36,192,223404,1,0,0:0:0:0:
256,192,223404,1,0,0:0:0:0:
182,192,223475,1,0,0:0:0:0:
109,192,223547,1,0,0:0:0:0:
402,192,223547,1,0,0:0:0:0:
256,192,223618,1,0,0:0:0:0:
329,192,223690,1,0,0:0:0:0:
402,192,223690,1,0,0:0:0:0:
475,192,223690,1,0,0:0:0:0:
182,192,223690,1,0,0:0:0:0:
109,192,223690,1,0,0:0:0:0:
36,192,223690,1,0,0:0:0:0:
256,192,223761,1,0,0:0:0:0:
402,192,223832,1,0,0:0:0:0:
475,192,223832,1,0,0:0:0:0:
109,192,223832,1,0,0:0:0:0:
182,192,223832,1,0,0:0:0:0:
329,192,223904,1,0,0:0:0:0:
36,192,223975,1,0,0:0:0:0:
402,192,223975,1,0,0:0:0:0:
475,192,223975,1,0,0:0:0:0:
256,192,223975,1,0,0:0:0:0:
182,192,223975,1,0,0:0:0:0:
109,192,223975,1,0,0:0:0:0:
329,192,224047,1,0,0:0:0:0:
402,192,224118,1,0,0:0:0:0:
109,192,224118,1,0,0:0:0:0:
256,192,224190,1,0,0:0:0:0:
182,192,224261,1,0,0:0:0:0:
109,192,224261,1,0,0:0:0:0:
36,192,224261,1,0,0:0:0:0:
329,192,224261,1,0,0:0:0:0:
402,192,224261,1,0,0:0:0:0:
475,192,224261,1,0,0:0:0:0:
256,192,224332,1,0,0:0:0:0:
475,192,224404,1,0,0:0:0:0:
182,192,224404,1,0,0:0:0:0:
329,192,224475,1,0,0:0:0:0:
109,192,224547,1,0,0:0:0:0:
36,192,224547,1,0,0:0:0:0:
182,192,224547,1,0,0:0:0:0:
402,192,224547,1,0,0:0:0:0:
475,192,224547,1,0,0:0:0:0:
256,192,224547,1,0,0:0:0:0:
329,192,224618,1,0,0:0:0:0:
182,192,224690,1,0,0:0:0:0:
475,192,224690,1,0,0:0:0:0:
36,192,224761,1,0,0:0:0:0:
256,192,224832,1,0,0:0:0:0:
402,192,224832,1,0,0:0:0:0:
475,192,224832,1,0,0:0:0:0:
109,192,224832,1,0,0:0:0:0:
182,192,224832,1,0,0:0:0:0:
329,192,224832,1,0,0:0:0:0:
36,192,224904,1,0,0:0:0:0:
402,192,224975,1,0,0:0:0:0:
182,192,224975,1,0,0:0:0:0:
329,192,225047,1,0,0:0:0:0:
475,192,225118,1,0,0:0:0:0:
402,192,225118,1,0,0:0:0:0:
109,192,225118,1,0,0:0:0:0:
256,192,225118,1,0,0:0:0:0:
182,192,225118,1,0,0:0:0:0:
36,192,225118,1,0,0:0:0:0:
329,192,225190,1,0,0:0:0:0:
182,192,225261,1,0,0:0:0:0:
109,192,225261,1,0,0:0:0:0:
402,192,225332,1,0,0:0:0:0:
109,192,225404,1,0,0:0:0:0:
36,192,225404,1,0,0:0:0:0:
475,192,225404,1,0,0:0:0:0:
329,192,225404,1,0,0:0:0:0:
256,192,225404,1,0,0:0:0:0:
182,192,225404,1,0,0:0:0:0:
402,192,225475,1,0,0:0:0:0:
329,192,225547,1,0,0:0:0:0:
36,192,225547,1,0,0:0:0:0:
182,192,225618,1,0,0:0:0:0:
329,192,225690,1,0,0:0:0:0:
402,192,225690,1,0,0:0:0:0:
475,192,225690,1,0,0:0:0:0:
109,192,225690,1,0,0:0:0:0:
36,192,225690,1,0,0:0:0:0:
256,192,225690,1,0,0:0:0:0:
182,192,225761,1,0,0:0:0:0:
475,192,225832,1,0,0:0:0:0:
109,192,225832,1,0,0:0:0:0:
36,192,225832,1,0,0:0:0:0:
402,192,225832,1,0,0:0:0:0:
256,192,225904,1,0,0:0:0:0:
329,192,225904,1,0,0:0:0:0:
475,192,225975,1,0,0:0:0:0:
109,192,225975,1,0,0:0:0:0:
402,192,225975,1,0,0:0:0:0:
182,192,225975,1,0,0:0:0:0:
36,192,225975,1,0,0:0:0:0:
36,192,226118,1,0,0:0:0:0:
475,192,226118,1,0,0:0:0:0:
402,192,226118,1,0,0:0:0:0:
329,192,226118,1,0,0:0:0:0:
182,192,226118,1,0,0:0:0:0:
109,192,226118,1,0,0:0:0:0:
182,192,226261,1,0,0:0:0:0:
475,192,226261,1,0,0:0:0:0:
402,192,226261,1,0,0:0:0:0:
256,192,226261,1,0,0:0:0:0:
109,192,226261,1,0,0:0:0:0:
36,192,226261,1,0,0:0:0:0:
329,192,226332,1,0,0:0:0:0:
256,192,226404,1,0,0:0:0:0:
475,192,226404,1,0,0:0:0:0:
109,192,226404,1,0,0:0:0:0:
36,192,226404,1,0,0:0:0:0:
402,192,226475,1,0,0:0:0:0:
36,192,226547,1,0,0:0:0:0:
109,192,226547,1,0,0:0:0:0:
182,192,226547,1,0,0:0:0:0:
329,192,226547,1,0,0:0:0:0:
475,192,226547,1,0,0:0:0:0:
256,192,226618,1,0,0:0:0:0:
109,192,226690,1,0,0:0:0:0:
36,192,226690,1,0,0:0:0:0:
402,192,226690,1,0,0:0:0:0:
475,192,226690,1,0,0:0:0:0:
182,192,226761,1,0,0:0:0:0:
402,192,226832,1,0,0:0:0:0:
36,192,226832,1,0,0:0:0:0:
475,192,226832,1,0,0:0:0:0:
256,192,226832,1,0,0:0:0:0:
329,192,226832,1,0,0:0:0:0:
182,192,226904,1,0,0:0:0:0:
402,192,226975,1,0,0:0:0:0:
475,192,226975,1,0,0:0:0:0:
109,192,226975,1,0,0:0:0:0:
329,192,226975,1,0,0:0:0:0:
256,192,227047,1,0,0:0:0:0:
402,192,227118,1,0,0:0:0:0:
475,192,227118,1,0,0:0:0:0:
36,192,227118,1,0,0:0:0:0:
182,192,227118,1,0,0:0:0:0:
109,192,227118,1,0,0:0:0:0:
329,192,227190,1,0,0:0:0:0:
256,192,227261,1,0,0:0:0:0:
36,192,227261,1,0,0:0:0:0:
402,192,227261,1,0,0:0:0:0:
475,192,227261,1,0,0:0:0:0:
109,192,227332,1,0,0:0:0:0:
402,192,227404,1,0,0:0:0:0:
475,192,227404,1,0,0:0:0:0:
329,192,227404,1,0,0:0:0:0:
182,192,227404,1,0,0:0:0:0:
36,192,227404,1,0,0:0:0:0:
256,192,227475,1,0,0:0:0:0:
402,192,227547,1,0,0:0:0:0:
475,192,227547,1,0,0:0:0:0:
109,192,227547,1,0,0:0:0:0:
36,192,227547,1,0,0:0:0:0:
329,192,227618,1,0,0:0:0:0:
36,192,227690,1,0,0:0:0:0:
475,192,227690,1,0,0:0:0:0:
109,192,227690,1,0,0:0:0:0:
256,192,227690,1,0,0:0:0:0:
182,192,227690,1,0,0:0:0:0:
329,192,227761,1,0,0:0:0:0:
182,192,227832,1,0,0:0:0:0:
36,192,227832,1,0,0:0:0:0:
402,192,227832,1,0,0:0:0:0:
475,192,227832,1,0,0:0:0:0:
256,192,227904,1,0,0:0:0:0:
329,192,227975,1,0,0:0:0:0:
475,192,227975,1,0,0:0:0:0:
36,192,227975,1,0,0:0:0:0:
182,192,227975,1,0,0:0:0:0:
109,192,227975,1,0,0:0:0:0:
402,192,228047,1,0,0:0:0:0:
36,192,228118,1,0,0:0:0:0:
109,192,228118,1,0,0:0:0:0:
329,192,228118,1,0,0:0:0:0:
256,192,228118,1,0,0:0:0:0:
402,192,228190,1,0,0:0:0:0:
109,192,228261,1,0,0:0:0:0:
36,192,228261,1,0,0:0:0:0:
182,192,228261,1,0,0:0:0:0:
475,192,228261,1,0,0:0:0:0:
256,192,228261,1,0,0:0:0:0:
329,192,228332,1,0,0:0:0:0:
109,192,228404,1,0,0:0:0:0:
36,192,228404,1,0,0:0:0:0:
402,192,228404,1,0,0:0:0:0:
475,192,228404,1,0,0:0:0:0:
182,192,228475,1,0,0:0:0:0:
475,192,228547,1,0,0:0:0:0:
36,192,228547,1,0,0:0:0:0:
402,192,228547,1,0,0:0:0:0:
256,192,228547,1,0,0:0:0:0:
329,192,228547,1,0,0:0:0:0:
182,192,228618,1,0,0:0:0:0:
109,192,228618,1,0,0:0:0:0:
402,192,228690,1,0,0:0:0:0:
475,192,228690,1,0,0:0:0:0:
36,192,228690,1,0,0:0:0:0:
329,192,228761,1,0,0:0:0:0:
182,192,228761,1,0,0:0:0:0:
256,192,228761,1,0,0:0:0:0:
475,192,228832,1,0,0:0:0:0:
36,192,228832,1,0,0:0:0:0:
109,192,228832,1,0,0:0:0:0:
402,192,228904,1,0,0:0:0:0:
329,192,228904,1,0,0:0:0:0:
182,192,228904,1,0,0:0:0:0:
36,192,228975,1,0,0:0:0:0:
109,192,228975,1,0,0:0:0:0:
256,192,228975,1,0,0:0:0:0:
402,192,229047,1,0,0:0:0:0:
475,192,229047,1,0,0:0:0:0:
329,192,229118,1,0,0:0:0:0:
109,192,229118,1,0,0:0:0:0:
182,192,229118,1,0,0:0:0:0:
36,192,229118,1,0,0:0:0:0:
402,192,229154,1,0,0:0:0:0:
475,192,229190,1,0,0:0:0:0:
182,192,229225,1,0,0:0:0:0:
256,192,229261,1,0,0:0:0:0:
329,192,229297,1,0,0:0:0:0:
36,192,229332,1,0,0:0:0:0:
109,192,229368,1,0,0:0:0:0:
182,192,229404,1,0,0:0:0:0:
475,192,229404,1,0,0:0:0:0:
402,192,229440,1,0,0:0:0:0:
329,192,229475,1,0,0:0:0:0:
256,192,229511,1,0,0:0:0:0:
475,192,229547,1,0,0:0:0:0:
182,192,229547,1,0,0:0:0:0:
402,192,229582,1,0,0:0:0:0:
109,192,229582,1,0,0:0:0:0:
329,192,229618,1,0,0:0:0:0:
36,192,229618,1,0,0:0:0:0:
256,192,229654,1,0,0:0:0:0:
182,192,229690,128,0,230261:0:0:0:0:
475,192,229690,1,0,0:0:0:0:
402,192,229690,1,0,0:0:0:0:
256,192,229832,1,0,0:0:0:0:
36,192,229975,1,0,0:0:0:0:
329,192,229975,1,0,0:0:0:0:
402,192,229975,1,0,0:0:0:0:
109,192,229975,1,0,0:0:0:0:
475,192,229975,1,0,0:0:0:0:
256,192,230118,1,0,0:0:0:0:
329,192,230261,1,0,0:0:0:0:
475,192,230261,1,0,0:0:0:0:
36,192,230261,1,0,0:0:0:0:
109,192,230261,128,0,230547:0:0:0:0:
402,192,230261,1,0,0:0:0:0:
256,192,230404,1,0,0:0:0:0:
402,192,230547,1,0,0:0:0:0:
182,192,230547,1,0,0:0:0:0:
475,192,230547,1,0,0:0:0:0:
329,192,230547,128,0,230832:0:0:0:0:
36,192,230547,1,0,0:0:0:0:
256,192,230690,1,0,0:0:0:0:
36,192,230832,128,0,230975:0:0:0:0:
402,192,230832,1,0,0:0:0:0:
475,192,230832,1,0,0:0:0:0:
182,192,230832,1,0,0:0:0:0:
109,192,230832,1,0,0:0:0:0:
329,192,230975,1,0,0:0:0:0:
256,192,230975,128,0,231118:0:0:0:0:
475,192,231118,1,0,0:0:0:0:
402,192,231118,1,0,0:0:0:0:
182,192,231118,1,0,0:0:0:0:
36,192,231118,128,0,231261:0:0:0:0:
109,192,231118,1,0,0:0:0:0:
329,192,231261,1,0,0:0:0:0:
256,192,231261,128,0,231404:0:0:0:0:
475,192,231404,1,0,0:0:0:0:
109,192,231404,1,0,0:0:0:0:
36,192,231404,1,0,0:0:0:0:
182,192,231404,1,0,0:0:0:0:
256,192,231547,1,0,0:0:0:0:
329,192,231547,128,0,231832:0:0:0:0:
402,192,231690,1,0,0:0:0:0:
182,192,231690,1,0,0:0:0:0:
36,192,231690,1,0,0:0:0:0:
475,192,231690,1,0,0:0:0:0:
109,192,231832,128,0,232118:0:0:0:0:
256,192,231832,1,0,0:0:0:0:
36,192,231975,1,0,0:0:0:0:
329,192,231975,1,0,0:0:0:0:
402,192,231975,1,0,0:0:0:0:
182,192,231975,1,0,0:0:0:0:
475,192,231975,1,0,0:0:0:0:
256,192,232118,1,0,0:0:0:0:
402,192,232261,1,0,0:0:0:0:
36,192,232261,1,0,0:0:0:0:
109,192,232261,1,0,0:0:0:0:
475,192,232261,128,0,232547:0:0:0:0:
182,192,232261,1,0,0:0:0:0:
329,192,232404,1,0,0:0:0:0:
36,192,232547,128,0,232690:0:0:0:0:
182,192,232547,1,0,0:0:0:0:
402,192,232547,1,0,0:0:0:0:
256,192,232547,1,0,0:0:0:0:
109,192,232547,1,0,0:0:0:0:
329,192,232690,1,0,0:0:0:0:
475,192,232832,1,0,0:0:0:0:
109,192,232832,1,0,0:0:0:0:
36,192,232832,1,0,0:0:0:0:
182,192,232832,128,0,232975:0:0:0:0:
402,192,232832,1,0,0:0:0:0:
329,192,232975,1,0,0:0:0:0:
256,192,233118,1,0,0:0:0:0:
36,192,233118,1,0,0:0:0:0:
475,192,233118,1,0,0:0:0:0:
109,192,233118,128,0,233261:0:0:0:0:
182,192,233118,1,0,0:0:0:0:
329,192,233261,1,0,0:0:0:0:
402,192,233261,128,0,233404:0:0:0:0:
109,192,233404,1,0,0:0:0:0:
475,192,233404,1,0,0:0:0:0:
182,192,233404,128,0,233547:0:0:0:0:
256,192,233404,1,0,0:0:0:0:
329,192,233547,1,0,0:0:0:0:
36,192,233547,128,0,233690:0:0:0:0:
402,192,233690,1,0,0:0:0:0:
256,192,233690,1,0,0:0:0:0:
475,192,233690,1,0,0:0:0:0:
109,192,233690,1,0,0:0:0:0:
182,192,233832,1,0,0:0:0:0:
475,192,233975,1,0,0:0:0:0:
256,192,233975,1,0,0:0:0:0:
402,192,233975,1,0,0:0:0:0:
109,192,233975,128,0,234261:0:0:0:0:
36,192,233975,1,0,0:0:0:0:
329,192,234118,1,0,0:0:0:0:
182,192,234261,1,0,0:0:0:0:
36,192,234261,1,0,0:0:0:0:
475,192,234261,128,0,234547:0:0:0:0:
402,192,234261,1,0,0:0:0:0:
256,192,234404,1,0,0:0:0:0:
402,192,234547,1,0,0:0:0:0:
36,192,234547,1,0,0:0:0:0:
182,192,234547,1,0,0:0:0:0:
329,192,234547,128,0,234690:0:0:0:0:
109,192,234547,1,0,0:0:0:0:
256,192,234690,1,0,0:0:0:0:
475,192,234832,1,0,0:0:0:0:
182,192,234832,1,0,0:0:0:0:
36,192,234832,1,0,0:0:0:0:
329,192,234832,128,0,234975:0:0:0:0:
109,192,234832,1,0,0:0:0:0:
402,192,234975,1,0,0:0:0:0:
36,192,235118,1,0,0:0:0:0:
329,192,235118,1,0,0:0:0:0:
475,192,235118,1,0,0:0:0:0:
109,192,235118,1,0,0:0:0:0:
256,192,235118,1,0,0:0:0:0:
402,192,235261,1,0,0:0:0:0:
182,192,235261,128,0,235547:0:0:0:0:
256,192,235404,1,0,0:0:0:0:
475,192,235404,1,0,0:0:0:0:
329,192,235404,1,0,0:0:0:0:
109,192,235404,1,0,0:0:0:0:
36,192,235547,1,0,0:0:0:0:
402,192,235547,128,0,235832:0:0:0:0:
329,192,235690,1,0,0:0:0:0:
475,192,235690,1,0,0:0:0:0:
109,192,235690,1,0,0:0:0:0:
256,192,235690,1,0,0:0:0:0:
182,192,235832,1,0,0:0:0:0:
36,192,235832,128,0,236118:0:0:0:0:
475,192,235975,1,0,0:0:0:0:
109,192,235975,1,0,0:0:0:0:
256,192,235975,1,0,0:0:0:0:
402,192,235975,1,0,0:0:0:0:
329,192,236118,1,0,0:0:0:0:
36,192,236261,1,0,0:0:0:0:
475,192,236261,1,0,0:0:0:0:
109,192,236261,1,0,0:0:0:0:
182,192,236261,128,0,236547:0:0:0:0:
402,192,236261,1,0,0:0:0:0:
256,192,236404,1,0,0:0:0:0:
329,192,236547,1,0,0:0:0:0:
402,192,236547,1,0,0:0:0:0:
36,192,236547,1,0,0:0:0:0:
475,192,236547,128,0,238547:0:0:0:0:
109,192,236547,1,0,0:0:0:0:
182,192,236690,1,0,0:0:0:0:
109,192,236832,1,0,0:0:0:0:
329,192,236832,1,0,0:0:0:0:
402,192,236832,1,0,0:0:0:0:
256,192,236832,1,0,0:0:0:0:
36,192,236975,1,0,0:0:0:0:
256,192,237118,1,0,0:0:0:0:
402,192,237118,1,0,0:0:0:0:
109,192,237118,1,0,0:0:0:0:
182,192,237118,1,0,0:0:0:0:
329,192,237261,1,0,0:0:0:0:
36,192,237404,1,0,0:0:0:0:
402,192,237404,1,0,0:0:0:0:
256,192,237404,1,0,0:0:0:0:
182,192,237404,1,0,0:0:0:0:
109,192,237547,1,0,0:0:0:0:
256,192,237690,1,0,0:0:0:0:
329,192,237690,1,0,0:0:0:0:
36,192,237690,1,0,0:0:0:0:
182,192,237690,1,0,0:0:0:0:
329,192,237832,1,0,0:0:0:0:
402,192,237832,1,0,0:0:0:0:
109,192,237832,1,0,0:0:0:0:
256,192,237832,1,0,0:0:0:0:
329,192,237975,1,0,0:0:0:0:
402,192,237975,1,0,0:0:0:0:
109,192,237975,1,0,0:0:0:0:
182,192,237975,1,0,0:0:0:0:
36,192,238118,1,0,0:0:0:0:
329,192,238118,1,0,0:0:0:0:
256,192,238118,1,0,0:0:0:0:
182,192,238118,1,0,0:0:0:0:
402,192,238261,1,0,0:0:0:0:
109,192,238261,128,0,238547:0:0:0:0:
256,192,238261,1,0,0:0:0:0:
329,192,238261,1,0,0:0:0:0:
402,192,238404,1,0,0:0:0:0:
36,192,238404,1,0,0:0:0:0:
256,192,238404,1,0,0:0:0:0:
402,192,238547,1,0,0:0:0:0:
182,192,238547,128,0,238832:0:0:0:0:
256,192,238547,1,0,0:0:0:0:
329,192,238547,1,0,0:0:0:0:
329,192,238690,1,0,0:0:0:0:
475,192,238690,1,0,0:0:0:0:
36,192,238690,1,0,0:0:0:0:
109,192,238690,1,0,0:0:0:0:
402,192,238832,1,0,0:0:0:0:
475,192,238832,1,0,0:0:0:0:
256,192,238832,128,0,238975:0:0:0:0:
109,192,238832,1,0,0:0:0:0:
36,192,238832,1,0,0:0:0:0:
329,192,238975,1,0,0:0:0:0:
36,192,239118,1,0,0:0:0:0:
402,192,239118,1,0,0:0:0:0:
256,192,239118,128,0,239261:0:0:0:0:
109,192,239118,1,0,0:0:0:0:
329,192,239261,1,0,0:0:0:0:
36,192,239404,1,0,0:0:0:0:
402,192,239404,1,0,0:0:0:0:
475,192,239404,128,0,239547:0:0:0:0:
182,192,239404,1,0,0:0:0:0:
329,192,239547,128,0,239690:0:0:0:0:
256,192,239547,1,0,0:0:0:0:
36,192,239690,1,0,0:0:0:0:
475,192,239690,1,0,0:0:0:0:
402,192,239690,128,0,239832:0:0:0:0:
182,192,239690,1,0,0:0:0:0:
256,192,239832,1,0,0:0:0:0:
109,192,239832,128,0,239975:0:0:0:0:
475,192,239975,1,0,0:0:0:0:
329,192,239975,1,0,0:0:0:0:
182,192,239975,1,0,0:0:0:0:
402,192,240118,1,0,0:0:0:0:
109,192,240118,128,0,240261:0:0:0:0:
36,192,240261,1,0,0:0:0:0:
475,192,240261,1,0,0:0:0:0:
256,192,240261,1,0,0:0:0:0:
329,192,240404,1,0,0:0:0:0:
109,192,240404,128,0,240547:0:0:0:0:
402,192,240547,1,0,0:0:0:0:
256,192,240547,1,0,0:0:0:0:
36,192,240547,1,0,0:0:0:0:
475,192,240690,1,0,0:0:0:0:
182,192,240690,128,0,240832:0:0:0:0:
109,192,240832,1,0,0:0:0:0:
36,192,240832,1,0,0:0:0:0:
329,192,240832,128,0,240975:0:0:0:0:
256,192,240832,1,0,0:0:0:0:
402,192,240975,1,0,0:0:0:0:
109,192,241118,1,0,0:0:0:0:
36,192,241118,1,0,0:0:0:0:
475,192,241118,128,0,241261:0:0:0:0:
256,192,241118,1,0,0:0:0:0:
182,192,241261,1,0,0:0:0:0:
329,192,241404,1,0,0:0:0:0:
402,192,241404,1,0,0:0:0:0:
475,192,241404,128,0,241547:0:0:0:0:
109,192,241404,1,0,0:0:0:0:
256,192,241547,1,0,0:0:0:0:
109,192,241690,1,0,0:0:0:0:
36,192,241690,1,0,0:0:0:0:
475,192,241690,128,0,241832:0:0:0:0:
329,192,241690,1,0,0:0:0:0:
402,192,241832,1,0,0:0:0:0:
182,192,241832,128,0,241975:0:0:0:0:
36,192,241975,1,0,0:0:0:0:
256,192,241975,1,0,0:0:0:0:
329,192,241975,128,0,242118:0:0:0:0:
475,192,241975,1,0,0:0:0:0:
402,192,242118,1,0,0:0:0:0:
109,192,242118,128,0,242261:0:0:0:0:
329,192,242261,1,0,0:0:0:0:
256,192,242261,1,0,0:0:0:0:
182,192,242261,1,0,0:0:0:0:
36,192,242404,1,0,0:0:0:0:
402,192,242404,128,0,242547:0:0:0:0:
475,192,242547,1,0,0:0:0:0:
256,192,242547,1,0,0:0:0:0:
109,192,242547,1,0,0:0:0:0:
182,192,242690,1,0,0:0:0:0:
36,192,242690,128,0,242832:0:0:0:0:
475,192,242832,1,0,0:0:0:0:
256,192,242832,1,0,0:0:0:0:
109,192,242832,1,0,0:0:0:0:
329,192,242975,1,0,0:0:0:0:
182,192,242975,128,0,243118:0:0:0:0:
36,192,243118,1,0,0:0:0:0:
256,192,243118,1,0,0:0:0:0:
402,192,243118,128,0,243261:0:0:0:0:
109,192,243118,1,0,0:0:0:0:
329,192,243261,1,0,0:0:0:0:
475,192,243404,1,0,0:0:0:0:
256,192,243404,1,0,0:0:0:0:
109,192,243404,128,0,243547:0:0:0:0:
182,192,243404,1,0,0:0:0:0:
402,192,243547,1,0,0:0:0:0:
329,192,243690,1,0,0:0:0:0:
475,192,243690,1,0,0:0:0:0:
109,192,243690,128,0,243832:0:0:0:0:
256,192,243690,1,0,0:0:0:0:
182,192,243832,1,0,0:0:0:0:
36,192,243975,1,0,0:0:0:0:
475,192,243975,1,0,0:0:0:0:
109,192,243975,128,0,244118:0:0:0:0:
256,192,243975,1,0,0:0:0:0:
329,192,244118,128,0,244261:0:0:0:0:
182,192,244261,1,0,0:0:0:0:
36,192,244261,1,0,0:0:0:0:
256,192,244261,128,0,244404:0:0:0:0:
475,192,244261,1,0,0:0:0:0:
402,192,244404,128,0,244547:0:0:0:0:
109,192,244404,1,0,0:0:0:0:
329,192,244547,1,0,0:0:0:0:
36,192,244547,1,0,0:0:0:0:
182,192,244547,1,0,0:0:0:0:
256,192,244690,1,0,0:0:0:0:
402,192,244690,128,0,244832:0:0:0:0:
36,192,244832,1,0,0:0:0:0:
109,192,244832,1,0,0:0:0:0:
475,192,244832,1,0,0:0:0:0:
182,192,244975,1,0,0:0:0:0:
402,192,244975,128,0,245118:0:0:0:0:
36,192,245118,1,0,0:0:0:0:
475,192,245118,1,0,0:0:0:0:
256,192,245118,1,0,0:0:0:0:
182,192,245261,1,0,0:0:0:0:
329,192,245261,128,0,245404:0:0:0:0:
256,192,245404,1,0,0:0:0:0:
402,192,245404,1,0,0:0:0:0:
475,192,245404,128,0,245547:0:0:0:0:
109,192,245404,1,0,0:0:0:0:
329,192,245547,1,0,0:0:0:0:
109,192,245690,1,0,0:0:0:0:
402,192,245690,1,0,0:0:0:0:
36,192,245690,128,0,245832:0:0:0:0:
256,192,245690,1,0,0:0:0:0:
475,192,245832,1,0,0:0:0:0:
256,192,245975,1,0,0:0:0:0:
402,192,245975,1,0,0:0:0:0:
36,192,245975,128,0,246118:0:0:0:0:
182,192,245975,1,0,0:0:0:0:
109,192,246118,1,0,0:0:0:0:
256,192,246261,1,0,0:0:0:0:
475,192,246261,1,0,0:0:0:0:
36,192,246261,128,0,246404:0:0:0:0:
329,192,246261,1,0,0:0:0:0:
402,192,246404,1,0,0:0:0:0:
182,192,246404,128,0,246547:0:0:0:0:
329,192,246547,1,0,0:0:0:0:
475,192,246547,1,0,0:0:0:0:
36,192,246547,128,0,246690:0:0:0:0:
109,192,246547,1,0,0:0:0:0:
256,192,246690,1,0,0:0:0:0:
182,192,246690,128,0,246832:0:0:0:0:
36,192,246832,1,0,0:0:0:0:
475,192,246832,1,0,0:0:0:0:
402,192,246832,128,0,246975:0:0:0:0:
109,192,246832,1,0,0:0:0:0:
182,192,246975,1,0,0:0:0:0:
329,192,246975,128,0,247118:0:0:0:0:
475,192,247118,1,0,0:0:0:0:
36,192,247118,1,0,0:0:0:0:
256,192,247118,1,0,0:0:0:0:
402,192,247261,1,0,0:0:0:0:
109,192,247261,128,0,247404:0:0:0:0:
475,192,247404,1,0,0:0:0:0:
36,192,247404,1,0,0:0:0:0:
182,192,247404,128,0,247547:0:0:0:0:
329,192,247404,1,0,0:0:0:0:
36,192,247547,1,0,0:0:0:0:
402,192,247547,1,0,0:0:0:0:
256,192,247547,128,0,247690:0:0:0:0:
109,192,247690,1,0,0:0:0:0:
36,192,247690,1,0,0:0:0:0:
329,192,247690,1,0,0:0:0:0:
182,192,247690,1,0,0:0:0:0:
256,192,247832,1,0,0:0:0:0:
402,192,247832,128,0,247975:0:0:0:0:
182,192,247975,128,0,249118:0:0:0:0:
109,192,247975,128,0,249118:0:0:0:0:
475,192,247975,1,0,0:0:0:0:
36,192,247975,128,0,249118:0:0:0:0:
329,192,247975,1,0,0:0:0:0:
402,192,249118,128,0,249213:0:0:0:0:
329,192,249166,128,0,249261:0:0:0:0:
475,192,249213,128,0,249309:0:0:0:0:
182,192,249261,128,0,249356:0:0:0:0:
256,192,249309,128,0,249404:0:0:0:0:
329,192,249356,128,0,249451:0:0:0:0:
402,192,249404,128,0,249499:0:0:0:0:
