osu file format v14

[General]
AudioFilename: audio.mp3
AudioLeadIn: 0
PreviewTime: 44130
Countdown: 0
SampleSet: None
StackLeniency: 0.7
Mode: 3
LetterboxInBreaks: 0
SpecialStyle: 0
WidescreenStoryboard: 0

[Editor]
DistanceSpacing: 1
BeatDivisor: 4
GridSize: 8
TimelineZoom: 1.5

[Metadata]
Title:Ryo Dai Hata
TitleUnicode:大漁旗
Artist:t+pazolite
ArtistUnicode:t+pazolite
Creator:Julie
Version:Insane Fish Dance
Source:
Tags:冬弦響フルコース Binzokomegane Girls Union 瓶底眼鏡女子同盟 おいしい料理が、デキました♡ Delicious Food
BeatmapID:1517914
BeatmapSetID:718695

[Difficulty]
HPDrainRate:8
CircleSize:4
OverallDifficulty:8
ApproachRate:5
SliderMultiplier:1.4
SliderTickRate:1

[Events]
//Background and Video events
0,0,"Fishy BG.png",0,0
//Break Periods
//Storyboard Layer 0 (Background)
//Storyboard Layer 1 (Fail)
//Storyboard Layer 2 (Pass)
//Storyboard Layer 3 (Foreground)
//Storyboard Sound Samples

[TimingPoints]
1005.29854029952,468.75,4,1,0,40,1,0
45536,-200,4,1,0,40,0,0
45888,-66.6666666666667,4,1,0,40,0,0
46005,-1000,4,1,0,40,0,1
46063,-52.6315789473684,4,1,0,40,0,1
46122,-100,4,1,0,40,0,1
46474,-1000,4,1,0,40,0,1
46532,-52.6315789473684,4,1,0,40,0,1
46591,-100,4,1,0,40,0,1
46942,-1000,4,1,0,40,0,1
47001,-52.6315789473684,4,1,0,40,0,1
47059,-100,4,1,0,40,0,1
47411,-1000,4,1,0,40,0,1
47470,-52.6315789473684,4,1,0,40,0,1
47528,-100,4,1,0,40,0,1
47880,-1000,4,1,0,40,0,1
47938,-52.6315789473684,4,1,0,40,0,1
47997,-100,4,1,0,40,0,1
48349,-1000,4,1,0,40,0,1
48407,-52.6315789473684,4,1,0,40,0,1
48466,-100,4,1,0,40,0,1
48934,-1000,4,1,0,40,0,1
48993,-52.6315789473684,4,1,0,40,0,1
49052,-100,4,1,0,40,0,1
49169,-1000,4,1,0,40,0,1
49227,-52.6315789473684,4,1,0,40,0,1
49286,-100,4,1,0,40,0,1
49520,-1000,4,1,0,40,0,1
49579,-52.6315789473684,4,1,0,40,0,1
49638,-100,4,1,0,40,0,1
49755,-1000,4,1,0,40,0,1
49813,-52.6315789473684,4,1,0,40,0,1
49872,-100,4,1,0,40,0,1
50224,-1000,4,1,0,40,0,1
50282,-52.6315789473684,4,1,0,40,0,1
50341,-100,4,1,0,40,0,1
50692,-1000,4,1,0,40,0,1
50751,-52.6315789473684,4,1,0,40,0,1
50809,-100,4,1,0,40,0,1
51161,-1000,4,1,0,40,0,1
51220,-52.6315789473684,4,1,0,40,0,1
51278,-100,4,1,0,40,0,1
51630,-1000,4,1,0,40,0,1
51688,-52.6315789473684,4,1,0,40,0,1
51747,-100,4,1,0,40,0,1
52099,-1000,4,1,0,40,0,1
52157,-52.6315789473684,4,1,0,40,0,1
52216,-100,4,1,0,40,0,1
52684,-1000,4,1,0,40,0,1
52743,-52.6315789473684,4,1,0,40,0,1
52802,-100,4,1,0,40,0,1
52919,-1000,4,1,0,40,0,1
52977,-52.6315789473684,4,1,0,40,0,1
53036,-100,4,1,0,40,0,1
53270,-1000,4,1,0,40,0,1
53329,-52.6315789473684,4,1,0,40,0,1
53388,-100,4,1,0,40,0,1
53505,-1000,4,1,0,40,0,1
53563,-52.6315789473684,4,1,0,40,0,1
53622,-100,4,1,0,40,0,1
53974,-1000,4,1,0,40,0,1
54032,-52.6315789473684,4,1,0,40,0,1
54091,-100,4,1,0,40,0,1
54442,-1000,4,1,0,40,0,1
54501,-52.6315789473684,4,1,0,40,0,1
54559,-100,4,1,0,40,0,1
54911,-1000,4,1,0,40,0,1
54970,-52.6315789473684,4,1,0,40,0,1
55028,-100,4,1,0,40,0,1
55380,-1000,4,1,0,40,0,1
55438,-52.6315789473684,4,1,0,40,0,1
55497,-100,4,1,0,40,0,1
55849,-1000,4,1,0,40,0,1
55907,-52.6315789473684,4,1,0,40,0,1
55966,-100,4,1,0,40,0,1
56434,-1000,4,1,0,40,0,1
56493,-52.6315789473684,4,1,0,40,0,1
56552,-100,4,1,0,40,0,1
56669,-1000,4,1,0,40,0,1
56727,-52.6315789473684,4,1,0,40,0,1
56786,-100,4,1,0,40,0,1
57020,-1000,4,1,0,40,0,1
57079,-52.6315789473684,4,1,0,40,0,1
57138,-100,4,1,0,40,0,1
57255,-1000,4,1,0,40,0,1
57313,-52.6315789473684,4,1,0,40,0,1
57372,-100,4,1,0,40,0,1
57728,-1000,4,1,0,40,0,1
57782,-52.6315789473684,4,1,0,40,0,1
57841,-100,4,1,0,40,0,1
58192,-1000,4,1,0,40,0,1
58251,-52.6315789473684,4,1,0,40,0,1
58309,-100,4,1,0,40,0,1
58661,-1000,4,1,0,40,0,1
58720,-52.6315789473684,4,1,0,40,0,1
58778,-100,4,1,0,40,0,1
59130,-1000,4,1,0,40,0,1
59188,-52.6315789473684,4,1,0,40,0,1
59247,-100,4,1,0,40,0,1
59599,-1000,4,1,0,40,0,1
59657,-52.6315789473684,4,1,0,40,0,1
59716,-100,4,1,0,40,0,1
60184,-1000,4,1,0,40,0,1
60243,-52.6315789473684,4,1,0,40,0,1
60302,-100,4,1,0,40,0,1
60536,-200,4,1,0,40,0,1
60888,-66.6666666666667,4,1,0,40,0,1
61005,-1000,4,1,0,40,0,1
61063,-52.6315789473684,4,1,0,40,0,1
61122,-100,4,1,0,40,0,1
61474,-1000,4,1,0,40,0,1
61532,-52.6315789473684,4,1,0,40,0,1
61591,-100,4,1,0,40,0,1
61942,-1000,4,1,0,40,0,1
62001,-52.6315789473684,4,1,0,40,0,1
62059,-100,4,1,0,40,0,1
62411,-1000,4,1,0,40,0,1
62470,-52.6315789473684,4,1,0,40,0,1
62528,-100,4,1,0,40,0,1
62880,-1000,4,1,0,40,0,1
62938,-52.6315789473684,4,1,0,40,0,1
62997,-100,4,1,0,40,0,1
63349,-1000,4,1,0,40,0,1
63407,-52.6315789473684,4,1,0,40,0,1
63466,-100,4,1,0,40,0,1
63934,-1000,4,1,0,40,0,1
63993,-52.6315789473684,4,1,0,40,0,1
64052,-100,4,1,0,40,0,1
64169,-1000,4,1,0,40,0,1
64227,-52.6315789473684,4,1,0,40,0,1
64286,-100,4,1,0,40,0,1
64520,-1000,4,1,0,40,0,1
64579,-52.6315789473684,4,1,0,40,0,1
64638,-100,4,1,0,40,0,1
64755,-1000,4,1,0,40,0,1
64813,-52.6315789473684,4,1,0,40,0,1
64872,-100,4,1,0,40,0,1
65224,-1000,4,1,0,40,0,1
65282,-52.6315789473684,4,1,0,40,0,1
65341,-100,4,1,0,40,0,1
65692,-1000,4,1,0,40,0,1
65751,-52.6315789473684,4,1,0,40,0,1
65809,-100,4,1,0,40,0,1
66161,-1000,4,1,0,40,0,1
66220,-52.6315789473684,4,1,0,40,0,1
66278,-100,4,1,0,40,0,1
66630,-1000,4,1,0,40,0,1
66688,-52.6315789473684,4,1,0,40,0,1
66747,-100,4,1,0,40,0,1
67099,-1000,4,1,0,40,0,1
67157,-52.6315789473684,4,1,0,40,0,1
67216,-100,4,1,0,40,0,1
67684,-1000,4,1,0,40,0,1
67743,-52.6315789473684,4,1,0,40,0,1
67802,-100,4,1,0,40,0,1
67919,-1000,4,1,0,40,0,1
67977,-52.6315789473684,4,1,0,40,0,1
68036,-100,4,1,0,40,0,1
68270,-1000,4,1,0,40,0,1
68329,-52.6315789473684,4,1,0,40,0,1
68388,-100,4,1,0,40,0,1
68505,-1000,4,1,0,40,0,1
68563,-52.6315789473684,4,1,0,40,0,1
68622,-100,4,1,0,40,0,1
68974,-1000,4,1,0,40,0,1
69032,-52.6315789473684,4,1,0,40,0,1
69091,-100,4,1,0,40,0,1
69442,-1000,4,1,0,40,0,1
69501,-52.6315789473684,4,1,0,40,0,1
69559,-100,4,1,0,40,0,1
69911,-1000,4,1,0,40,0,1
69970,-52.6315789473684,4,1,0,40,0,1
70028,-100,4,1,0,40,0,1
70380,-1000,4,1,0,40,0,1
70438,-52.6315789473684,4,1,0,40,0,1
70497,-100,4,1,0,40,0,1
70849,-1000,4,1,0,40,0,1
70907,-52.6315789473684,4,1,0,40,0,1
70966,-100,4,1,0,40,0,1
71434,-1000,4,1,0,40,0,1
71493,-52.6315789473684,4,1,0,40,0,1
71552,-100,4,1,0,40,0,1
71669,-1000,4,1,0,40,0,1
71727,-52.6315789473684,4,1,0,40,0,1
71786,-100,4,1,0,40,0,1
72020,-1000,4,1,0,40,0,1
72079,-52.6315789473684,4,1,0,40,0,1
72138,-100,4,1,0,40,0,1
72255,-1000,4,1,0,40,0,1
72313,-52.6315789473684,4,1,0,40,0,1
72372,-100,4,1,0,40,0,1
72724,-1000,4,1,0,40,0,1
72782,-52.6315789473684,4,1,0,40,0,1
72841,-100,4,1,0,40,0,1
73192,-1000,4,1,0,40,0,1
73251,-52.6315789473684,4,1,0,40,0,1
73309,-100,4,1,0,40,0,1
73661,-1000,4,1,0,40,0,1
73720,-52.6315789473684,4,1,0,40,0,1
73778,-100,4,1,0,40,0,1
74130,-100,4,1,0,40,0,0
75536,-200,4,1,0,40,0,0
75888,-66.6666666666667,4,1,0,40,0,0
76005,-100,4,1,0,40,0,1
76239,-66.6666666666667,4,1,0,40,0,1
76356,-100,4,1,0,40,0,1
76825,-66.6666666666667,4,1,0,40,0,1
76942,-100,4,1,0,40,0,1
77177,-66.6666666666667,4,1,0,40,0,1
77294,-100,4,1,0,40,0,1
77880,-1000,4,1,0,40,0,1
77938,-52.6315789473684,4,1,0,40,0,1
77997,-100,4,1,0,40,0,1
78349,-1000,4,1,0,40,0,1
78407,-52.6315789473684,4,1,0,40,0,1
78466,-100,4,1,0,40,0,1
78934,-1000,4,1,0,40,0,1
78993,-52.6315789473684,4,1,0,40,0,1
79052,-100,4,1,0,40,0,1
79169,-1000,4,1,0,40,0,1
79227,-52.6315789473684,4,1,0,40,0,1
79286,-100,4,1,0,40,0,1
79520,-1000,4,1,0,40,0,1
79579,-52.6315789473684,4,1,0,40,0,1
79638,-66.6666666666667,4,1,0,40,0,1
79755,-100,4,1,0,40,0,1
79989,-66.6666666666667,4,1,0,40,0,1
80106,-100,4,1,0,40,0,1
80575,-66.6666666666667,4,1,0,40,0,1
80692,-100,4,1,0,40,0,1
80927,-66.6666666666667,4,1,0,40,0,1
81044,-100,4,1,0,40,0,1
81630,-1000,4,1,0,40,0,1
81688,-52.6315789473684,4,1,0,40,0,1
81747,-100,4,1,0,40,0,1
82099,-1000,4,1,0,40,0,1
82157,-52.6315789473684,4,1,0,40,0,1
82216,-100,4,1,0,40,0,1
82684,-1000,4,1,0,40,0,1
82743,-52.6315789473684,4,1,0,40,0,1
82802,-100,4,1,0,40,0,1
82919,-1000,4,1,0,40,0,1
82977,-52.6315789473684,4,1,0,40,0,1
83036,-100,4,1,0,40,0,1
83270,-1000,4,1,0,40,0,1
83329,-52.6315789473684,4,1,0,40,0,1
83388,-66.6666666666667,4,1,0,40,0,1
83505,-100,4,1,0,40,0,1
83739,-66.6666666666667,4,1,0,40,0,1
83856,-100,4,1,0,40,0,1
84325,-66.6666666666667,4,1,0,40,0,1
84442,-100,4,1,0,40,0,1
84677,-66.6666666666667,4,1,0,40,0,1
84794,-100,4,1,0,40,0,1
85380,-1000,4,1,0,40,0,1
85438,-52.6315789473684,4,1,0,40,0,1
85497,-100,4,1,0,40,0,1
85849,-1000,4,1,0,40,0,1
85907,-52.6315789473684,4,1,0,40,0,1
85966,-100,4,1,0,40,0,1
86434,-1000,4,1,0,40,0,1
86493,-52.6315789473684,4,1,0,40,0,1
86552,-100,4,1,0,40,0,1
86669,-1000,4,1,0,40,0,1
86727,-52.6315789473684,4,1,0,40,0,1
86786,-100,4,1,0,40,0,1
87020,-1000,4,1,0,40,0,1
87079,-52.6315789473684,4,1,0,40,0,1
87138,-66.6666666666667,4,1,0,40,0,1
87255,-100,4,1,0,40,0,1
87489,-66.6666666666667,4,1,0,40,0,1
87606,-100,4,1,0,40,0,1
88075,-66.6666666666667,4,1,0,40,0,1
88192,-100,4,1,0,40,0,1
88427,-66.6666666666667,4,1,0,40,0,1
88544,-100,4,1,0,40,0,1
89130,-1000,4,1,0,40,0,1
89188,-52.6315789473684,4,1,0,40,0,1
89247,-100,4,1,0,40,0,1
89599,-1000,4,1,0,40,0,1
89657,-52.6315789473684,4,1,0,40,0,1
89716,-100,4,1,0,40,0,1
90184,-1000,4,1,0,40,0,1
90243,-52.6315789473684,4,1,0,40,0,1
90302,-100,4,1,0,40,0,1
90419,-1000,4,1,0,40,0,1
90477,-52.6315789473684,4,1,0,40,0,1
90536,-200,4,1,0,40,0,1
90888,-66.6666666666667,4,1,0,40,0,1
91005,-100,4,1,0,40,0,1
91239,-66.6666666666667,4,1,0,40,0,1
91356,-100,4,1,0,40,0,1
91825,-66.6666666666667,4,1,0,40,0,1
91942,-100,4,1,0,40,0,1
92177,-66.6666666666667,4,1,0,40,0,1
92294,-100,4,1,0,40,0,1
92880,-1000,4,1,0,40,0,1
92938,-52.6315789473684,4,1,0,40,0,1
92997,-100,4,1,0,40,0,1
93349,-1000,4,1,0,40,0,1
93407,-52.6315789473684,4,1,0,40,0,1
93466,-100,4,1,0,40,0,1
93934,-1000,4,1,0,40,0,1
93993,-52.6315789473684,4,1,0,40,0,1
94052,-100,4,1,0,40,0,1
94169,-1000,4,1,0,40,0,1
94227,-52.6315789473684,4,1,0,40,0,1
94286,-100,4,1,0,40,0,1
94520,-1000,4,1,0,40,0,1
94579,-52.6315789473684,4,1,0,40,0,1
94638,-66.6666666666667,4,1,0,40,0,1
94755,-100,4,1,0,40,0,1
94989,-66.6666666666667,4,1,0,40,0,1
95106,-100,4,1,0,40,0,1
95575,-66.6666666666667,4,1,0,40,0,1
95692,-100,4,1,0,40,0,1
95927,-66.6666666666667,4,1,0,40,0,1
96044,-100,4,1,0,40,0,1
96630,-1000,4,1,0,40,0,1
96688,-52.6315789473684,4,1,0,40,0,1
96747,-100,4,1,0,40,0,1
97099,-1000,4,1,0,40,0,1
97157,-52.6315789473684,4,1,0,40,0,1
97216,-100,4,1,0,40,0,1
97684,-1000,4,1,0,40,0,1
97743,-52.6315789473684,4,1,0,40,0,1
97802,-100,4,1,0,40,0,1
97919,-1000,4,1,0,40,0,1
97977,-52.6315789473684,4,1,0,40,0,1
98036,-100,4,1,0,40,0,1
98270,-1000,4,1,0,40,0,1
98329,-52.6315789473684,4,1,0,40,0,1
98388,-66.6666666666667,4,1,0,40,0,1
98505,-100,4,1,0,40,0,1
98739,-66.6666666666667,4,1,0,40,0,1
98856,-100,4,1,0,40,0,1
99325,-66.6666666666667,4,1,0,40,0,1
99442,-100,4,1,0,40,0,1
99677,-66.6666666666667,4,1,0,40,0,1
99794,-100,4,1,0,40,0,1
100380,-1000,4,1,0,40,0,1
100438,-52.6315789473684,4,1,0,40,0,1
100497,-100,4,1,0,40,0,1
100849,-1000,4,1,0,40,0,1
100907,-52.6315789473684,4,1,0,40,0,1
100966,-100,4,1,0,40,0,1
101434,-1000,4,1,0,40,0,1
101493,-52.6315789473684,4,1,0,40,0,1
101552,-100,4,1,0,40,0,1
101669,-1000,4,1,0,40,0,1
101727,-52.6315789473684,4,1,0,40,0,1
101786,-100,4,1,0,40,0,1
102020,-1000,4,1,0,40,0,1
102079,-52.6315789473684,4,1,0,40,0,1
102138,-66.6666666666667,4,1,0,40,0,1
102255,-100,4,1,0,40,0,1
102489,-66.6666666666667,4,1,0,40,0,1
102606,-100,4,1,0,40,0,1
103075,-66.6666666666667,4,1,0,40,0,1
103192,-100,4,1,0,40,0,1
103427,-66.6666666666667,4,1,0,40,0,1
103544,-100,4,1,0,40,0,1
104130,-100,4,1,0,40,0,0
165536,-200,4,1,0,40,0,0
165888,-66.6666666666667,4,1,0,40,0,0
166005,-1000,4,1,0,40,0,1
166063,-52.6315789473684,4,1,0,40,0,1
166122,-100,4,1,0,40,0,1
166474,-1000,4,1,0,40,0,1
166532,-52.6315789473684,4,1,0,40,0,1
166591,-100,4,1,0,40,0,1
166942,-1000,4,1,0,40,0,1
167001,-52.6315789473684,4,1,0,40,0,1
167059,-100,4,1,0,40,0,1
167411,-1000,4,1,0,40,0,1
167470,-52.6315789473684,4,1,0,40,0,1
167528,-100,4,1,0,40,0,1
167880,-1000,4,1,0,40,0,1
167938,-52.6315789473684,4,1,0,40,0,1
167997,-100,4,1,0,40,0,1
168349,-1000,4,1,0,40,0,1
168407,-52.6315789473684,4,1,0,40,0,1
168466,-100,4,1,0,40,0,1
168934,-1000,4,1,0,40,0,1
168993,-52.6315789473684,4,1,0,40,0,1
169052,-100,4,1,0,40,0,1
169169,-1000,4,1,0,40,0,1
169227,-52.6315789473684,4,1,0,40,0,1
169286,-100,4,1,0,40,0,1
169520,-1000,4,1,0,40,0,1
169579,-52.6315789473684,4,1,0,40,0,1
169638,-100,4,1,0,40,0,1
169755,-1000,4,1,0,40,0,1
169813,-52.6315789473684,4,1,0,40,0,1
169872,-100,4,1,0,40,0,1
170224,-1000,4,1,0,40,0,1
170282,-52.6315789473684,4,1,0,40,0,1
170341,-100,4,1,0,40,0,1
170692,-1000,4,1,0,40,0,1
170751,-52.6315789473684,4,1,0,40,0,1
170809,-100,4,1,0,40,0,1
171161,-1000,4,1,0,40,0,1
171220,-52.6315789473684,4,1,0,40,0,1
171278,-100,4,1,0,40,0,1
171630,-1000,4,1,0,40,0,1
171688,-52.6315789473684,4,1,0,40,0,1
171747,-100,4,1,0,40,0,1
172099,-1000,4,1,0,40,0,1
172157,-52.6315789473684,4,1,0,40,0,1
172216,-100,4,1,0,40,0,1
172684,-1000,4,1,0,40,0,1
172743,-52.6315789473684,4,1,0,40,0,1
172802,-100,4,1,0,40,0,1
172919,-1000,4,1,0,40,0,1
172977,-52.6315789473684,4,1,0,40,0,1
173036,-100,4,1,0,40,0,1
173270,-1000,4,1,0,40,0,1
173329,-52.6315789473684,4,1,0,40,0,1
173388,-100,4,1,0,40,0,1
173505,-1000,4,1,0,40,0,1
173563,-52.6315789473684,4,1,0,40,0,1
173622,-100,4,1,0,40,0,1
173974,-1000,4,1,0,40,0,1
174032,-52.6315789473684,4,1,0,40,0,1
174091,-100,4,1,0,40,0,1
174442,-1000,4,1,0,40,0,1
174501,-52.6315789473684,4,1,0,40,0,1
174559,-100,4,1,0,40,0,1
174911,-1000,4,1,0,40,0,1
174970,-52.6315789473684,4,1,0,40,0,1
175028,-100,4,1,0,40,0,1
175380,-1000,4,1,0,40,0,1
175438,-52.6315789473684,4,1,0,40,0,1
175497,-100,4,1,0,40,0,1
175849,-1000,4,1,0,40,0,1
175907,-52.6315789473684,4,1,0,40,0,1
175966,-100,4,1,0,40,0,1
176434,-1000,4,1,0,40,0,1
176493,-52.6315789473684,4,1,0,40,0,1
176552,-100,4,1,0,40,0,1
176669,-1000,4,1,0,40,0,1
176727,-52.6315789473684,4,1,0,40,0,1
176786,-100,4,1,0,40,0,1
177020,-1000,4,1,0,40,0,1
177079,-52.6315789473684,4,1,0,40,0,1
177138,-100,4,1,0,40,0,1
177255,-1000,4,1,0,40,0,1
177313,-52.6315789473684,4,1,0,40,0,1
177372,-100,4,1,0,40,0,1
177728,-1000,4,1,0,40,0,1
177782,-52.6315789473684,4,1,0,40,0,1
177841,-100,4,1,0,40,0,1
178192,-1000,4,1,0,40,0,1
178251,-52.6315789473684,4,1,0,40,0,1
178309,-100,4,1,0,40,0,1
178661,-1000,4,1,0,40,0,1
178720,-52.6315789473684,4,1,0,40,0,1
178778,-100,4,1,0,40,0,1
179130,-1000,4,1,0,40,0,1
179188,-52.6315789473684,4,1,0,40,0,1
179247,-100,4,1,0,40,0,1
179599,-1000,4,1,0,40,0,1
179657,-52.6315789473684,4,1,0,40,0,1
179716,-100,4,1,0,40,0,1
180184,-1000,4,1,0,40,0,1
180243,-52.6315789473684,4,1,0,40,0,1
180302,-100,4,1,0,40,0,1
180536,-200,4,1,0,40,0,1
180888,-66.6666666666667,4,1,0,40,0,1
181005,-1000,4,1,0,40,0,1
181063,-52.6315789473684,4,1,0,40,0,1
181122,-100,4,1,0,40,0,1
181474,-1000,4,1,0,40,0,1
181532,-52.6315789473684,4,1,0,40,0,1
181591,-100,4,1,0,40,0,1
181942,-1000,4,1,0,40,0,1
182001,-52.6315789473684,4,1,0,40,0,1
182059,-100,4,1,0,40,0,1
182411,-1000,4,1,0,40,0,1
182470,-52.6315789473684,4,1,0,40,0,1
182528,-100,4,1,0,40,0,1
182880,-1000,4,1,0,40,0,1
182938,-52.6315789473684,4,1,0,40,0,1
182997,-100,4,1,0,40,0,1
183349,-1000,4,1,0,40,0,1
183407,-52.6315789473684,4,1,0,40,0,1
183466,-100,4,1,0,40,0,1
183934,-1000,4,1,0,40,0,1
183993,-52.6315789473684,4,1,0,40,0,1
184052,-100,4,1,0,40,0,1
184169,-1000,4,1,0,40,0,1
184227,-52.6315789473684,4,1,0,40,0,1
184286,-100,4,1,0,40,0,1
184520,-1000,4,1,0,40,0,1
184579,-52.6315789473684,4,1,0,40,0,1
184638,-100,4,1,0,40,0,1
184755,-1000,4,1,0,40,0,1
184813,-52.6315789473684,4,1,0,40,0,1
184872,-100,4,1,0,40,0,1
185224,-1000,4,1,0,40,0,1
185282,-52.6315789473684,4,1,0,40,0,1
185341,-100,4,1,0,40,0,1
185692,-1000,4,1,0,40,0,1
185751,-52.6315789473684,4,1,0,40,0,1
185809,-100,4,1,0,40,0,1
186161,-1000,4,1,0,40,0,1
186220,-52.6315789473684,4,1,0,40,0,1
186278,-100,4,1,0,40,0,1
186630,-1000,4,1,0,40,0,1
186688,-52.6315789473684,4,1,0,40,0,1
186747,-100,4,1,0,40,0,1
187099,-1000,4,1,0,40,0,1
187157,-52.6315789473684,4,1,0,40,0,1
187216,-100,4,1,0,40,0,1
187684,-1000,4,1,0,40,0,1
187743,-52.6315789473684,4,1,0,40,0,1
187802,-100,4,1,0,40,0,1
187919,-1000,4,1,0,40,0,1
187977,-52.6315789473684,4,1,0,40,0,1
188036,-100,4,1,0,40,0,1
188270,-1000,4,1,0,40,0,1
188329,-52.6315789473684,4,1,0,40,0,1
188388,-100,4,1,0,40,0,1
188505,-1000,4,1,0,40,0,1
188563,-52.6315789473684,4,1,0,40,0,1
188622,-100,4,1,0,40,0,1
188974,-1000,4,1,0,40,0,1
189032,-52.6315789473684,4,1,0,40,0,1
189091,-100,4,1,0,40,0,1
189442,-1000,4,1,0,40,0,1
189501,-52.6315789473684,4,1,0,40,0,1
189559,-100,4,1,0,40,0,1
189911,-1000,4,1,0,40,0,1
189970,-52.6315789473684,4,1,0,40,0,1
190028,-100,4,1,0,40,0,1
190380,-1000,4,1,0,40,0,1
190438,-52.6315789473684,4,1,0,40,0,1
190497,-100,4,1,0,40,0,1
190849,-1000,4,1,0,40,0,1
190907,-52.6315789473684,4,1,0,40,0,1
190966,-100,4,1,0,40,0,1
191434,-1000,4,1,0,40,0,1
191493,-52.6315789473684,4,1,0,40,0,1
191552,-100,4,1,0,40,0,1
191669,-1000,4,1,0,40,0,1
191727,-52.6315789473684,4,1,0,40,0,1
191786,-100,4,1,0,40,0,1
192020,-1000,4,1,0,40,0,1
192079,-52.6315789473684,4,1,0,40,0,1
192138,-100,4,1,0,40,0,1
192255,-1000,4,1,0,40,0,1
192313,-52.6315789473684,4,1,0,40,0,1
192372,-100,4,1,0,40,0,1
192724,-1000,4,1,0,40,0,1
192782,-52.6315789473684,4,1,0,40,0,1
192841,-100,4,1,0,40,0,1
193192,-1000,4,1,0,40,0,1
193251,-52.6315789473684,4,1,0,40,0,1
193309,-100,4,1,0,40,0,1
193661,-1000,4,1,0,40,0,1
193720,-52.6315789473684,4,1,0,40,0,1
193778,-100,4,1,0,40,0,1
194130,-100,4,1,0,40,0,0
195536,-200,4,1,0,40,0,0
195888,-66.6666666666667,4,1,0,40,0,0
196005,-100,4,1,0,40,0,1
224130,-100,4,1,0,40,0,0
226708,-50,4,1,0,40,0,0
226864,-200,4,1,0,40,0,0
226942,-100,4,1,0,40,0,0
227645,-50,4,1,0,40,0,0
227801,-200,4,1,0,40,0,0
227879,-100,4,1,0,40,0,0
228583,-50,4,1,0,40,0,0
228739,-200,4,1,0,40,0,0
228817,-100,4,1,0,40,0,0
229520,-50,4,1,0,40,0,0
229676,-200,4,1,0,40,0,0
229754,-100,4,1,0,40,0,0
230458,-50,4,1,0,40,0,0
230614,-200,4,1,0,40,0,0
230692,-100,4,1,0,40,0,0
231395,-50,4,1,0,40,0,0
231551,-200,4,1,0,40,0,0
231629,-100,4,1,0,40,0,0
232333,-50,4,1,0,40,0,0
232489,-200,4,1,0,40,0,0
232567,-100,4,1,0,40,0,0
233270,-50,4,1,0,40,0,0
233426,-200,4,1,0,40,0,0
233504,-100,4,1,0,40,0,0
234208,-50,4,1,0,40,0,0
234364,-200,4,1,0,40,0,0
234442,-100,4,1,0,40,0,0
235145,-50,4,1,0,40,0,0
235301,-200,4,1,0,40,0,0
235379,-100,4,1,0,40,0,0
236083,-50,4,1,0,40,0,0
236239,-200,4,1,0,40,0,0
236317,-100,4,1,0,40,0,0
237020,-50,4,1,0,40,0,0
237176,-200,4,1,0,40,0,0
237254,-100,4,1,0,40,0,0
237958,-50,4,1,0,40,0,0
238114,-200,4,1,0,40,0,0
238192,-100,4,1,0,40,0,0
238895,-50,4,1,0,40,0,0
239051,-200,4,1,0,40,0,0
239129,-100,4,1,0,40,0,0
239833,-50,4,1,0,40,0,0
239989,-200,4,1,0,40,0,0
240067,-100,4,1,0,40,0,0
240770,-50,4,1,0,40,0,0
240926,-200,4,1,0,40,0,0
241004,-100,4,1,0,40,0,0
255770,-50,4,1,0,40,0,0

[HitObjects]
448,192,1005,128,0,2880:0:0:0:0:
64,192,1239,1,0,0:0:0:0:
192,192,1356,1,0,0:0:0:0:
320,192,1474,1,0,0:0:0:0:
320,192,1708,1,0,0:0:0:0:
192,192,2059,1,0,0:0:0:0:
64,192,2177,1,0,0:0:0:0:
64,192,2411,1,0,0:0:0:0:
320,192,2645,1,0,0:0:0:0:
192,192,2763,1,0,0:0:0:0:
320,192,2880,1,0,0:0:0:0:
64,192,2880,128,0,4755:0:0:0:0:
320,192,3231,1,0,0:0:0:0:
192,192,3349,1,0,0:0:0:0:
320,192,3583,1,0,0:0:0:0:
192,192,3934,1,0,0:0:0:0:
448,192,4052,1,0,0:0:0:0:
320,192,4286,1,0,0:0:0:0:
192,192,4520,1,0,0:0:0:0:
448,192,4755,1,0,0:0:0:0:
320,192,4755,128,0,6630:0:0:0:0:
448,192,5106,1,0,0:0:0:0:
64,192,5224,1,0,0:0:0:0:
448,192,5458,1,0,0:0:0:0:
192,192,5809,1,0,0:0:0:0:
64,192,5927,1,0,0:0:0:0:
448,192,6161,1,0,0:0:0:0:
64,192,6395,1,0,0:0:0:0:
192,192,6513,1,0,0:0:0:0:
448,192,6630,128,0,8505:0:0:0:0:
64,192,6630,1,0,0:0:0:0:
192,192,6981,1,0,0:0:0:0:
64,192,7099,1,0,0:0:0:0:
320,192,7333,1,0,0:0:0:0:
64,192,7684,1,0,0:0:0:0:
192,192,7802,1,0,0:0:0:0:
320,192,8036,1,0,0:0:0:0:
192,192,8270,1,0,0:0:0:0:
320,192,8505,1,0,0:0:0:0:
64,192,8856,1,0,0:0:0:0:
192,192,8974,1,0,0:0:0:0:
448,192,9208,1,0,0:0:0:0:
320,192,9559,1,0,0:0:0:0:
64,192,9677,1,0,0:0:0:0:
192,192,9911,1,0,0:0:0:0:
320,192,10145,1,0,0:0:0:0:
448,192,10263,1,0,0:0:0:0:
64,192,10380,1,0,0:0:0:0:
192,192,10731,1,0,0:0:0:0:
64,192,10849,1,0,0:0:0:0:
320,192,11083,1,0,0:0:0:0:
192,192,11434,1,0,0:0:0:0:
320,192,11552,1,0,0:0:0:0:
448,192,11786,1,0,0:0:0:0:
64,192,12020,1,0,0:0:0:0:
320,192,12255,1,0,0:0:0:0:
320,192,12606,1,0,0:0:0:0:
192,192,12724,1,0,0:0:0:0:
320,192,12958,1,0,0:0:0:0:
64,192,13309,1,0,0:0:0:0:
192,192,13427,1,0,0:0:0:0:
448,192,13661,1,0,0:0:0:0:
320,192,13895,1,0,0:0:0:0:
192,192,14013,1,0,0:0:0:0:
448,192,14130,1,0,0:0:0:0:
320,192,14481,1,0,0:0:0:0:
64,192,14599,1,0,0:0:0:0:
192,192,14833,1,0,0:0:0:0:
448,192,15184,1,0,0:0:0:0:
64,192,15302,1,0,0:0:0:0:
192,192,15536,1,0,0:0:0:0:
320,192,15770,1,0,0:0:0:0:
64,192,16005,1,0,0:0:0:0:
192,192,16005,1,0,0:0:0:0:
448,192,16005,128,0,16474:0:0:0:0:
192,192,16474,128,0,16708:0:0:0:0:
64,192,16474,1,0,0:0:0:0:
320,192,16708,128,0,16942:0:0:0:0:
448,192,16942,128,0,17411:0:0:0:0:
64,192,16942,1,0,0:0:0:0:
64,192,17411,128,0,17645:0:0:0:0:
320,192,17411,1,0,0:0:0:0:
192,192,17645,128,0,17880:0:0:0:0:
320,192,17880,128,0,18349:0:0:0:0:
448,192,17880,1,0,0:0:0:0:
64,192,18349,1,0,0:0:0:0:
448,192,18349,128,0,18583:0:0:0:0:
192,192,18583,128,0,18817:0:0:0:0:
448,192,18817,128,0,19755:0:0:0:0:
320,192,18817,1,0,0:0:0:0:
64,192,19052,1,0,0:0:0:0:
64,192,19169,1,0,0:0:0:0:
320,192,19286,1,0,0:0:0:0:
64,192,19286,1,0,0:0:0:0:
64,192,19520,1,0,0:0:0:0:
320,192,19755,1,0,0:0:0:0:
64,192,19755,1,0,0:0:0:0:
192,192,19755,128,0,20224:0:0:0:0:
448,192,20224,128,0,20458:0:0:0:0:
64,192,20224,1,0,0:0:0:0:
320,192,20458,128,0,20692:0:0:0:0:
64,192,20692,128,0,21161:0:0:0:0:
192,192,20692,1,0,0:0:0:0:
192,192,21161,128,0,21395:0:0:0:0:
320,192,21161,1,0,0:0:0:0:
448,192,21395,128,0,21630:0:0:0:0:
320,192,21630,128,0,22099:0:0:0:0:
64,192,21630,1,0,0:0:0:0:
64,192,22099,128,0,22333:0:0:0:0:
448,192,22099,1,0,0:0:0:0:
192,192,22333,128,0,22567:0:0:0:0:
320,192,22567,128,0,23505:0:0:0:0:
448,192,22567,1,0,0:0:0:0:
64,192,22802,1,0,0:0:0:0:
192,192,22880,1,0,0:0:0:0:
64,192,22958,1,0,0:0:0:0:
192,192,23036,1,0,0:0:0:0:
192,192,23270,1,0,0:0:0:0:
64,192,23505,1,0,0:0:0:0:
192,192,23505,1,0,0:0:0:0:
448,192,23505,128,0,23974:0:0:0:0:
192,192,23974,128,0,24208:0:0:0:0:
64,192,23974,1,0,0:0:0:0:
320,192,24208,128,0,24442:0:0:0:0:
448,192,24442,128,0,24911:0:0:0:0:
64,192,24442,1,0,0:0:0:0:
64,192,24911,128,0,25145:0:0:0:0:
320,192,24911,1,0,0:0:0:0:
192,192,25145,128,0,25380:0:0:0:0:
320,192,25380,128,0,25849:0:0:0:0:
448,192,25380,1,0,0:0:0:0:
64,192,25849,1,0,0:0:0:0:
448,192,25849,128,0,26083:0:0:0:0:
192,192,26083,128,0,26317:0:0:0:0:
448,192,26317,128,0,27255:0:0:0:0:
320,192,26317,1,0,0:0:0:0:
64,192,26552,1,0,0:0:0:0:
64,192,26669,1,0,0:0:0:0:
320,192,26786,1,0,0:0:0:0:
64,192,26786,1,0,0:0:0:0:
64,192,27020,1,0,0:0:0:0:
192,192,27255,128,0,27724:0:0:0:0:
64,192,27255,1,0,0:0:0:0:
320,192,27255,1,0,0:0:0:0:
448,192,27724,128,0,27958:0:0:0:0:
64,192,27724,1,0,0:0:0:0:
320,192,27958,128,0,28192:0:0:0:0:
64,192,28192,128,0,28661:0:0:0:0:
192,192,28192,1,0,0:0:0:0:
192,192,28661,128,0,28895:0:0:0:0:
448,192,28661,1,0,0:0:0:0:
320,192,28895,128,0,29130:0:0:0:0:
448,192,29130,128,0,29599:0:0:0:0:
64,192,29130,1,0,0:0:0:0:
64,192,29599,128,0,29833:0:0:0:0:
320,192,29599,1,0,0:0:0:0:
192,192,29833,128,0,30067:0:0:0:0:
320,192,30067,128,0,31005:0:0:0:0:
448,192,30067,1,0,0:0:0:0:
64,192,30302,1,0,0:0:0:0:
192,192,30380,1,0,0:0:0:0:
64,192,30458,1,0,0:0:0:0:
192,192,30536,1,0,0:0:0:0:
192,192,30770,1,0,0:0:0:0:
64,192,31005,1,0,0:0:0:0:
192,192,31005,1,0,0:0:0:0:
448,192,31005,1,0,0:0:0:0:
192,192,31239,1,0,0:0:0:0:
64,192,31474,1,0,0:0:0:0:
448,192,31474,1,0,0:0:0:0:
320,192,31708,1,0,0:0:0:0:
64,192,31825,1,0,0:0:0:0:
448,192,31942,1,0,0:0:0:0:
192,192,31942,1,0,0:0:0:0:
320,192,32177,1,0,0:0:0:0:
64,192,32411,1,0,0:0:0:0:
448,192,32411,1,0,0:0:0:0:
320,192,32645,1,0,0:0:0:0:
192,192,32763,1,0,0:0:0:0:
320,192,32880,1,0,0:0:0:0:
64,192,32880,1,0,0:0:0:0:
192,192,33114,1,0,0:0:0:0:
448,192,33349,1,0,0:0:0:0:
64,192,33349,1,0,0:0:0:0:
320,192,33583,1,0,0:0:0:0:
64,192,33700,1,0,0:0:0:0:
448,192,33817,1,0,0:0:0:0:
192,192,33817,1,0,0:0:0:0:
320,192,34052,1,0,0:0:0:0:
320,192,34169,1,0,0:0:0:0:
320,192,34286,1,0,0:0:0:0:
64,192,34286,1,0,0:0:0:0:
320,192,34520,1,0,0:0:0:0:
64,192,34755,1,0,0:0:0:0:
192,192,34755,1,0,0:0:0:0:
320,192,34989,1,0,0:0:0:0:
64,192,35224,1,0,0:0:0:0:
448,192,35224,1,0,0:0:0:0:
192,192,35458,1,0,0:0:0:0:
64,192,35575,1,0,0:0:0:0:
320,192,35692,1,0,0:0:0:0:
448,192,35692,1,0,0:0:0:0:
192,192,35927,1,0,0:0:0:0:
64,192,36161,1,0,0:0:0:0:
448,192,36161,1,0,0:0:0:0:
192,192,36395,1,0,0:0:0:0:
320,192,36513,1,0,0:0:0:0:
448,192,36630,1,0,0:0:0:0:
192,192,36630,1,0,0:0:0:0:
64,192,36747,1,0,0:0:0:0:
320,192,36864,1,0,0:0:0:0:
192,192,36981,1,0,0:0:0:0:
448,192,37099,1,0,0:0:0:0:
64,192,37099,1,0,0:0:0:0:
320,192,37216,1,0,0:0:0:0:
192,192,37333,1,0,0:0:0:0:
448,192,37450,1,0,0:0:0:0:
64,192,37567,1,0,0:0:0:0:
320,192,37567,1,0,0:0:0:0:
448,192,37684,1,0,0:0:0:0:
64,192,37802,1,0,0:0:0:0:
192,192,37880,1,0,0:0:0:0:
64,192,37958,1,0,0:0:0:0:
192,192,38036,1,0,0:0:0:0:
448,192,38036,1,0,0:0:0:0:
320,192,38153,1,0,0:0:0:0:
64,192,38270,1,0,0:0:0:0:
192,192,38388,1,0,0:0:0:0:
64,192,38505,1,0,0:0:0:0:
448,192,38505,1,0,0:0:0:0:
192,192,38583,1,0,0:0:0:0:
320,192,38661,1,0,0:0:0:0:
448,192,38739,1,0,0:0:0:0:
192,192,38817,1,0,0:0:0:0:
64,192,38895,1,0,0:0:0:0:
320,192,38974,1,0,0:0:0:0:
448,192,38974,1,0,0:0:0:0:
192,192,39052,1,0,0:0:0:0:
320,192,39130,1,0,0:0:0:0:
448,192,39208,5,0,0:0:0:0:
64,192,39286,1,0,0:0:0:0:
320,192,39364,1,0,0:0:0:0:
192,192,39442,1,0,0:0:0:0:
64,192,39442,1,0,0:0:0:0:
448,192,39520,1,0,0:0:0:0:
320,192,39599,1,0,0:0:0:0:
192,192,39677,1,0,0:0:0:0:
448,192,39755,1,0,0:0:0:0:
64,192,39833,1,0,0:0:0:0:
320,192,39911,1,0,0:0:0:0:
192,192,39911,1,0,0:0:0:0:
448,192,39989,1,0,0:0:0:0:
64,192,40067,1,0,0:0:0:0:
320,192,40145,1,0,0:0:0:0:
192,192,40224,1,0,0:0:0:0:
320,192,40302,1,0,0:0:0:0:
448,192,40380,1,0,0:0:0:0:
64,192,40380,1,0,0:0:0:0:
192,192,40458,1,0,0:0:0:0:
320,192,40536,1,0,0:0:0:0:
448,192,40614,1,0,0:0:0:0:
192,192,40692,1,0,0:0:0:0:
320,192,40770,1,0,0:0:0:0:
192,192,40849,1,0,0:0:0:0:
64,192,40849,1,0,0:0:0:0:
448,192,40927,1,0,0:0:0:0:
320,192,41005,1,0,0:0:0:0:
64,192,41083,1,0,0:0:0:0:
448,192,41161,1,0,0:0:0:0:
192,192,41239,1,0,0:0:0:0:
320,192,41317,1,0,0:0:0:0:
448,192,41317,1,0,0:0:0:0:
64,192,41395,1,0,0:0:0:0:
192,192,41474,1,0,0:0:0:0:
448,192,41552,1,0,0:0:0:0:
448,192,41669,1,0,0:0:0:0:
448,192,41786,1,0,0:0:0:0:
64,192,41786,1,0,0:0:0:0:
192,192,41864,1,0,0:0:0:0:
320,192,41942,1,0,0:0:0:0:
448,192,42020,1,0,0:0:0:0:
64,192,42099,1,0,0:0:0:0:
192,192,42177,1,0,0:0:0:0:
320,192,42255,1,0,0:0:0:0:
448,192,42255,1,0,0:0:0:0:
192,192,42333,1,0,0:0:0:0:
64,192,42333,1,0,0:0:0:0:
448,192,42411,1,0,0:0:0:0:
320,192,42411,1,0,0:0:0:0:
192,192,42489,1,0,0:0:0:0:
64,192,42489,1,0,0:0:0:0:
448,192,42567,1,0,0:0:0:0:
320,192,42567,1,0,0:0:0:0:
192,192,42645,1,0,0:0:0:0:
64,192,42645,1,0,0:0:0:0:
320,192,42724,1,0,0:0:0:0:
448,192,42724,1,0,0:0:0:0:
192,192,42802,1,0,0:0:0:0:
64,192,42802,1,0,0:0:0:0:
320,192,42880,1,0,0:0:0:0:
448,192,42880,1,0,0:0:0:0:
192,192,42958,1,0,0:0:0:0:
64,192,42958,1,0,0:0:0:0:
320,192,43036,1,0,0:0:0:0:
448,192,43036,1,0,0:0:0:0:
192,192,43114,1,0,0:0:0:0:
64,192,43114,1,0,0:0:0:0:
320,192,43192,1,0,0:0:0:0:
448,192,43192,1,0,0:0:0:0:
192,192,43270,1,0,0:0:0:0:
64,192,43270,1,0,0:0:0:0:
320,192,43349,1,0,0:0:0:0:
448,192,43349,1,0,0:0:0:0:
192,192,43427,1,0,0:0:0:0:
64,192,43427,1,0,0:0:0:0:
320,192,43505,1,0,0:0:0:0:
448,192,43505,1,0,0:0:0:0:
192,192,43583,1,0,0:0:0:0:
64,192,43583,1,0,0:0:0:0:
320,192,43661,1,0,0:0:0:0:
448,192,43661,1,0,0:0:0:0:
192,192,43739,1,0,0:0:0:0:
64,192,43739,1,0,0:0:0:0:
320,192,43817,1,0,0:0:0:0:
448,192,43817,1,0,0:0:0:0:
192,192,43895,1,0,0:0:0:0:
64,192,43895,1,0,0:0:0:0:
320,192,44013,1,0,0:0:0:0:
64,192,45536,128,0,45888:0:0:0:0:
320,192,45536,128,0,45888:0:0:0:0:
448,192,45536,128,0,45888:0:0:0:0:
448,192,46005,1,0,0:0:0:0:
192,192,46005,1,0,0:0:0:0:
320,192,46005,1,0,0:0:0:0:
64,192,46005,1,0,0:0:0:0:
192,192,46474,1,0,0:0:0:0:
320,192,46474,1,0,0:0:0:0:
448,192,46474,1,0,0:0:0:0:
64,192,46708,1,0,0:0:0:0:
64,192,46825,1,0,0:0:0:0:
192,192,46942,1,0,0:0:0:0:
320,192,46942,1,0,0:0:0:0:
448,192,46942,1,0,0:0:0:0:
320,192,47294,1,0,0:0:0:0:
448,192,47294,1,0,0:0:0:0:
64,192,47411,1,0,0:0:0:0:
192,192,47411,1,0,0:0:0:0:
448,192,47645,1,0,0:0:0:0:
448,192,47763,1,0,0:0:0:0:
64,192,47880,1,0,0:0:0:0:
192,192,47880,1,0,0:0:0:0:
320,192,47880,1,0,0:0:0:0:
64,192,48349,1,0,0:0:0:0:
192,192,48349,1,0,0:0:0:0:
320,192,48349,1,0,0:0:0:0:
448,192,48583,1,0,0:0:0:0:
448,192,48700,1,0,0:0:0:0:
320,192,48817,1,0,0:0:0:0:
192,192,48817,1,0,0:0:0:0:
64,192,48817,1,0,0:0:0:0:
448,192,48934,1,0,0:0:0:0:
64,192,48934,1,0,0:0:0:0:
320,192,49169,1,0,0:0:0:0:
448,192,49169,1,0,0:0:0:0:
64,192,49286,1,0,0:0:0:0:
192,192,49286,1,0,0:0:0:0:
192,192,49520,1,0,0:0:0:0:
320,192,49520,1,0,0:0:0:0:
64,192,49755,1,0,0:0:0:0:
320,192,49755,1,0,0:0:0:0:
448,192,49755,1,0,0:0:0:0:
320,192,50224,1,0,0:0:0:0:
448,192,50224,1,0,0:0:0:0:
64,192,50224,1,0,0:0:0:0:
192,192,50458,1,0,0:0:0:0:
192,192,50575,1,0,0:0:0:0:
64,192,50692,1,0,0:0:0:0:
320,192,50692,1,0,0:0:0:0:
448,192,50692,1,0,0:0:0:0:
320,192,51044,1,0,0:0:0:0:
448,192,51044,1,0,0:0:0:0:
64,192,51161,1,0,0:0:0:0:
192,192,51161,1,0,0:0:0:0:
320,192,51395,1,0,0:0:0:0:
320,192,51513,1,0,0:0:0:0:
192,192,51630,1,0,0:0:0:0:
64,192,51630,1,0,0:0:0:0:
448,192,51630,1,0,0:0:0:0:
192,192,52099,1,0,0:0:0:0:
64,192,52099,1,0,0:0:0:0:
448,192,52099,1,0,0:0:0:0:
320,192,52333,1,0,0:0:0:0:
320,192,52450,1,0,0:0:0:0:
192,192,52567,1,0,0:0:0:0:
64,192,52567,1,0,0:0:0:0:
448,192,52567,1,0,0:0:0:0:
320,192,52684,1,0,0:0:0:0:
64,192,52684,1,0,0:0:0:0:
192,192,52919,1,0,0:0:0:0:
448,192,52919,1,0,0:0:0:0:
320,192,53036,1,0,0:0:0:0:
64,192,53036,1,0,0:0:0:0:
192,192,53270,1,0,0:0:0:0:
64,192,53270,1,0,0:0:0:0:
192,192,53505,1,0,0:0:0:0:
320,192,53505,1,0,0:0:0:0:
448,192,53505,1,0,0:0:0:0:
192,192,53974,1,0,0:0:0:0:
320,192,53974,1,0,0:0:0:0:
448,192,53974,1,0,0:0:0:0:
64,192,54208,1,0,0:0:0:0:
64,192,54325,1,0,0:0:0:0:
192,192,54442,1,0,0:0:0:0:
320,192,54442,1,0,0:0:0:0:
448,192,54442,1,0,0:0:0:0:
320,192,54794,1,0,0:0:0:0:
448,192,54794,1,0,0:0:0:0:
192,192,54911,1,0,0:0:0:0:
64,192,54911,1,0,0:0:0:0:
448,192,55145,1,0,0:0:0:0:
448,192,55263,1,0,0:0:0:0:
320,192,55380,1,0,0:0:0:0:
192,192,55380,1,0,0:0:0:0:
64,192,55380,1,0,0:0:0:0:
320,192,55849,1,0,0:0:0:0:
192,192,55849,1,0,0:0:0:0:
64,192,55849,1,0,0:0:0:0:
448,192,56083,1,0,0:0:0:0:
448,192,56200,1,0,0:0:0:0:
192,192,56317,1,0,0:0:0:0:
64,192,56317,1,0,0:0:0:0:
320,192,56317,1,0,0:0:0:0:
192,192,56434,1,0,0:0:0:0:
448,192,56434,1,0,0:0:0:0:
320,192,56669,1,0,0:0:0:0:
448,192,56669,1,0,0:0:0:0:
64,192,56786,1,0,0:0:0:0:
192,192,56786,1,0,0:0:0:0:
192,192,57020,1,0,0:0:0:0:
320,192,57020,1,0,0:0:0:0:
64,192,57255,1,0,0:0:0:0:
320,192,57255,1,0,0:0:0:0:
448,192,57255,1,0,0:0:0:0:
64,192,57724,1,0,0:0:0:0:
320,192,57724,1,0,0:0:0:0:
448,192,57724,1,0,0:0:0:0:
192,192,57958,1,0,0:0:0:0:
192,192,58075,1,0,0:0:0:0:
64,192,58192,1,0,0:0:0:0:
320,192,58192,1,0,0:0:0:0:
448,192,58192,1,0,0:0:0:0:
64,192,58544,1,0,0:0:0:0:
320,192,58544,1,0,0:0:0:0:
192,192,58661,1,0,0:0:0:0:
448,192,58661,1,0,0:0:0:0:
320,192,58895,1,0,0:0:0:0:
320,192,59013,1,0,0:0:0:0:
192,192,59130,1,0,0:0:0:0:
64,192,59130,1,0,0:0:0:0:
448,192,59130,1,0,0:0:0:0:
192,192,59599,1,0,0:0:0:0:
64,192,59599,1,0,0:0:0:0:
448,192,59599,1,0,0:0:0:0:
320,192,59833,1,0,0:0:0:0:
320,192,59950,1,0,0:0:0:0:
192,192,60067,1,0,0:0:0:0:
64,192,60067,1,0,0:0:0:0:
448,192,60067,1,0,0:0:0:0:
64,192,60184,1,0,0:0:0:0:
448,192,60184,1,0,0:0:0:0:
192,192,60419,1,0,0:0:0:0:
320,192,60419,1,0,0:0:0:0:
64,192,60536,128,0,60888:0:0:0:0:
320,192,60536,128,0,60888:0:0:0:0:
448,192,60536,128,0,60888:0:0:0:0:
320,192,61005,1,0,0:0:0:0:
64,192,61005,1,0,0:0:0:0:
192,192,61005,1,0,0:0:0:0:
448,192,61005,1,0,0:0:0:0:
192,192,61239,1,0,0:0:0:0:
64,192,61356,1,0,0:0:0:0:
192,192,61474,1,0,0:0:0:0:
320,192,61474,1,0,0:0:0:0:
448,192,61474,1,0,0:0:0:0:
64,192,61708,1,0,0:0:0:0:
320,192,61708,1,0,0:0:0:0:
64,192,61825,1,0,0:0:0:0:
192,192,61942,1,0,0:0:0:0:
320,192,61942,1,0,0:0:0:0:
448,192,61942,1,0,0:0:0:0:
192,192,62177,1,0,0:0:0:0:
448,192,62294,1,0,0:0:0:0:
320,192,62294,1,0,0:0:0:0:
192,192,62411,1,0,0:0:0:0:
64,192,62411,1,0,0:0:0:0:
448,192,62645,1,0,0:0:0:0:
320,192,62645,1,0,0:0:0:0:
448,192,62763,1,0,0:0:0:0:
320,192,62880,1,0,0:0:0:0:
192,192,62880,1,0,0:0:0:0:
64,192,62880,1,0,0:0:0:0:
192,192,63114,1,0,0:0:0:0:
448,192,63231,1,0,0:0:0:0:
320,192,63349,1,0,0:0:0:0:
192,192,63349,1,0,0:0:0:0:
64,192,63349,1,0,0:0:0:0:
448,192,63583,1,0,0:0:0:0:
448,192,63700,1,0,0:0:0:0:
320,192,63817,1,0,0:0:0:0:
192,192,63817,1,0,0:0:0:0:
64,192,63817,1,0,0:0:0:0:
192,192,63934,1,0,0:0:0:0:
448,192,63934,1,0,0:0:0:0:
192,192,64169,1,0,0:0:0:0:
64,192,64169,1,0,0:0:0:0:
320,192,64286,1,0,0:0:0:0:
448,192,64286,1,0,0:0:0:0:
192,192,64520,1,0,0:0:0:0:
320,192,64520,1,0,0:0:0:0:
64,192,64755,1,0,0:0:0:0:
320,192,64755,1,0,0:0:0:0:
448,192,64755,1,0,0:0:0:0:
64,192,64989,1,0,0:0:0:0:
192,192,65106,1,0,0:0:0:0:
320,192,65224,1,0,0:0:0:0:
448,192,65224,1,0,0:0:0:0:
64,192,65224,1,0,0:0:0:0:
192,192,65458,1,0,0:0:0:0:
448,192,65458,1,0,0:0:0:0:
192,192,65575,1,0,0:0:0:0:
64,192,65692,1,0,0:0:0:0:
320,192,65692,1,0,0:0:0:0:
448,192,65692,1,0,0:0:0:0:
192,192,65927,1,0,0:0:0:0:
320,192,66044,1,0,0:0:0:0:
448,192,66044,1,0,0:0:0:0:
192,192,66161,1,0,0:0:0:0:
64,192,66161,1,0,0:0:0:0:
320,192,66395,1,0,0:0:0:0:
448,192,66395,1,0,0:0:0:0:
320,192,66513,1,0,0:0:0:0:
192,192,66630,1,0,0:0:0:0:
64,192,66630,1,0,0:0:0:0:
448,192,66630,1,0,0:0:0:0:
64,192,66864,1,0,0:0:0:0:
320,192,66981,1,0,0:0:0:0:
64,192,67099,1,0,0:0:0:0:
192,192,67099,1,0,0:0:0:0:
448,192,67099,1,0,0:0:0:0:
320,192,67333,1,0,0:0:0:0:
192,192,67333,1,0,0:0:0:0:
320,192,67450,1,0,0:0:0:0:
448,192,67567,1,0,0:0:0:0:
192,192,67567,1,0,0:0:0:0:
64,192,67567,1,0,0:0:0:0:
320,192,67684,1,0,0:0:0:0:
64,192,67684,1,0,0:0:0:0:
320,192,67919,1,0,0:0:0:0:
448,192,67919,1,0,0:0:0:0:
192,192,68036,1,0,0:0:0:0:
64,192,68036,1,0,0:0:0:0:
320,192,68270,1,0,0:0:0:0:
64,192,68270,1,0,0:0:0:0:
192,192,68505,1,0,0:0:0:0:
448,192,68505,1,0,0:0:0:0:
320,192,68505,1,0,0:0:0:0:
192,192,68739,1,0,0:0:0:0:
64,192,68856,1,0,0:0:0:0:
192,192,68974,1,0,0:0:0:0:
320,192,68974,1,0,0:0:0:0:
448,192,68974,1,0,0:0:0:0:
64,192,69208,1,0,0:0:0:0:
320,192,69208,1,0,0:0:0:0:
64,192,69325,1,0,0:0:0:0:
192,192,69442,1,0,0:0:0:0:
320,192,69442,1,0,0:0:0:0:
448,192,69442,1,0,0:0:0:0:
192,192,69677,1,0,0:0:0:0:
448,192,69794,1,0,0:0:0:0:
320,192,69794,1,0,0:0:0:0:
192,192,69911,1,0,0:0:0:0:
64,192,69911,1,0,0:0:0:0:
448,192,70145,1,0,0:0:0:0:
320,192,70145,1,0,0:0:0:0:
448,192,70263,1,0,0:0:0:0:
320,192,70380,1,0,0:0:0:0:
192,192,70380,1,0,0:0:0:0:
64,192,70380,1,0,0:0:0:0:
192,192,70614,1,0,0:0:0:0:
448,192,70731,1,0,0:0:0:0:
320,192,70849,1,0,0:0:0:0:
192,192,70849,1,0,0:0:0:0:
64,192,70849,1,0,0:0:0:0:
448,192,71083,1,0,0:0:0:0:
448,192,71200,1,0,0:0:0:0:
320,192,71317,1,0,0:0:0:0:
192,192,71317,1,0,0:0:0:0:
64,192,71317,1,0,0:0:0:0:
192,192,71434,1,0,0:0:0:0:
448,192,71434,1,0,0:0:0:0:
192,192,71669,1,0,0:0:0:0:
64,192,71669,1,0,0:0:0:0:
320,192,71786,1,0,0:0:0:0:
448,192,71786,1,0,0:0:0:0:
192,192,72020,1,0,0:0:0:0:
320,192,72020,1,0,0:0:0:0:
64,192,72255,1,0,0:0:0:0:
320,192,72255,1,0,0:0:0:0:
448,192,72255,1,0,0:0:0:0:
64,192,72489,1,0,0:0:0:0:
192,192,72606,1,0,0:0:0:0:
320,192,72724,1,0,0:0:0:0:
448,192,72724,1,0,0:0:0:0:
64,192,72724,1,0,0:0:0:0:
192,192,72958,1,0,0:0:0:0:
448,192,72958,1,0,0:0:0:0:
192,192,73075,1,0,0:0:0:0:
64,192,73192,1,0,0:0:0:0:
320,192,73192,1,0,0:0:0:0:
448,192,73192,1,0,0:0:0:0:
192,192,73427,1,0,0:0:0:0:
320,192,73544,1,0,0:0:0:0:
448,192,73544,1,0,0:0:0:0:
192,192,73661,1,0,0:0:0:0:
64,192,73661,1,0,0:0:0:0:
320,192,73895,1,0,0:0:0:0:
448,192,73895,1,0,0:0:0:0:
320,192,74013,1,0,0:0:0:0:
64,192,75536,128,0,75888:0:0:0:0:
192,192,75536,128,0,75888:0:0:0:0:
448,192,75536,128,0,75888:0:0:0:0:
64,192,76005,1,0,0:0:0:0:
192,192,76005,1,0,0:0:0:0:
320,192,76005,1,0,0:0:0:0:
448,192,76005,1,0,0:0:0:0:
320,192,76356,1,0,0:0:0:0:
448,192,76356,1,0,0:0:0:0:
192,192,76474,1,0,0:0:0:0:
64,192,76474,1,0,0:0:0:0:
64,192,76708,1,0,0:0:0:0:
192,192,76942,1,0,0:0:0:0:
320,192,76942,1,0,0:0:0:0:
448,192,76942,1,0,0:0:0:0:
320,192,77294,1,0,0:0:0:0:
448,192,77294,1,0,0:0:0:0:
192,192,77411,1,0,0:0:0:0:
64,192,77411,1,0,0:0:0:0:
320,192,77645,1,0,0:0:0:0:
320,192,77763,1,0,0:0:0:0:
192,192,77880,1,0,0:0:0:0:
64,192,77880,1,0,0:0:0:0:
448,192,77880,1,0,0:0:0:0:
192,192,78114,1,0,0:0:0:0:
320,192,78231,1,0,0:0:0:0:
192,192,78349,1,0,0:0:0:0:
64,192,78349,1,0,0:0:0:0:
448,192,78349,1,0,0:0:0:0:
320,192,78583,1,0,0:0:0:0:
320,192,78700,1,0,0:0:0:0:
192,192,78817,1,0,0:0:0:0:
64,192,78817,1,0,0:0:0:0:
448,192,78817,1,0,0:0:0:0:
64,192,78934,1,0,0:0:0:0:
320,192,78934,1,0,0:0:0:0:
320,192,79169,1,0,0:0:0:0:
448,192,79169,1,0,0:0:0:0:
192,192,79286,1,0,0:0:0:0:
64,192,79286,1,0,0:0:0:0:
192,192,79520,1,0,0:0:0:0:
320,192,79520,1,0,0:0:0:0:
320,192,79755,1,0,0:0:0:0:
448,192,79755,1,0,0:0:0:0:
64,192,79755,1,0,0:0:0:0:
320,192,80106,1,0,0:0:0:0:
64,192,80106,1,0,0:0:0:0:
192,192,80224,1,0,0:0:0:0:
448,192,80224,1,0,0:0:0:0:
192,192,80458,1,0,0:0:0:0:
320,192,80692,1,0,0:0:0:0:
448,192,80692,1,0,0:0:0:0:
64,192,80692,1,0,0:0:0:0:
320,192,81044,1,0,0:0:0:0:
64,192,81044,1,0,0:0:0:0:
192,192,81161,1,0,0:0:0:0:
448,192,81161,1,0,0:0:0:0:
448,192,81395,1,0,0:0:0:0:
448,192,81513,1,0,0:0:0:0:
320,192,81630,1,0,0:0:0:0:
192,192,81630,1,0,0:0:0:0:
64,192,81630,1,0,0:0:0:0:
64,192,81864,1,0,0:0:0:0:
448,192,81981,1,0,0:0:0:0:
320,192,82099,1,0,0:0:0:0:
192,192,82099,1,0,0:0:0:0:
64,192,82099,1,0,0:0:0:0:
448,192,82333,1,0,0:0:0:0:
448,192,82450,1,0,0:0:0:0:
192,192,82567,1,0,0:0:0:0:
64,192,82567,1,0,0:0:0:0:
320,192,82567,1,0,0:0:0:0:
448,192,82684,1,0,0:0:0:0:
192,192,82684,1,0,0:0:0:0:
64,192,82802,1,0,0:0:0:0:
448,192,82919,1,0,0:0:0:0:
320,192,82919,1,0,0:0:0:0:
64,192,83036,1,0,0:0:0:0:
192,192,83270,1,0,0:0:0:0:
320,192,83270,1,0,0:0:0:0:
64,192,83270,1,0,0:0:0:0:
192,192,83505,1,0,0:0:0:0:
320,192,83505,1,0,0:0:0:0:
448,192,83505,1,0,0:0:0:0:
320,192,83856,1,0,0:0:0:0:
448,192,83856,1,0,0:0:0:0:
192,192,83974,1,0,0:0:0:0:
64,192,83974,1,0,0:0:0:0:
64,192,84208,1,0,0:0:0:0:
192,192,84442,1,0,0:0:0:0:
320,192,84442,1,0,0:0:0:0:
448,192,84442,1,0,0:0:0:0:
320,192,84794,1,0,0:0:0:0:
448,192,84794,1,0,0:0:0:0:
192,192,84911,1,0,0:0:0:0:
64,192,84911,1,0,0:0:0:0:
320,192,85145,1,0,0:0:0:0:
320,192,85263,1,0,0:0:0:0:
192,192,85380,1,0,0:0:0:0:
64,192,85380,1,0,0:0:0:0:
448,192,85380,1,0,0:0:0:0:
192,192,85614,1,0,0:0:0:0:
320,192,85731,1,0,0:0:0:0:
192,192,85849,1,0,0:0:0:0:
64,192,85849,1,0,0:0:0:0:
448,192,85849,1,0,0:0:0:0:
320,192,86083,1,0,0:0:0:0:
320,192,86200,1,0,0:0:0:0:
192,192,86317,1,0,0:0:0:0:
64,192,86317,1,0,0:0:0:0:
448,192,86317,1,0,0:0:0:0:
64,192,86434,1,0,0:0:0:0:
320,192,86434,1,0,0:0:0:0:
320,192,86669,1,0,0:0:0:0:
448,192,86669,1,0,0:0:0:0:
192,192,86786,1,0,0:0:0:0:
64,192,86786,1,0,0:0:0:0:
192,192,87020,1,0,0:0:0:0:
320,192,87020,1,0,0:0:0:0:
320,192,87255,1,0,0:0:0:0:
448,192,87255,1,0,0:0:0:0:
64,192,87255,1,0,0:0:0:0:
320,192,87606,1,0,0:0:0:0:
64,192,87606,1,0,0:0:0:0:
192,192,87724,1,0,0:0:0:0:
448,192,87724,1,0,0:0:0:0:
192,192,87958,1,0,0:0:0:0:
320,192,88192,1,0,0:0:0:0:
448,192,88192,1,0,0:0:0:0:
64,192,88192,1,0,0:0:0:0:
320,192,88544,1,0,0:0:0:0:
64,192,88544,1,0,0:0:0:0:
192,192,88661,1,0,0:0:0:0:
448,192,88661,1,0,0:0:0:0:
448,192,88895,1,0,0:0:0:0:
448,192,89013,1,0,0:0:0:0:
320,192,89130,1,0,0:0:0:0:
192,192,89130,1,0,0:0:0:0:
64,192,89130,1,0,0:0:0:0:
64,192,89364,1,0,0:0:0:0:
448,192,89481,1,0,0:0:0:0:
320,192,89599,1,0,0:0:0:0:
192,192,89599,1,0,0:0:0:0:
64,192,89599,1,0,0:0:0:0:
448,192,89833,1,0,0:0:0:0:
448,192,89950,1,0,0:0:0:0:
192,192,90067,1,0,0:0:0:0:
64,192,90067,1,0,0:0:0:0:
320,192,90067,1,0,0:0:0:0:
448,192,90184,1,0,0:0:0:0:
192,192,90184,1,0,0:0:0:0:
448,192,90419,1,0,0:0:0:0:
320,192,90419,1,0,0:0:0:0:
64,192,90536,128,0,90888:0:0:0:0:
448,192,90536,128,0,90888:0:0:0:0:
192,192,90536,128,0,90888:0:0:0:0:
64,192,91005,1,0,0:0:0:0:
192,192,91005,1,0,0:0:0:0:
320,192,91005,1,0,0:0:0:0:
448,192,91005,1,0,0:0:0:0:
320,192,91356,1,0,0:0:0:0:
448,192,91356,1,0,0:0:0:0:
192,192,91474,1,0,0:0:0:0:
64,192,91474,1,0,0:0:0:0:
64,192,91708,1,0,0:0:0:0:
192,192,91942,1,0,0:0:0:0:
320,192,91942,1,0,0:0:0:0:
448,192,91942,1,0,0:0:0:0:
320,192,92294,1,0,0:0:0:0:
448,192,92294,1,0,0:0:0:0:
192,192,92411,1,0,0:0:0:0:
64,192,92411,1,0,0:0:0:0:
320,192,92645,1,0,0:0:0:0:
320,192,92763,1,0,0:0:0:0:
192,192,92880,1,0,0:0:0:0:
64,192,92880,1,0,0:0:0:0:
448,192,92880,1,0,0:0:0:0:
192,192,93114,1,0,0:0:0:0:
320,192,93231,1,0,0:0:0:0:
192,192,93349,1,0,0:0:0:0:
64,192,93349,1,0,0:0:0:0:
448,192,93349,1,0,0:0:0:0:
320,192,93583,1,0,0:0:0:0:
320,192,93700,1,0,0:0:0:0:
192,192,93817,1,0,0:0:0:0:
64,192,93817,1,0,0:0:0:0:
448,192,93817,1,0,0:0:0:0:
64,192,93934,1,0,0:0:0:0:
320,192,93934,1,0,0:0:0:0:
320,192,94169,1,0,0:0:0:0:
448,192,94169,1,0,0:0:0:0:
192,192,94286,1,0,0:0:0:0:
64,192,94286,1,0,0:0:0:0:
192,192,94520,1,0,0:0:0:0:
320,192,94520,1,0,0:0:0:0:
320,192,94755,1,0,0:0:0:0:
448,192,94755,1,0,0:0:0:0:
64,192,94755,1,0,0:0:0:0:
320,192,95106,1,0,0:0:0:0:
64,192,95106,1,0,0:0:0:0:
192,192,95224,1,0,0:0:0:0:
448,192,95224,1,0,0:0:0:0:
192,192,95458,1,0,0:0:0:0:
320,192,95692,1,0,0:0:0:0:
448,192,95692,1,0,0:0:0:0:
64,192,95692,1,0,0:0:0:0:
320,192,96044,1,0,0:0:0:0:
64,192,96044,1,0,0:0:0:0:
192,192,96161,1,0,0:0:0:0:
448,192,96161,1,0,0:0:0:0:
448,192,96395,1,0,0:0:0:0:
448,192,96513,1,0,0:0:0:0:
320,192,96630,1,0,0:0:0:0:
192,192,96630,1,0,0:0:0:0:
64,192,96630,1,0,0:0:0:0:
64,192,96864,1,0,0:0:0:0:
448,192,96981,1,0,0:0:0:0:
320,192,97099,1,0,0:0:0:0:
192,192,97099,1,0,0:0:0:0:
64,192,97099,1,0,0:0:0:0:
448,192,97333,1,0,0:0:0:0:
448,192,97450,1,0,0:0:0:0:
192,192,97567,1,0,0:0:0:0:
64,192,97567,1,0,0:0:0:0:
320,192,97567,1,0,0:0:0:0:
448,192,97684,1,0,0:0:0:0:
192,192,97684,1,0,0:0:0:0:
64,192,97802,1,0,0:0:0:0:
448,192,97919,1,0,0:0:0:0:
320,192,97919,1,0,0:0:0:0:
64,192,98036,1,0,0:0:0:0:
192,192,98270,1,0,0:0:0:0:
320,192,98270,1,0,0:0:0:0:
64,192,98270,1,0,0:0:0:0:
192,192,98505,1,0,0:0:0:0:
320,192,98505,1,0,0:0:0:0:
448,192,98505,1,0,0:0:0:0:
320,192,98856,1,0,0:0:0:0:
448,192,98856,1,0,0:0:0:0:
192,192,98974,1,0,0:0:0:0:
64,192,98974,1,0,0:0:0:0:
64,192,99208,1,0,0:0:0:0:
192,192,99442,1,0,0:0:0:0:
320,192,99442,1,0,0:0:0:0:
448,192,99442,1,0,0:0:0:0:
320,192,99794,1,0,0:0:0:0:
448,192,99794,1,0,0:0:0:0:
192,192,99911,1,0,0:0:0:0:
64,192,99911,1,0,0:0:0:0:
320,192,100145,1,0,0:0:0:0:
320,192,100263,1,0,0:0:0:0:
192,192,100380,1,0,0:0:0:0:
64,192,100380,1,0,0:0:0:0:
448,192,100380,1,0,0:0:0:0:
192,192,100614,1,0,0:0:0:0:
320,192,100731,1,0,0:0:0:0:
192,192,100849,1,0,0:0:0:0:
64,192,100849,1,0,0:0:0:0:
448,192,100849,1,0,0:0:0:0:
320,192,101083,1,0,0:0:0:0:
320,192,101200,1,0,0:0:0:0:
192,192,101317,1,0,0:0:0:0:
64,192,101317,1,0,0:0:0:0:
448,192,101317,1,0,0:0:0:0:
64,192,101434,1,0,0:0:0:0:
320,192,101434,1,0,0:0:0:0:
320,192,101669,1,0,0:0:0:0:
448,192,101669,1,0,0:0:0:0:
192,192,101786,1,0,0:0:0:0:
64,192,101786,1,0,0:0:0:0:
192,192,102020,1,0,0:0:0:0:
320,192,102020,1,0,0:0:0:0:
320,192,102255,1,0,0:0:0:0:
448,192,102255,1,0,0:0:0:0:
64,192,102255,1,0,0:0:0:0:
320,192,102606,1,0,0:0:0:0:
64,192,102606,1,0,0:0:0:0:
192,192,102724,1,0,0:0:0:0:
448,192,102724,1,0,0:0:0:0:
192,192,102958,1,0,0:0:0:0:
320,192,103192,1,0,0:0:0:0:
448,192,103192,1,0,0:0:0:0:
64,192,103192,1,0,0:0:0:0:
320,192,103544,1,0,0:0:0:0:
64,192,103544,1,0,0:0:0:0:
192,192,103661,1,0,0:0:0:0:
448,192,103661,1,0,0:0:0:0:
320,192,103895,1,0,0:0:0:0:
320,192,104013,1,0,0:0:0:0:
64,192,105536,128,0,105888:0:0:0:0:
192,192,105536,128,0,105888:0:0:0:0:
448,192,106005,128,0,113505:0:0:0:0:
320,192,106005,128,0,106474:0:0:0:0:
320,192,106630,128,0,106942:0:0:0:0:
192,192,107099,128,0,107411:0:0:0:0:
192,192,107567,128,0,107880:0:0:0:0:
64,192,108036,128,0,108349:0:0:0:0:
64,192,108505,128,0,108817:0:0:0:0:
320,192,108974,128,0,109286:0:0:0:0:
320,192,109442,128,0,109755:0:0:0:0:
192,192,109911,128,0,110224:0:0:0:0:
192,192,110380,128,0,110692:0:0:0:0:
64,192,110849,128,0,111161:0:0:0:0:
64,192,111317,128,0,111630:0:0:0:0:
192,192,111786,128,0,112099:0:0:0:0:
192,192,112255,128,0,112567:0:0:0:0:
320,192,112724,128,0,113036:0:0:0:0:
320,192,113192,128,0,113505:0:0:0:0:
64,192,113661,128,0,115380:0:0:0:0:
320,192,113661,128,0,113974:0:0:0:0:
320,192,114130,128,0,114442:0:0:0:0:
192,192,114599,128,0,114911:0:0:0:0:
192,192,115067,128,0,115380:0:0:0:0:
320,192,115536,128,0,117255:0:0:0:0:
448,192,115536,128,0,115849:0:0:0:0:
448,192,116005,128,0,116317:0:0:0:0:
64,192,116474,128,0,116786:0:0:0:0:
64,192,116942,128,0,117255:0:0:0:0:
192,192,117411,128,0,119130:0:0:0:0:
448,192,117411,128,0,117724:0:0:0:0:
448,192,117880,128,0,118192:0:0:0:0:
320,192,118349,128,0,118661:0:0:0:0:
320,192,118817,128,0,119130:0:0:0:0:
448,192,119286,128,0,121005:0:0:0:0:
64,192,119286,128,0,119599:0:0:0:0:
64,192,119755,128,0,120067:0:0:0:0:
192,192,120224,128,0,120536:0:0:0:0:
192,192,120692,128,0,121005:0:0:0:0:
320,192,121005,128,0,121474:0:0:0:0:
64,192,121005,128,0,121942:0:0:0:0:
192,192,121474,128,0,121708:0:0:0:0:
320,192,121708,128,0,121942:0:0:0:0:
448,192,121942,128,0,122411:0:0:0:0:
192,192,121942,128,0,122880:0:0:0:0:
64,192,122411,128,0,122645:0:0:0:0:
320,192,122645,128,0,122880:0:0:0:0:
64,192,122880,128,0,123817:0:0:0:0:
448,192,122880,128,0,123349:0:0:0:0:
192,192,123349,128,0,123583:0:0:0:0:
320,192,123583,128,0,123817:0:0:0:0:
192,192,123817,128,0,124755:0:0:0:0:
448,192,123817,128,0,124755:0:0:0:0:
64,192,124755,128,0,125224:0:0:0:0:
320,192,124755,128,0,125692:0:0:0:0:
448,192,125224,128,0,125458:0:0:0:0:
192,192,125458,128,0,125692:0:0:0:0:
64,192,125692,128,0,126161:0:0:0:0:
448,192,125692,128,0,126630:0:0:0:0:
320,192,126161,128,0,126395:0:0:0:0:
192,192,126395,128,0,126630:0:0:0:0:
64,192,126630,128,0,127567:0:0:0:0:
320,192,126630,128,0,127099:0:0:0:0:
192,192,127099,128,0,127333:0:0:0:0:
320,192,127333,128,0,127567:0:0:0:0:
448,192,127567,128,0,128505:0:0:0:0:
192,192,127567,128,0,128505:0:0:0:0:
64,192,128505,128,0,129442:0:0:0:0:
320,192,128505,128,0,128974:0:0:0:0:
192,192,128974,128,0,129208:0:0:0:0:
320,192,129208,128,0,129442:0:0:0:0:
448,192,129442,128,0,129911:0:0:0:0:
192,192,129442,128,0,130380:0:0:0:0:
64,192,129911,128,0,130145:0:0:0:0:
448,192,130145,128,0,130380:0:0:0:0:
320,192,130380,128,0,130849:0:0:0:0:
64,192,130380,128,0,131317:0:0:0:0:
448,192,130849,128,0,131083:0:0:0:0:
192,192,131083,128,0,131317:0:0:0:0:
448,192,131317,128,0,132255:0:0:0:0:
320,192,131317,128,0,132255:0:0:0:0:
192,192,132255,128,0,132724:0:0:0:0:
64,192,132255,128,0,133192:0:0:0:0:
448,192,132724,128,0,132958:0:0:0:0:
320,192,132958,128,0,133192:0:0:0:0:
192,192,133192,128,0,133661:0:0:0:0:
448,192,133192,128,0,134130:0:0:0:0:
64,192,133661,128,0,133895:0:0:0:0:
192,192,133895,128,0,134130:0:0:0:0:
320,192,134130,128,0,134599:0:0:0:0:
64,192,134130,128,0,135067:0:0:0:0:
192,192,134599,128,0,134833:0:0:0:0:
320,192,134833,128,0,135067:0:0:0:0:
448,192,135067,128,0,136005:0:0:0:0:
192,192,135067,128,0,136005:0:0:0:0:
64,192,136005,1,0,0:0:0:0:
320,192,136005,128,0,136356:0:0:0:0:
64,192,136356,1,0,0:0:0:0:
320,192,136474,128,0,136942:0:0:0:0:
192,192,136474,1,0,0:0:0:0:
192,192,136708,1,0,0:0:0:0:
64,192,136942,128,0,137177:0:0:0:0:
448,192,136942,1,0,0:0:0:0:
448,192,137177,128,0,137294:0:0:0:0:
192,192,137294,128,0,137411:0:0:0:0:
64,192,137411,128,0,137645:0:0:0:0:
320,192,137411,1,0,0:0:0:0:
192,192,137645,128,0,137880:0:0:0:0:
448,192,137645,1,0,0:0:0:0:
320,192,137880,128,0,138231:0:0:0:0:
64,192,137880,1,0,0:0:0:0:
448,192,138231,1,0,0:0:0:0:
320,192,138349,128,0,138817:0:0:0:0:
192,192,138349,1,0,0:0:0:0:
192,192,138583,1,0,0:0:0:0:
448,192,138817,1,0,0:0:0:0:
64,192,139052,128,0,139130:0:0:0:0:
192,192,139130,128,0,139208:0:0:0:0:
448,192,139208,128,0,139286:0:0:0:0:
320,192,139286,128,0,139755:0:0:0:0:
64,192,139286,1,0,0:0:0:0:
192,192,139755,128,0,140106:0:0:0:0:
448,192,139755,1,0,0:0:0:0:
64,192,140106,1,0,0:0:0:0:
192,192,140224,128,0,140692:0:0:0:0:
320,192,140224,1,0,0:0:0:0:
320,192,140458,1,0,0:0:0:0:
448,192,140692,128,0,140927:0:0:0:0:
64,192,140692,1,0,0:0:0:0:
64,192,140927,128,0,141044:0:0:0:0:
320,192,141044,128,0,141161:0:0:0:0:
448,192,141161,128,0,141395:0:0:0:0:
192,192,141161,1,0,0:0:0:0:
320,192,141395,128,0,141630:0:0:0:0:
64,192,141395,1,0,0:0:0:0:
192,192,141630,128,0,141981:0:0:0:0:
448,192,141630,1,0,0:0:0:0:
64,192,141981,1,0,0:0:0:0:
192,192,142099,128,0,142567:0:0:0:0:
448,192,142099,1,0,0:0:0:0:
448,192,142333,1,0,0:0:0:0:
320,192,142567,128,0,142802:0:0:0:0:
64,192,142802,128,0,142880:0:0:0:0:
192,192,142880,128,0,142958:0:0:0:0:
320,192,142958,128,0,143036:0:0:0:0:
64,192,143036,1,0,0:0:0:0:
448,192,143036,128,0,143270:0:0:0:0:
64,192,143270,128,0,143505:0:0:0:0:
192,192,143270,1,0,0:0:0:0:
320,192,143505,128,0,143856:0:0:0:0:
448,192,143505,1,0,0:0:0:0:
64,192,143856,1,0,0:0:0:0:
320,192,143974,128,0,144442:0:0:0:0:
192,192,143974,1,0,0:0:0:0:
192,192,144208,1,0,0:0:0:0:
64,192,144442,128,0,144677:0:0:0:0:
448,192,144442,1,0,0:0:0:0:
448,192,144677,128,0,144794:0:0:0:0:
192,192,144794,128,0,144911:0:0:0:0:
64,192,144911,128,0,145145:0:0:0:0:
320,192,144911,1,0,0:0:0:0:
192,192,145145,128,0,145380:0:0:0:0:
448,192,145145,1,0,0:0:0:0:
320,192,145380,128,0,145731:0:0:0:0:
64,192,145380,1,0,0:0:0:0:
448,192,145731,1,0,0:0:0:0:
320,192,145849,128,0,146317:0:0:0:0:
192,192,145849,1,0,0:0:0:0:
192,192,146083,1,0,0:0:0:0:
448,192,146317,1,0,0:0:0:0:
64,192,146552,128,0,146630:0:0:0:0:
192,192,146630,128,0,146708:0:0:0:0:
448,192,146708,128,0,146786:0:0:0:0:
320,192,146786,128,0,147255:0:0:0:0:
64,192,146786,1,0,0:0:0:0:
192,192,147255,128,0,147606:0:0:0:0:
448,192,147255,1,0,0:0:0:0:
64,192,147606,1,0,0:0:0:0:
192,192,147724,128,0,148192:0:0:0:0:
320,192,147724,1,0,0:0:0:0:
320,192,147958,1,0,0:0:0:0:
448,192,148192,128,0,148427:0:0:0:0:
64,192,148192,1,0,0:0:0:0:
64,192,148427,128,0,148544:0:0:0:0:
320,192,148544,128,0,148661:0:0:0:0:
448,192,148661,128,0,148895:0:0:0:0:
192,192,148661,1,0,0:0:0:0:
320,192,148895,128,0,149130:0:0:0:0:
64,192,148895,1,0,0:0:0:0:
192,192,149130,128,0,149481:0:0:0:0:
448,192,149130,1,0,0:0:0:0:
320,192,149481,1,0,0:0:0:0:
192,192,149599,128,0,150067:0:0:0:0:
448,192,149599,1,0,0:0:0:0:
448,192,149833,5,0,0:0:0:0:
320,192,150067,128,0,150302:0:0:0:0:
64,192,150067,1,0,0:0:0:0:
64,192,150302,128,0,150380:0:0:0:0:
192,192,150380,128,0,150458:0:0:0:0:
320,192,150458,128,0,150536:0:0:0:0:
448,192,150536,128,0,150770:0:0:0:0:
64,192,150536,1,0,0:0:0:0:
64,192,150770,128,0,151005:0:0:0:0:
192,192,150770,1,0,0:0:0:0:
192,192,151005,1,0,0:0:0:0:
320,192,151005,1,0,0:0:0:0:
448,192,151005,1,0,0:0:0:0:
64,192,151239,1,0,0:0:0:0:
320,192,151356,1,0,0:0:0:0:
192,192,151474,1,0,0:0:0:0:
448,192,151474,1,0,0:0:0:0:
320,192,151708,1,0,0:0:0:0:
448,192,151825,1,0,0:0:0:0:
64,192,151942,1,0,0:0:0:0:
192,192,151942,1,0,0:0:0:0:
320,192,152177,1,0,0:0:0:0:
64,192,152294,1,0,0:0:0:0:
448,192,152411,1,0,0:0:0:0:
192,192,152411,1,0,0:0:0:0:
320,192,152645,1,0,0:0:0:0:
192,192,152763,1,0,0:0:0:0:
64,192,152880,1,0,0:0:0:0:
448,192,152880,1,0,0:0:0:0:
192,192,153114,1,0,0:0:0:0:
448,192,153231,1,0,0:0:0:0:
320,192,153349,1,0,0:0:0:0:
64,192,153349,1,0,0:0:0:0:
192,192,153583,1,0,0:0:0:0:
64,192,153700,1,0,0:0:0:0:
320,192,153817,1,0,0:0:0:0:
448,192,153817,1,0,0:0:0:0:
192,192,154052,1,0,0:0:0:0:
448,192,154169,1,0,0:0:0:0:
64,192,154286,1,0,0:0:0:0:
320,192,154286,1,0,0:0:0:0:
192,192,154520,1,0,0:0:0:0:
320,192,154638,1,0,0:0:0:0:
448,192,154755,1,0,0:0:0:0:
64,192,154755,1,0,0:0:0:0:
192,192,154872,1,0,0:0:0:0:
64,192,154989,1,0,0:0:0:0:
320,192,155106,1,0,0:0:0:0:
192,192,155224,1,0,0:0:0:0:
448,192,155224,1,0,0:0:0:0:
64,192,155341,1,0,0:0:0:0:
320,192,155458,1,0,0:0:0:0:
448,192,155575,1,0,0:0:0:0:
192,192,155692,1,0,0:0:0:0:
64,192,155692,1,0,0:0:0:0:
320,192,155809,1,0,0:0:0:0:
64,192,155927,1,0,0:0:0:0:
192,192,156044,1,0,0:0:0:0:
320,192,156161,1,0,0:0:0:0:
448,192,156161,1,0,0:0:0:0:
64,192,156278,1,0,0:0:0:0:
448,192,156395,1,0,0:0:0:0:
192,192,156513,1,0,0:0:0:0:
64,192,156630,1,0,0:0:0:0:
320,192,156630,1,0,0:0:0:0:
448,192,156747,1,0,0:0:0:0:
192,192,156864,1,0,0:0:0:0:
64,192,156981,1,0,0:0:0:0:
192,192,157099,1,0,0:0:0:0:
448,192,157099,1,0,0:0:0:0:
320,192,157216,1,0,0:0:0:0:
64,192,157333,1,0,0:0:0:0:
448,192,157450,1,0,0:0:0:0:
192,192,157567,1,0,0:0:0:0:
64,192,157567,1,0,0:0:0:0:
320,192,157684,1,0,0:0:0:0:
448,192,157802,1,0,0:0:0:0:
64,192,157919,1,0,0:0:0:0:
320,192,158036,1,0,0:0:0:0:
448,192,158036,1,0,0:0:0:0:
64,192,158153,1,0,0:0:0:0:
320,192,158270,1,0,0:0:0:0:
192,192,158388,1,0,0:0:0:0:
64,192,158505,1,0,0:0:0:0:
448,192,158505,1,0,0:0:0:0:
192,192,158622,1,0,0:0:0:0:
448,192,158739,1,0,0:0:0:0:
320,192,158856,1,0,0:0:0:0:
192,192,158974,1,0,0:0:0:0:
448,192,158974,1,0,0:0:0:0:
64,192,159091,1,0,0:0:0:0:
320,192,159208,1,0,0:0:0:0:
448,192,159325,1,0,0:0:0:0:
192,192,159442,1,0,0:0:0:0:
64,192,159442,1,0,0:0:0:0:
320,192,159559,1,0,0:0:0:0:
64,192,159677,1,0,0:0:0:0:
192,192,159794,1,0,0:0:0:0:
64,192,159911,1,0,0:0:0:0:
320,192,159911,1,0,0:0:0:0:
448,192,160028,1,0,0:0:0:0:
192,192,160145,1,0,0:0:0:0:
320,192,160263,1,0,0:0:0:0:
448,192,160380,1,0,0:0:0:0:
64,192,160380,1,0,0:0:0:0:
192,192,160458,1,0,0:0:0:0:
320,192,160536,1,0,0:0:0:0:
448,192,160614,1,0,0:0:0:0:
64,192,160692,1,0,0:0:0:0:
192,192,160770,1,0,0:0:0:0:
320,192,160849,1,0,0:0:0:0:
448,192,160849,1,0,0:0:0:0:
64,192,160927,1,0,0:0:0:0:
192,192,161005,1,0,0:0:0:0:
448,192,161083,1,0,0:0:0:0:
320,192,161161,1,0,0:0:0:0:
64,192,161239,1,0,0:0:0:0:
192,192,161317,1,0,0:0:0:0:
448,192,161317,1,0,0:0:0:0:
320,192,161395,1,0,0:0:0:0:
64,192,161474,1,0,0:0:0:0:
192,192,161552,1,0,0:0:0:0:
448,192,161552,1,0,0:0:0:0:
320,192,161630,1,0,0:0:0:0:
192,192,161708,1,0,0:0:0:0:
64,192,161786,1,0,0:0:0:0:
448,192,161786,1,0,0:0:0:0:
320,192,161864,1,0,0:0:0:0:
192,192,161942,1,0,0:0:0:0:
448,192,162020,1,0,0:0:0:0:
64,192,162099,1,0,0:0:0:0:
192,192,162177,1,0,0:0:0:0:
320,192,162255,5,0,0:0:0:0:
448,192,162255,1,0,0:0:0:0:
64,192,162333,1,0,0:0:0:0:
192,192,162333,1,0,0:0:0:0:
448,192,162411,1,0,0:0:0:0:
320,192,162411,1,0,0:0:0:0:
192,192,162489,1,0,0:0:0:0:
64,192,162489,1,0,0:0:0:0:
320,192,162567,1,0,0:0:0:0:
448,192,162567,1,0,0:0:0:0:
192,192,162645,1,0,0:0:0:0:
64,192,162645,1,0,0:0:0:0:
320,192,162724,1,0,0:0:0:0:
448,192,162724,1,0,0:0:0:0:
192,192,162802,1,0,0:0:0:0:
64,192,162802,1,0,0:0:0:0:
320,192,162880,1,0,0:0:0:0:
448,192,162880,1,0,0:0:0:0:
192,192,162958,1,0,0:0:0:0:
64,192,162958,1,0,0:0:0:0:
320,192,163036,1,0,0:0:0:0:
448,192,163036,1,0,0:0:0:0:
192,192,163114,1,0,0:0:0:0:
64,192,163114,1,0,0:0:0:0:
320,192,163192,1,0,0:0:0:0:
448,192,163192,1,0,0:0:0:0:
192,192,163270,1,0,0:0:0:0:
64,192,163270,1,0,0:0:0:0:
320,192,163349,1,0,0:0:0:0:
448,192,163349,1,0,0:0:0:0:
192,192,163427,1,0,0:0:0:0:
64,192,163427,1,0,0:0:0:0:
320,192,163505,1,0,0:0:0:0:
448,192,163505,1,0,0:0:0:0:
192,192,163583,1,0,0:0:0:0:
64,192,163583,1,0,0:0:0:0:
320,192,163661,1,0,0:0:0:0:
448,192,163661,1,0,0:0:0:0:
192,192,163739,1,0,0:0:0:0:
64,192,163739,1,0,0:0:0:0:
320,192,163817,1,0,0:0:0:0:
448,192,163817,1,0,0:0:0:0:
64,192,163895,1,0,0:0:0:0:
192,192,163895,1,0,0:0:0:0:
320,192,164013,1,0,0:0:0:0:
64,192,165536,128,0,165888:0:0:0:0:
320,192,165536,128,0,165888:0:0:0:0:
448,192,165536,128,0,165888:0:0:0:0:
448,192,166005,1,0,0:0:0:0:
192,192,166005,1,0,0:0:0:0:
320,192,166005,1,0,0:0:0:0:
64,192,166005,1,0,0:0:0:0:
192,192,166474,1,0,0:0:0:0:
320,192,166474,1,0,0:0:0:0:
448,192,166474,1,0,0:0:0:0:
64,192,166708,1,0,0:0:0:0:
64,192,166825,1,0,0:0:0:0:
192,192,166942,1,0,0:0:0:0:
320,192,166942,1,0,0:0:0:0:
448,192,166942,1,0,0:0:0:0:
320,192,167294,1,0,0:0:0:0:
448,192,167294,1,0,0:0:0:0:
64,192,167411,1,0,0:0:0:0:
192,192,167411,1,0,0:0:0:0:
448,192,167645,1,0,0:0:0:0:
448,192,167763,1,0,0:0:0:0:
64,192,167880,1,0,0:0:0:0:
192,192,167880,1,0,0:0:0:0:
320,192,167880,1,0,0:0:0:0:
64,192,168349,1,0,0:0:0:0:
192,192,168349,1,0,0:0:0:0:
320,192,168349,1,0,0:0:0:0:
448,192,168583,1,0,0:0:0:0:
448,192,168700,1,0,0:0:0:0:
320,192,168817,1,0,0:0:0:0:
192,192,168817,1,0,0:0:0:0:
64,192,168817,1,0,0:0:0:0:
448,192,168934,1,0,0:0:0:0:
64,192,168934,1,0,0:0:0:0:
320,192,169169,1,0,0:0:0:0:
448,192,169169,1,0,0:0:0:0:
64,192,169286,1,0,0:0:0:0:
192,192,169286,1,0,0:0:0:0:
192,192,169520,1,0,0:0:0:0:
320,192,169520,1,0,0:0:0:0:
64,192,169755,1,0,0:0:0:0:
320,192,169755,1,0,0:0:0:0:
448,192,169755,1,0,0:0:0:0:
320,192,170224,1,0,0:0:0:0:
448,192,170224,1,0,0:0:0:0:
64,192,170224,1,0,0:0:0:0:
192,192,170458,1,0,0:0:0:0:
192,192,170575,1,0,0:0:0:0:
64,192,170692,1,0,0:0:0:0:
320,192,170692,1,0,0:0:0:0:
448,192,170692,1,0,0:0:0:0:
320,192,171044,1,0,0:0:0:0:
448,192,171044,1,0,0:0:0:0:
64,192,171161,1,0,0:0:0:0:
192,192,171161,1,0,0:0:0:0:
320,192,171395,1,0,0:0:0:0:
320,192,171513,1,0,0:0:0:0:
192,192,171630,1,0,0:0:0:0:
64,192,171630,1,0,0:0:0:0:
448,192,171630,1,0,0:0:0:0:
192,192,172099,1,0,0:0:0:0:
64,192,172099,1,0,0:0:0:0:
448,192,172099,1,0,0:0:0:0:
320,192,172333,1,0,0:0:0:0:
320,192,172450,1,0,0:0:0:0:
192,192,172567,1,0,0:0:0:0:
64,192,172567,1,0,0:0:0:0:
448,192,172567,1,0,0:0:0:0:
320,192,172684,1,0,0:0:0:0:
64,192,172684,1,0,0:0:0:0:
192,192,172919,1,0,0:0:0:0:
448,192,172919,1,0,0:0:0:0:
320,192,173036,1,0,0:0:0:0:
64,192,173036,1,0,0:0:0:0:
192,192,173270,1,0,0:0:0:0:
64,192,173270,1,0,0:0:0:0:
192,192,173505,1,0,0:0:0:0:
320,192,173505,1,0,0:0:0:0:
448,192,173505,1,0,0:0:0:0:
192,192,173974,1,0,0:0:0:0:
320,192,173974,1,0,0:0:0:0:
448,192,173974,1,0,0:0:0:0:
64,192,174208,1,0,0:0:0:0:
64,192,174325,1,0,0:0:0:0:
192,192,174442,1,0,0:0:0:0:
320,192,174442,1,0,0:0:0:0:
448,192,174442,1,0,0:0:0:0:
320,192,174794,1,0,0:0:0:0:
448,192,174794,1,0,0:0:0:0:
192,192,174911,1,0,0:0:0:0:
64,192,174911,1,0,0:0:0:0:
448,192,175145,1,0,0:0:0:0:
448,192,175263,1,0,0:0:0:0:
320,192,175380,1,0,0:0:0:0:
192,192,175380,1,0,0:0:0:0:
64,192,175380,1,0,0:0:0:0:
320,192,175849,1,0,0:0:0:0:
192,192,175849,1,0,0:0:0:0:
64,192,175849,1,0,0:0:0:0:
448,192,176083,1,0,0:0:0:0:
448,192,176200,1,0,0:0:0:0:
192,192,176317,1,0,0:0:0:0:
64,192,176317,1,0,0:0:0:0:
320,192,176317,1,0,0:0:0:0:
192,192,176434,1,0,0:0:0:0:
448,192,176434,1,0,0:0:0:0:
320,192,176669,1,0,0:0:0:0:
448,192,176669,1,0,0:0:0:0:
64,192,176786,1,0,0:0:0:0:
192,192,176786,1,0,0:0:0:0:
192,192,177020,1,0,0:0:0:0:
320,192,177020,1,0,0:0:0:0:
64,192,177255,1,0,0:0:0:0:
320,192,177255,1,0,0:0:0:0:
448,192,177255,1,0,0:0:0:0:
64,192,177724,1,0,0:0:0:0:
320,192,177724,1,0,0:0:0:0:
448,192,177724,1,0,0:0:0:0:
192,192,177958,1,0,0:0:0:0:
192,192,178075,1,0,0:0:0:0:
64,192,178192,1,0,0:0:0:0:
320,192,178192,1,0,0:0:0:0:
448,192,178192,1,0,0:0:0:0:
64,192,178544,1,0,0:0:0:0:
320,192,178544,1,0,0:0:0:0:
192,192,178661,1,0,0:0:0:0:
448,192,178661,1,0,0:0:0:0:
320,192,178895,1,0,0:0:0:0:
320,192,179013,1,0,0:0:0:0:
192,192,179130,1,0,0:0:0:0:
64,192,179130,1,0,0:0:0:0:
448,192,179130,1,0,0:0:0:0:
192,192,179599,1,0,0:0:0:0:
64,192,179599,1,0,0:0:0:0:
448,192,179599,1,0,0:0:0:0:
320,192,179833,1,0,0:0:0:0:
320,192,179950,1,0,0:0:0:0:
192,192,180067,1,0,0:0:0:0:
64,192,180067,1,0,0:0:0:0:
448,192,180067,1,0,0:0:0:0:
64,192,180184,1,0,0:0:0:0:
448,192,180184,1,0,0:0:0:0:
192,192,180419,1,0,0:0:0:0:
320,192,180419,1,0,0:0:0:0:
64,192,180536,128,0,180888:0:0:0:0:
320,192,180536,128,0,180888:0:0:0:0:
448,192,180536,128,0,180888:0:0:0:0:
320,192,181005,1,0,0:0:0:0:
64,192,181005,1,0,0:0:0:0:
192,192,181005,1,0,0:0:0:0:
448,192,181005,1,0,0:0:0:0:
192,192,181239,1,0,0:0:0:0:
64,192,181356,1,0,0:0:0:0:
192,192,181474,1,0,0:0:0:0:
320,192,181474,1,0,0:0:0:0:
448,192,181474,1,0,0:0:0:0:
64,192,181708,1,0,0:0:0:0:
320,192,181708,1,0,0:0:0:0:
64,192,181825,1,0,0:0:0:0:
192,192,181942,1,0,0:0:0:0:
320,192,181942,1,0,0:0:0:0:
448,192,181942,1,0,0:0:0:0:
192,192,182177,1,0,0:0:0:0:
448,192,182294,1,0,0:0:0:0:
320,192,182294,1,0,0:0:0:0:
192,192,182411,1,0,0:0:0:0:
64,192,182411,1,0,0:0:0:0:
448,192,182645,1,0,0:0:0:0:
320,192,182645,1,0,0:0:0:0:
448,192,182763,1,0,0:0:0:0:
320,192,182880,1,0,0:0:0:0:
192,192,182880,1,0,0:0:0:0:
64,192,182880,1,0,0:0:0:0:
192,192,183114,1,0,0:0:0:0:
448,192,183231,1,0,0:0:0:0:
320,192,183349,1,0,0:0:0:0:
192,192,183349,1,0,0:0:0:0:
64,192,183349,1,0,0:0:0:0:
448,192,183583,1,0,0:0:0:0:
448,192,183700,1,0,0:0:0:0:
320,192,183817,1,0,0:0:0:0:
192,192,183817,1,0,0:0:0:0:
64,192,183817,1,0,0:0:0:0:
192,192,183934,1,0,0:0:0:0:
448,192,183934,1,0,0:0:0:0:
192,192,184169,1,0,0:0:0:0:
64,192,184169,1,0,0:0:0:0:
320,192,184286,1,0,0:0:0:0:
448,192,184286,1,0,0:0:0:0:
192,192,184520,1,0,0:0:0:0:
320,192,184520,1,0,0:0:0:0:
64,192,184755,1,0,0:0:0:0:
320,192,184755,1,0,0:0:0:0:
448,192,184755,1,0,0:0:0:0:
64,192,184989,1,0,0:0:0:0:
192,192,185106,1,0,0:0:0:0:
320,192,185224,1,0,0:0:0:0:
448,192,185224,1,0,0:0:0:0:
64,192,185224,1,0,0:0:0:0:
192,192,185458,1,0,0:0:0:0:
448,192,185458,1,0,0:0:0:0:
192,192,185575,1,0,0:0:0:0:
64,192,185692,1,0,0:0:0:0:
320,192,185692,1,0,0:0:0:0:
448,192,185692,1,0,0:0:0:0:
192,192,185927,1,0,0:0:0:0:
320,192,186044,1,0,0:0:0:0:
448,192,186044,1,0,0:0:0:0:
192,192,186161,1,0,0:0:0:0:
64,192,186161,1,0,0:0:0:0:
320,192,186395,1,0,0:0:0:0:
448,192,186395,1,0,0:0:0:0:
320,192,186513,1,0,0:0:0:0:
192,192,186630,1,0,0:0:0:0:
64,192,186630,1,0,0:0:0:0:
448,192,186630,1,0,0:0:0:0:
64,192,186864,1,0,0:0:0:0:
320,192,186981,1,0,0:0:0:0:
64,192,187099,1,0,0:0:0:0:
192,192,187099,1,0,0:0:0:0:
448,192,187099,1,0,0:0:0:0:
320,192,187333,1,0,0:0:0:0:
192,192,187333,1,0,0:0:0:0:
320,192,187450,1,0,0:0:0:0:
448,192,187567,1,0,0:0:0:0:
192,192,187567,1,0,0:0:0:0:
64,192,187567,1,0,0:0:0:0:
320,192,187684,1,0,0:0:0:0:
64,192,187684,1,0,0:0:0:0:
320,192,187919,1,0,0:0:0:0:
448,192,187919,1,0,0:0:0:0:
192,192,188036,1,0,0:0:0:0:
64,192,188036,1,0,0:0:0:0:
320,192,188270,1,0,0:0:0:0:
64,192,188270,1,0,0:0:0:0:
192,192,188505,1,0,0:0:0:0:
448,192,188505,1,0,0:0:0:0:
320,192,188505,1,0,0:0:0:0:
192,192,188739,1,0,0:0:0:0:
64,192,188856,1,0,0:0:0:0:
192,192,188974,1,0,0:0:0:0:
320,192,188974,1,0,0:0:0:0:
448,192,188974,1,0,0:0:0:0:
64,192,189208,1,0,0:0:0:0:
320,192,189208,1,0,0:0:0:0:
64,192,189325,1,0,0:0:0:0:
192,192,189442,1,0,0:0:0:0:
320,192,189442,1,0,0:0:0:0:
448,192,189442,1,0,0:0:0:0:
192,192,189677,1,0,0:0:0:0:
448,192,189794,1,0,0:0:0:0:
320,192,189794,1,0,0:0:0:0:
192,192,189911,1,0,0:0:0:0:
64,192,189911,1,0,0:0:0:0:
448,192,190145,1,0,0:0:0:0:
320,192,190145,1,0,0:0:0:0:
448,192,190263,1,0,0:0:0:0:
320,192,190380,1,0,0:0:0:0:
192,192,190380,1,0,0:0:0:0:
64,192,190380,1,0,0:0:0:0:
192,192,190614,1,0,0:0:0:0:
448,192,190731,1,0,0:0:0:0:
320,192,190849,1,0,0:0:0:0:
192,192,190849,1,0,0:0:0:0:
64,192,190849,1,0,0:0:0:0:
448,192,191083,1,0,0:0:0:0:
448,192,191200,1,0,0:0:0:0:
320,192,191317,1,0,0:0:0:0:
192,192,191317,1,0,0:0:0:0:
64,192,191317,1,0,0:0:0:0:
192,192,191434,1,0,0:0:0:0:
448,192,191434,1,0,0:0:0:0:
192,192,191669,1,0,0:0:0:0:
64,192,191669,1,0,0:0:0:0:
320,192,191786,1,0,0:0:0:0:
448,192,191786,1,0,0:0:0:0:
192,192,192020,1,0,0:0:0:0:
320,192,192020,1,0,0:0:0:0:
64,192,192255,1,0,0:0:0:0:
320,192,192255,1,0,0:0:0:0:
448,192,192255,1,0,0:0:0:0:
64,192,192489,1,0,0:0:0:0:
192,192,192606,1,0,0:0:0:0:
320,192,192724,1,0,0:0:0:0:
448,192,192724,1,0,0:0:0:0:
64,192,192724,1,0,0:0:0:0:
192,192,192958,1,0,0:0:0:0:
448,192,192958,1,0,0:0:0:0:
192,192,193075,1,0,0:0:0:0:
64,192,193192,1,0,0:0:0:0:
320,192,193192,1,0,0:0:0:0:
448,192,193192,1,0,0:0:0:0:
192,192,193427,1,0,0:0:0:0:
320,192,193544,1,0,0:0:0:0:
448,192,193544,1,0,0:0:0:0:
192,192,193661,1,0,0:0:0:0:
64,192,193661,1,0,0:0:0:0:
320,192,193895,1,0,0:0:0:0:
448,192,193895,1,0,0:0:0:0:
320,192,194013,1,0,0:0:0:0:
64,192,195536,128,0,195888:0:0:0:0:
192,192,195536,128,0,195888:0:0:0:0:
448,192,195536,128,0,195888:0:0:0:0:
320,192,196005,128,0,196356:0:0:0:0:
192,192,196005,1,0,0:0:0:0:
64,192,196005,1,0,0:0:0:0:
448,192,196005,1,0,0:0:0:0:
64,192,196239,1,0,0:0:0:0:
448,192,196356,1,0,0:0:0:0:
320,192,196474,128,0,196942:0:0:0:0:
192,192,196474,1,0,0:0:0:0:
64,192,196474,1,0,0:0:0:0:
192,192,196708,1,0,0:0:0:0:
64,192,196942,128,0,197177:0:0:0:0:
448,192,196942,1,0,0:0:0:0:
448,192,197177,128,0,197294:0:0:0:0:
192,192,197294,128,0,197411:0:0:0:0:
320,192,197294,1,0,0:0:0:0:
448,192,197411,1,0,0:0:0:0:
64,192,197411,128,0,197645:0:0:0:0:
192,192,197645,128,0,197880:0:0:0:0:
320,192,197645,1,0,0:0:0:0:
448,192,197763,1,0,0:0:0:0:
64,192,197880,1,0,0:0:0:0:
320,192,197880,128,0,198231:0:0:0:0:
64,192,198114,1,0,0:0:0:0:
448,192,198231,1,0,0:0:0:0:
192,192,198349,1,0,0:0:0:0:
320,192,198349,128,0,198817:0:0:0:0:
64,192,198349,1,0,0:0:0:0:
192,192,198583,1,0,0:0:0:0:
448,192,198817,1,0,0:0:0:0:
192,192,198934,1,0,0:0:0:0:
64,192,199052,128,0,199130:0:0:0:0:
192,192,199130,128,0,199208:0:0:0:0:
448,192,199208,128,0,199286:0:0:0:0:
64,192,199286,1,0,0:0:0:0:
320,192,199286,128,0,199755:0:0:0:0:
448,192,199755,1,0,0:0:0:0:
192,192,199755,128,0,200106:0:0:0:0:
64,192,200106,1,0,0:0:0:0:
320,192,200224,1,0,0:0:0:0:
192,192,200224,128,0,200692:0:0:0:0:
448,192,200224,1,0,0:0:0:0:
320,192,200458,1,0,0:0:0:0:
64,192,200692,1,0,0:0:0:0:
448,192,200692,128,0,200927:0:0:0:0:
64,192,200927,128,0,201044:0:0:0:0:
192,192,200927,1,0,0:0:0:0:
320,192,201044,128,0,201161:0:0:0:0:
192,192,201161,1,0,0:0:0:0:
448,192,201161,128,0,201395:0:0:0:0:
192,192,201395,1,0,0:0:0:0:
320,192,201395,128,0,201630:0:0:0:0:
64,192,201513,1,0,0:0:0:0:
448,192,201630,1,0,0:0:0:0:
192,192,201630,128,0,201981:0:0:0:0:
320,192,201864,1,0,0:0:0:0:
64,192,201981,1,0,0:0:0:0:
320,192,202099,1,0,0:0:0:0:
448,192,202099,1,0,0:0:0:0:
192,192,202099,128,0,202567:0:0:0:0:
448,192,202333,1,0,0:0:0:0:
64,192,202450,1,0,0:0:0:0:
320,192,202567,128,0,202802:0:0:0:0:
448,192,202567,1,0,0:0:0:0:
64,192,202802,128,0,202880:0:0:0:0:
192,192,202880,128,0,202958:0:0:0:0:
320,192,202958,128,0,203036:0:0:0:0:
448,192,203036,128,0,203270:0:0:0:0:
64,192,203036,1,0,0:0:0:0:
192,192,203270,1,0,0:0:0:0:
64,192,203270,128,0,203505:0:0:0:0:
448,192,203505,1,0,0:0:0:0:
320,192,203505,128,0,203856:0:0:0:0:
192,192,203505,1,0,0:0:0:0:
448,192,203739,1,0,0:0:0:0:
64,192,203856,1,0,0:0:0:0:
192,192,203974,1,0,0:0:0:0:
320,192,203974,128,0,204442:0:0:0:0:
448,192,203974,1,0,0:0:0:0:
192,192,204208,1,0,0:0:0:0:
448,192,204442,1,0,0:0:0:0:
64,192,204442,128,0,204677:0:0:0:0:
448,192,204677,128,0,204794:0:0:0:0:
320,192,204677,1,0,0:0:0:0:
192,192,204794,128,0,204911:0:0:0:0:
320,192,204911,1,0,0:0:0:0:
64,192,204911,128,0,205145:0:0:0:0:
448,192,205145,1,0,0:0:0:0:
192,192,205145,128,0,205380:0:0:0:0:
64,192,205380,1,0,0:0:0:0:
320,192,205380,128,0,205731:0:0:0:0:
448,192,205380,1,0,0:0:0:0:
64,192,205614,1,0,0:0:0:0:
448,192,205731,1,0,0:0:0:0:
192,192,205849,1,0,0:0:0:0:
320,192,205849,128,0,206317:0:0:0:0:
64,192,205849,1,0,0:0:0:0:
192,192,206083,1,0,0:0:0:0:
64,192,206200,1,0,0:0:0:0:
448,192,206317,1,0,0:0:0:0:
192,192,206434,1,0,0:0:0:0:
64,192,206552,128,0,206630:0:0:0:0:
192,192,206630,128,0,206708:0:0:0:0:
448,192,206708,128,0,206786:0:0:0:0:
64,192,206786,1,0,0:0:0:0:
320,192,206786,128,0,207255:0:0:0:0:
192,192,207020,1,0,0:0:0:0:
448,192,207255,1,0,0:0:0:0:
192,192,207255,128,0,207606:0:0:0:0:
64,192,207255,1,0,0:0:0:0:
448,192,207489,1,0,0:0:0:0:
64,192,207606,1,0,0:0:0:0:
320,192,207724,1,0,0:0:0:0:
192,192,207724,128,0,208192:0:0:0:0:
448,192,207724,1,0,0:0:0:0:
320,192,207958,1,0,0:0:0:0:
64,192,208192,1,0,0:0:0:0:
448,192,208192,128,0,208427:0:0:0:0:
64,192,208427,128,0,208544:0:0:0:0:
192,192,208427,1,0,0:0:0:0:
320,192,208544,128,0,208661:0:0:0:0:
192,192,208661,1,0,0:0:0:0:
448,192,208661,128,0,208895:0:0:0:0:
192,192,208895,1,0,0:0:0:0:
320,192,208895,128,0,209130:0:0:0:0:
64,192,209013,1,0,0:0:0:0:
448,192,209130,1,0,0:0:0:0:
192,192,209130,128,0,209481:0:0:0:0:
64,192,209364,1,0,0:0:0:0:
320,192,209481,1,0,0:0:0:0:
448,192,209599,1,0,0:0:0:0:
192,192,209599,128,0,210067:0:0:0:0:
64,192,209599,1,0,0:0:0:0:
448,192,209833,1,0,0:0:0:0:
64,192,209950,1,0,0:0:0:0:
448,192,210067,1,0,0:0:0:0:
320,192,210067,128,0,210302:0:0:0:0:
64,192,210184,1,0,0:0:0:0:
192,192,210419,128,0,210477:0:0:0:0:
320,192,210477,128,0,210536:0:0:0:0:
64,192,210536,1,0,0:0:0:0:
448,192,210536,128,0,210770:0:0:0:0:
192,192,210770,1,0,0:0:0:0:
64,192,210770,128,0,211005:0:0:0:0:
320,192,211005,128,0,211356:0:0:0:0:
448,192,211005,1,0,0:0:0:0:
192,192,211005,1,0,0:0:0:0:
64,192,211239,1,0,0:0:0:0:
448,192,211356,1,0,0:0:0:0:
320,192,211474,128,0,211942:0:0:0:0:
192,192,211474,1,0,0:0:0:0:
64,192,211474,1,0,0:0:0:0:
192,192,211708,1,0,0:0:0:0:
64,192,211942,128,0,212177:0:0:0:0:
448,192,211942,1,0,0:0:0:0:
448,192,212177,128,0,212294:0:0:0:0:
320,192,212177,1,0,0:0:0:0:
192,192,212294,128,0,212411:0:0:0:0:
64,192,212411,128,0,212645:0:0:0:0:
320,192,212411,1,0,0:0:0:0:
192,192,212645,128,0,212880:0:0:0:0:
320,192,212645,1,0,0:0:0:0:
448,192,212763,1,0,0:0:0:0:
320,192,212880,128,0,213231:0:0:0:0:
64,192,212880,1,0,0:0:0:0:
448,192,213114,1,0,0:0:0:0:
64,192,213231,1,0,0:0:0:0:
320,192,213349,128,0,213817:0:0:0:0:
192,192,213349,1,0,0:0:0:0:
448,192,213349,1,0,0:0:0:0:
192,192,213583,1,0,0:0:0:0:
64,192,213700,1,0,0:0:0:0:
448,192,213817,1,0,0:0:0:0:
192,192,213934,1,0,0:0:0:0:
64,192,214052,128,0,214130:0:0:0:0:
192,192,214130,128,0,214208:0:0:0:0:
448,192,214208,128,0,214286:0:0:0:0:
320,192,214286,128,0,214755:0:0:0:0:
64,192,214286,1,0,0:0:0:0:
192,192,214520,1,0,0:0:0:0:
192,192,214755,128,0,215106:0:0:0:0:
448,192,214755,1,0,0:0:0:0:
64,192,214755,1,0,0:0:0:0:
448,192,214989,1,0,0:0:0:0:
64,192,215106,1,0,0:0:0:0:
192,192,215224,128,0,215692:0:0:0:0:
320,192,215224,1,0,0:0:0:0:
448,192,215224,1,0,0:0:0:0:
320,192,215458,1,0,0:0:0:0:
448,192,215692,128,0,215927:0:0:0:0:
64,192,215692,1,0,0:0:0:0:
64,192,215927,128,0,216044:0:0:0:0:
192,192,215927,1,0,0:0:0:0:
320,192,216044,128,0,216161:0:0:0:0:
448,192,216161,128,0,216395:0:0:0:0:
192,192,216161,1,0,0:0:0:0:
320,192,216395,128,0,216630:0:0:0:0:
192,192,216395,1,0,0:0:0:0:
64,192,216513,1,0,0:0:0:0:
192,192,216630,128,0,216981:0:0:0:0:
448,192,216630,1,0,0:0:0:0:
64,192,216981,1,0,0:0:0:0:
192,192,217099,128,0,217567:0:0:0:0:
448,192,217099,1,0,0:0:0:0:
320,192,217099,1,0,0:0:0:0:
448,192,217333,1,0,0:0:0:0:
64,192,217450,1,0,0:0:0:0:
320,192,217567,128,0,217802:0:0:0:0:
448,192,217567,1,0,0:0:0:0:
64,192,217802,128,0,217880:0:0:0:0:
448,192,217802,1,0,0:0:0:0:
192,192,217880,128,0,217958:0:0:0:0:
320,192,217958,128,0,218036:0:0:0:0:
64,192,218036,1,0,0:0:0:0:
448,192,218036,128,0,218270:0:0:0:0:
64,192,218270,128,0,218505:0:0:0:0:
192,192,218270,1,0,0:0:0:0:
320,192,218505,128,0,218856:0:0:0:0:
448,192,218505,1,0,0:0:0:0:
192,192,218505,1,0,0:0:0:0:
448,192,218739,1,0,0:0:0:0:
64,192,218856,1,0,0:0:0:0:
320,192,218974,128,0,219442:0:0:0:0:
192,192,218974,1,0,0:0:0:0:
448,192,218974,1,0,0:0:0:0:
192,192,219208,1,0,0:0:0:0:
64,192,219442,128,0,219677:0:0:0:0:
448,192,219442,1,0,0:0:0:0:
448,192,219677,128,0,219794:0:0:0:0:
320,192,219677,1,0,0:0:0:0:
192,192,219794,128,0,219911:0:0:0:0:
64,192,219911,128,0,220145:0:0:0:0:
320,192,219911,1,0,0:0:0:0:
192,192,220145,128,0,220380:0:0:0:0:
320,192,220145,1,0,0:0:0:0:
448,192,220263,1,0,0:0:0:0:
320,192,220380,128,0,220731:0:0:0:0:
64,192,220380,1,0,0:0:0:0:
64,192,220614,1,0,0:0:0:0:
448,192,220731,1,0,0:0:0:0:
320,192,220849,128,0,221317:0:0:0:0:
192,192,220849,1,0,0:0:0:0:
64,192,220849,1,0,0:0:0:0:
192,192,221083,1,0,0:0:0:0:
64,192,221200,1,0,0:0:0:0:
448,192,221317,1,0,0:0:0:0:
192,192,221434,1,0,0:0:0:0:
64,192,221552,128,0,221630:0:0:0:0:
192,192,221630,128,0,221708:0:0:0:0:
448,192,221708,128,0,221786:0:0:0:0:
320,192,221786,128,0,222255:0:0:0:0:
64,192,221786,1,0,0:0:0:0:
192,192,222020,1,0,0:0:0:0:
64,192,222138,1,0,0:0:0:0:
192,192,222255,128,0,222606:0:0:0:0:
448,192,222255,1,0,0:0:0:0:
448,192,222489,1,0,0:0:0:0:
64,192,222606,1,0,0:0:0:0:
192,192,222724,128,0,223192:0:0:0:0:
320,192,222724,1,0,0:0:0:0:
448,192,222724,1,0,0:0:0:0:
320,192,222958,1,0,0:0:0:0:
448,192,223192,128,0,223427:0:0:0:0:
64,192,223192,1,0,0:0:0:0:
64,192,223427,128,0,223544:0:0:0:0:
192,192,223427,1,0,0:0:0:0:
320,192,223544,128,0,223661:0:0:0:0:
448,192,223661,128,0,223895:0:0:0:0:
192,192,223661,1,0,0:0:0:0:
320,192,223895,128,0,224130:0:0:0:0:
192,192,223895,1,0,0:0:0:0:
64,192,224013,1,0,0:0:0:0:
192,192,224130,128,0,224481:0:0:0:0:
320,192,224481,1,0,0:0:0:0:
192,192,224599,128,0,225067:0:0:0:0:
448,192,224599,1,0,0:0:0:0:
448,192,224833,5,0,0:0:0:0:
320,192,225067,128,0,225302:0:0:0:0:
64,192,225302,128,0,225380:0:0:0:0:
192,192,225380,128,0,225458:0:0:0:0:
320,192,225458,128,0,225536:0:0:0:0:
448,192,225536,128,0,225770:0:0:0:0:
64,192,225536,1,0,0:0:0:0:
64,192,225770,128,0,226005:0:0:0:0:
192,192,225770,1,0,0:0:0:0:
192,192,226005,1,0,0:0:0:0:
320,192,226005,1,0,0:0:0:0:
448,192,226005,1,0,0:0:0:0:
64,192,226239,1,0,0:0:0:0:
320,192,226356,1,0,0:0:0:0:
448,192,226356,1,0,0:0:0:0:
192,192,226474,1,0,0:0:0:0:
64,192,226474,1,0,0:0:0:0:
192,192,226708,128,0,226864:0:0:0:0:
448,192,226708,128,0,226864:0:0:0:0:
320,192,226708,128,0,226864:0:0:0:0:
192,192,226942,1,0,0:0:0:0:
448,192,226942,1,0,0:0:0:0:
64,192,227059,1,0,0:0:0:0:
320,192,227177,1,0,0:0:0:0:
64,192,227294,1,0,0:0:0:0:
192,192,227294,1,0,0:0:0:0:
320,192,227411,1,0,0:0:0:0:
448,192,227411,1,0,0:0:0:0:
192,192,227645,128,0,227802:0:0:0:0:
448,192,227645,128,0,227802:0:0:0:0:
64,192,227645,128,0,227802:0:0:0:0:
448,192,227880,1,0,0:0:0:0:
192,192,227880,1,0,0:0:0:0:
320,192,227997,1,0,0:0:0:0:
64,192,228114,1,0,0:0:0:0:
192,192,228231,1,0,0:0:0:0:
448,192,228231,1,0,0:0:0:0:
320,192,228349,1,0,0:0:0:0:
64,192,228349,1,0,0:0:0:0:
192,192,228583,128,0,228739:0:0:0:0:
320,192,228583,128,0,228739:0:0:0:0:
64,192,228583,128,0,228739:0:0:0:0:
192,192,228817,1,0,0:0:0:0:
320,192,228817,1,0,0:0:0:0:
448,192,228934,1,0,0:0:0:0:
192,192,229052,1,0,0:0:0:0:
320,192,229169,1,0,0:0:0:0:
64,192,229169,1,0,0:0:0:0:
192,192,229286,1,0,0:0:0:0:
448,192,229286,1,0,0:0:0:0:
320,192,229520,128,0,229677:0:0:0:0:
64,192,229520,128,0,229677:0:0:0:0:
448,192,229520,128,0,229677:0:0:0:0:
320,192,229755,1,0,0:0:0:0:
64,192,229755,1,0,0:0:0:0:
192,192,229872,1,0,0:0:0:0:
448,192,229989,1,0,0:0:0:0:
64,192,230106,1,0,0:0:0:0:
192,192,230106,1,0,0:0:0:0:
320,192,230224,1,0,0:0:0:0:
448,192,230224,1,0,0:0:0:0:
192,192,230458,128,0,230614:0:0:0:0:
320,192,230458,128,0,230614:0:0:0:0:
448,192,230458,128,0,230614:0:0:0:0:
192,192,230692,1,0,0:0:0:0:
320,192,230692,1,0,0:0:0:0:
64,192,230809,1,0,0:0:0:0:
448,192,230927,1,0,0:0:0:0:
64,192,231044,1,0,0:0:0:0:
320,192,231044,1,0,0:0:0:0:
192,192,231161,1,0,0:0:0:0:
448,192,231161,1,0,0:0:0:0:
320,192,231395,128,0,231552:0:0:0:0:
64,192,231395,128,0,231552:0:0:0:0:
448,192,231395,128,0,231552:0:0:0:0:
64,192,231630,1,0,0:0:0:0:
320,192,231630,1,0,0:0:0:0:
192,192,231747,1,0,0:0:0:0:
320,192,231864,1,0,0:0:0:0:
448,192,231981,1,0,0:0:0:0:
64,192,231981,1,0,0:0:0:0:
192,192,232099,1,0,0:0:0:0:
320,192,232099,1,0,0:0:0:0:
64,192,232333,128,0,232489:0:0:0:0:
192,192,232333,128,0,232489:0:0:0:0:
448,192,232333,128,0,232489:0:0:0:0:
64,192,232567,1,0,0:0:0:0:
448,192,232567,1,0,0:0:0:0:
320,192,232684,1,0,0:0:0:0:
192,192,232802,1,0,0:0:0:0:
320,192,232919,1,0,0:0:0:0:
448,192,232919,1,0,0:0:0:0:
192,192,233036,1,0,0:0:0:0:
64,192,233036,1,0,0:0:0:0:
192,192,233270,128,0,233427:0:0:0:0:
320,192,233270,128,0,233427:0:0:0:0:
448,192,233270,128,0,233427:0:0:0:0:
448,192,233505,1,0,0:0:0:0:
192,192,233505,1,0,0:0:0:0:
64,192,233622,1,0,0:0:0:0:
320,192,233739,1,0,0:0:0:0:
192,192,233856,1,0,0:0:0:0:
64,192,233856,1,0,0:0:0:0:
320,192,233974,1,0,0:0:0:0:
448,192,233974,1,0,0:0:0:0:
192,192,234208,128,0,234364:0:0:0:0:
320,192,234208,128,0,234364:0:0:0:0:
64,192,234208,128,0,234364:0:0:0:0:
320,192,234442,1,0,0:0:0:0:
192,192,234442,1,0,0:0:0:0:
448,192,234559,1,0,0:0:0:0:
64,192,234677,1,0,0:0:0:0:
192,192,234794,1,0,0:0:0:0:
448,192,234794,1,0,0:0:0:0:
320,192,234911,1,0,0:0:0:0:
64,192,234911,1,0,0:0:0:0:
192,192,235145,128,0,235302:0:0:0:0:
320,192,235145,128,0,235302:0:0:0:0:
448,192,235145,128,0,235302:0:0:0:0:
448,192,235380,1,0,0:0:0:0:
192,192,235380,1,0,0:0:0:0:
64,192,235497,1,0,0:0:0:0:
320,192,235614,1,0,0:0:0:0:
192,192,235731,1,0,0:0:0:0:
64,192,235731,1,0,0:0:0:0:
320,192,235849,1,0,0:0:0:0:
448,192,235849,1,0,0:0:0:0:
192,192,236083,128,0,236239:0:0:0:0:
64,192,236083,128,0,236239:0:0:0:0:
448,192,236083,128,0,236239:0:0:0:0:
192,192,236317,1,0,0:0:0:0:
64,192,236317,1,0,0:0:0:0:
320,192,236434,1,0,0:0:0:0:
192,192,236552,1,0,0:0:0:0:
448,192,236669,1,0,0:0:0:0:
320,192,236669,1,0,0:0:0:0:
192,192,236786,1,0,0:0:0:0:
64,192,236786,1,0,0:0:0:0:
320,192,237020,128,0,237177:0:0:0:0:
64,192,237020,128,0,237177:0:0:0:0:
448,192,237020,128,0,237177:0:0:0:0:
64,192,237255,1,0,0:0:0:0:
320,192,237255,1,0,0:0:0:0:
192,192,237372,1,0,0:0:0:0:
448,192,237489,1,0,0:0:0:0:
320,192,237606,1,0,0:0:0:0:
64,192,237606,1,0,0:0:0:0:
192,192,237724,1,0,0:0:0:0:
448,192,237724,1,0,0:0:0:0:
320,192,237958,128,0,238114:0:0:0:0:
192,192,237958,128,0,238114:0:0:0:0:
448,192,237958,128,0,238114:0:0:0:0:
320,192,238192,1,0,0:0:0:0:
192,192,238192,1,0,0:0:0:0:
64,192,238309,1,0,0:0:0:0:
320,192,238427,1,0,0:0:0:0:
192,192,238544,1,0,0:0:0:0:
448,192,238544,1,0,0:0:0:0:
320,192,238661,1,0,0:0:0:0:
64,192,238661,1,0,0:0:0:0:
192,192,238895,128,0,239052:0:0:0:0:
448,192,238895,128,0,239052:0:0:0:0:
64,192,238895,128,0,239052:0:0:0:0:
192,192,239130,1,0,0:0:0:0:
448,192,239130,1,0,0:0:0:0:
320,192,239247,1,0,0:0:0:0:
64,192,239364,1,0,0:0:0:0:
192,192,239481,1,0,0:0:0:0:
448,192,239481,1,0,0:0:0:0:
320,192,239599,1,0,0:0:0:0:
64,192,239599,1,0,0:0:0:0:
192,192,239833,128,0,239989:0:0:0:0:
320,192,239833,128,0,239989:0:0:0:0:
448,192,239833,128,0,239989:0:0:0:0:
192,192,240067,1,0,0:0:0:0:
320,192,240067,1,0,0:0:0:0:
64,192,240184,1,0,0:0:0:0:
448,192,240302,1,0,0:0:0:0:
320,192,240419,1,0,0:0:0:0:
192,192,240536,1,0,0:0:0:0:
64,192,240536,1,0,0:0:0:0:
448,192,240536,1,0,0:0:0:0:
192,192,240770,128,0,240927:0:0:0:0:
320,192,240770,128,0,240927:0:0:0:0:
64,192,240770,128,0,240927:0:0:0:0:
448,192,241005,5,0,0:0:0:0:
64,192,241005,1,0,0:0:0:0:
192,192,241005,1,0,0:0:0:0:
320,192,241005,1,0,0:0:0:0:
448,192,241122,1,0,0:0:0:0:
64,192,241239,1,0,0:0:0:0:
192,192,241356,1,0,0:0:0:0:
448,192,241474,1,0,0:0:0:0:
320,192,241474,1,0,0:0:0:0:
64,192,241591,1,0,0:0:0:0:
320,192,241708,1,0,0:0:0:0:
192,192,241825,1,0,0:0:0:0:
320,192,241942,1,0,0:0:0:0:
64,192,241942,1,0,0:0:0:0:
448,192,242059,1,0,0:0:0:0:
64,192,242177,1,0,0:0:0:0:
320,192,242294,1,0,0:0:0:0:
448,192,242411,1,0,0:0:0:0:
192,192,242411,1,0,0:0:0:0:
64,192,242528,1,0,0:0:0:0:
448,192,242645,1,0,0:0:0:0:
320,192,242763,1,0,0:0:0:0:
64,192,242880,1,0,0:0:0:0:
192,192,242880,1,0,0:0:0:0:
448,192,242997,1,0,0:0:0:0:
192,192,243114,1,0,0:0:0:0:
64,192,243231,1,0,0:0:0:0:
448,192,243349,1,0,0:0:0:0:
320,192,243349,1,0,0:0:0:0:
192,192,243466,1,0,0:0:0:0:
320,192,243583,1,0,0:0:0:0:
448,192,243700,1,0,0:0:0:0:
320,192,243817,1,0,0:0:0:0:
64,192,243817,1,0,0:0:0:0:
192,192,243934,1,0,0:0:0:0:
64,192,244052,1,0,0:0:0:0:
320,192,244169,1,0,0:0:0:0:
192,192,244286,1,0,0:0:0:0:
448,192,244286,1,0,0:0:0:0:
64,192,244403,1,0,0:0:0:0:
448,192,244520,1,0,0:0:0:0:
320,192,244638,1,0,0:0:0:0:
64,192,244755,1,0,0:0:0:0:
192,192,244755,1,0,0:0:0:0:
448,192,244872,1,0,0:0:0:0:
192,192,244989,1,0,0:0:0:0:
64,192,245106,1,0,0:0:0:0:
448,192,245224,1,0,0:0:0:0:
320,192,245224,1,0,0:0:0:0:
192,192,245341,1,0,0:0:0:0:
320,192,245458,1,0,0:0:0:0:
448,192,245575,1,0,0:0:0:0:
320,192,245692,1,0,0:0:0:0:
64,192,245692,1,0,0:0:0:0:
192,192,245809,1,0,0:0:0:0:
64,192,245927,1,0,0:0:0:0:
320,192,246044,1,0,0:0:0:0:
192,192,246161,1,0,0:0:0:0:
448,192,246161,1,0,0:0:0:0:
64,192,246278,1,0,0:0:0:0:
448,192,246395,1,0,0:0:0:0:
320,192,246513,1,0,0:0:0:0:
192,192,246630,1,0,0:0:0:0:
64,192,246630,1,0,0:0:0:0:
320,192,246747,1,0,0:0:0:0:
192,192,246864,1,0,0:0:0:0:
64,192,246981,1,0,0:0:0:0:
320,192,247099,1,0,0:0:0:0:
448,192,247099,1,0,0:0:0:0:
192,192,247216,1,0,0:0:0:0:
64,192,247333,1,0,0:0:0:0:
448,192,247450,1,0,0:0:0:0:
64,192,247567,1,0,0:0:0:0:
320,192,247567,1,0,0:0:0:0:
192,192,247684,1,0,0:0:0:0:
320,192,247802,1,0,0:0:0:0:
64,192,247919,1,0,0:0:0:0:
192,192,248036,1,0,0:0:0:0:
448,192,248036,1,0,0:0:0:0:
320,192,248153,1,0,0:0:0:0:
448,192,248270,1,0,0:0:0:0:
320,192,248388,1,0,0:0:0:0:
64,192,248505,1,0,0:0:0:0:
192,192,248505,1,0,0:0:0:0:
448,192,248622,1,0,0:0:0:0:
64,192,248739,1,0,0:0:0:0:
192,192,248856,1,0,0:0:0:0:
320,192,248974,1,0,0:0:0:0:
448,192,248974,1,0,0:0:0:0:
64,192,249091,1,0,0:0:0:0:
320,192,249208,1,0,0:0:0:0:
192,192,249325,1,0,0:0:0:0:
320,192,249442,1,0,0:0:0:0:
64,192,249442,1,0,0:0:0:0:
448,192,249559,1,0,0:0:0:0:
64,192,249677,1,0,0:0:0:0:
320,192,249794,1,0,0:0:0:0:
448,192,249911,1,0,0:0:0:0:
192,192,249911,1,0,0:0:0:0:
64,192,250028,1,0,0:0:0:0:
448,192,250145,1,0,0:0:0:0:
320,192,250263,1,0,0:0:0:0:
192,192,250380,1,0,0:0:0:0:
64,192,250380,1,0,0:0:0:0:
448,192,250497,1,0,0:0:0:0:
192,192,250614,1,0,0:0:0:0:
64,192,250731,1,0,0:0:0:0:
320,192,250849,1,0,0:0:0:0:
448,192,250849,1,0,0:0:0:0:
192,192,250966,1,0,0:0:0:0:
320,192,251083,5,0,0:0:0:0:
448,192,251200,1,0,0:0:0:0:
320,192,251317,1,0,0:0:0:0:
64,192,251317,1,0,0:0:0:0:
192,192,251434,1,0,0:0:0:0:
64,192,251552,1,0,0:0:0:0:
320,192,251669,1,0,0:0:0:0:
448,192,251786,1,0,0:0:0:0:
192,192,251786,1,0,0:0:0:0:
320,192,251903,1,0,0:0:0:0:
64,192,252020,1,0,0:0:0:0:
192,192,252138,1,0,0:0:0:0:
448,192,252255,5,0,0:0:0:0:
320,192,252313,1,0,0:0:0:0:
64,192,252372,1,0,0:0:0:0:
192,192,252431,1,0,0:0:0:0:
448,192,252489,1,0,0:0:0:0:
320,192,252548,1,0,0:0:0:0:
64,192,252606,1,0,0:0:0:0:
192,192,252665,1,0,0:0:0:0:
448,192,252724,1,0,0:0:0:0:
320,192,252782,1,0,0:0:0:0:
64,192,252841,1,0,0:0:0:0:
192,192,252899,1,0,0:0:0:0:
448,192,252958,1,0,0:0:0:0:
320,192,253017,1,0,0:0:0:0:
64,192,253075,1,0,0:0:0:0:
192,192,253134,1,0,0:0:0:0:
448,192,253192,1,0,0:0:0:0:
320,192,253251,1,0,0:0:0:0:
64,192,253309,1,0,0:0:0:0:
192,192,253368,1,0,0:0:0:0:
448,192,253427,1,0,0:0:0:0:
320,192,253485,1,0,0:0:0:0:
64,192,253544,1,0,0:0:0:0:
192,192,253602,1,0,0:0:0:0:
448,192,253661,1,0,0:0:0:0:
320,192,253720,1,0,0:0:0:0:
64,192,253778,1,0,0:0:0:0:
192,192,253837,1,0,0:0:0:0:
448,192,253895,1,0,0:0:0:0:
320,192,253954,1,0,0:0:0:0:
64,192,254013,1,0,0:0:0:0:
192,192,254071,1,0,0:0:0:0:
448,192,254130,1,0,0:0:0:0:
320,192,254188,1,0,0:0:0:0:
64,192,254247,1,0,0:0:0:0:
192,192,254306,1,0,0:0:0:0:
448,192,254364,1,0,0:0:0:0:
320,192,254423,1,0,0:0:0:0:
64,192,254481,1,0,0:0:0:0:
192,192,254540,1,0,0:0:0:0:
448,192,254599,1,0,0:0:0:0:
320,192,254657,1,0,0:0:0:0:
64,192,254716,1,0,0:0:0:0:
192,192,254774,1,0,0:0:0:0:
448,192,254833,1,0,0:0:0:0:
320,192,254892,1,0,0:0:0:0:
64,192,254950,1,0,0:0:0:0:
192,192,255009,1,0,0:0:0:0:
448,192,255067,1,0,0:0:0:0:
320,192,255126,1,0,0:0:0:0:
64,192,255184,1,0,0:0:0:0:
192,192,255243,1,0,0:0:0:0:
448,192,255302,1,0,0:0:0:0:
320,192,255360,1,0,0:0:0:0:
64,192,255419,1,0,0:0:0:0:
192,192,255477,1,0,0:0:0:0:
320,192,255536,1,0,0:0:0:0:
448,192,255536,1,0,0:0:0:0:
64,192,255770,128,0,256005:0:0:0:0:
192,192,255770,128,0,256005:0:0:0:0:
448,192,255770,128,0,256005:0:0:0:0:
