osu file format v14

[General]
AudioFilename: audio.mp3
AudioLeadIn: 0
PreviewTime: 96994
Countdown: 1
SampleSet: Normal
StackLeniency: 0.7
Mode: 1
LetterboxInBreaks: 0
WidescreenStoryboard: 1

[Editor]
DistanceSpacing: 1.9
BeatDivisor: 2
GridSize: 32
TimelineZoom: 1.8

[Metadata]
Title:Rumble Kung-fu Showdown
TitleUnicode:Rumble Kung-fu Showdown
Artist:t+pazolite
ArtistUnicode:t+pazolite
Creator:incandescence
Version:Kantan
Source:
Tags:Ayyri eiri- DakeDekaane tasuke912 Taikocracy inc Kenran Kensou Orient C.H.S CHS Comiket 85 C85 CHS-0015 tpz
BeatmapID:1688437
BeatmapSetID:804330

[Difficulty]
HPDrainRate:7
CircleSize:2
OverallDifficulty:3
ApproachRate:10
SliderMultiplier:1.2
SliderTickRate:1

[Events]
//Background and Video events
0,0,"maxresdefault.jpg",0,0
//Break Periods
//Storyboard Layer 0 (Background)
//Storyboard Layer 1 (Fail)
//Storyboard Layer 2 (Pass)
//Storyboard Layer 3 (Foreground)
//Storyboard Sound Samples

[TimingPoints]
494,250,4,1,0,90,1,0
48494,-100,4,1,0,90,0,1
50494,-100,4,1,0,90,0,0
52494,-100,4,1,0,90,0,1
54494,-100,4,1,0,90,0,0
56494,-100,4,1,0,90,0,1
58494,-100,4,1,0,90,0,0
60494,-100,4,1,0,90,0,1
64494,-125,4,1,0,90,0,0
80494,-100,4,1,0,90,0,0
97494,-100,4,1,0,90,0,1
113494,-100,4,1,0,90,0,0
115494,-100,4,1,0,90,0,1
129494,-100,4,1,0,90,0,0

[HitObjects]
256,192,494,5,0,0:0:0:0:
256,192,744,1,0,0:0:0:0:
256,192,994,1,8,0:0:0:0:
256,192,1494,1,0,0:0:0:0:
256,192,1994,1,8,0:0:0:0:
256,192,2494,1,0,0:0:0:0:
256,192,2744,1,0,0:0:0:0:
256,192,2994,1,8,0:0:0:0:
256,192,3494,1,8,0:0:0:0:
256,192,4494,1,0,0:0:0:0:
256,192,4744,1,0,0:0:0:0:
256,192,4994,1,8,0:0:0:0:
256,192,5494,1,0,0:0:0:0:
256,192,5994,1,8,0:0:0:0:
256,192,6494,1,0,0:0:0:0:
256,192,6744,1,0,0:0:0:0:
256,192,6994,1,8,0:0:0:0:
256,192,7494,1,0,0:0:0:0:
256,192,8494,1,0,0:0:0:0:
256,192,8744,1,0,0:0:0:0:
256,192,8994,1,8,0:0:0:0:
256,192,9494,1,0,0:0:0:0:
256,192,9994,1,8,0:0:0:0:
256,192,10494,1,0,0:0:0:0:
256,192,10744,1,0,0:0:0:0:
256,192,10994,1,8,0:0:0:0:
256,192,11494,1,8,0:0:0:0:
256,192,12494,1,0,0:0:0:0:
256,192,12744,1,0,0:0:0:0:
256,192,12994,1,8,0:0:0:0:
256,192,13494,1,0,0:0:0:0:
256,192,13994,1,8,0:0:0:0:
256,192,14494,1,0,0:0:0:0:
256,192,14744,1,0,0:0:0:0:
256,192,14994,1,8,0:0:0:0:
256,192,15494,1,0,0:0:0:0:
256,192,16494,1,4,0:0:0:0:
256,192,16994,1,8,0:0:0:0:
256,192,17744,1,8,0:0:0:0:
256,192,17994,1,0,0:0:0:0:
256,192,18494,1,0,0:0:0:0:
256,192,18994,1,8,0:0:0:0:
256,192,19744,1,8,0:0:0:0:
256,192,19994,1,0,0:0:0:0:
256,192,20494,1,0,0:0:0:0:
256,192,20994,1,8,0:0:0:0:
256,192,21744,1,8,0:0:0:0:
256,192,21994,1,0,0:0:0:0:
256,192,22494,1,0,0:0:0:0:
256,192,22994,1,8,0:0:0:0:
256,192,23744,1,8,0:0:0:0:
256,192,23994,1,0,0:0:0:0:
256,192,24494,1,0,0:0:0:0:
256,192,24994,1,8,0:0:0:0:
256,192,25994,1,8,0:0:0:0:
256,192,26494,1,0,0:0:0:0:
256,192,26994,1,8,0:0:0:0:
256,192,27994,1,8,0:0:0:0:
256,192,28494,1,0,0:0:0:0:
256,192,28994,1,8,0:0:0:0:
256,192,29994,1,8,0:0:0:0:
256,192,30494,1,0,0:0:0:0:
256,192,30994,1,8,0:0:0:0:
256,192,31494,1,8,0:0:0:0:
256,192,31744,1,0,0:0:0:0:
256,192,31994,1,12,0:0:0:0:
256,192,32494,1,4,0:0:0:0:
256,192,32994,1,8,0:0:0:0:
256,192,33744,1,0,0:0:0:0:
256,192,33994,1,8,0:0:0:0:
256,192,34494,1,0,0:0:0:0:
256,192,34994,1,8,0:0:0:0:
256,192,35744,1,0,0:0:0:0:
256,192,35994,1,8,0:0:0:0:
256,192,36494,1,0,0:0:0:0:
256,192,36994,1,8,0:0:0:0:
256,192,37744,1,0,0:0:0:0:
256,192,37994,1,8,0:0:0:0:
256,192,38494,1,0,0:0:0:0:
256,192,38994,1,8,0:0:0:0:
256,192,39369,1,0,0:0:0:0:
256,192,39744,1,8,0:0:0:0:
256,192,39994,1,0,0:0:0:0:
256,192,40494,1,4,0:0:0:0:
256,192,40994,1,8,0:0:0:0:
256,192,41744,1,0,0:0:0:0:
256,192,41994,1,8,0:0:0:0:
256,192,42494,1,0,0:0:0:0:
256,192,42994,1,8,0:0:0:0:
256,192,43744,1,8,0:0:0:0:
256,192,43994,1,0,0:0:0:0:
256,192,44494,1,4,0:0:0:0:
256,192,44994,1,4,0:0:0:0:
256,192,45494,1,4,0:0:0:0:
256,192,45994,1,4,0:0:0:0:
256,192,46494,1,4,0:0:0:0:
256,192,46994,1,0,0:0:0:0:
256,192,47244,1,0,0:0:0:0:
256,192,47494,1,8,0:0:0:0:
256,192,48494,5,4,0:0:0:0:
256,192,48994,1,4,0:0:0:0:
256,192,49494,1,4,0:0:0:0:
256,192,50494,1,0,0:0:0:0:
256,192,50869,1,8,0:0:0:0:
256,192,51244,1,8,0:0:0:0:
256,192,51494,1,0,0:0:0:0:
256,192,52244,1,8,0:0:0:0:
256,192,52494,1,4,0:0:0:0:
256,192,52994,1,4,0:0:0:0:
256,192,53494,1,4,0:0:0:0:
256,192,54494,1,0,0:0:0:0:
256,192,54869,1,8,0:0:0:0:
256,192,55244,1,8,0:0:0:0:
256,192,55494,1,0,0:0:0:0:
256,192,55994,1,8,0:0:0:0:
256,192,56494,1,4,0:0:0:0:
256,192,56994,1,4,0:0:0:0:
256,192,57494,1,4,0:0:0:0:
256,192,58494,1,0,0:0:0:0:
256,192,58869,1,8,0:0:0:0:
256,192,59244,1,8,0:0:0:0:
256,192,59494,1,0,0:0:0:0:
256,192,60244,1,8,0:0:0:0:
256,192,60494,1,4,0:0:0:0:
256,192,60994,1,4,0:0:0:0:
256,192,61494,1,4,0:0:0:0:
256,192,62494,1,4,0:0:0:0:
256,192,63244,1,4,0:0:0:0:
256,192,63494,1,4,0:0:0:0:
256,192,64494,1,8,0:0:0:0:
256,192,65494,1,0,0:0:0:0:
256,192,65994,1,8,0:0:0:0:
256,192,66494,1,0,0:0:0:0:
256,192,66994,1,0,0:0:0:0:
256,192,67244,1,0,0:0:0:0:
256,192,67494,1,8,0:0:0:0:
256,192,68494,1,8,0:0:0:0:
256,192,69494,1,0,0:0:0:0:
256,192,69994,1,8,0:0:0:0:
256,192,70494,1,0,0:0:0:0:
256,192,70994,1,8,0:0:0:0:
256,192,71244,1,8,0:0:0:0:
256,192,71494,1,0,0:0:0:0:
256,192,71994,1,8,0:0:0:0:
256,192,72494,1,0,0:0:0:0:
256,192,73494,1,0,0:0:0:0:
256,192,74494,1,0,0:0:0:0:
256,192,75494,1,0,0:0:0:0:
256,192,76494,1,0,0:0:0:0:
256,192,77494,1,0,0:0:0:0:
256,192,78494,1,0,0:0:0:0:
256,192,78994,1,0,0:0:0:0:
256,192,79494,1,8,0:0:0:0:
256,192,79744,2,0,L|160:192,2,96
256,192,80494,1,0,0:0:0:0:
256,192,80994,1,0,0:0:0:0:
256,192,81494,1,8,0:0:0:0:
256,192,81994,1,0,0:0:0:0:
256,192,82494,1,8,0:0:0:0:
256,192,82744,1,8,0:0:0:0:
256,192,82994,1,0,0:0:0:0:
256,192,83494,1,8,0:0:0:0:
256,192,84494,1,8,0:0:0:0:
256,192,84994,1,0,0:0:0:0:
256,192,85494,1,8,0:0:0:0:
256,192,85994,1,8,0:0:0:0:
256,192,86494,1,0,0:0:0:0:
256,192,86994,1,0,0:0:0:0:
256,192,87244,1,8,0:0:0:0:
256,192,87494,1,0,0:0:0:0:
256,192,88494,1,4,0:0:0:0:
256,192,88994,1,0,0:0:0:0:
256,192,89244,1,8,0:0:0:0:
256,192,89494,1,0,0:0:0:0:
256,192,89994,1,8,0:0:0:0:
256,192,90494,1,0,0:0:0:0:
256,192,90994,1,0,0:0:0:0:
256,192,91244,1,0,0:0:0:0:
256,192,91494,1,8,0:0:0:0:
256,192,91994,1,8,0:0:0:0:
256,192,92494,1,4,0:0:0:0:
256,192,93494,1,4,0:0:0:0:
256,192,94494,1,4,0:0:0:0:
256,192,94994,1,4,0:0:0:0:
256,192,95494,1,4,0:0:0:0:
256,192,95744,8,0,96494,0:0:0:0:
256,192,97244,5,8,0:0:0:0:
256,192,97494,5,4,0:0:0:0:
256,192,97994,1,8,0:0:0:0:
256,192,98244,1,8,0:0:0:0:
256,192,98494,1,0,0:0:0:0:
256,192,98994,1,8,0:0:0:0:
256,192,99494,1,0,0:0:0:0:
256,192,99744,1,0,0:0:0:0:
256,192,99994,1,8,0:0:0:0:
256,192,100244,1,8,0:0:0:0:
256,192,100494,1,0,0:0:0:0:
256,192,101494,1,8,0:0:0:0:
256,192,101994,1,0,0:0:0:0:
256,192,102244,1,0,0:0:0:0:
256,192,102494,1,8,0:0:0:0:
256,192,102994,1,0,0:0:0:0:
256,192,103494,1,8,0:0:0:0:
256,192,103994,1,0,0:0:0:0:
256,192,104244,1,8,0:0:0:0:
256,192,104494,1,0,0:0:0:0:
256,192,105244,1,8,0:0:0:0:
256,192,105494,1,4,0:0:0:0:
256,192,105994,1,8,0:0:0:0:
256,192,106244,1,8,0:0:0:0:
256,192,106494,1,0,0:0:0:0:
256,192,106994,1,8,0:0:0:0:
256,192,107494,1,0,0:0:0:0:
256,192,107994,1,8,0:0:0:0:
256,192,108244,1,0,0:0:0:0:
256,192,108494,1,8,0:0:0:0:
256,192,109494,1,0,0:0:0:0:
256,192,109994,1,8,0:0:0:0:
256,192,110244,1,0,0:0:0:0:
256,192,110494,1,8,0:0:0:0:
256,192,110994,1,8,0:0:0:0:
256,192,111494,1,0,0:0:0:0:
256,192,111744,1,8,0:0:0:0:
256,192,111994,1,0,0:0:0:0:
256,192,112244,1,0,0:0:0:0:
256,192,112494,1,8,0:0:0:0:
256,192,113494,1,0,0:0:0:0:
256,192,114494,1,8,0:0:0:0:
256,192,114994,1,8,0:0:0:0:
256,192,115494,1,4,0:0:0:0:
256,192,115744,1,0,0:0:0:0:
256,192,115994,1,8,0:0:0:0:
256,192,116244,1,8,0:0:0:0:
256,192,116494,1,0,0:0:0:0:
256,192,117494,1,0,0:0:0:0:
256,192,117994,1,8,0:0:0:0:
256,192,118244,1,8,0:0:0:0:
256,192,118494,1,0,0:0:0:0:
256,192,118994,1,8,0:0:0:0:
256,192,119494,1,0,0:0:0:0:
256,192,119994,1,0,0:0:0:0:
256,192,120244,1,8,0:0:0:0:
256,192,120494,1,0,0:0:0:0:
256,192,120994,1,0,0:0:0:0:
256,192,121494,1,4,0:0:0:0:
256,192,122244,1,4,0:0:0:0:
256,192,122494,1,4,0:0:0:0:
256,192,123494,1,4,0:0:0:0:
256,192,124244,1,4,0:0:0:0:
256,192,124494,1,4,0:0:0:0:
256,192,125494,1,4,0:0:0:0:
256,192,125994,1,4,0:0:0:0:
256,192,126494,1,4,0:0:0:0:
256,192,126994,1,4,0:0:0:0:
256,192,127494,1,0,0:0:0:0:
256,192,127744,1,0,0:0:0:0:
256,192,127994,1,0,0:0:0:0:
256,192,128244,1,8,0:0:0:0:
256,192,128494,12,8,129494,0:0:0:0:
