osu file format v14

[General]
AudioFilename: audio.mp3
AudioLeadIn: 0
PreviewTime: 96994
Countdown: 1
SampleSet: Normal
StackLeniency: 0.7
Mode: 1
LetterboxInBreaks: 0
WidescreenStoryboard: 1

[Editor]
DistanceSpacing: 1.9
BeatDivisor: 4
GridSize: 32
TimelineZoom: 3.099999

[Metadata]
Title:Rumble Kung-fu Showdown
TitleUnicode:Rumble Kung-fu Showdown
Artist:t+pazolite
ArtistUnicode:t+pazolite
Creator:incandescence
Version:Dekaane's Muzukashii
Source:
Tags:Ayyri eiri- DakeDekaane tasuke912 Taikocracy inc Kenran Kensou Orient C.H.S CHS Comiket 85 C85 CHS-0015 tpz
BeatmapID:1688436
BeatmapSetID:804330

[Difficulty]
HPDrainRate:5
CircleSize:2
OverallDifficulty:5
ApproachRate:10
SliderMultiplier:1.4
SliderTickRate:1

[Events]
//Background and Video events
0,0,"maxresdefault.jpg",0,0
//Break Periods
//Storyboard Layer 0 (Background)
//Storyboard Layer 1 (Fail)
//Storyboard Layer 2 (Pass)
//Storyboard Layer 3 (Foreground)
//Storyboard Sound Samples

[TimingPoints]
494,250,4,1,0,90,1,0
48494,-100,4,1,0,90,0,1
50494,-100,4,1,0,90,0,0
52494,-100,4,1,0,90,0,1
54494,-100,4,1,0,90,0,0
56494,-100,4,1,0,90,0,1
58494,-100,4,1,0,90,0,0
60494,-100,4,1,0,90,0,1
64494,-125,4,1,0,90,0,0
80494,-100,4,1,0,90,0,0
97494,-100,4,1,0,90,0,1
113494,-100,4,1,0,90,0,0
115494,-100,4,1,0,90,0,1
129494,-100,4,1,0,90,0,0

[HitObjects]
256,192,494,5,0,0:0:0:0:
256,192,619,1,0,0:0:0:0:
256,192,744,1,0,0:0:0:0:
256,192,869,1,0,0:0:0:0:
256,192,1119,1,0,0:0:0:0:
256,192,1244,1,0,0:0:0:0:
256,192,1369,1,0,0:0:0:0:
256,192,1494,1,0,0:0:0:0:
256,192,1744,1,0,0:0:0:0:
256,192,1869,1,0,0:0:0:0:
256,192,2119,1,0,0:0:0:0:
256,192,2181,1,0,0:0:0:0:
256,192,2244,1,0,0:0:0:0:
256,192,2494,1,8,0:0:0:0:
256,192,2619,1,8,0:0:0:0:
256,192,2744,1,8,0:0:0:0:
256,192,2869,1,8,0:0:0:0:
256,192,3119,1,8,0:0:0:0:
256,192,3244,1,8,0:0:0:0:
256,192,3369,1,8,0:0:0:0:
256,192,3494,1,8,0:0:0:0:
256,192,3744,1,8,0:0:0:0:
256,192,3869,1,8,0:0:0:0:
256,192,4119,1,8,0:0:0:0:
256,192,4181,1,8,0:0:0:0:
256,192,4244,1,8,0:0:0:0:
256,192,4494,1,0,0:0:0:0:
256,192,4619,1,0,0:0:0:0:
256,192,4744,1,0,0:0:0:0:
256,192,4869,1,0,0:0:0:0:
256,192,5119,1,0,0:0:0:0:
256,192,5244,1,0,0:0:0:0:
256,192,5369,1,0,0:0:0:0:
256,192,5494,1,0,0:0:0:0:
256,192,5744,1,0,0:0:0:0:
256,192,5869,1,0,0:0:0:0:
256,192,6119,1,0,0:0:0:0:
256,192,6181,1,0,0:0:0:0:
256,192,6244,1,0,0:0:0:0:
256,192,6494,1,8,0:0:0:0:
256,192,6619,1,8,0:0:0:0:
256,192,6744,1,8,0:0:0:0:
256,192,6869,1,8,0:0:0:0:
256,192,7119,1,8,0:0:0:0:
256,192,7244,1,8,0:0:0:0:
256,192,7369,1,8,0:0:0:0:
256,192,7494,1,0,0:0:0:0:
256,192,8494,1,0,0:0:0:0:
256,192,8619,1,0,0:0:0:0:
256,192,8744,1,0,0:0:0:0:
256,192,8869,1,0,0:0:0:0:
256,192,9119,1,0,0:0:0:0:
256,192,9244,1,0,0:0:0:0:
256,192,9369,1,0,0:0:0:0:
256,192,9494,1,0,0:0:0:0:
256,192,9744,1,0,0:0:0:0:
256,192,9869,1,0,0:0:0:0:
256,192,10119,1,0,0:0:0:0:
256,192,10181,1,0,0:0:0:0:
256,192,10244,1,0,0:0:0:0:
256,192,10494,1,8,0:0:0:0:
256,192,10619,1,8,0:0:0:0:
256,192,10744,1,8,0:0:0:0:
256,192,10869,1,8,0:0:0:0:
256,192,11119,1,8,0:0:0:0:
256,192,11244,1,8,0:0:0:0:
256,192,11369,1,8,0:0:0:0:
256,192,11494,1,8,0:0:0:0:
256,192,11744,1,8,0:0:0:0:
256,192,11869,1,8,0:0:0:0:
256,192,12119,1,8,0:0:0:0:
256,192,12181,1,8,0:0:0:0:
256,192,12244,1,8,0:0:0:0:
256,192,12494,1,0,0:0:0:0:
256,192,12619,1,0,0:0:0:0:
256,192,12744,1,0,0:0:0:0:
256,192,12869,1,0,0:0:0:0:
256,192,13119,1,0,0:0:0:0:
256,192,13244,1,0,0:0:0:0:
256,192,13369,1,0,0:0:0:0:
256,192,13494,1,0,0:0:0:0:
256,192,13744,1,0,0:0:0:0:
256,192,13869,1,0,0:0:0:0:
256,192,14119,1,0,0:0:0:0:
256,192,14181,1,0,0:0:0:0:
256,192,14244,1,0,0:0:0:0:
256,192,14494,1,8,0:0:0:0:
256,192,14619,1,8,0:0:0:0:
256,192,14744,1,8,0:0:0:0:
256,192,14869,1,8,0:0:0:0:
256,192,15119,1,8,0:0:0:0:
256,192,15244,1,8,0:0:0:0:
256,192,15369,1,8,0:0:0:0:
256,192,15494,1,0,0:0:0:0:
256,192,16494,1,4,0:0:0:0:
256,192,16994,1,8,0:0:0:0:
256,192,17744,1,8,0:0:0:0:
256,192,18119,1,8,0:0:0:0:
256,192,18369,1,0,0:0:0:0:
256,192,18494,1,0,0:0:0:0:
256,192,18994,1,8,0:0:0:0:
256,192,19744,1,8,0:0:0:0:
256,192,19994,1,0,0:0:0:0:
256,192,20119,1,8,0:0:0:0:
256,192,20369,1,8,0:0:0:0:
256,192,20494,1,0,0:0:0:0:
256,192,20994,1,8,0:0:0:0:
256,192,21744,1,8,0:0:0:0:
256,192,22119,1,8,0:0:0:0:
256,192,22369,1,0,0:0:0:0:
256,192,22494,1,0,0:0:0:0:
256,192,22994,1,8,0:0:0:0:
256,192,23744,1,8,0:0:0:0:
256,192,23994,1,0,0:0:0:0:
256,192,24119,1,8,0:0:0:0:
256,192,24369,1,8,0:0:0:0:
256,192,24494,1,0,0:0:0:0:
256,192,24994,1,8,0:0:0:0:
256,192,25744,1,0,0:0:0:0:
256,192,25994,1,8,0:0:0:0:
256,192,26119,1,0,0:0:0:0:
256,192,26494,1,0,0:0:0:0:
256,192,26994,1,8,0:0:0:0:
256,192,27744,1,0,0:0:0:0:
256,192,27994,1,8,0:0:0:0:
256,192,28494,1,0,0:0:0:0:
256,192,28994,1,8,0:0:0:0:
256,192,29744,1,0,0:0:0:0:
256,192,29994,1,8,0:0:0:0:
256,192,30119,1,0,0:0:0:0:
256,192,30494,1,0,0:0:0:0:
256,192,30994,1,8,0:0:0:0:
256,192,31744,1,0,0:0:0:0:
256,192,31994,1,8,0:0:0:0:
256,192,32494,1,0,0:0:0:0:
256,192,32994,1,8,0:0:0:0:
256,192,33744,1,0,0:0:0:0:
256,192,33869,1,8,0:0:0:0:
256,192,34119,1,8,0:0:0:0:
256,192,34369,1,0,0:0:0:0:
256,192,34431,1,0,0:0:0:0:
256,192,34494,1,0,0:0:0:0:
256,192,34994,1,8,0:0:0:0:
256,192,35494,1,0,0:0:0:0:
256,192,35619,1,0,0:0:0:0:
256,192,35744,1,8,0:0:0:0:
256,192,35869,1,8,0:0:0:0:
256,192,36119,1,8,0:0:0:0:
256,192,36369,1,8,0:0:0:0:
256,192,36494,1,0,0:0:0:0:
256,192,36994,1,8,0:0:0:0:
256,192,37494,1,0,0:0:0:0:
256,192,37744,1,0,0:0:0:0:
256,192,37994,1,8,0:0:0:0:
256,192,38244,1,8,0:0:0:0:
256,192,38369,1,0,0:0:0:0:
256,192,38431,1,0,0:0:0:0:
256,192,38494,1,0,0:0:0:0:
256,192,38994,1,8,0:0:0:0:
256,192,39369,1,0,0:0:0:0:
256,192,39744,1,8,0:0:0:0:
256,192,39994,1,0,0:0:0:0:
256,192,40494,1,0,0:0:0:0:
256,192,40744,1,0,0:0:0:0:
256,192,40994,1,8,0:0:0:0:
256,192,41244,1,0,0:0:0:0:
256,192,41369,1,0,0:0:0:0:
256,192,41744,1,0,0:0:0:0:
256,192,41994,1,8,0:0:0:0:
256,192,42369,1,0,0:0:0:0:
256,192,42431,1,0,0:0:0:0:
256,192,42494,1,0,0:0:0:0:
256,192,42744,1,0,0:0:0:0:
256,192,42994,1,8,0:0:0:0:
256,192,43244,1,0,0:0:0:0:
256,192,43494,1,0,0:0:0:0:
256,192,43619,1,0,0:0:0:0:
256,192,43744,1,0,0:0:0:0:
256,192,43994,1,8,0:0:0:0:
256,192,44494,1,0,0:0:0:0:
256,192,44744,1,8,0:0:0:0:
256,192,44869,1,8,0:0:0:0:
256,192,44994,1,0,0:0:0:0:
256,192,45244,1,8,0:0:0:0:
256,192,45494,1,0,0:0:0:0:
256,192,45744,1,8,0:0:0:0:
256,192,45869,1,8,0:0:0:0:
256,192,45994,1,0,0:0:0:0:
256,192,46244,1,8,0:0:0:0:
256,192,46494,1,0,0:0:0:0:
256,192,46744,1,0,0:0:0:0:
256,192,46994,1,0,0:0:0:0:
256,192,47244,1,0,0:0:0:0:
256,192,47494,1,0,0:0:0:0:
256,192,48494,1,0,0:0:0:0:
256,192,48744,1,0,0:0:0:0:
256,192,48869,1,0,0:0:0:0:
256,192,48994,1,0,0:0:0:0:
256,192,49119,1,0,0:0:0:0:
256,192,49244,1,0,0:0:0:0:
256,192,49494,1,0,0:0:0:0:
256,192,49744,1,0,0:0:0:0:
256,192,49994,1,0,0:0:0:0:
256,192,50056,1,0,0:0:0:0:
256,192,50119,1,0,0:0:0:0:
256,192,50244,1,0,0:0:0:0:
256,192,50369,1,0,0:0:0:0:
256,192,50494,1,0,0:0:0:0:
256,192,50869,1,0,0:0:0:0:
256,192,51244,1,0,0:0:0:0:
256,192,51494,1,0,0:0:0:0:
256,192,51869,1,8,0:0:0:0:
256,192,51931,1,8,0:0:0:0:
256,192,51994,1,8,0:0:0:0:
256,192,52494,1,0,0:0:0:0:
256,192,52744,1,0,0:0:0:0:
256,192,52869,1,0,0:0:0:0:
256,192,52994,1,0,0:0:0:0:
256,192,53119,1,0,0:0:0:0:
256,192,53244,1,0,0:0:0:0:
256,192,53494,1,0,0:0:0:0:
256,192,53744,1,0,0:0:0:0:
256,192,53994,1,0,0:0:0:0:
256,192,54056,1,0,0:0:0:0:
256,192,54119,1,0,0:0:0:0:
256,192,54244,1,0,0:0:0:0:
256,192,54369,1,0,0:0:0:0:
256,192,54494,1,0,0:0:0:0:
256,192,54869,1,0,0:0:0:0:
256,192,55244,1,0,0:0:0:0:
256,192,55494,1,0,0:0:0:0:
256,192,55744,1,8,0:0:0:0:
256,192,55869,1,0,0:0:0:0:
256,192,55994,1,8,0:0:0:0:
256,192,56494,1,0,0:0:0:0:
256,192,56744,1,0,0:0:0:0:
256,192,56869,1,0,0:0:0:0:
256,192,56994,1,0,0:0:0:0:
256,192,57119,1,0,0:0:0:0:
256,192,57244,1,0,0:0:0:0:
256,192,57494,1,0,0:0:0:0:
256,192,57744,1,0,0:0:0:0:
256,192,57994,1,0,0:0:0:0:
256,192,58056,1,0,0:0:0:0:
256,192,58119,1,0,0:0:0:0:
256,192,58244,1,0,0:0:0:0:
256,192,58369,1,0,0:0:0:0:
256,192,58494,1,0,0:0:0:0:
256,192,58869,1,0,0:0:0:0:
256,192,59244,1,0,0:0:0:0:
256,192,59494,1,0,0:0:0:0:
256,192,59869,1,8,0:0:0:0:
256,192,59931,1,8,0:0:0:0:
256,192,59994,1,8,0:0:0:0:
256,192,60494,1,0,0:0:0:0:
256,192,60744,1,0,0:0:0:0:
256,192,60869,1,0,0:0:0:0:
256,192,60994,1,0,0:0:0:0:
256,192,61119,1,0,0:0:0:0:
256,192,61244,1,0,0:0:0:0:
256,192,61494,1,0,0:0:0:0:
256,192,61744,1,0,0:0:0:0:
256,192,61994,1,0,0:0:0:0:
256,192,62056,1,0,0:0:0:0:
256,192,62119,1,0,0:0:0:0:
256,192,62244,1,0,0:0:0:0:
256,192,62369,1,0,0:0:0:0:
256,192,62494,2,0,B|512:192|512:192|512:0|512:0,1,420
256,192,63494,1,4,0:0:0:0:
256,192,64494,1,8,0:0:0:0:
256,192,64744,1,8,0:0:0:0:
256,192,64869,1,8,0:0:0:0:
256,192,65119,1,8,0:0:0:0:
256,192,65369,1,8,0:0:0:0:
256,192,65494,1,8,0:0:0:0:
256,192,65744,1,8,0:0:0:0:
256,192,65994,1,8,0:0:0:0:
256,192,66494,1,8,0:0:0:0:
256,192,66994,1,8,0:0:0:0:
256,192,67119,1,8,0:0:0:0:
256,192,67244,1,8,0:0:0:0:
256,192,67369,1,8,0:0:0:0:
256,192,67494,1,8,0:0:0:0:
256,192,68494,1,8,0:0:0:0:
256,192,68744,1,8,0:0:0:0:
256,192,68869,1,8,0:0:0:0:
256,192,69119,1,8,0:0:0:0:
256,192,69369,1,8,0:0:0:0:
256,192,69494,1,8,0:0:0:0:
256,192,69744,1,8,0:0:0:0:
256,192,69994,1,8,0:0:0:0:
256,192,70494,1,8,0:0:0:0:
256,192,70744,1,8,0:0:0:0:
256,192,70994,1,8,0:0:0:0:
256,192,71244,1,8,0:0:0:0:
256,192,71369,1,8,0:0:0:0:
256,192,71494,1,8,0:0:0:0:
256,192,71744,1,8,0:0:0:0:
256,192,71994,1,8,0:0:0:0:
256,192,72494,1,0,0:0:0:0:
256,192,72744,1,8,0:0:0:0:
256,192,72869,1,8,0:0:0:0:
256,192,73119,1,8,0:0:0:0:
256,192,73369,1,8,0:0:0:0:
256,192,73494,1,0,0:0:0:0:
256,192,73744,1,8,0:0:0:0:
256,192,73994,1,8,0:0:0:0:
256,192,74494,1,0,0:0:0:0:
256,192,74744,1,8,0:0:0:0:
256,192,74994,1,8,0:0:0:0:
256,192,75244,1,8,0:0:0:0:
256,192,75369,1,8,0:0:0:0:
256,192,75494,1,0,0:0:0:0:
256,192,75744,1,8,0:0:0:0:
256,192,75994,1,8,0:0:0:0:
256,192,76494,1,0,0:0:0:0:
256,192,76744,1,8,0:0:0:0:
256,192,76869,1,8,0:0:0:0:
256,192,77119,1,8,0:0:0:0:
256,192,77369,1,8,0:0:0:0:
256,192,77494,1,0,0:0:0:0:
256,192,77744,1,8,0:0:0:0:
256,192,77994,1,8,0:0:0:0:
256,192,78494,1,0,0:0:0:0:
256,192,78994,1,0,0:0:0:0:
256,192,79119,1,0,0:0:0:0:
256,192,79244,1,8,0:0:0:0:
256,192,79369,1,8,0:0:0:0:
256,192,79494,1,0,0:0:0:0:
256,192,80494,1,4,0:0:0:0:
256,192,80994,1,8,0:0:0:0:
256,192,81244,1,8,0:0:0:0:
256,192,81369,1,8,0:0:0:0:
256,192,81494,1,0,0:0:0:0:
256,192,81744,1,8,0:0:0:0:
256,192,81994,1,8,0:0:0:0:
256,192,82494,1,0,0:0:0:0:
256,192,82744,1,0,0:0:0:0:
256,192,82994,1,0,0:0:0:0:
256,192,83119,1,0,0:0:0:0:
256,192,83244,1,0,0:0:0:0:
256,192,83369,1,0,0:0:0:0:
256,192,83494,1,8,0:0:0:0:
256,192,84494,1,0,0:0:0:0:
256,192,84994,1,0,0:0:0:0:
256,192,85244,1,8,0:0:0:0:
256,192,85369,1,8,0:0:0:0:
256,192,85494,1,0,0:0:0:0:
256,192,85744,1,8,0:0:0:0:
256,192,85994,1,8,0:0:0:0:
256,192,86494,1,0,0:0:0:0:
256,192,86744,1,0,0:0:0:0:
256,192,86994,1,8,0:0:0:0:
256,192,87119,1,8,0:0:0:0:
256,192,87244,1,8,0:0:0:0:
256,192,87369,1,8,0:0:0:0:
256,192,87494,1,0,0:0:0:0:
256,192,87744,1,0,0:0:0:0:
256,192,87994,1,0,0:0:0:0:
256,192,88494,1,4,0:0:0:0:
256,192,88744,1,8,0:0:0:0:
256,192,88994,1,8,0:0:0:0:
256,192,89244,1,0,0:0:0:0:
256,192,89369,1,0,0:0:0:0:
256,192,89494,1,0,0:0:0:0:
256,192,89744,1,8,0:0:0:0:
256,192,89994,1,8,0:0:0:0:
256,192,90494,1,0,0:0:0:0:
256,192,90744,1,0,0:0:0:0:
256,192,90869,1,0,0:0:0:0:
256,192,90994,1,0,0:0:0:0:
256,192,91244,1,8,0:0:0:0:
256,192,91369,1,8,0:0:0:0:
256,192,91494,1,0,0:0:0:0:
256,192,91744,1,8,0:0:0:0:
256,192,91994,1,8,0:0:0:0:
256,192,92494,1,4,0:0:0:0:
256,192,92744,1,8,0:0:0:0:
256,192,92869,1,8,0:0:0:0:
256,192,92994,1,8,0:0:0:0:
256,192,93244,1,8,0:0:0:0:
256,192,93494,1,4,0:0:0:0:
256,192,93744,1,8,0:0:0:0:
256,192,93994,1,8,0:0:0:0:
256,192,94494,1,4,0:0:0:0:
256,192,94744,1,8,0:0:0:0:
256,192,94869,1,8,0:0:0:0:
256,192,94994,1,4,0:0:0:0:
256,192,95244,1,8,0:0:0:0:
256,192,95369,1,8,0:0:0:0:
256,192,95494,2,4,B|512:192|512:192|512:0|512:0|384:0,1,560,0|0,0:0|0:0,0:0:0:0:
256,192,96994,1,12,0:0:0:0:
256,192,97244,1,12,0:0:0:0:
256,192,97494,1,0,0:0:0:0:
256,192,97744,1,0,0:0:0:0:
256,192,97994,1,0,0:0:0:0:
256,192,98244,1,8,0:0:0:0:
256,192,98369,1,8,0:0:0:0:
256,192,98494,1,0,0:0:0:0:
256,192,98744,1,8,0:0:0:0:
256,192,98994,1,8,0:0:0:0:
256,192,99244,1,0,0:0:0:0:
256,192,99306,1,0,0:0:0:0:
256,192,99369,1,0,0:0:0:0:
256,192,99494,1,0,0:0:0:0:
256,192,99744,1,0,0:0:0:0:
256,192,99994,1,0,0:0:0:0:
256,192,100119,1,0,0:0:0:0:
256,192,100244,1,8,0:0:0:0:
256,192,100369,1,8,0:0:0:0:
256,192,100494,2,0,B|512:192|512:192|512:128,1,280
256,192,101494,1,0,0:0:0:0:
256,192,101744,1,0,0:0:0:0:
256,192,101869,1,0,0:0:0:0:
256,192,101994,1,0,0:0:0:0:
256,192,102244,1,8,0:0:0:0:
256,192,102369,1,8,0:0:0:0:
256,192,102494,1,0,0:0:0:0:
256,192,102744,1,8,0:0:0:0:
256,192,102994,1,8,0:0:0:0:
256,192,103244,1,0,0:0:0:0:
256,192,103369,1,0,0:0:0:0:
256,192,103494,1,0,0:0:0:0:
256,192,103744,1,0,0:0:0:0:
256,192,103806,1,0,0:0:0:0:
256,192,103869,1,0,0:0:0:0:
256,192,103994,1,8,0:0:0:0:
256,192,104119,1,8,0:0:0:0:
256,192,104244,1,0,0:0:0:0:
256,192,104369,1,0,0:0:0:0:
256,192,104494,1,12,0:0:0:0:
256,192,104744,1,12,0:0:0:0:
256,192,104994,1,12,0:0:0:0:
256,192,105494,1,0,0:0:0:0:
256,192,105744,1,0,0:0:0:0:
256,192,105994,1,0,0:0:0:0:
256,192,106244,1,8,0:0:0:0:
256,192,106369,1,8,0:0:0:0:
256,192,106494,1,0,0:0:0:0:
256,192,106744,1,8,0:0:0:0:
256,192,106994,1,8,0:0:0:0:
256,192,107244,1,0,0:0:0:0:
256,192,107306,1,0,0:0:0:0:
256,192,107369,1,0,0:0:0:0:
256,192,107494,1,0,0:0:0:0:
256,192,107744,1,0,0:0:0:0:
256,192,107994,1,0,0:0:0:0:
256,192,108119,1,0,0:0:0:0:
256,192,108244,1,8,0:0:0:0:
256,192,108369,1,8,0:0:0:0:
256,192,108494,1,0,0:0:0:0:
256,192,108744,1,8,0:0:0:0:
256,192,108994,1,8,0:0:0:0:
256,192,109494,1,0,0:0:0:0:
256,192,109744,1,0,0:0:0:0:
256,192,109869,1,0,0:0:0:0:
256,192,109994,1,0,0:0:0:0:
256,192,110244,1,8,0:0:0:0:
256,192,110369,1,8,0:0:0:0:
256,192,110494,1,0,0:0:0:0:
256,192,110744,1,8,0:0:0:0:
256,192,110994,1,8,0:0:0:0:
256,192,111244,1,0,0:0:0:0:
256,192,111369,1,0,0:0:0:0:
256,192,111494,1,0,0:0:0:0:
256,192,111744,1,8,0:0:0:0:
256,192,111806,1,8,0:0:0:0:
256,192,111869,1,8,0:0:0:0:
256,192,111994,1,0,0:0:0:0:
256,192,112119,1,0,0:0:0:0:
256,192,112244,1,8,0:0:0:0:
256,192,112369,1,8,0:0:0:0:
256,192,112494,2,0,B|512:192|512:192|512:0|512:0|384:0,1,560
256,192,114494,1,8,0:0:0:0:
256,192,114744,1,8,0:0:0:0:
256,192,114994,1,8,0:0:0:0:
256,192,115494,1,0,0:0:0:0:
256,192,115744,1,8,0:0:0:0:
256,192,115806,1,8,0:0:0:0:
256,192,115869,1,8,0:0:0:0:
256,192,115994,1,0,0:0:0:0:
256,192,116119,1,0,0:0:0:0:
256,192,116244,1,8,0:0:0:0:
256,192,116369,1,8,0:0:0:0:
256,192,116494,2,0,B|512:192|512:192|512:128,1,280
256,192,117494,1,0,0:0:0:0:
256,192,117744,1,0,0:0:0:0:
256,192,117869,1,0,0:0:0:0:
256,192,117994,1,0,0:0:0:0:
256,192,118244,1,8,0:0:0:0:
256,192,118369,1,8,0:0:0:0:
256,192,118494,1,0,0:0:0:0:
256,192,118744,1,8,0:0:0:0:
256,192,118994,1,8,0:0:0:0:
256,192,119244,1,0,0:0:0:0:
256,192,119369,1,0,0:0:0:0:
256,192,119494,1,0,0:0:0:0:
256,192,119744,1,0,0:0:0:0:
256,192,119806,1,0,0:0:0:0:
256,192,119869,1,0,0:0:0:0:
256,192,119994,1,8,0:0:0:0:
256,192,120119,1,8,0:0:0:0:
256,192,120244,1,0,0:0:0:0:
256,192,120369,1,0,0:0:0:0:
256,192,120494,1,12,0:0:0:0:
256,192,120744,1,12,0:0:0:0:
256,192,120994,1,12,0:0:0:0:
256,192,121494,1,4,0:0:0:0:
256,192,121869,1,4,0:0:0:0:
256,192,122244,1,4,0:0:0:0:
256,192,122494,1,4,0:0:0:0:
256,192,122994,1,8,0:0:0:0:
256,192,123244,1,8,0:0:0:0:
256,192,123369,1,8,0:0:0:0:
256,192,123494,1,4,0:0:0:0:
256,192,123869,1,4,0:0:0:0:
256,192,124244,1,4,0:0:0:0:
256,192,124494,1,12,0:0:0:0:
256,192,124994,1,8,0:0:0:0:
256,192,125244,1,0,0:0:0:0:
256,192,125369,1,8,0:0:0:0:
256,192,125494,1,0,0:0:0:0:
256,192,125744,1,8,0:0:0:0:
256,192,125869,1,8,0:0:0:0:
256,192,125994,1,0,0:0:0:0:
256,192,126244,1,8,0:0:0:0:
256,192,126369,1,8,0:0:0:0:
256,192,126494,1,0,0:0:0:0:
256,192,126744,1,8,0:0:0:0:
256,192,126994,1,0,0:0:0:0:
256,192,127244,1,8,0:0:0:0:
256,192,127369,1,8,0:0:0:0:
256,192,127494,1,0,0:0:0:0:
256,192,127619,1,0,0:0:0:0:
256,192,127744,1,8,0:0:0:0:
256,192,127869,1,8,0:0:0:0:
256,192,127994,1,0,0:0:0:0:
256,192,128119,1,0,0:0:0:0:
256,192,128244,1,8,0:0:0:0:
256,192,128369,1,8,0:0:0:0:
256,192,128494,2,4,B|512:192|512:192|512:0|512:0|384:0,1,560
