osu file format v14

[General]
AudioFilename: audio.mp3
AudioLeadIn: 0
PreviewTime: 96994
Countdown: 1
SampleSet: Normal
StackLeniency: 0.7
Mode: 1
LetterboxInBreaks: 0
WidescreenStoryboard: 1

[Editor]
Bookmarks: 494,8494,16494,32494,48494,64494,80494,97494,113744,129494
DistanceSpacing: 1.9
BeatDivisor: 4
GridSize: 32
TimelineZoom: 3.899998

[Metadata]
Title:Rumble Kung-fu Showdown
TitleUnicode:Rumble Kung-fu Showdown
Artist:t+pazolite
ArtistUnicode:t+pazolite
Creator:incandescence
Version:AyyriDescence's Inner Oni
Source:
Tags:Ayyri eiri- DakeDekaane tasuke912 Taikocracy inc Kenran Kensou Orient C.H.S CHS Comiket 85 C85 CHS-0015 tpz
BeatmapID:1688435
BeatmapSetID:804330

[Difficulty]
HPDrainRate:6
CircleSize:2
OverallDifficulty:6.5
ApproachRate:10
SliderMultiplier:1.4
SliderTickRate:1

[Events]
//Background and Video events
0,0,"Rumble Kung-fu Showdown.jpg",0,35
//Break Periods
//Storyboard Layer 0 (Background)
//Storyboard Layer 1 (Fail)
//Storyboard Layer 2 (Pass)
//Storyboard Layer 3 (Foreground)
//Storyboard Sound Samples

[TimingPoints]
494,250,4,1,0,100,1,0
48494,-66.6666666666667,4,1,0,100,0,1
50494,-66.6666666666667,4,1,0,100,0,0
50744,-100,4,1,0,100,0,0
52494,-66.6666666666667,4,1,0,100,0,1
54494,-66.6666666666667,4,1,0,100,0,0
54744,-100,4,1,0,100,0,0
56494,-66.6666666666667,4,1,0,100,0,1
58494,-66.6666666666667,4,1,0,100,0,0
58744,-100,4,1,0,100,0,0
60494,-66.6666666666667,4,1,0,100,0,1
63494,-66.6666666666667,4,1,0,100,0,0
63744,-100,4,1,0,100,0,0
64494,-100,4,1,0,100,0,0
96994,-71.4285714285714,4,1,0,100,0,0
97244,-83.3333333333333,4,1,0,100,0,0
97494,-100,4,1,0,100,0,1
113494,-100,4,1,0,100,0,0
113744,-125,4,1,0,100,0,0
115244,-111.111111111111,4,1,0,100,0,0
115369,-105.263157894737,4,1,0,100,0,0
115494,-100,4,1,0,100,0,1
129494,-66.6666666666667,4,1,0,100,0,0

[HitObjects]
256,192,494,5,12,0:0:0:0:
256,192,619,1,0,0:0:0:0:
256,192,681,1,0,0:0:0:0:
256,192,744,1,0,0:0:0:0:
256,192,869,1,8,0:0:0:0:
256,192,994,1,8,0:0:0:0:
256,192,1056,1,8,0:0:0:0:
256,192,1119,1,0,0:0:0:0:
256,192,1181,1,0,0:0:0:0:
256,192,1244,1,8,0:0:0:0:
256,192,1369,1,0,0:0:0:0:
256,192,1494,1,8,0:0:0:0:
256,192,1556,1,8,0:0:0:0:
256,192,1619,1,0,0:0:0:0:
256,192,1681,1,0,0:0:0:0:
256,192,1744,1,8,0:0:0:0:
256,192,1806,1,0,0:0:0:0:
256,192,1869,1,8,0:0:0:0:
256,192,1994,1,0,0:0:0:0:
256,192,2056,1,0,0:0:0:0:
256,192,2119,1,0,0:0:0:0:
256,192,2181,1,0,0:0:0:0:
256,192,2244,1,8,0:0:0:0:
256,192,2494,1,8,0:0:0:0:
256,192,2619,1,0,0:0:0:0:
256,192,2681,1,0,0:0:0:0:
256,192,2744,1,0,0:0:0:0:
256,192,2869,1,8,0:0:0:0:
256,192,2931,1,0,0:0:0:0:
256,192,2994,1,8,0:0:0:0:
256,192,3056,1,8,0:0:0:0:
256,192,3119,1,0,0:0:0:0:
256,192,3181,1,0,0:0:0:0:
256,192,3244,1,8,0:0:0:0:
256,192,3369,1,0,0:0:0:0:
256,192,3494,1,8,0:0:0:0:
256,192,3556,1,8,0:0:0:0:
256,192,3619,1,8,0:0:0:0:
256,192,3681,1,8,0:0:0:0:
256,192,3744,1,0,0:0:0:0:
256,192,3869,1,8,0:0:0:0:
256,192,4119,1,0,0:0:0:0:
256,192,4244,1,8,0:0:0:0:
256,192,4369,1,0,0:0:0:0:
256,192,4494,1,8,0:0:0:0:
256,192,4619,1,0,0:0:0:0:
256,192,4681,1,0,0:0:0:0:
256,192,4744,1,0,0:0:0:0:
256,192,4869,1,8,0:0:0:0:
256,192,4994,1,8,0:0:0:0:
256,192,5056,1,8,0:0:0:0:
256,192,5119,1,0,0:0:0:0:
256,192,5181,1,0,0:0:0:0:
256,192,5244,1,8,0:0:0:0:
256,192,5369,1,0,0:0:0:0:
256,192,5494,1,8,0:0:0:0:
256,192,5556,1,8,0:0:0:0:
256,192,5619,1,0,0:0:0:0:
256,192,5681,1,0,0:0:0:0:
256,192,5744,1,8,0:0:0:0:
256,192,5806,1,0,0:0:0:0:
256,192,5869,1,8,0:0:0:0:
256,192,5994,1,0,0:0:0:0:
256,192,6056,1,0,0:0:0:0:
256,192,6119,1,0,0:0:0:0:
256,192,6181,1,0,0:0:0:0:
256,192,6244,1,8,0:0:0:0:
256,192,6494,1,8,0:0:0:0:
256,192,6619,1,0,0:0:0:0:
256,192,6681,1,0,0:0:0:0:
256,192,6744,1,0,0:0:0:0:
256,192,6869,1,8,0:0:0:0:
256,192,6931,1,0,0:0:0:0:
256,192,6994,1,8,0:0:0:0:
256,192,7056,1,8,0:0:0:0:
256,192,7119,1,0,0:0:0:0:
256,192,7181,1,0,0:0:0:0:
256,192,7244,1,8,0:0:0:0:
256,192,7369,1,0,0:0:0:0:
256,192,7494,1,8,0:0:0:0:
256,192,7744,1,0,0:0:0:0:
256,192,7869,1,8,0:0:0:0:
256,192,7994,1,8,0:0:0:0:
256,192,8244,1,0,0:0:0:0:
256,192,8494,1,12,0:0:0:0:
256,192,8619,1,0,0:0:0:0:
256,192,8681,1,0,0:0:0:0:
256,192,8744,1,0,0:0:0:0:
256,192,8869,1,8,0:0:0:0:
256,192,8994,1,0,0:0:0:0:
256,192,9056,1,0,0:0:0:0:
256,192,9119,1,0,0:0:0:0:
256,192,9181,1,0,0:0:0:0:
256,192,9244,1,8,0:0:0:0:
256,192,9306,1,8,0:0:0:0:
256,192,9369,1,0,0:0:0:0:
256,192,9494,1,8,0:0:0:0:
256,192,9619,1,0,0:0:0:0:
256,192,9681,1,0,0:0:0:0:
256,192,9744,1,8,0:0:0:0:
256,192,9869,1,0,0:0:0:0:
256,192,9994,1,8,0:0:0:0:
256,192,10056,1,8,0:0:0:0:
256,192,10119,1,8,0:0:0:0:
256,192,10181,1,8,0:0:0:0:
256,192,10244,1,0,0:0:0:0:
256,192,10494,1,8,0:0:0:0:
256,192,10619,1,0,0:0:0:0:
256,192,10681,1,0,0:0:0:0:
256,192,10744,1,0,0:0:0:0:
256,192,10869,1,8,0:0:0:0:
256,192,10994,1,0,0:0:0:0:
256,192,11056,1,0,0:0:0:0:
256,192,11119,1,0,0:0:0:0:
256,192,11181,1,0,0:0:0:0:
256,192,11244,1,8,0:0:0:0:
256,192,11306,1,8,0:0:0:0:
256,192,11369,1,0,0:0:0:0:
256,192,11494,1,8,0:0:0:0:
256,192,11556,1,8,0:0:0:0:
256,192,11619,1,8,0:0:0:0:
256,192,11681,1,8,0:0:0:0:
256,192,11744,1,0,0:0:0:0:
256,192,11869,1,8,0:0:0:0:
256,192,12119,1,8,0:0:0:0:
256,192,12244,1,0,0:0:0:0:
256,192,12369,1,0,0:0:0:0:
256,192,12494,1,8,0:0:0:0:
256,192,12619,1,0,0:0:0:0:
256,192,12681,1,0,0:0:0:0:
256,192,12744,1,0,0:0:0:0:
256,192,12869,1,8,0:0:0:0:
256,192,12994,1,0,0:0:0:0:
256,192,13056,1,0,0:0:0:0:
256,192,13119,1,0,0:0:0:0:
256,192,13181,1,0,0:0:0:0:
256,192,13244,1,8,0:0:0:0:
256,192,13306,1,8,0:0:0:0:
256,192,13369,1,0,0:0:0:0:
256,192,13494,1,8,0:0:0:0:
256,192,13619,1,0,0:0:0:0:
256,192,13681,1,0,0:0:0:0:
256,192,13744,1,8,0:0:0:0:
256,192,13869,1,0,0:0:0:0:
256,192,13994,1,8,0:0:0:0:
256,192,14056,1,8,0:0:0:0:
256,192,14119,1,8,0:0:0:0:
256,192,14181,1,8,0:0:0:0:
256,192,14244,1,0,0:0:0:0:
256,192,14494,1,8,0:0:0:0:
256,192,14619,1,0,0:0:0:0:
256,192,14681,1,0,0:0:0:0:
256,192,14744,1,0,0:0:0:0:
256,192,14869,1,8,0:0:0:0:
256,192,14994,1,0,0:0:0:0:
256,192,15056,1,0,0:0:0:0:
256,192,15119,1,0,0:0:0:0:
256,192,15181,1,0,0:0:0:0:
256,192,15244,1,8,0:0:0:0:
256,192,15306,1,8,0:0:0:0:
256,192,15369,1,0,0:0:0:0:
256,192,15494,1,8,0:0:0:0:
256,192,15744,1,8,0:0:0:0:
256,192,15869,1,8,0:0:0:0:
256,192,15994,1,0,0:0:0:0:
256,192,16244,1,8,0:0:0:0:
256,192,16494,1,4,0:0:0:0:
256,192,16994,1,0,0:0:0:0:
256,192,17119,1,8,0:0:0:0:
256,192,17244,1,8,0:0:0:0:
256,192,17369,1,8,0:0:0:0:
256,192,17494,1,0,0:0:0:0:
256,192,17744,1,8,0:0:0:0:
256,192,17869,1,8,0:0:0:0:
256,192,17994,1,0,0:0:0:0:
256,192,18119,1,8,0:0:0:0:
256,192,18369,1,8,0:0:0:0:
256,192,18494,1,0,0:0:0:0:
256,192,18744,1,0,0:0:0:0:
256,192,18994,1,0,0:0:0:0:
256,192,19119,1,8,0:0:0:0:
256,192,19244,1,8,0:0:0:0:
256,192,19369,1,8,0:0:0:0:
256,192,19494,1,0,0:0:0:0:
256,192,19744,1,0,0:0:0:0:
256,192,19869,1,8,0:0:0:0:
256,192,20119,1,8,0:0:0:0:
256,192,20369,1,0,0:0:0:0:
256,192,20494,1,8,0:0:0:0:
256,192,20744,1,8,0:0:0:0:
256,192,20994,1,0,0:0:0:0:
256,192,21119,1,8,0:0:0:0:
256,192,21244,1,8,0:0:0:0:
256,192,21369,1,8,0:0:0:0:
256,192,21494,1,0,0:0:0:0:
256,192,21744,1,8,0:0:0:0:
256,192,21869,1,8,0:0:0:0:
256,192,21994,1,0,0:0:0:0:
256,192,22119,1,8,0:0:0:0:
256,192,22369,1,8,0:0:0:0:
256,192,22494,1,0,0:0:0:0:
256,192,22744,1,0,0:0:0:0:
256,192,22994,1,0,0:0:0:0:
256,192,23119,1,8,0:0:0:0:
256,192,23244,1,8,0:0:0:0:
256,192,23369,1,8,0:0:0:0:
256,192,23494,1,0,0:0:0:0:
256,192,23744,1,0,0:0:0:0:
256,192,23869,1,8,0:0:0:0:
256,192,24119,1,0,0:0:0:0:
256,192,24369,1,8,0:0:0:0:
256,192,24494,1,0,0:0:0:0:
256,192,24994,1,8,0:0:0:0:
256,192,25744,1,0,0:0:0:0:
256,192,25994,1,8,0:0:0:0:
256,192,26494,1,0,0:0:0:0:
256,192,26994,1,8,0:0:0:0:
256,192,27744,1,0,0:0:0:0:
256,192,27994,1,8,0:0:0:0:
256,192,28494,1,0,0:0:0:0:
256,192,28994,1,8,0:0:0:0:
256,192,29744,1,0,0:0:0:0:
256,192,29994,1,8,0:0:0:0:
256,192,30494,1,0,0:0:0:0:
256,192,30994,1,8,0:0:0:0:
256,192,31494,1,8,0:0:0:0:
256,192,31744,1,0,0:0:0:0:
256,192,31994,1,12,0:0:0:0:
256,192,32244,1,12,0:0:0:0:
256,192,32494,1,4,0:0:0:0:
256,192,32994,1,8,0:0:0:0:
256,192,33744,1,0,0:0:0:0:
256,192,33994,1,8,0:0:0:0:
256,192,34119,1,0,0:0:0:0:
256,192,34244,1,8,0:0:0:0:
256,192,34306,1,0,0:0:0:0:
256,192,34369,1,8,0:0:0:0:
256,192,34431,1,8,0:0:0:0:
256,192,34494,1,0,0:0:0:0:
256,192,34994,1,8,0:0:0:0:
256,192,35494,1,8,0:0:0:0:
256,192,35744,1,0,0:0:0:0:
256,192,35869,1,0,0:0:0:0:
256,192,35994,1,8,0:0:0:0:
256,192,36119,1,0,0:0:0:0:
256,192,36369,1,8,0:0:0:0:
256,192,36494,1,0,0:0:0:0:
256,192,36994,1,8,0:0:0:0:
256,192,37744,1,0,0:0:0:0:
256,192,37994,1,8,0:0:0:0:
256,192,38119,1,0,0:0:0:0:
256,192,38244,1,8,0:0:0:0:
256,192,38306,1,0,0:0:0:0:
256,192,38369,1,8,0:0:0:0:
256,192,38431,1,8,0:0:0:0:
256,192,38494,1,0,0:0:0:0:
256,192,38994,1,8,0:0:0:0:
256,192,39369,1,0,0:0:0:0:
256,192,39744,1,8,0:0:0:0:
256,192,39994,1,4,0:0:0:0:
256,192,40494,1,4,0:0:0:0:
256,192,40744,1,4,0:0:0:0:
256,192,40994,1,0,0:0:0:0:
256,192,41244,1,8,0:0:0:0:
256,192,41369,1,0,0:0:0:0:
256,192,41619,1,0,0:0:0:0:
256,192,41744,1,8,0:0:0:0:
256,192,41869,1,8,0:0:0:0:
256,192,41994,1,0,0:0:0:0:
256,192,42119,1,0,0:0:0:0:
256,192,42181,1,0,0:0:0:0:
256,192,42244,1,8,0:0:0:0:
256,192,42306,1,0,0:0:0:0:
256,192,42369,1,8,0:0:0:0:
256,192,42431,1,8,0:0:0:0:
256,192,42494,1,4,0:0:0:0:
256,192,42744,1,4,0:0:0:0:
256,192,42994,1,8,0:0:0:0:
256,192,43119,1,0,0:0:0:0:
256,192,43244,1,8,0:0:0:0:
256,192,43494,1,0,0:0:0:0:
256,192,43619,1,8,0:0:0:0:
256,192,43744,1,0,0:0:0:0:
256,192,43806,1,0,0:0:0:0:
256,192,43869,1,0,0:0:0:0:
256,192,43931,1,0,0:0:0:0:
256,192,43994,1,8,0:0:0:0:
256,192,44119,1,0,0:0:0:0:
256,192,44244,1,8,0:0:0:0:
256,192,44306,1,0,0:0:0:0:
256,192,44369,1,0,0:0:0:0:
256,192,44494,1,4,0:0:0:0:
256,192,44744,1,8,0:0:0:0:
256,192,44869,1,0,0:0:0:0:
256,192,44994,1,4,0:0:0:0:
256,192,45244,1,8,0:0:0:0:
256,192,45494,1,4,0:0:0:0:
256,192,45619,1,8,0:0:0:0:
256,192,45869,1,8,0:0:0:0:
256,192,45994,1,4,0:0:0:0:
256,192,46119,1,0,0:0:0:0:
256,192,46181,1,0,0:0:0:0:
256,192,46244,1,8,0:0:0:0:
256,192,46306,1,0,0:0:0:0:
256,192,46369,1,8,0:0:0:0:
256,192,46431,1,8,0:0:0:0:
256,192,46494,1,4,0:0:0:0:
256,192,46744,1,4,0:0:0:0:
256,192,46994,1,4,0:0:0:0:
256,192,47244,1,4,0:0:0:0:
256,192,47494,1,4,0:0:0:0:
256,192,48244,1,8,0:0:0:0:
256,192,48494,1,12,0:0:0:0:
256,192,48619,1,4,0:0:0:0:
256,192,48744,1,4,0:0:0:0:
256,192,48869,1,4,0:0:0:0:
256,192,48994,1,4,0:0:0:0:
256,192,49119,1,4,0:0:0:0:
256,192,49244,1,4,0:0:0:0:
256,192,49369,1,4,0:0:0:0:
256,192,49494,1,4,0:0:0:0:
256,192,49744,1,4,0:0:0:0:
256,192,49869,1,4,0:0:0:0:
256,192,49994,1,0,0:0:0:0:
256,192,50056,1,0,0:0:0:0:
256,192,50119,1,0,0:0:0:0:
256,192,50181,1,0,0:0:0:0:
256,192,50244,1,0,0:0:0:0:
256,192,50369,1,4,0:0:0:0:
256,192,50494,1,12,0:0:0:0:
256,192,50744,1,8,0:0:0:0:
256,192,50869,1,0,0:0:0:0:
256,192,50994,1,8,0:0:0:0:
256,192,51244,1,0,0:0:0:0:
256,192,51494,1,8,0:0:0:0:
256,192,51744,1,0,0:0:0:0:
256,192,51806,1,0,0:0:0:0:
256,192,51869,1,8,0:0:0:0:
256,192,51931,1,8,0:0:0:0:
256,192,51994,1,0,0:0:0:0:
256,192,52119,1,0,0:0:0:0:
256,192,52244,1,8,0:0:0:0:
256,192,52494,1,12,0:0:0:0:
256,192,52619,1,4,0:0:0:0:
256,192,52744,1,4,0:0:0:0:
256,192,52869,1,4,0:0:0:0:
256,192,52994,1,4,0:0:0:0:
256,192,53119,1,4,0:0:0:0:
256,192,53244,1,4,0:0:0:0:
256,192,53369,1,4,0:0:0:0:
256,192,53494,1,4,0:0:0:0:
256,192,53744,1,4,0:0:0:0:
256,192,53869,1,4,0:0:0:0:
256,192,53994,1,0,0:0:0:0:
256,192,54056,1,0,0:0:0:0:
256,192,54119,1,0,0:0:0:0:
256,192,54181,1,0,0:0:0:0:
256,192,54244,1,0,0:0:0:0:
256,192,54369,1,4,0:0:0:0:
256,192,54494,1,12,0:0:0:0:
256,192,54744,1,8,0:0:0:0:
256,192,54869,1,0,0:0:0:0:
256,192,54994,1,8,0:0:0:0:
256,192,55244,1,0,0:0:0:0:
256,192,55494,1,0,0:0:0:0:
256,192,55619,1,0,0:0:0:0:
256,192,55744,1,0,0:0:0:0:
256,192,55806,1,0,0:0:0:0:
256,192,55869,1,8,0:0:0:0:
256,192,55931,1,8,0:0:0:0:
256,192,55994,1,0,0:0:0:0:
256,192,56119,1,0,0:0:0:0:
256,192,56244,1,8,0:0:0:0:
256,192,56369,1,0,0:0:0:0:
256,192,56494,1,12,0:0:0:0:
256,192,56619,1,4,0:0:0:0:
256,192,56744,1,4,0:0:0:0:
256,192,56869,1,4,0:0:0:0:
256,192,56994,1,4,0:0:0:0:
256,192,57119,1,4,0:0:0:0:
256,192,57244,1,4,0:0:0:0:
256,192,57369,1,4,0:0:0:0:
256,192,57494,1,4,0:0:0:0:
256,192,57744,1,4,0:0:0:0:
256,192,57869,1,4,0:0:0:0:
256,192,57994,1,0,0:0:0:0:
256,192,58056,1,0,0:0:0:0:
256,192,58119,1,0,0:0:0:0:
256,192,58181,1,0,0:0:0:0:
256,192,58244,1,0,0:0:0:0:
256,192,58369,1,4,0:0:0:0:
256,192,58494,1,12,0:0:0:0:
256,192,58744,1,8,0:0:0:0:
256,192,58869,1,0,0:0:0:0:
256,192,58994,1,8,0:0:0:0:
256,192,59244,1,0,0:0:0:0:
256,192,59494,1,8,0:0:0:0:
256,192,59744,1,0,0:0:0:0:
256,192,59806,1,0,0:0:0:0:
256,192,59869,1,8,0:0:0:0:
256,192,59931,1,8,0:0:0:0:
256,192,59994,1,0,0:0:0:0:
256,192,60119,1,0,0:0:0:0:
256,192,60244,1,8,0:0:0:0:
256,192,60494,1,12,0:0:0:0:
256,192,60619,1,4,0:0:0:0:
256,192,60744,1,4,0:0:0:0:
256,192,60869,1,4,0:0:0:0:
256,192,60994,1,4,0:0:0:0:
256,192,61119,1,4,0:0:0:0:
256,192,61244,1,4,0:0:0:0:
256,192,61369,1,4,0:0:0:0:
256,192,61494,1,12,0:0:0:0:
256,192,61744,1,4,0:0:0:0:
256,192,61869,1,4,0:0:0:0:
256,192,61994,1,0,0:0:0:0:
256,192,62056,1,0,0:0:0:0:
256,192,62119,1,0,0:0:0:0:
256,192,62181,1,0,0:0:0:0:
256,192,62244,1,0,0:0:0:0:
256,192,62369,1,4,0:0:0:0:
256,192,62494,1,12,0:0:0:0:
256,192,62681,1,4,0:0:0:0:
256,192,62869,1,4,0:0:0:0:
256,192,63056,1,12,0:0:0:0:
256,192,63244,1,4,0:0:0:0:
256,192,63494,1,12,0:0:0:0:
256,192,63744,1,0,0:0:0:0:
256,192,63806,1,0,0:0:0:0:
256,192,63869,1,8,0:0:0:0:
256,192,63931,1,8,0:0:0:0:
256,192,63994,1,0,0:0:0:0:
256,192,64119,1,0,0:0:0:0:
256,192,64244,1,8,0:0:0:0:
256,192,64494,1,8,0:0:0:0:
256,192,64744,1,8,0:0:0:0:
256,192,64869,1,0,0:0:0:0:
256,192,65119,1,0,0:0:0:0:
256,192,65369,1,0,0:0:0:0:
256,192,65494,1,8,0:0:0:0:
256,192,65744,1,8,0:0:0:0:
256,192,65994,1,0,0:0:0:0:
256,192,66244,1,8,0:0:0:0:
256,192,66369,1,8,0:0:0:0:
256,192,66494,1,0,0:0:0:0:
256,192,66744,1,8,0:0:0:0:
256,192,66869,1,0,0:0:0:0:
256,192,66994,1,8,0:0:0:0:
256,192,67119,1,0,0:0:0:0:
256,192,67244,1,8,0:0:0:0:
256,192,67369,1,8,0:0:0:0:
256,192,67494,1,0,0:0:0:0:
256,192,68244,1,8,0:0:0:0:
256,192,68369,1,8,0:0:0:0:
256,192,68494,1,0,0:0:0:0:
256,192,68744,1,8,0:0:0:0:
256,192,68869,1,0,0:0:0:0:
256,192,69119,1,0,0:0:0:0:
256,192,69369,1,0,0:0:0:0:
256,192,69494,1,8,0:0:0:0:
256,192,69744,1,8,0:0:0:0:
256,192,69994,1,0,0:0:0:0:
256,192,70244,1,8,0:0:0:0:
256,192,70369,1,8,0:0:0:0:
256,192,70494,1,0,0:0:0:0:
256,192,70744,1,8,0:0:0:0:
256,192,70869,1,0,0:0:0:0:
256,192,70994,1,8,0:0:0:0:
256,192,71119,1,0,0:0:0:0:
256,192,71244,1,8,0:0:0:0:
256,192,71369,1,0,0:0:0:0:
256,192,71494,1,0,0:0:0:0:
256,192,71744,1,0,0:0:0:0:
256,192,71994,1,0,0:0:0:0:
256,192,72244,1,8,0:0:0:0:
256,192,72494,1,8,0:0:0:0:
256,192,72744,1,8,0:0:0:0:
256,192,72869,1,0,0:0:0:0:
256,192,73119,1,0,0:0:0:0:
256,192,73369,1,0,0:0:0:0:
256,192,73494,1,8,0:0:0:0:
256,192,73744,1,8,0:0:0:0:
256,192,73994,1,0,0:0:0:0:
256,192,74244,1,8,0:0:0:0:
256,192,74369,1,8,0:0:0:0:
256,192,74494,1,0,0:0:0:0:
256,192,74744,1,8,0:0:0:0:
256,192,74869,1,0,0:0:0:0:
256,192,74994,1,8,0:0:0:0:
256,192,75119,1,0,0:0:0:0:
256,192,75244,1,8,0:0:0:0:
256,192,75369,1,8,0:0:0:0:
256,192,75494,1,0,0:0:0:0:
256,192,75744,1,0,0:0:0:0:
256,192,75994,1,8,0:0:0:0:
256,192,76494,1,8,0:0:0:0:
256,192,76744,1,8,0:0:0:0:
256,192,76869,1,0,0:0:0:0:
256,192,77119,1,0,0:0:0:0:
256,192,77369,1,0,0:0:0:0:
256,192,77494,1,8,0:0:0:0:
256,192,77744,1,8,0:0:0:0:
256,192,77994,1,0,0:0:0:0:
256,192,78244,1,8,0:0:0:0:
256,192,78369,1,8,0:0:0:0:
256,192,78494,1,0,0:0:0:0:
256,192,78744,1,8,0:0:0:0:
256,192,78869,1,0,0:0:0:0:
256,192,78994,1,8,0:0:0:0:
256,192,79119,1,8,0:0:0:0:
256,192,79244,1,0,0:0:0:0:
256,192,79369,1,0,0:0:0:0:
256,192,79494,1,8,0:0:0:0:
256,192,79619,2,0,L|352:192,4,70
256,192,80244,1,8,0:0:0:0:
256,192,80494,1,0,0:0:0:0:
256,192,80619,1,0,0:0:0:0:
256,192,80681,1,8,0:0:0:0:
256,192,80744,1,0,0:0:0:0:
256,192,80869,1,8,0:0:0:0:
256,192,80994,1,0,0:0:0:0:
256,192,81119,1,8,0:0:0:0:
256,192,81244,1,0,0:0:0:0:
256,192,81369,1,8,0:0:0:0:
256,192,81494,1,8,0:0:0:0:
256,192,81744,1,8,0:0:0:0:
256,192,81806,1,8,0:0:0:0:
256,192,81869,1,0,0:0:0:0:
256,192,81994,1,8,0:0:0:0:
256,192,82244,1,0,0:0:0:0:
256,192,82369,1,8,0:0:0:0:
256,192,82494,1,0,0:0:0:0:
256,192,82619,1,0,0:0:0:0:
256,192,82681,1,8,0:0:0:0:
256,192,82744,1,0,0:0:0:0:
256,192,82869,1,0,0:0:0:0:
256,192,82994,1,8,0:0:0:0:
256,192,83119,1,8,0:0:0:0:
256,192,83160,1,8,0:0:0:0:
256,192,83202,1,8,0:0:0:0:
256,192,83244,1,0,0:0:0:0:
256,192,83369,1,0,0:0:0:0:
256,192,83494,1,8,0:0:0:0:
256,192,83744,1,8,0:0:0:0:
256,192,83869,1,8,0:0:0:0:
256,192,83994,1,0,0:0:0:0:
256,192,84119,1,0,0:0:0:0:
256,192,84244,1,8,0:0:0:0:
256,192,84369,1,0,0:0:0:0:
256,192,84494,1,8,0:0:0:0:
256,192,84619,1,0,0:0:0:0:
256,192,84681,1,8,0:0:0:0:
256,192,84744,1,0,0:0:0:0:
256,192,84869,1,0,0:0:0:0:
256,192,84994,1,8,0:0:0:0:
256,192,85119,1,0,0:0:0:0:
256,192,85244,1,8,0:0:0:0:
256,192,85369,1,0,0:0:0:0:
256,192,85494,1,8,0:0:0:0:
256,192,85744,1,8,0:0:0:0:
256,192,85806,1,8,0:0:0:0:
256,192,85869,1,0,0:0:0:0:
256,192,85994,1,8,0:0:0:0:
256,192,86244,1,0,0:0:0:0:
256,192,86369,1,0,0:0:0:0:
256,192,86494,1,8,0:0:0:0:
256,192,86619,1,0,0:0:0:0:
256,192,86681,1,8,0:0:0:0:
256,192,86744,1,0,0:0:0:0:
256,192,86869,1,0,0:0:0:0:
256,192,86994,1,8,0:0:0:0:
256,192,87119,1,0,0:0:0:0:
256,192,87160,1,0,0:0:0:0:
256,192,87202,1,0,0:0:0:0:
256,192,87244,1,8,0:0:0:0:
256,192,87369,1,8,0:0:0:0:
256,192,87494,1,0,0:0:0:0:
256,192,87744,1,0,0:0:0:0:
256,192,87994,1,0,0:0:0:0:
256,192,88244,1,8,0:0:0:0:
256,192,88494,1,4,0:0:0:0:
256,192,88619,1,0,0:0:0:0:
256,192,88681,1,8,0:0:0:0:
256,192,88744,1,0,0:0:0:0:
256,192,88869,1,8,0:0:0:0:
256,192,88994,1,0,0:0:0:0:
256,192,89119,1,8,0:0:0:0:
256,192,89244,1,0,0:0:0:0:
256,192,89369,1,8,0:0:0:0:
256,192,89494,1,8,0:0:0:0:
256,192,89744,1,8,0:0:0:0:
256,192,89806,1,8,0:0:0:0:
256,192,89869,1,0,0:0:0:0:
256,192,89994,1,8,0:0:0:0:
256,192,90244,1,0,0:0:0:0:
256,192,90369,1,8,0:0:0:0:
256,192,90494,1,0,0:0:0:0:
256,192,90619,1,0,0:0:0:0:
256,192,90681,1,8,0:0:0:0:
256,192,90744,1,0,0:0:0:0:
256,192,90869,1,0,0:0:0:0:
256,192,90994,1,8,0:0:0:0:
256,192,91119,1,8,0:0:0:0:
256,192,91160,1,8,0:0:0:0:
256,192,91202,1,8,0:0:0:0:
256,192,91244,1,0,0:0:0:0:
256,192,91369,1,0,0:0:0:0:
256,192,91494,1,8,0:0:0:0:
256,192,91744,1,8,0:0:0:0:
256,192,91994,1,8,0:0:0:0:
256,192,92244,1,8,0:0:0:0:
256,192,92306,1,0,0:0:0:0:
256,192,92369,1,8,0:0:0:0:
256,192,92494,1,4,0:0:0:0:
256,192,92619,1,0,0:0:0:0:
256,192,92681,1,8,0:0:0:0:
256,192,92744,1,0,0:0:0:0:
256,192,92869,1,8,0:0:0:0:
256,192,92994,1,0,0:0:0:0:
256,192,93119,1,8,0:0:0:0:
256,192,93244,1,0,0:0:0:0:
256,192,93369,1,8,0:0:0:0:
256,192,93494,1,4,0:0:0:0:
256,192,93744,1,8,0:0:0:0:
256,192,93806,1,8,0:0:0:0:
256,192,93869,1,0,0:0:0:0:
256,192,93994,1,8,0:0:0:0:
256,192,94244,1,0,0:0:0:0:
256,192,94369,1,8,0:0:0:0:
256,192,94494,1,4,0:0:0:0:
256,192,94619,1,0,0:0:0:0:
256,192,94681,1,8,0:0:0:0:
256,192,94744,1,0,0:0:0:0:
256,192,94806,1,0,0:0:0:0:
256,192,94869,1,8,0:0:0:0:
256,192,94994,1,4,0:0:0:0:
256,192,95119,1,0,0:0:0:0:
256,192,95181,1,0,0:0:0:0:
256,192,95244,1,8,0:0:0:0:
256,192,95306,1,0,0:0:0:0:
256,192,95369,1,8,0:0:0:0:
256,192,95494,1,8,0:0:0:0:
256,192,95556,1,8,0:0:0:0:
256,192,95619,1,0,0:0:0:0:
256,192,95681,1,0,0:0:0:0:
256,192,95744,1,8,0:0:0:0:
256,192,95806,1,8,0:0:0:0:
256,192,95869,1,0,0:0:0:0:
256,192,95931,1,0,0:0:0:0:
256,192,95994,1,8,0:0:0:0:
256,192,96056,1,8,0:0:0:0:
256,192,96119,1,0,0:0:0:0:
256,192,96181,1,0,0:0:0:0:
256,192,96244,1,8,0:0:0:0:
256,192,96494,1,8,0:0:0:0:
256,192,96619,1,0,0:0:0:0:
256,192,96744,1,8,0:0:0:0:
256,192,96869,1,8,0:0:0:0:
256,192,96994,1,4,0:0:0:0:
256,192,97244,1,12,0:0:0:0:
256,192,97494,1,4,0:0:0:0:
256,192,97619,1,0,0:0:0:0:
256,192,97681,1,0,0:0:0:0:
256,192,97744,1,8,0:0:0:0:
256,192,97869,1,0,0:0:0:0:
256,192,97994,1,8,0:0:0:0:
256,192,98056,1,0,0:0:0:0:
256,192,98119,1,8,0:0:0:0:
256,192,98181,1,0,0:0:0:0:
256,192,98244,1,0,0:0:0:0:
256,192,98369,1,0,0:0:0:0:
256,192,98494,1,8,0:0:0:0:
256,192,98619,1,0,0:0:0:0:
256,192,98681,1,0,0:0:0:0:
256,192,98744,1,8,0:0:0:0:
256,192,98785,1,8,0:0:0:0:
256,192,98827,1,8,0:0:0:0:
256,192,98869,1,0,0:0:0:0:
256,192,98994,1,8,0:0:0:0:
256,192,99119,1,0,0:0:0:0:
256,192,99181,1,0,0:0:0:0:
256,192,99244,1,8,0:0:0:0:
256,192,99369,1,0,0:0:0:0:
256,192,99494,1,8,0:0:0:0:
256,192,99556,1,0,0:0:0:0:
256,192,99619,1,8,0:0:0:0:
256,192,99681,1,8,0:0:0:0:
256,192,99744,1,0,0:0:0:0:
256,192,99869,1,0,0:0:0:0:
256,192,99931,1,0,0:0:0:0:
256,192,99994,1,8,0:0:0:0:
256,192,100056,1,0,0:0:0:0:
256,192,100119,1,0,0:0:0:0:
256,192,100181,1,0,0:0:0:0:
256,192,100244,1,8,0:0:0:0:
256,192,100369,1,0,0:0:0:0:
256,192,100494,1,8,0:0:0:0:
256,192,100556,1,8,0:0:0:0:
256,192,100619,1,0,0:0:0:0:
256,192,100681,1,0,0:0:0:0:
256,192,100744,1,8,0:0:0:0:
256,192,100806,1,8,0:0:0:0:
256,192,100869,1,8,0:0:0:0:
256,192,100931,1,8,0:0:0:0:
256,192,100994,1,0,0:0:0:0:
256,192,101244,1,8,0:0:0:0:
256,192,101369,1,0,0:0:0:0:
256,192,101494,1,8,0:0:0:0:
256,192,101619,1,0,0:0:0:0:
256,192,101681,1,8,0:0:0:0:
256,192,101744,1,0,0:0:0:0:
256,192,101869,1,0,0:0:0:0:
256,192,101994,1,8,0:0:0:0:
256,192,102056,1,0,0:0:0:0:
256,192,102119,1,0,0:0:0:0:
256,192,102181,1,0,0:0:0:0:
256,192,102244,1,8,0:0:0:0:
256,192,102369,1,0,0:0:0:0:
256,192,102494,1,8,0:0:0:0:
256,192,102619,1,0,0:0:0:0:
256,192,102681,1,0,0:0:0:0:
256,192,102744,1,8,0:0:0:0:
256,192,102785,1,8,0:0:0:0:
256,192,102827,1,8,0:0:0:0:
256,192,102869,1,0,0:0:0:0:
256,192,102994,1,8,0:0:0:0:
256,192,103119,1,0,0:0:0:0:
256,192,103181,1,0,0:0:0:0:
256,192,103244,1,8,0:0:0:0:
256,192,103369,1,8,0:0:0:0:
256,192,103494,1,0,0:0:0:0:
256,192,103619,1,8,0:0:0:0:
256,192,103681,1,8,0:0:0:0:
256,192,103744,1,0,0:0:0:0:
256,192,103869,1,8,0:0:0:0:
256,192,103931,1,0,0:0:0:0:
256,192,103994,1,8,0:0:0:0:
256,192,104056,1,8,0:0:0:0:
256,192,104119,1,0,0:0:0:0:
256,192,104181,1,0,0:0:0:0:
256,192,104244,1,0,0:0:0:0:
256,192,104369,1,8,0:0:0:0:
256,192,104494,1,4,0:0:0:0:
256,192,104744,1,4,0:0:0:0:
256,192,104994,1,4,0:0:0:0:
256,192,105244,1,8,0:0:0:0:
256,192,105494,1,4,0:0:0:0:
256,192,105619,1,0,0:0:0:0:
256,192,105681,1,0,0:0:0:0:
256,192,105744,1,8,0:0:0:0:
256,192,105806,1,0,0:0:0:0:
256,192,105869,1,8,0:0:0:0:
256,192,105994,1,0,0:0:0:0:
256,192,106119,1,8,0:0:0:0:
256,192,106181,1,8,0:0:0:0:
256,192,106244,1,0,0:0:0:0:
256,192,106369,1,8,0:0:0:0:
256,192,106494,1,0,0:0:0:0:
256,192,106619,1,0,0:0:0:0:
256,192,106681,1,0,0:0:0:0:
256,192,106744,1,8,0:0:0:0:
256,192,106785,1,8,0:0:0:0:
256,192,106827,1,8,0:0:0:0:
256,192,106869,1,0,0:0:0:0:
256,192,106994,1,8,0:0:0:0:
256,192,107119,1,0,0:0:0:0:
256,192,107181,1,0,0:0:0:0:
256,192,107244,1,8,0:0:0:0:
256,192,107369,1,0,0:0:0:0:
256,192,107494,1,8,0:0:0:0:
256,192,107556,1,8,0:0:0:0:
256,192,107619,1,0,0:0:0:0:
256,192,107681,1,0,0:0:0:0:
256,192,107744,1,8,0:0:0:0:
256,192,107869,1,0,0:0:0:0:
256,192,107931,1,0,0:0:0:0:
256,192,107994,1,8,0:0:0:0:
256,192,108056,1,0,0:0:0:0:
256,192,108119,1,8,0:0:0:0:
256,192,108181,1,8,0:0:0:0:
256,192,108244,1,0,0:0:0:0:
256,192,108369,1,0,0:0:0:0:
256,192,108494,1,8,0:0:0:0:
256,192,108619,1,0,0:0:0:0:
256,192,108681,1,0,0:0:0:0:
256,192,108744,1,8,0:0:0:0:
256,192,108806,1,8,0:0:0:0:
256,192,108869,1,8,0:0:0:0:
256,192,108931,1,8,0:0:0:0:
256,192,108994,1,0,0:0:0:0:
256,192,109119,1,0,0:0:0:0:
256,192,109244,1,8,0:0:0:0:
256,192,109306,1,0,0:0:0:0:
256,192,109369,1,8,0:0:0:0:
256,192,109431,1,0,0:0:0:0:
256,192,109494,1,8,0:0:0:0:
256,192,109619,1,0,0:0:0:0:
256,192,109681,1,0,0:0:0:0:
256,192,109744,1,0,0:0:0:0:
256,192,109806,1,8,0:0:0:0:
256,192,109869,1,0,0:0:0:0:
256,192,109994,1,8,0:0:0:0:
256,192,110119,1,0,0:0:0:0:
256,192,110181,1,0,0:0:0:0:
256,192,110244,1,8,0:0:0:0:
256,192,110369,1,0,0:0:0:0:
256,192,110494,1,8,0:0:0:0:
256,192,110619,1,0,0:0:0:0:
256,192,110681,1,0,0:0:0:0:
256,192,110744,1,8,0:0:0:0:
256,192,110785,1,8,0:0:0:0:
256,192,110827,1,8,0:0:0:0:
256,192,110869,1,0,0:0:0:0:
256,192,110994,1,8,0:0:0:0:
256,192,111119,1,0,0:0:0:0:
256,192,111181,1,0,0:0:0:0:
256,192,111244,1,8,0:0:0:0:
256,192,111369,1,8,0:0:0:0:
256,192,111494,1,0,0:0:0:0:
256,192,111556,1,0,0:0:0:0:
256,192,111619,1,8,0:0:0:0:
256,192,111681,1,0,0:0:0:0:
256,192,111744,1,8,0:0:0:0:
256,192,111869,1,8,0:0:0:0:
256,192,111931,1,0,0:0:0:0:
256,192,111994,1,8,0:0:0:0:
256,192,112056,1,8,0:0:0:0:
256,192,112119,1,0,0:0:0:0:
256,192,112160,1,0,0:0:0:0:
256,192,112202,1,0,0:0:0:0:
256,192,112244,1,8,0:0:0:0:
256,192,112369,1,8,0:0:0:0:
256,192,112494,1,0,0:0:0:0:
256,192,112619,1,8,0:0:0:0:
256,192,112744,1,0,0:0:0:0:
256,192,112806,1,0,0:0:0:0:
256,192,112869,1,8,0:0:0:0:
256,192,112931,1,8,0:0:0:0:
256,192,112994,1,8,0:0:0:0:
256,192,113119,1,0,0:0:0:0:
256,192,113244,1,0,0:0:0:0:
256,192,113306,1,0,0:0:0:0:
256,192,113369,1,0,0:0:0:0:
256,192,113431,1,0,0:0:0:0:
256,192,113494,1,8,0:0:0:0:
256,192,113744,1,0,0:0:0:0:
256,192,113869,1,8,0:0:0:0:
256,192,114119,1,8,0:0:0:0:
256,192,114369,1,0,0:0:0:0:
256,192,114494,1,12,0:0:0:0:
256,192,114744,1,12,0:0:0:0:
256,192,114994,1,12,0:0:0:0:
256,192,115244,1,0,0:0:0:0:
256,192,115369,1,0,0:0:0:0:
256,192,115494,1,12,0:0:0:0:
256,192,115619,1,0,0:0:0:0:
256,192,115681,1,8,0:0:0:0:
256,192,115744,1,0,0:0:0:0:
256,192,115806,1,0,0:0:0:0:
256,192,115869,1,8,0:0:0:0:
256,192,115994,1,8,0:0:0:0:
256,192,116056,1,0,0:0:0:0:
256,192,116119,1,8,0:0:0:0:
256,192,116244,1,0,0:0:0:0:
256,192,116306,1,0,0:0:0:0:
256,192,116369,1,8,0:0:0:0:
256,192,116494,1,8,0:0:0:0:
256,192,116556,1,0,0:0:0:0:
256,192,116619,1,8,0:0:0:0:
256,192,116681,1,8,0:0:0:0:
256,192,116744,1,0,0:0:0:0:
256,192,116806,1,0,0:0:0:0:
256,192,116869,1,8,0:0:0:0:
256,192,116931,1,8,0:0:0:0:
256,192,116994,1,0,0:0:0:0:
256,192,117244,1,8,0:0:0:0:
256,192,117306,1,0,0:0:0:0:
256,192,117369,1,8,0:0:0:0:
256,192,117494,1,8,0:0:0:0:
256,192,117619,1,0,0:0:0:0:
256,192,117681,1,8,0:0:0:0:
256,192,117744,1,0,0:0:0:0:
256,192,117806,1,0,0:0:0:0:
256,192,117869,1,8,0:0:0:0:
256,192,117994,1,0,0:0:0:0:
256,192,118056,1,0,0:0:0:0:
256,192,118119,1,8,0:0:0:0:
256,192,118244,1,8,0:0:0:0:
256,192,118306,1,0,0:0:0:0:
256,192,118369,1,8,0:0:0:0:
256,192,118494,1,8,0:0:0:0:
256,192,118556,1,8,0:0:0:0:
256,192,118619,1,0,0:0:0:0:
256,192,118744,1,8,0:0:0:0:
256,192,118806,1,8,0:0:0:0:
256,192,118869,1,8,0:0:0:0:
256,192,118931,1,8,0:0:0:0:
256,192,118994,1,0,0:0:0:0:
256,192,119056,1,0,0:0:0:0:
256,192,119119,1,0,0:0:0:0:
256,192,119181,1,0,0:0:0:0:
256,192,119244,1,8,0:0:0:0:
256,192,119369,1,0,0:0:0:0:
256,192,119494,1,8,0:0:0:0:
256,192,119619,1,0,0:0:0:0:
256,192,119681,1,8,0:0:0:0:
256,192,119744,1,0,0:0:0:0:
256,192,119869,1,0,0:0:0:0:
256,192,119931,1,0,0:0:0:0:
256,192,119994,1,8,0:0:0:0:
256,192,120119,1,8,0:0:0:0:
256,192,120160,1,8,0:0:0:0:
256,192,120202,1,8,0:0:0:0:
256,192,120244,1,0,0:0:0:0:
256,192,120369,1,0,0:0:0:0:
256,192,120431,1,0,0:0:0:0:
256,192,120494,1,8,0:0:0:0:
256,192,120744,1,8,0:0:0:0:
256,192,120994,1,8,0:0:0:0:
256,192,121244,1,0,0:0:0:0:
256,192,121494,1,12,0:0:0:0:
256,192,121619,1,0,0:0:0:0:
256,192,121681,1,8,0:0:0:0:
256,192,121744,1,0,0:0:0:0:
256,192,121869,1,0,0:0:0:0:
256,192,121994,1,8,0:0:0:0:
256,192,122119,1,0,0:0:0:0:
256,192,122244,1,8,0:0:0:0:
256,192,122369,1,0,0:0:0:0:
256,192,122494,1,12,0:0:0:0:
256,192,122744,1,0,0:0:0:0:
256,192,122994,1,8,0:0:0:0:
256,192,123244,1,8,0:0:0:0:
256,192,123369,1,0,0:0:0:0:
256,192,123494,1,12,0:0:0:0:
256,192,123619,1,0,0:0:0:0:
256,192,123681,1,8,0:0:0:0:
256,192,123744,1,0,0:0:0:0:
256,192,123869,1,0,0:0:0:0:
256,192,123994,1,8,0:0:0:0:
256,192,124119,1,0,0:0:0:0:
256,192,124160,1,0,0:0:0:0:
256,192,124202,1,0,0:0:0:0:
256,192,124244,1,8,0:0:0:0:
256,192,124369,1,0,0:0:0:0:
256,192,124494,1,12,0:0:0:0:
256,192,124744,1,0,0:0:0:0:
256,192,124994,1,8,0:0:0:0:
256,192,125244,1,8,0:0:0:0:
256,192,125306,1,0,0:0:0:0:
256,192,125369,1,8,0:0:0:0:
256,192,125494,1,12,0:0:0:0:
256,192,125619,1,0,0:0:0:0:
256,192,125681,1,8,0:0:0:0:
256,192,125744,1,0,0:0:0:0:
256,192,125869,1,0,0:0:0:0:
256,192,125994,1,12,0:0:0:0:
256,192,126119,1,0,0:0:0:0:
256,192,126244,1,8,0:0:0:0:
256,192,126369,1,0,0:0:0:0:
256,192,126494,1,12,0:0:0:0:
256,192,126744,1,0,0:0:0:0:
256,192,126994,1,12,0:0:0:0:
256,192,127244,1,8,0:0:0:0:
256,192,127369,1,0,0:0:0:0:
256,192,127494,1,12,0:0:0:0:
256,192,127619,1,0,0:0:0:0:
256,192,127660,1,0,0:0:0:0:
256,192,127702,1,0,0:0:0:0:
256,192,127744,1,8,0:0:0:0:
256,192,127869,1,0,0:0:0:0:
256,192,127994,1,12,0:0:0:0:
256,192,128119,1,0,0:0:0:0:
256,192,128160,1,0,0:0:0:0:
256,192,128202,1,0,0:0:0:0:
256,192,128244,1,8,0:0:0:0:
256,192,128369,1,0,0:0:0:0:
256,192,128494,1,12,0:0:0:0:
256,192,128619,1,0,0:0:0:0:
256,192,128744,1,0,0:0:0:0:
256,192,128869,1,0,0:0:0:0:
256,192,128994,1,12,0:0:0:0:
256,192,129119,1,0,0:0:0:0:
256,192,129244,1,8,0:0:0:0:
256,192,129285,1,8,0:0:0:0:
256,192,129327,1,8,0:0:0:0:
256,192,129369,1,0,0:0:0:0:
256,192,129494,1,12,0:0:0:0:
