osu file format v14

[General]
AudioFilename: audio.mp3
AudioLeadIn: 0
PreviewTime: 145468
Countdown: 1
SampleSet: None
StackLeniency: 0.6
Mode: 1
LetterboxInBreaks: 0
WidescreenStoryboard: 1

[Editor]
DistanceSpacing: 1
BeatDivisor: 4
GridSize: 8
TimelineZoom: 2.799999

[Metadata]
Title:Rumble Kung-fu Showdown
TitleUnicode:Rumble Kung-fu Showdown
Artist:t+pazolite
ArtistUnicode:t+pazolite
Creator:iamVill
Version:Rumble
Source:
Tags:t+pazolite
BeatmapID:983073
BeatmapSetID:439001

[Difficulty]
HPDrainRate:5
CircleSize:4
OverallDifficulty:9
ApproachRate:9.7
SliderMultiplier:1.4
SliderTickRate:1

[Events]
//Background and Video events
0,0,"13771_1_other_anime_dragon_fire_fire_dragon.jpg",0,0
//Break Periods
2,16668,23973
2,26168,160973
//Storyboard Layer 0 (Background)
//Storyboard Layer 1 (Fail)
//Storyboard Layer 2 (Pass)
//Storyboard Layer 3 (Foreground)
//Storyboard Sound Samples

[TimingPoints]
0,250,4,2,0,100,1,0
468,250,4,3,0,100,1,1
2218,-100,4,3,0,100,0,1
3968,-100,4,3,0,100,0,0
4468,-100,4,1,0,100,0,1
6593,-100,4,3,0,100,0,1
8468,-100,4,2,0,100,0,1
12468,-100,4,2,0,100,0,1
16468,-100,4,2,0,100,0,0
24468,-133.333333333333,4,3,0,100,0,0
25905,-133.333333333333,4,1,0,100,0,0
26093,-133.333333333333,4,3,0,100,0,0
27905,-133.333333333333,4,1,0,100,0,0
28030,-133.333333333333,4,3,0,100,0,0
29905,-133.333333333333,4,1,0,100,0,0
30030,-133.333333333333,4,3,0,100,0,0
31905,-133.333333333333,4,1,0,100,0,0
32030,-133.333333333333,4,2,0,100,0,0
34218,-133.333333333333,4,3,0,100,0,0
39093,-100,4,3,0,100,0,0
39968,-66.6666666666667,4,3,0,100,0,0
40468,-86.9565217391304,4,2,0,89,0,0
48468,-80,4,3,0,89,0,1
50468,-80,4,2,0,89,0,0
51968,-100,4,2,0,89,0,0
52468,-80,4,3,0,89,0,1
54468,-80,4,2,0,89,0,0
56468,-80,4,2,0,89,0,1
58468,-80,4,2,0,89,0,0
60468,-80,4,2,0,89,0,1
63468,-80,4,2,0,89,0,0
72468,-200,4,2,0,71,0,0
80218,-100,4,2,0,71,0,0
85718,-66.6666666666667,4,2,0,71,0,0
85968,-80,4,2,0,71,0,0
86218,-100,4,2,0,71,0,0
88218,-66.6666666666667,4,2,0,71,0,0
97218,-133.333333333333,4,2,0,71,0,0
97405,-50,4,2,0,71,0,0
97718,-100,4,2,0,71,0,0
105218,-66.6666666666667,4,2,0,71,0,0
112468,-133.333333333333,4,2,0,71,0,0
113593,-80,4,2,0,71,0,0
131468,-133.333333333333,4,2,0,71,0,0
145468,-66.6666666666667,4,3,0,71,0,1
152468,-66.6666666666667,4,2,0,71,0,0
153468,-66.6666666666667,4,2,0,70,0,1
160468,-66.6666666666667,4,2,0,71,0,0
161468,-66.6666666666667,4,2,0,71,0,1
168468,-66.6666666666667,4,2,0,71,0,0
169468,-66.6666666666667,4,2,0,71,0,1
176468,-66.6666666666667,4,2,0,71,0,0
176718,-66.6666666666667,4,3,0,71,0,0
177468,-66.6666666666667,4,2,0,71,0,0

[HitObjects]
256,192,0,5,12,0:0:0:0:
256,192,468,5,4,0:0:0:0:
256,192,593,1,8,0:0:0:0:
256,192,718,1,0,0:0:0:0:
256,192,843,1,0,0:0:0:0:
256,192,968,1,8,0:0:0:0:
256,192,1093,1,0,0:0:0:0:
256,192,1218,1,0,0:0:0:0:
256,192,1343,1,8,0:0:0:0:
256,192,1468,1,0,0:0:0:0:
256,192,1593,1,0,0:0:0:0:
256,192,1718,1,8,0:0:0:0:
256,192,1843,1,0,0:0:0:0:
256,192,1968,1,8,0:0:0:0:
256,192,2030,1,8,0:0:0:0:
200,192,2155,1,0,0:0:0:0:
200,192,2218,1,0,0:0:0:0:
256,192,2468,5,0,0:0:0:0:
256,192,2593,1,8,0:0:0:0:
256,192,2718,5,4,0:0:0:0:
256,192,2843,1,8,0:0:0:0:
256,192,2968,1,0,0:0:0:0:
256,192,3093,1,0,0:0:0:0:
256,192,3218,1,8,0:0:0:0:
256,192,3343,1,0,0:0:0:0:
256,192,3468,1,8,0:0:0:0:
312,112,3593,1,0,0:0:0:0:
368,56,3655,1,0,0:0:0:0:
416,112,3718,1,0,0:0:0:0:
360,160,3780,1,0,0:0:0:0:
304,104,3843,1,0,0:0:0:0:
256,192,3968,1,4,0:0:0:0:
256,192,4218,1,4,0:0:0:0:
256,192,4468,1,0,0:0:0:0:
256,192,4593,1,0,0:0:0:0:
256,192,4718,1,8,0:0:0:0:
256,192,4843,1,0,0:0:0:0:
256,192,4968,1,0,0:0:0:0:
256,192,5093,1,8,0:0:0:0:
256,192,5218,1,0,0:0:0:0:
256,192,5343,1,0,0:0:0:0:
256,192,5468,1,8,0:0:0:0:
256,192,5593,1,0,0:0:0:0:
256,192,5718,1,8,0:0:0:0:
256,192,5843,1,0,0:0:0:0:
256,192,5968,1,8,0:0:0:0:
256,192,6030,1,8,0:0:0:0:
256,192,6093,1,8,0:0:0:0:
256,192,6155,1,8,0:0:0:0:
256,192,6218,1,8,0:0:0:0:
256,192,6468,1,4,0:0:0:0:
256,192,6593,1,0,0:0:0:0:
256,192,6718,1,8,0:0:0:0:
256,192,6843,1,0,0:0:0:0:
256,192,6968,1,0,0:0:0:0:
256,192,7093,1,8,0:0:0:0:
256,192,7218,1,0,0:0:0:0:
256,192,7280,1,8,0:0:0:0:
256,192,7343,1,0,0:0:0:0:
256,192,7405,1,8,0:0:0:0:
256,192,7468,1,0,0:0:0:0:
256,192,7718,1,4,0:0:0:0:
256,192,7843,1,4,0:0:0:0:
256,192,7968,1,4,0:0:0:0:
256,192,8218,1,8,0:0:0:0:
256,192,8468,1,4,0:0:0:0:
392,104,8593,1,0,0:0:0:0:
192,192,8718,1,0,0:0:0:0:
432,144,8843,1,0,0:0:0:0:
152,152,8968,1,0,0:0:0:0:
416,208,9093,1,0,0:0:0:0:
176,88,9218,1,8,0:0:0:0:
352,280,9343,1,8,0:0:0:0:
280,88,9468,1,4,0:0:0:0:
168,240,9593,1,0,0:0:0:0:
344,152,9718,1,0,0:0:0:0:
144,80,9843,1,0,0:0:0:0:
352,232,9968,1,8,0:0:0:0:
400,248,10030,1,8,0:0:0:0:
440,216,10093,1,8,0:0:0:0:
432,160,10155,1,8,0:0:0:0:
392,144,10218,1,8,0:0:0:0:
144,264,10468,1,0,0:0:0:0:
376,120,10593,1,0,0:0:0:0:
144,80,10718,1,0,0:0:0:0:
312,256,10843,1,0,0:0:0:0:
288,48,10968,1,0,0:0:0:0:
104,224,11093,1,0,0:0:0:0:
336,136,11218,1,8,0:0:0:0:
104,96,11343,1,8,0:0:0:0:
312,272,11468,1,4,0:0:0:0:
280,184,11530,5,0,0:0:0:0:
344,128,11593,1,0,0:0:0:0:
400,192,11655,1,0,0:0:0:0:
344,256,11718,1,0,0:0:0:0:
256,192,11968,1,4,0:0:0:0:
256,192,12218,1,4,0:0:0:0:
168,256,12468,1,12,0:0:0:0:
408,176,12593,1,12,0:0:0:0:
136,224,12718,1,12,0:0:0:0:
400,200,12843,1,12,0:0:0:0:
104,176,12968,1,12,0:0:0:0:
392,224,13093,1,12,0:0:0:0:
144,136,13218,1,12,0:0:0:0:
344,264,13343,1,12,0:0:0:0:
224,112,13468,1,0,0:0:0:0:
256,248,13593,1,14,0:0:0:0:
144,232,13718,1,14,0:0:0:0:
304,112,13843,1,4,0:0:0:0:
288,240,13968,1,14,0:0:0:0:
184,120,14093,1,14,0:0:0:0:
248,288,14218,1,0,0:0:0:0:
288,136,14343,1,0,0:0:0:0:
168,280,14468,1,4,0:0:0:0:
336,304,14593,1,12,0:0:0:0:
248,112,14718,1,12,0:0:0:0:
192,256,14843,1,8,0:0:0:0:
344,152,14968,1,0,0:0:0:0:
144,176,15093,1,8,0:0:0:0:
240,64,15218,1,0,0:0:0:0:
296,264,15343,1,8,0:0:0:0:
376,120,15468,1,8,0:0:0:0:
256,192,15718,1,4,0:0:0:0:
256,192,15843,1,4,0:0:0:0:
256,192,15968,1,4,0:0:0:0:
256,192,16218,1,4,0:0:0:0:
32,56,16468,1,0,0:0:0:0:
256,192,24468,5,4,0:0:0:0:
256,192,24968,1,4,0:0:0:0:
256,192,25718,1,4,0:0:0:0:
256,192,25780,1,0,0:0:0:0:
264,184,25968,1,4,0:0:0:0:
256,192,161468,5,12,0:0:0:0:
256,192,161593,1,12,0:0:0:0:
256,192,161718,1,12,0:0:0:0:
256,192,161843,1,12,0:0:0:0:
256,192,161968,1,12,0:0:0:0:
256,192,162093,1,12,0:0:0:0:
256,192,162218,1,12,0:0:0:0:
256,192,162343,1,12,0:0:0:0:
256,192,162468,1,12,0:0:0:0:
256,192,162593,1,12,0:0:0:0:
256,192,162718,1,12,0:0:0:0:
256,192,162843,1,12,0:0:0:0:
256,192,162968,1,8,0:0:0:0:
256,192,163030,1,8,0:0:0:0:
256,192,163093,1,8,0:0:0:0:
256,192,163155,1,8,0:0:0:0:
256,192,163218,1,8,0:0:0:0:
256,192,163468,1,12,0:0:0:0:
256,192,163593,1,12,0:0:0:0:
256,192,163718,1,12,0:0:0:0:
256,192,163843,1,12,0:0:0:0:
256,192,163968,1,12,0:0:0:0:
256,192,164093,1,12,0:0:0:0:
256,192,164218,1,12,0:0:0:0:
256,192,164343,1,12,0:0:0:0:
256,192,164468,1,8,0:0:0:0:
256,192,164530,1,8,0:0:0:0:
256,192,164593,1,8,0:0:0:0:
256,192,164655,1,8,0:0:0:0:
256,192,164718,1,8,0:0:0:0:
256,192,164843,1,8,0:0:0:0:
256,192,164968,1,8,0:0:0:0:
256,192,165030,1,8,0:0:0:0:
256,192,165155,1,8,0:0:0:0:
256,192,165218,1,8,0:0:0:0:
256,192,165343,1,8,0:0:0:0:
256,192,165468,1,12,0:0:0:0:
256,192,165593,1,12,0:0:0:0:
256,192,165718,1,12,0:0:0:0:
256,192,165843,1,12,0:0:0:0:
256,192,165968,1,12,0:0:0:0:
256,192,166093,1,12,0:0:0:0:
256,192,166218,1,12,0:0:0:0:
256,192,166343,1,12,0:0:0:0:
256,192,166468,1,12,0:0:0:0:
256,192,166593,1,12,0:0:0:0:
256,192,166718,1,12,0:0:0:0:
256,192,166843,1,12,0:0:0:0:
256,192,166968,1,8,0:0:0:0:
256,192,167030,1,8,0:0:0:0:
256,192,167093,1,8,0:0:0:0:
256,192,167155,1,8,0:0:0:0:
256,192,167218,1,8,0:0:0:0:
256,192,167468,1,12,0:0:0:0:
256,192,167593,1,12,0:0:0:0:
256,192,167718,1,12,0:0:0:0:
256,192,167843,1,12,0:0:0:0:
256,192,167968,1,12,0:0:0:0:
256,192,168093,1,12,0:0:0:0:
256,192,168218,1,8,0:0:0:0:
256,192,168280,1,8,0:0:0:0:
256,192,168343,1,8,0:0:0:0:
256,192,168405,1,8,0:0:0:0:
256,192,168468,1,12,0:0:0:0:
256,192,168718,1,4,0:0:0:0:
256,192,168843,1,4,0:0:0:0:
256,192,168968,1,4,0:0:0:0:
256,192,169218,1,4,0:0:0:0:
256,192,169468,5,12,0:0:0:0:
256,192,169593,1,12,0:0:0:0:
256,192,169718,1,12,0:0:0:0:
256,192,169843,1,12,0:0:0:0:
256,192,169968,1,12,0:0:0:0:
256,192,170093,1,12,0:0:0:0:
256,192,170218,1,12,0:0:0:0:
256,192,170343,1,12,0:0:0:0:
256,192,170468,1,12,0:0:0:0:
256,192,170593,1,12,0:0:0:0:
256,192,170718,1,12,0:0:0:0:
256,192,170843,1,12,0:0:0:0:
256,192,170968,1,8,0:0:0:0:
256,192,171030,1,8,0:0:0:0:
256,192,171093,1,8,0:0:0:0:
256,192,171155,1,8,0:0:0:0:
256,192,171218,1,8,0:0:0:0:
256,192,171468,1,12,0:0:0:0:
256,192,171593,1,12,0:0:0:0:
256,192,171718,1,12,0:0:0:0:
256,192,171843,1,12,0:0:0:0:
256,192,171968,1,12,0:0:0:0:
256,192,172093,1,12,0:0:0:0:
256,192,172218,1,12,0:0:0:0:
256,192,172343,1,12,0:0:0:0:
256,192,172468,1,8,0:0:0:0:
256,192,172530,1,8,0:0:0:0:
256,192,172593,1,8,0:0:0:0:
256,192,172655,1,8,0:0:0:0:
256,192,172718,1,8,0:0:0:0:
256,192,172843,1,8,0:0:0:0:
256,192,172968,1,8,0:0:0:0:
256,192,173030,1,8,0:0:0:0:
256,192,173155,1,8,0:0:0:0:
256,192,173218,1,8,0:0:0:0:
256,192,173343,1,8,0:0:0:0:
256,192,173468,1,12,0:0:0:0:
256,192,173530,1,8,0:0:0:0:
256,192,173593,1,8,0:0:0:0:
256,192,173655,1,8,0:0:0:0:
256,192,173718,1,8,0:0:0:0:
256,192,173780,1,8,0:0:0:0:
256,192,173843,1,8,0:0:0:0:
256,192,173905,1,8,0:0:0:0:
256,192,173968,1,8,0:0:0:0:
256,192,174030,1,8,0:0:0:0:
256,192,174093,1,8,0:0:0:0:
256,192,174155,1,8,0:0:0:0:
256,192,174218,1,8,0:0:0:0:
256,192,174280,1,8,0:0:0:0:
256,192,174343,1,8,0:0:0:0:
256,192,174405,1,8,0:0:0:0:
256,192,174468,1,8,0:0:0:0:
256,192,174530,1,8,0:0:0:0:
256,192,174593,1,8,0:0:0:0:
256,192,174655,1,8,0:0:0:0:
256,192,174718,1,8,0:0:0:0:
256,192,174780,1,8,0:0:0:0:
256,192,174843,1,8,0:0:0:0:
256,192,174905,1,8,0:0:0:0:
256,192,174968,1,8,0:0:0:0:
256,192,175030,1,8,0:0:0:0:
256,192,175093,1,8,0:0:0:0:
256,192,175155,1,8,0:0:0:0:
256,192,175218,1,8,0:0:0:0:
256,192,175468,1,8,0:0:0:0:
256,192,175530,1,8,0:0:0:0:
256,192,175593,1,8,0:0:0:0:
256,192,175655,1,8,0:0:0:0:
256,192,175718,1,8,0:0:0:0:
256,192,175968,2,8,L|328:192,1,52.5000020027161
256,192,176093,2,8,L|320:192,1,52.5000020027161
256,192,176218,2,8,L|320:192,1,52.5000020027161
256,192,176343,2,8,L|320:192,1,52.5000020027161
256,192,176468,1,8,0:0:0:0:
256,192,176718,1,4,0:0:0:0:
256,192,176843,1,4,0:0:0:0:
256,192,176968,1,4,0:0:0:0:
256,192,177218,1,4,0:0:0:0:
256,192,177468,1,4,0:0:0:0:
