osu file format v14

[General]
AudioFilename: audio.mp3
AudioLeadIn: 0
PreviewTime: 48093
Countdown: 1
SampleSet: None
StackLeniency: 0.7
Mode: 0
LetterboxInBreaks: 0
WidescreenStoryboard: 1

[Editor]
Bookmarks: 6905
DistanceSpacing: 1.3
BeatDivisor: 4
GridSize: 8
TimelineZoom: 1.6

[Metadata]
Title:Rumble Kung-fu Showdown
TitleUnicode:Rumble Kung-fu Showdown
Artist:t+pazolite
ArtistUnicode:t+pazolite
Creator:iamVill
Version:Lunatic
Source:
Tags:t+pazolite
BeatmapID:946976
BeatmapSetID:439001

[Difficulty]
HPDrainRate:5.5
CircleSize:4
OverallDifficulty:8
ApproachRate:9.4
SliderMultiplier:1.7
SliderTickRate:1

[Events]
//Background and Video events
0,0,"13771_1_other_anime_dragon_fire_fire_dragon.jpg",0,0
//Break Periods
//Storyboard Layer 0 (Background)
//Storyboard Layer 1 (Fail)
//Storyboard Layer 2 (Pass)
//Storyboard Layer 3 (Foreground)
//Storyboard Sound Samples

[TimingPoints]
0,250,4,1,0,100,1,0
468,250,4,3,0,100,1,0
468,-100,4,3,0,100,0,1
7468,-100,4,3,0,100,0,0
8468,-100,4,3,0,100,0,1
16718,-133.333333333333,4,3,0,100,0,0
24468,-125,4,3,0,100,0,0
48468,-100,4,3,0,100,0,1
50468,-133.333333333333,4,3,0,100,0,0
52468,-100,4,3,0,100,0,1
54468,-133.333333333333,4,3,0,100,0,0
56468,-100,4,3,0,100,0,1
58468,-133.333333333333,4,3,0,100,0,0
60468,-100,4,3,0,100,0,1
63468,250,4,3,0,100,1,1
63468,-100,4,3,0,100,0,0

[HitObjects]
120,332,0,5,0,0:0:0:0:
160,336,468,6,0,P|208:356|272:348,2,85
128,176,843,1,0,0:0:0:0:
232,272,968,2,0,L|332:248,1,85
336,168,1218,2,0,P|396:240|348:320,1,170
240,96,1593,2,0,L|152:20,1,85
104,152,1843,2,0,L|192:228,1,85
376,296,2218,5,0,0:0:0:0:
140,292,2468,6,0,P|144:328|212:364,2,85
264,328,2843,1,0,0:0:0:0:
216,196,2968,2,0,L|268:104,1,85
312,220,3218,2,0,L|364:128,1,85
392,256,3468,2,0,P|308:328|232:288,1,170
296,96,3968,2,0,P|205:68|139:137,1,170
164,340,4468,6,0,P|120:272|136:244,1,85
384,280,4718,2,0,P|296:252|188:280,1,170
172,112,5218,2,0,P|276:112|280:112,1,85
316,40,5468,2,0,P|348:108|328:148,1,85
408,276,5718,2,0,L|364:160,1,85
324,352,5968,1,0,0:0:0:0:
124,280,6218,1,0,0:0:0:0:
140,104,6468,6,0,P|60:120|28:144,2,85
224,40,6843,2,0,P|256:124|248:144,1,85
200,184,7093,1,0,0:0:0:0:
200,184,7155,1,0,0:0:0:0:
200,184,7218,2,0,P|200:236|328:288,1,170
352,80,7718,6,0,L|380:192,1,85
440,256,7968,1,0,0:0:0:0:
144,336,8218,1,0,0:0:0:0:
100,172,8468,6,0,P|172:212|200:196,1,85
204,40,8718,2,0,L|168:144,1,85
272,144,8968,1,0,0:0:0:0:
272,144,9030,1,0,0:0:0:0:
272,144,9093,2,0,L|304:252,1,85
416,304,9343,2,0,L|384:196,1,85
304,328,9593,2,0,P|240:308|228:264,1,85
216,216,9843,1,0,0:0:0:0:
216,216,9905,1,0,0:0:0:0:
216,216,9968,1,0,0:0:0:0:
416,80,10218,5,0,0:0:0:0:
328,240,10468,5,0,0:0:0:0:
328,240,10530,1,0,0:0:0:0:
328,240,10593,2,0,P|372:300|416:300,1,85
256,312,10843,2,0,P|212:252|168:256,1,85
120,200,11093,1,0,0:0:0:0:
96,104,11218,2,0,P|32:144|20:188,1,85
176,112,11468,1,0,0:0:0:0:
200,108,11530,1,0,0:0:0:0:
224,104,11593,2,0,L|340:84,1,85
432,352,11968,2,0,P|272:284|248:288,1,170
100,100,12468,6,0,P|136:136|140:192,1,85
64,272,12718,2,0,P|144:300|172:292,1,85
232,232,12968,1,0,0:0:0:0:
240,248,13030,1,0,0:0:0:0:
248,268,13093,2,0,P|248:340|276:380,1,85
360,256,13343,1,0,0:0:0:0:
408,144,13468,2,0,P|464:216|448:320,1,170
296,208,13968,2,0,L|192:184,1,85
224,60,14218,1,0,0:0:0:0:
108,192,14468,5,0,0:0:0:0:
108,192,14530,1,0,0:0:0:0:
108,192,14593,2,0,P|68:240|56:292,1,85
216,304,14843,2,0,L|108:244,1,85
268,244,15093,1,0,0:0:0:0:
231,181,15218,1,0,0:0:0:0:
178,133,15343,1,0,0:0:0:0:
111,106,15468,1,0,0:0:0:0:
412,80,15718,5,0,0:0:0:0:
424,168,15843,1,0,0:0:0:0:
328,180,15968,1,0,0:0:0:0:
136,176,16218,5,0,0:0:0:0:
480,328,16468,5,0,0:0:0:0:
264,320,16718,6,0,P|212:352|200:372,2,63.7500024318696
348,280,17093,1,0,0:0:0:0:
336,152,17468,2,0,P|356:92|364:68,2,63.7500024318696
108,152,17968,2,0,P|88:92|80:64,2,63.7500024318696
328,104,18468,5,0,0:0:0:0:
224,236,18718,2,0,P|292:240|304:248,2,63.7500024318696
160,288,19093,1,0,0:0:0:0:
116,92,19468,5,0,0:0:0:0:
356,96,19718,5,0,0:0:0:0:
376,168,19843,1,0,0:0:0:0:
152,248,20093,5,0,0:0:0:0:
188,304,20218,1,0,0:0:0:0:
248,336,20343,1,0,0:0:0:0:
316,324,20468,2,0,P|308:264|324:184,1,127.500004863739
236,120,20968,2,0,P|200:112|148:120,2,63.7500024318696
400,144,21468,2,0,P|436:152|488:144,2,63.7500024318696
48,172,21968,2,0,L|68:256,1,63.7500024318696
136,272,22218,1,0,0:0:0:0:
204,232,22343,1,0,0:0:0:0:
248,164,22468,6,0,P|320:156|384:200,1,127.500004863739
304,308,22968,2,0,P|332:348|372:352,2,63.7500024318696
300,228,23343,1,0,0:0:0:0:
304,148,23468,2,0,P|236:132|184:92,1,127.500004863739
88,184,23968,5,0,0:0:0:0:
96,252,24093,1,0,0:0:0:0:
164,272,24218,1,0,0:0:0:0:
220,232,24343,1,0,0:0:0:0:
268,184,24468,6,0,L|424:152,1,136
160,68,24968,1,0,0:0:0:0:
160,68,25093,1,0,0:0:0:0:
160,68,25218,1,0,0:0:0:0:
116,228,25468,2,0,L|92:308,2,68
180,220,25843,1,0,0:0:0:0:
236,196,25968,2,0,L|284:264,2,68
272,144,26343,1,0,0:0:0:0:
288,80,26468,1,0,0:0:0:0:
376,256,26718,6,0,L|408:176,2,68
288,312,27093,2,0,P|252:320|208:352,2,68
284,200,27468,1,0,0:0:0:0:
96,144,27718,5,0,0:0:0:0:
204,96,27843,1,0,0:0:0:0:
96,240,28093,5,0,0:0:0:0:
204,288,28218,1,0,0:0:0:0:
392,156,28468,5,0,0:0:0:0:
96,288,28718,6,0,L|52:348,2,68
416,288,29218,2,0,L|460:348,2,68
416,96,29718,2,0,L|460:36,2,68
96,96,30218,2,0,L|52:36,2,68
400,288,30718,5,0,0:0:0:0:
128,288,30968,1,0,0:0:0:0:
255,19,31218,1,0,0:0:0:0:
256,96,31468,6,0,L|256:160,1,34
208,320,31718,5,0,0:0:0:0:
48,128,31968,2,0,P|176:80|192:80,1,136
272,240,32468,5,0,0:0:0:0:
272,240,32530,1,0,0:0:0:0:
272,240,32593,2,0,L|272:336,1,68
80,288,32968,1,0,0:0:0:0:
96,224,33093,1,0,0:0:0:0:
144,176,33218,1,0,0:0:0:0:
368,176,33468,2,0,P|416:128|416:48,2,136
304,288,34218,5,0,0:0:0:0:
304,288,34280,1,0,0:0:0:0:
304,288,34343,1,0,0:0:0:0:
304,288,34405,1,0,0:0:0:0:
304,288,34468,2,0,P|352:304|448:288,1,136
128,128,34968,2,0,L|160:208,1,68
48,120,35218,1,0,0:0:0:0:
304,176,35468,6,0,L|256:96,1,68
208,192,35718,1,0,0:0:0:0:
400,224,35843,1,0,0:0:0:0:
160,288,36218,1,0,0:0:0:0:
160,288,36280,1,0,0:0:0:0:
160,288,36343,6,0,P|224:320|240:320,1,68
304,272,36593,2,0,P|256:240|240:240,1,68
176,208,36843,2,0,L|128:160,1,68
272,160,37093,2,0,L|224:112,1,68
432,112,37593,5,0,0:0:0:0:
320,224,37718,2,0,L|416:240,1,68
304,96,37968,1,0,0:0:0:0:
312,304,38218,1,0,0:0:0:0:
312,304,38280,1,0,0:0:0:0:
312,304,38343,2,0,P|280:288|232:288,1,68
144,208,38718,6,0,L|160:288,1,68
32,224,38968,1,0,0:0:0:0:
80,128,39093,1,0,0:0:0:0:
192,128,39218,1,0,0:0:0:0:
368,304,39468,5,0,0:0:0:0:
288,192,39718,2,0,P|352:192|384:192,1,68
256,272,39968,2,0,P|208:256|160:256,2,68
112,144,40468,5,0,0:0:0:0:
384,80,40718,1,0,0:0:0:0:
320,288,40968,2,0,L|288:224,1,68
192,224,41218,2,0,L|224:288,1,68
160,336,41468,5,0,0:0:0:0:
448,144,41718,1,0,0:0:0:0:
160,80,41968,1,0,0:0:0:0:
432,336,42218,1,0,0:0:0:0:
432,336,42280,1,0,0:0:0:0:
432,336,42343,6,0,P|384:288|384:272,1,68
416,208,42593,2,0,L|400:128,1,68
48,240,42968,1,0,0:0:0:0:
320,336,43218,1,0,0:0:0:0:
64,96,43468,1,0,0:0:0:0:
336,112,43718,6,0,L|272:64,1,68
192,128,43968,2,0,L|256:176,1,68
352,192,44218,1,0,0:0:0:0:
64,272,44468,5,0,0:0:0:0:
416,240,44968,1,0,0:0:0:0:
80,128,45468,1,0,0:0:0:0:
432,96,45968,1,0,0:0:0:0:
128,96,46468,5,0,0:0:0:0:
384,320,46718,1,0,0:0:0:0:
384,96,46968,1,0,0:0:0:0:
128,320,47218,1,0,0:0:0:0:
200,168,47468,5,0,0:0:0:0:
280,136,47593,1,0,0:0:0:0:
312,216,47718,1,0,0:0:0:0:
232,248,47843,1,0,0:0:0:0:
88,280,48218,5,0,0:0:0:0:
72,120,48468,2,0,L|160:128,1,85
320,184,48718,2,0,L|232:176,1,85
288,96,48968,1,0,0:0:0:0:
304,336,49093,2,0,L|208:312,1,85
392,304,49343,1,0,0:0:0:0:
176,240,49468,1,0,0:0:0:0:
104,80,49718,6,0,L|120:192,1,85
216,104,49968,1,0,0:0:0:0:
216,104,50030,1,0,0:0:0:0:
216,104,50093,1,0,0:0:0:0:
216,104,50155,1,0,0:0:0:0:
216,104,50218,2,0,L|312:136,1,85
344,208,50468,5,0,0:0:0:0:
112,256,50718,2,0,L|96:344,2,63.7500024318696
312,328,51218,1,0,0:0:0:0:
152,120,51468,5,0,0:0:0:0:
336,88,51718,2,0,L|400:48,2,63.7500024318696
352,296,52218,5,0,0:0:0:0:
72,264,52468,2,0,L|184:272,1,85
96,352,52718,1,0,0:0:0:0:
112,144,52843,1,0,0:0:0:0:
280,144,52968,2,0,P|288:200|280:264,1,85
240,312,53218,1,0,0:0:0:0:
152,240,53343,2,0,P|96:240|64:248,1,85
192,104,53718,6,0,P|104:96|96:96,1,85
56,168,53968,1,0,0:0:0:0:
56,168,54030,1,0,0:0:0:0:
56,168,54093,1,0,0:0:0:0:
56,168,54155,1,0,0:0:0:0:
56,168,54218,2,0,P|120:176|176:200,1,85
216,292,54468,5,0,0:0:0:0:
416,280,54718,2,0,L|432:368,2,63.7500024318696
216,352,55218,1,0,0:0:0:0:
376,144,55468,5,0,0:0:0:0:
192,112,55718,2,0,L|128:72,2,63.7500024318696
176,320,56218,5,0,0:0:0:0:
408,248,56468,6,0,P|336:264|296:264,1,85
416,352,56718,1,0,0:0:0:0:
248,304,56843,2,0,P|248:240|264:192,1,85
112,168,57093,2,0,P|128:216|112:272,1,85
256,120,57343,1,0,0:0:0:0:
128,80,57468,1,0,0:0:0:0:
408,72,57718,6,0,P|376:168|368:192,1,85
336,232,57968,1,0,0:0:0:0:
336,232,58030,1,0,0:0:0:0:
336,232,58093,1,0,0:0:0:0:
336,232,58155,1,0,0:0:0:0:
336,232,58218,2,0,P|408:232|440:256,1,85
256,192,58468,5,0,0:0:0:0:
24,144,58718,2,0,L|8:56,2,63.7500024318696
224,72,59218,1,0,0:0:0:0:
64,280,59468,5,0,0:0:0:0:
368,320,59718,2,0,L|432:360,2,63.7500024318696
200,184,60218,5,0,0:0:0:0:
128,40,60468,5,0,0:0:0:0:
128,200,60593,1,0,0:0:0:0:
216,144,60718,1,0,0:0:0:0:
32,112,60843,2,0,P|48:176|48:224,1,85
240,272,61093,2,0,P|184:272|144:280,1,85
336,360,61343,2,0,L|344:248,1,85
104,136,61718,6,0,P|152:152|208:144,1,85
160,240,61968,1,0,0:0:0:0:
160,240,62030,1,0,0:0:0:0:
160,240,62093,1,0,0:0:0:0:
160,240,62155,1,0,0:0:0:0:
160,240,62218,2,0,P|208:296|240:320,1,85
288,288,62468,5,0,0:0:0:0:
312,192,62655,1,0,0:0:0:0:
216,160,62843,1,0,0:0:0:0:
368,304,63030,1,0,0:0:0:0:
392,144,63218,1,0,0:0:0:0:
264,64,63405,1,0,0:0:0:0:
72,208,63718,5,0,0:0:0:0:
72,208,63780,1,0,0:0:0:0:
72,208,63843,2,0,P|136:200|192:216,1,85
232,96,64218,1,0,0:0:0:0:
232,96,64343,1,0,0:0:0:0:
