osu file format v14

[General]
AudioFilename: audio.mp3
AudioLeadIn: 0
PreviewTime: 145468
Countdown: 1
SampleSet: None
StackLeniency: 0.6
Mode: 0
LetterboxInBreaks: 0
WidescreenStoryboard: 0

[Editor]
Bookmarks: 468,2468,4468,6468,8468,10468,12468,14468,16468,24468,32468,40468,48468,52468,56468,60468,64218,72468,129843,137468,141718,143530,145468
DistanceSpacing: 1
BeatDivisor: 4
GridSize: 8
TimelineZoom: 2.799999

[Metadata]
Title:Rumble Kung-fu Showdown
TitleUnicode:Rumble Kung-fu Showdown
Artist:t+pazolite
ArtistUnicode:t+pazolite
Creator:iamVill
Version:Kung-fu
Source:
Tags:t+pazolite
BeatmapID:944858
BeatmapSetID:439001

[Difficulty]
HPDrainRate:5
CircleSize:4
OverallDifficulty:9
ApproachRate:9.7
SliderMultiplier:1.4
SliderTickRate:1

[Events]
//Background and Video events
0,0,"13771_1_other_anime_dragon_fire_fire_dragon.jpg",0,0
//Break Periods
2,16668,23973
2,64418,71973
//Storyboard Layer 0 (Background)
//Storyboard Layer 1 (Fail)
//Storyboard Layer 2 (Pass)
//Storyboard Layer 3 (Foreground)
//Storyboard Sound Samples

[TimingPoints]
0,250,4,1,0,100,1,0
468,250,4,3,0,100,1,1
2218,-100,4,2,0,100,0,1
3968,-100,4,2,0,100,0,0
4468,-100,4,1,0,100,0,1
6593,-100,4,3,0,100,0,1
8468,-100,4,2,0,100,0,1
12468,-100,4,2,0,100,0,1
16468,-100,4,2,0,100,0,0
24468,-133.333333333333,4,3,0,100,0,0
25905,-133.333333333333,4,1,0,100,0,0
26093,-133.333333333333,4,3,0,100,0,0
27905,-133.333333333333,4,1,0,100,0,0
28030,-133.333333333333,4,3,0,100,0,0
29905,-133.333333333333,4,1,0,100,0,0
30030,-133.333333333333,4,3,0,100,0,0
31905,-133.333333333333,4,1,0,100,0,0
32030,-133.333333333333,4,2,0,100,0,0
34218,-133.333333333333,4,3,0,100,0,0
39093,-100,4,3,0,100,0,0
39968,-66.6666666666667,4,3,0,100,0,0
40468,-86.9565217391304,4,2,0,89,0,0
48468,-80,4,3,0,89,0,1
50468,-80,4,2,0,89,0,0
51968,-100,4,2,0,89,0,0
52468,-80,4,3,0,89,0,1
54468,-80,4,2,0,89,0,0
56468,-80,4,2,0,89,0,1
58468,-80,4,2,0,89,0,0
60468,-80,4,2,0,89,0,1
63468,-80,4,2,0,89,0,0
72468,-200,4,2,0,71,0,0
80218,-100,4,2,0,71,0,0
85718,-66.6666666666667,4,2,0,71,0,0
85968,-80,4,2,0,71,0,0
86218,-100,4,2,0,71,0,0
88218,-66.6666666666667,4,2,0,71,0,0
97218,-133.333333333333,4,2,0,71,0,0
97405,-50,4,2,0,71,0,0
97718,-100,4,2,0,71,0,0
105218,-66.6666666666667,4,2,0,71,0,0
112468,-133.333333333333,4,2,0,71,0,0
113593,-80,4,2,0,71,0,0
131468,-133.333333333333,4,2,0,71,0,0
145468,-66.6666666666667,4,3,0,71,0,1
152468,-66.6666666666667,4,2,0,71,0,0
153468,-66.6666666666667,4,2,0,70,0,1
160468,-66.6666666666667,4,2,0,71,0,0
161468,-66.6666666666667,4,2,0,71,0,1
168468,-66.6666666666667,4,2,0,71,0,0
169468,-66.6666666666667,4,2,0,71,0,1
176468,-66.6666666666667,4,2,0,71,0,0
176718,-66.6666666666667,4,3,0,71,0,0
177468,-66.6666666666667,4,2,0,71,0,0

[HitObjects]
184,128,0,5,4,0:0:0:0:
384,72,468,5,2,0:0:0:0:
464,232,593,1,0,0:0:0:0:
272,144,718,1,2,0:0:0:0:
336,272,843,1,0,0:0:0:0:
408,136,968,1,2,0:0:0:0:
216,232,1093,1,0,0:0:0:0:
424,216,1218,1,2,0:0:0:0:
256,80,1343,1,0,0:0:0:0:
328,288,1468,1,2,0:0:0:0:
200,184,1593,5,0,0:0:0:0:
400,96,1718,1,2,0:0:0:0:
352,296,1843,1,0,0:0:0:0:
224,104,1968,5,2,0:0:0:0:
208,88,2030,1,0,0:0:0:0:
192,72,2093,1,0,0:0:0:0:
176,56,2155,1,0,0:0:0:0:
160,40,2218,2,2,P|72:40|40:104,1,140
216,136,2593,5,2,0:0:0:0:
56,256,2718,1,0,0:0:0:0:
208,272,2843,1,2,0:0:0:0:
88,112,2968,1,0,0:0:0:0:
256,176,3093,1,2,0:0:0:0:
96,256,3218,1,0,0:0:0:0:
344,280,3343,5,2,0:0:0:0:
192,160,3468,1,0,0:0:0:0:
184,136,3530,1,0,0:0:0:0:
184,112,3593,1,2,0:0:0:0:
192,88,3655,1,0,0:0:0:0:
208,72,3718,2,0,P|248:56|296:64,1,70
440,192,3968,1,2,0:0:0:0:
440,192,4218,5,2,0:0:0:0:
200,320,4468,5,2,0:0:0:0:
406,232,4593,1,0,0:0:0:0:
272,160,4718,1,2,0:0:0:0:
320,352,4843,1,0,0:0:0:0:
186,228,4968,1,2,0:0:0:0:
408,192,5093,1,0,0:0:0:0:
223,344,5218,1,2,0:0:0:0:
272,128,5343,5,0,0:0:0:0:
368,312,5468,1,2,0:0:0:0:
200,240,5593,1,0,0:0:0:0:
400,192,5718,1,2,0:0:0:0:
232,104,5843,1,0,0:0:0:0:
112,192,5968,1,2,0:0:0:0:
96,216,6030,5,0,0:0:0:0:
88,240,6093,1,0,0:0:0:0:
88,272,6155,1,0,0:0:0:0:
96,304,6218,2,2,P|136:336|232:312,1,140
168,176,6593,5,2,0:0:0:0:
400,72,6718,1,0,0:0:0:0:
392,296,6843,1,2,0:0:0:0:
248,64,6968,1,0,0:0:0:0:
208,264,7093,1,2,0:0:0:0:
376,128,7218,1,0,0:0:0:0:
112,152,7343,1,2,0:0:0:0:
232,32,7468,1,0,0:0:0:0:
328,224,7718,6,2,P|360:184|360:152,1,70
352,48,7968,1,2,0:0:0:0:
216,48,8218,5,2,0:0:0:0:
152,304,8468,5,6,0:0:0:0:
344,160,8593,1,0,0:0:0:0:
144,304,8718,1,6,0:0:0:0:
360,152,8843,1,0,0:0:0:0:
136,304,8968,1,6,0:0:0:0:
368,144,9093,1,0,0:0:0:0:
128,304,9218,1,6,0:0:0:0:
378,289,9343,5,0,0:0:0:0:
429,265,9405,1,0,0:0:0:0:
450,222,9468,1,6,0:0:0:0:
232,56,9593,5,0,0:0:0:0:
136,216,9718,1,6,0:0:0:0:
80,88,9843,1,0,0:0:0:0:
272,176,9968,1,6,0:0:0:0:
280,152,10030,5,0,0:0:0:0:
280,128,10093,1,0,0:0:0:0:
280,32,10218,1,6,0:0:0:0:
352,272,10468,5,6,0:0:0:0:
184,136,10593,1,0,0:0:0:0:
384,96,10718,1,6,0:0:0:0:
232,256,10843,1,0,0:0:0:0:
280,72,10968,1,6,0:0:0:0:
368,224,11093,1,0,0:0:0:0:
144,184,11218,5,6,0:0:0:0:
408,128,11343,1,0,0:0:0:0:
144,64,11468,1,6,0:0:0:0:
112,72,11530,1,0,0:0:0:0:
88,88,11593,1,0,0:0:0:0:
64,112,11655,1,0,0:0:0:0:
48,144,11718,2,6,P|32:192|32:224,1,70
32,328,11968,5,6,0:0:0:0:
32,352,12218,5,0,0:0:0:0:
392,48,12468,5,14,0:0:0:0:
296,200,12593,1,0,0:0:0:0:
496,184,12718,1,14,0:0:0:0:
288,64,12843,1,0,0:0:0:0:
400,248,12968,1,14,0:0:0:0:
216,192,13093,1,0,0:0:0:0:
400,120,13218,1,14,0:0:0:0:
304,272,13343,1,0,0:0:0:0:
328,88,13468,5,14,0:0:0:0:
208,232,13593,1,0,0:0:0:0:
216,72,13718,1,14,0:0:0:0:
360,216,13843,1,0,0:0:0:0:
152,184,13968,1,14,0:0:0:0:
128,144,14030,5,0,0:0:0:0:
120,96,14093,1,0,0:0:0:0:
120,0,14218,5,14,0:0:0:0:
264,271,14468,5,14,0:0:0:0:
268,81,14593,1,0,0:0:0:0:
266,268,14718,1,14,0:0:0:0:
268,83,14843,1,0,0:0:0:0:
328,276,14968,1,14,0:0:0:0:
159,188,15093,1,0,0:0:0:0:
389,183,15218,1,14,0:0:0:0:
202,266,15343,1,0,0:0:0:0:
167,286,15405,1,0,0:0:0:0:
131,307,15468,6,14,B|93:324|64:308|80:187,1,140
79,99,15843,5,2,0:0:0:0:
242,92,15968,1,2,0:0:0:0:
273,88,16218,1,2,0:0:0:0:
316,289,16468,5,4,0:0:0:0:
131,103,24468,5,2,0:0:0:0:
91,88,24968,1,8,0:0:0:0:
111,142,25718,6,4,P|146:124|192:176,1,105.000004005432
200,184,26030,1,0,0:0:0:0:
208,200,26093,1,0,0:0:0:0:
128,232,26468,1,2,0:0:0:0:
394,96,26968,5,8,0:0:0:0:
403,190,27718,2,4,P|383:229|320:224,1,105.000004005432
256,128,28093,2,8,L|216:168,1,52.5000020027161
181,361,28468,5,2,0:0:0:0:
177,321,28968,1,8,0:0:0:0:
77,290,29718,6,12,P|131:270|176:304,1,105.000004005432
176,312,30030,1,0,0:0:0:0:
184,336,30093,1,0,0:0:0:0:
256,193,30468,5,2,0:0:0:0:
339,129,30968,1,8,0:0:0:0:
14,175,31468,5,0,0:0:0:0:
208,208,31718,6,14,P|217:187|303:193,1,105.000004005432
352,272,32093,2,8,L|392:216,1,52.5000020027161
387,100,32468,5,4,0:0:0:0:
144,112,32718,6,0,P|192:144|200:192,1,105.000004005432
160,272,33093,2,0,P|208:288|232:336,1,105.000004005432
344,272,33468,1,0,0:0:0:0:
360,256,33593,1,0,0:0:0:0:
200,56,33718,6,0,P|256:80|312:64,1,105.000004005432
392,48,34093,1,0,0:0:0:0:
296,200,34218,5,8,0:0:0:0:
272,232,34280,1,8,0:0:0:0:
288,264,34343,1,8,0:0:0:0:
256,288,34405,1,8,0:0:0:0:
272,320,34468,1,8,0:0:0:0:
421,196,34718,6,0,P|397:178|370:172,1,52.5000020027161
282,132,34968,1,0,0:0:0:0:
261,120,35093,1,0,0:0:0:0:
87,77,35218,6,0,P|110:104|111:138,1,52.5000020027161
106,210,35468,2,0,P|115:239|143:250,1,52.5000020027161
75,342,35718,2,0,P|104:362|143:357,1,52.5000020027161
214,341,35968,1,0,0:0:0:0:
399,359,36093,2,0,P|431:328|455:329,2,52.5000020027161
271,362,36468,5,0,0:0:0:0:
143,359,36718,6,4,P|144:320|165:302,2,52.5000020027161
143,15,37218,2,0,P|100:64|97:65,1,52.5000020027161
135,202,37468,6,0,P|163:168|177:145,2,52.5000020027161
181,272,37968,2,0,P|205:240|217:222,2,52.5000020027161
176,288,38280,1,0,0:0:0:0:
168,304,38343,1,0,0:0:0:0:
306,320,38468,5,0,0:0:0:0:
329,322,38718,1,0,0:0:0:0:
350,323,38968,1,0,0:0:0:0:
386,326,39093,6,0,P|431:320|455:295,1,70
425,201,39343,2,0,P|388:218|367:253,2,70
495,120,39718,2,0,P|461:111|408:82,1,70
271,69,39968,2,0,L|270:184,1,105.000004005432
178,133,40218,2,0,L|179:246,1,105.000004005432
67,71,40468,6,2,P|121:101|128:145,1,80.5000015354157
90,180,40718,2,2,P|105:226|146:231,1,80.5000015354157
277,174,40968,2,2,P|326:160|352:197,1,80.5000015354157
430,87,41218,2,2,P|391:56|368:73,1,80.5000015354157
366,214,41468,2,0,P|405:235|439:209,2,80.5000015354157
242,223,41843,5,0,0:0:0:0:
119,222,41968,2,0,P|95:261|107:312,1,80.5000015354157
250,303,42218,1,8,0:0:0:0:
308,278,42280,1,8,0:0:0:0:
331,220,42343,1,8,0:0:0:0:
304,167,42405,1,8,0:0:0:0:
246,147,42468,1,8,0:0:0:0:
140,198,42593,6,0,P|125:148|139:126,1,80.5000015354157
266,37,42843,2,0,P|318:68|317:105,1,80.5000015354157
283,206,43093,2,0,P|283:247|285:298,1,80.5000015354157
462,282,43343,1,0,0:0:0:0:
276,284,43468,6,0,L|274:195,1,80.5000015354157
273,99,43718,1,0,0:0:0:0:
272,81,43843,1,0,0:0:0:0:
170,84,43968,2,0,P|144:134|142:175,1,80.5000015354157
296,304,44218,5,0,0:0:0:0:
328,336,44343,1,0,0:0:0:0:
448,240,44468,2,0,L|344:232,1,80.5000015354157
208,120,44718,5,0,0:0:0:0:
112,144,44843,1,0,0:0:0:0:
152,240,44968,2,0,L|80:304,1,80.5000015354157
312,368,45218,5,0,0:0:0:0:
312,336,45343,1,0,0:0:0:0:
208,144,45468,2,0,L|280:216,1,80.5000015354157
480,144,45718,5,0,0:0:0:0:
376,104,45843,1,0,0:0:0:0:
304,208,45968,2,0,L|248:136,1,80.5000015354157
128,336,46218,5,0,0:0:0:0:
144,176,46343,6,0,L|120:144,1,40.2500007677078
324,40,46468,5,0,0:0:0:0:
330,40,46530,1,0,0:0:0:0:
336,40,46593,2,0,P|376:40|384:48,1,40.2500007677078
402,249,46718,5,0,0:0:0:0:
395,250,46780,1,0,0:0:0:0:
389,251,46843,2,0,P|349:251|332:251,1,40.2500007677078
65,156,46968,5,0,0:0:0:0:
60,149,47030,1,0,0:0:0:0:
56,144,47093,2,0,P|48:104|56:96,1,40.2500007677078
221,315,47218,5,0,0:0:0:0:
216,320,47280,1,0,0:0:0:0:
212,325,47343,2,0,P|180:349|132:357,1,80.5000015354157
446,187,47718,5,0,0:0:0:0:
386,271,47843,1,0,0:0:0:0:
170,244,48093,1,0,0:0:0:0:
144,152,48218,1,0,0:0:0:0:
448,32,48468,5,2,0:0:0:0:
424,240,48593,1,2,0:0:0:0:
296,56,48718,1,2,0:0:0:0:
504,152,48843,1,2,0:0:0:0:
328,256,48968,1,2,0:0:0:0:
424,72,49093,1,2,0:0:0:0:
232,144,49218,1,2,0:0:0:0:
424,208,49343,1,2,0:0:0:0:
232,288,49468,2,0,P|184:312|64:272,1,175
128,160,49843,5,0,0:0:0:0:
208,160,49968,1,0,0:0:0:0:
240,160,50030,1,0,0:0:0:0:
280,160,50093,2,0,P|328:160|376:184,1,87.5
424,296,50343,6,0,L|472:368,1,87.5
136,288,50843,5,2,0:0:0:0:
120,272,51218,1,4,0:0:0:0:
128,144,51468,5,4,0:0:0:0:
360,96,51718,1,0,0:0:0:0:
323,121,51780,1,0,0:0:0:0:
288,144,51843,1,10,0:0:0:0:
176,216,51968,2,10,L|248:168,1,70
153,85,52218,1,10,0:0:0:0:
170,304,52468,5,2,0:0:0:0:
83,108,52593,1,2,0:0:0:0:
41,288,52718,1,2,0:0:0:0:
248,216,52843,1,2,0:0:0:0:
0,168,52968,1,2,0:0:0:0:
144,336,53093,1,2,0:0:0:0:
208,152,53218,1,2,0:0:0:0:
370,302,53343,6,2,P|301:274|268:285,1,87.5
150,275,53593,2,0,P|155:217|193:189,1,87.5
412,197,53843,1,0,0:0:0:0:
279,351,53968,1,0,0:0:0:0:
246,371,54030,5,0,0:0:0:0:
210,381,54093,1,0,0:0:0:0:
172,377,54155,1,0,0:0:0:0:
144,363,54218,2,0,P|113:327|101:276,1,87.5
104,160,54468,5,0,0:0:0:0:
104,114,54843,1,0,0:0:0:0:
104,72,55218,1,4,0:0:0:0:
101,181,55468,1,4,0:0:0:0:
234,317,55593,5,10,0:0:0:0:
256,280,55655,1,10,0:0:0:0:
288,256,55718,2,0,P|344:240|384:240,1,87.5
440,64,55968,6,0,L|440:160,1,87.5
183,286,56468,5,0,0:0:0:0:
352,121,56593,1,0,0:0:0:0:
133,175,56718,1,0,0:0:0:0:
374,276,56843,1,0,0:0:0:0:
221,65,56968,1,0,0:0:0:0:
234,275,57093,1,0,0:0:0:0:
314,140,57218,2,0,P|375:111|402:115,1,87.5
167,215,57468,2,0,P|120:255|68:253,1,87.5
248,312,57718,5,0,0:0:0:0:
344,176,57843,1,0,0:0:0:0:
328,320,57968,5,0,0:0:0:0:
352,344,58030,1,0,0:0:0:0:
392,352,58093,2,0,P|440:352|472:320,1,87.5
339,166,58343,5,0,0:0:0:0:
292,165,58468,1,2,0:0:0:0:
194,162,58843,1,2,0:0:0:0:
104,167,59218,1,4,0:0:0:0:
106,257,59468,1,4,0:0:0:0:
233,314,59655,5,10,0:0:0:0:
250,290,59718,1,10,0:0:0:0:
267,266,59780,1,10,0:0:0:0:
281,242,59843,2,0,L|326:164,1,87.5
424,24,60218,5,0,0:0:0:0:
288,323,60468,5,0,0:0:0:0:
146,226,60593,1,0,0:0:0:0:
357,266,60718,1,0,0:0:0:0:
195,149,60843,1,0,0:0:0:0:
181,324,60968,1,0,0:0:0:0:
472,206,61093,1,0,0:0:0:0:
160,100,61218,1,0,0:0:0:0:
352,284,61343,1,0,0:0:0:0:
121,182,61468,2,0,P|164:209|190:244,1,87.5
214,334,61718,5,0,0:0:0:0:
349,115,61843,1,0,0:0:0:0:
342,280,61968,1,0,0:0:0:0:
330,317,62030,1,0,0:0:0:0:
298,335,62093,1,0,0:0:0:0:
268,315,62155,1,0,0:0:0:0:
264,271,62218,1,0,0:0:0:0:
265,115,62343,5,0,0:0:0:0:
169,116,62468,1,0,0:0:0:0:
172,220,62655,2,0,L|314:220,1,131.25
301,325,63030,1,0,0:0:0:0:
393,278,63218,2,0,L|392:95,1,175
176,72,63718,5,0,0:0:0:0:
208,80,63780,1,0,0:0:0:0:
192,104,63843,1,0,0:0:0:0:
216,112,63905,1,0,0:0:0:0:
208,144,63968,2,0,P|196:190|161:199,1,87.5
0,200,64218,1,6,0:0:0:0:
136,293,72468,6,0,B|166:270|200:247|224:244|250:218|229:168|288:83,1,262.5
321,85,73468,6,0,B|330:130|379:156|383:178|394:209|386:264|348:280|322:281|265:244,1,280
275,351,75468,1,0,0:0:0:0:
125,29,76468,6,0,B|140:84|128:107|114:129|118:152|136:169|165:180|283:188|290:193,1,280
444,107,78468,1,0,0:0:0:0:
191,106,78968,1,0,0:0:0:0:
59,297,79468,6,0,B|154:308|187:249|255:251,1,192.5
272,289,80218,6,0,P|323:294|401:248,1,140
408,75,80593,5,0,0:0:0:0:
363,46,80655,1,0,0:0:0:0:
314,66,80718,1,0,0:0:0:0:
261,159,80843,2,0,P|259:212|230:225,1,70
146,106,81093,1,0,0:0:0:0:
145,235,81218,1,0,0:0:0:0:
345,309,81343,6,0,P|301:291|261:293,1,70
251,295,81530,1,0,0:0:0:0:
228,304,81593,1,0,0:0:0:0:
368,208,81718,2,0,P|412:219|467:161,1,105
463,160,81968,1,0,0:0:0:0:
463,139,82030,1,0,0:0:0:0:
351,66,82218,6,0,P|281:64|254:55,1,70
186,92,82468,1,0,0:0:0:0:
211,207,82593,2,0,L|166:225,2,35
246,91,82843,1,0,0:0:0:0:
91,179,82968,5,0,0:0:0:0:
255,281,83093,1,0,0:0:0:0:
293,260,83156,1,0,0:0:0:0:
316,218,83218,1,0,0:0:0:0:
247,80,83343,1,0,0:0:0:0:
403,111,83468,2,0,B|489:113|427:241|427:241|457:303|332:302,1,280
54,97,84218,5,0,0:0:0:0:
143,166,84343,2,0,P|110:195|108:238,1,70
78,336,84593,1,0,0:0:0:0:
103,307,84655,1,0,0:0:0:0:
143,293,84718,1,0,0:0:0:0:
203,108,84843,1,0,0:0:0:0:
254,226,84968,6,0,P|294:249|339:241,1,70
410,160,85218,2,0,L|405:78,1,70
319,109,85468,2,0,L|315:26,1,70
228,84,85718,2,0,P|227:150|145:128,1,157.500006008148
74,91,85968,6,0,P|20:113|55:195,1,131.25
114,288,86218,2,0,L|206:243,1,70
281,335,86468,1,0,0:0:0:0:
257,157,86593,5,0,0:0:0:0:
286,122,86655,1,0,0:0:0:0:
332,119,86718,1,0,0:0:0:0:
450,198,86843,1,0,0:0:0:0:
450,333,86968,2,0,L|371:335,1,70
360,337,87155,1,0,0:0:0:0:
350,337,87217,1,0,0:0:0:0:
182,339,87343,1,0,0:0:0:0:
158,338,87468,6,0,P|92:332|34:284,1,140
31,172,87968,5,0,0:0:0:0:
246,30,88218,6,0,P|244:90|306:175,1,157.500006008148
375,169,88468,1,0,0:0:0:0:
136,352,88593,6,0,P|160:304|168:240,1,105.000004005432
160,216,88780,1,0,0:0:0:0:
144,192,88843,1,0,0:0:0:0:
168,64,88968,2,0,L|256:128,2,105.000004005432
104,160,89343,1,0,0:0:0:0:
320,200,89468,6,0,P|256:232|256:272,1,105.000004005432
392,256,89718,2,0,P|360:312|304:328,1,105.000004005432
232,240,89968,2,0,P|240:176|384:144,1,210.000008010865
456,192,90343,5,0,0:0:0:0:
346,350,90468,1,0,0:0:0:0:
297,177,90593,1,0,0:0:0:0:
267,144,90655,1,0,0:0:0:0:
223,131,90718,1,0,0:0:0:0:
272,245,90843,1,0,0:0:0:0:
64,160,90968,2,0,L|80:248,2,52.5000020027161
176,32,91218,6,0,P|224:80|272:80,1,105.000004005432
176,176,91468,1,0,0:0:0:0:
256,272,91593,2,0,P|224:320|224:376,1,105.000004005432
152,280,91843,2,0,P|104:224|96:152,1,105.000004005432
200,192,92093,2,0,P|288:184|304:208,1,105.000004005432
312,224,92280,5,0,0:0:0:0:
327,266,92343,1,0,0:0:0:0:
356,300,92405,1,0,0:0:0:0:
397,311,92468,1,0,0:0:0:0:
376,88,93468,5,0,0:0:0:0:
160,208,94468,1,0,0:0:0:0:
368,344,94968,5,0,0:0:0:0:
16,184,95468,1,0,0:0:0:0:
8,152,95718,5,0,0:0:0:0:
125,152,95968,1,0,0:0:0:0:
124,241,96218,1,0,0:0:0:0:
16,240,96468,1,0,0:0:0:0:
40,240,96530,5,0,0:0:0:0:
158,240,96718,2,0,L|279:238,1,105.000004005432
336,240,96968,1,0,0:0:0:0:
272,24,97218,6,0,P|249:63|232:127,1,105.000004005432
392,160,97718,6,0,P|328:208|320:224,1,70
312,232,97905,1,0,0:0:0:0:
304,264,97968,1,0,0:0:0:0:
256,344,98093,2,0,P|208:312|176:304,1,70
88,256,98343,1,0,0:0:0:0:
216,80,98468,6,0,P|224:136|272:192,1,105
304,136,98718,2,0,P|352:136|376:208,1,105
304,240,98968,2,0,P|296:288|392:320,1,140
400,328,99280,1,0,0:0:0:0:
432,328,99343,1,0,0:0:0:0:
424,144,99468,5,0,0:0:0:0:
312,224,99593,1,0,0:0:0:0:
288,64,99718,1,0,0:0:0:0:
440,232,99843,1,0,0:0:0:0:
232,192,99968,2,0,L|312:168,1,70
432,72,100218,1,0,0:0:0:0:
336,272,100343,1,0,0:0:0:0:
240,72,100468,2,0,B|176:48|120:112|144:296,1,280
144,352,101218,5,0,0:0:0:0:
208,271,101343,1,0,0:0:0:0:
272,352,101468,2,0,P|320:344|344:320,1,70
352,296,101655,1,0,0:0:0:0:
352,264,101718,1,0,0:0:0:0:
352,128,101843,6,0,P|400:144|416:184,1,70
408,256,102093,1,0,0:0:0:0:
304,256,102218,1,0,0:0:0:0:
456,328,102343,2,0,L|376:320,1,70
312,192,102593,1,0,0:0:0:0:
280,328,102718,6,0,P|248:352|184:328,1,105
184,296,102968,2,0,P|208:264|288:304,1,140
384,136,103343,1,0,0:0:0:0:
384,280,103468,1,0,0:0:0:0:
144,80,103593,6,0,L|200:144,1,70
160,272,103843,1,0,0:0:0:0:
363,95,103968,1,0,0:0:0:0:
400,113,104030,1,0,0:0:0:0:
418,149,104093,1,0,0:0:0:0:
376,248,104218,2,0,L|296:280,1,70
352,336,104468,6,0,L|272:368,1,70
232,304,104718,2,0,L|152:352,1,70
64,320,104968,2,0,L|128:272,1,70
200,216,105218,2,0,P|248:176|288:32,1,210.000008010865
200,32,105593,5,0,0:0:0:0:
160,64,105655,1,0,0:0:0:0:
144,112,105718,1,0,0:0:0:0:
144,232,105843,2,0,P|144:296|168:344,2,105.000004005432
272,232,106218,1,0,0:0:0:0:
136,232,106343,6,0,P|88:264|80:320,1,105.000004005432
263,348,106593,1,0,0:0:0:0:
288,208,106718,2,0,P|184:160|168:120,2,157.500006008148
272,48,107218,5,0,0:0:0:0:
312,216,107343,1,0,0:0:0:0:
352,48,107468,1,0,0:0:0:0:
232,208,107593,1,0,0:0:0:0:
272,40,107718,2,0,L|374:-1,1,105.000004005432
352,206,107968,2,0,L|304:308,1,105.000004005432
216,272,108218,6,0,P|136:240|104:272,1,105.000004005432
200,376,108468,2,0,P|128:368|80:328,1,105.000004005432
104,184,108718,1,0,0:0:0:0:
112,144,108968,1,0,0:0:0:0:
280,96,109218,6,0,L|208:184,2,105.000004005432
344,64,109593,1,0,0:0:0:0:
376,72,109655,1,0,0:0:0:0:
406,104,109718,1,0,0:0:0:0:
420,320,109843,1,0,0:0:0:0:
504,179,109968,1,0,0:0:0:0:
288,248,110093,6,0,P|336:224|384:256,1,105.000004005432
336,336,110343,2,0,P|288:360|240:336,1,105.000004005432
128,320,110593,2,0,L|128:168,1,105.000004005432
192,144,110780,2,0,L|192:288,1,105.000004005432
264,176,110968,2,0,P|264:96|384:72,1,210.000008010865
464,144,111343,5,0,0:0:0:0:
296,264,111468,1,0,0:0:0:0:
448,288,111593,1,0,0:0:0:0:
464,264,111655,1,0,0:0:0:0:
468,236,111718,1,0,0:0:0:0:
309,39,111843,2,0,L|337:153,1,105.000004005432
208,266,112093,5,0,0:0:0:0:
252,48,112218,1,0,0:0:0:0:
350,231,112343,1,0,0:0:0:0:
334,95,112468,2,0,B|291:70|237:81|216:94,1,105.000004005432
197,111,112780,5,0,0:0:0:0:
178,144,112843,1,0,0:0:0:0:
187,304,112968,6,0,L|157:273,1,26.2500010013581
77,337,113218,2,0,L|70:313,8,13.125000500679
94,91,113593,5,0,0:0:0:0:
130,184,113718,2,0,P|159:213|214:218,1,87.5
223,109,113968,1,0,0:0:0:0:
346,69,114093,2,0,P|404:88|416:121,1,87.5
425,209,114343,2,0,P|455:251|440:302,1,87.5
298,166,114718,1,0,0:0:0:0:
357,341,114968,1,0,0:0:0:0:
137,24,115218,6,0,P|110:81|108:124,1,87.5
112,142,115405,1,0,0:0:0:0:
126,184,115468,1,0,0:0:0:0:
245,194,115593,5,0,0:0:0:0:
278,82,115718,1,0,0:0:0:0:
336,199,115843,1,0,0:0:0:0:
384,103,115968,1,0,0:0:0:0:
423,87,116030,1,0,0:0:0:0:
459,109,116093,1,0,0:0:0:0:
447,224,116218,6,0,P|377:255|339:257,1,87.5
422,331,116468,2,0,P|367:337|306:326,1,87.5
210,336,116718,2,0,P|148:308|111:272,1,87.5
101,174,116968,2,0,P|85:122|112:80,1,87.5
237,70,117218,5,0,0:0:0:0:
258,112,117280,1,0,0:0:0:0:
260,154,117343,1,0,0:0:0:0:
237,195,117405,1,0,0:0:0:0:
199,210,117468,2,0,P|128:235|106:273,1,87.5
105,282,117655,1,0,0:0:0:0:
111,318,117718,1,0,0:0:0:0:
257,327,117843,6,0,P|315:310|345:271,2,87.5
225,196,118218,2,0,P|274:163|356:154,1,131.25
312,234,118468,2,0,P|341:281|433:305,1,131.25
419,207,118718,2,0,P|438:146|359:59,1,175
239,68,119093,5,0,0:0:0:0:
172,182,119218,1,0,0:0:0:0:
139,77,119343,1,0,0:0:0:0:
260,152,119468,1,0,0:0:0:0:
122,66,119593,5,0,0:0:0:0:
85,51,119655,1,0,0:0:0:0:
44,63,119718,1,0,0:0:0:0:
45,187,119843,2,0,P|105:196|146:176,1,87.5
199,144,120093,1,0,0:0:0:0:
239,146,120155,1,0,0:0:0:0:
276,170,120218,2,0,P|315:214|319:256,1,87.5
386,326,120468,2,0,L|389:209,1,87.5
463,362,120718,2,0,L|469:242,1,87.5
432,164,120968,5,0,0:0:0:0:
330,17,121218,6,0,P|372:68|365:123,1,87.5
361,123,121405,1,0,0:0:0:0:
336,144,121468,1,0,0:0:0:0:
211,85,121593,2,0,P|234:35|271:23,2,87.5
217,129,121905,5,0,0:0:0:0:
239,168,121968,1,0,0:0:0:0:
152,222,122093,1,0,0:0:0:0:
83,280,122218,1,0,0:0:0:0:
170,209,122343,1,0,0:0:0:0:
65,293,122468,1,0,0:0:0:0:
201,357,122593,6,0,P|179:306|141:282,1,87.5
283,269,122843,2,0,P|335:274|384:328,1,87.5
314,364,123093,2,0,P|233:337|215:308,1,87.5
215,309,123280,5,0,0:0:0:0:
214,277,123343,1,0,0:0:0:0:
297,98,123468,1,0,0:0:0:0:
376,249,123593,1,0,0:0:0:0:
206,115,123718,1,0,0:0:0:0:
217,222,123843,1,0,0:0:0:0:
279,42,123968,1,0,0:0:0:0:
365,226,124093,1,0,0:0:0:0:
389,111,124218,5,0,0:0:0:0:
259,243,124343,1,0,0:0:0:0:
430,319,124468,1,0,0:0:0:0:
449,82,124718,6,0,L|351:123,1,87.5
466,166,124968,2,0,L|360:218,1,87.5
250,193,125218,2,0,L|228:145,1,43.75
208,117,125343,5,0,0:0:0:0:
175,91,125405,1,0,0:0:0:0:
133,83,125468,1,0,0:0:0:0:
122,186,125968,5,0,0:0:0:0:
130,267,126468,1,0,0:0:0:0:
211,152,126968,1,0,0:0:0:0:
266,273,127468,1,0,0:0:0:0:
375,219,127718,5,0,0:0:0:0:
375,188,127968,1,0,0:0:0:0:
383,147,128218,1,0,0:0:0:0:
382,104,128468,1,0,0:0:0:0:
271,80,128593,5,0,0:0:0:0:
229,161,128718,1,0,0:0:0:0:
170,66,128843,1,0,0:0:0:0:
135,146,128968,1,0,0:0:0:0:
252,75,129093,1,0,0:0:0:0:
341,182,129218,2,0,L|353:200,8,21.875
77,266,130218,5,0,0:0:0:0:
167,237,130468,2,0,P|208:202|218:182,1,43.75
156,24,131468,6,0,P|158:86|188:133,1,105.000004005432
133,184,131843,2,0,P|160:227|165:231,1,52.5000020027161
277,177,132218,1,0,0:0:0:0:
77,177,132468,1,0,0:0:0:0:
496,270,132968,5,0,0:0:0:0:
463,245,133468,1,0,0:0:0:0:
386,89,133718,6,0,P|364:129|303:150,1,105.000004005432
317,224,134093,2,0,P|286:240|255:237,1,52.5000020027161
397,240,134468,1,0,0:0:0:0:
112,328,135468,5,0,0:0:0:0:
256,336,135718,2,0,L|256:272,1,52.5000020027161
256,192,135968,1,0,0:0:0:0:
512,280,136218,5,0,0:0:0:0:
304,280,136468,1,0,0:0:0:0:
128,32,136968,6,0,P|176:56|192:64,2,52.5000020027161
400,48,137468,6,0,L|360:104,1,52.5000020027161
320,176,137718,2,0,L|288:232,1,52.5000020027161
384,328,137968,2,0,L|416:264,1,52.5000020027161
304,224,138218,2,0,L|280:280,1,52.5000020027161
408,272,138468,2,0,L|440:208,1,52.5000020027161
272,40,138718,5,0,0:0:0:0:
120,232,138968,1,0,0:0:0:0:
176,48,139218,1,0,0:0:0:0:
264,296,139468,1,0,0:0:0:0:
384,344,139718,6,0,P|352:320|336:288,1,52.5000020027161
176,80,139968,2,0,L|192:144,1,52.5000020027161
192,256,140218,5,0,0:0:0:0:
176,288,140280,1,0,0:0:0:0:
144,312,140343,1,0,0:0:0:0:
104,208,140468,1,0,0:0:0:0:
176,48,140593,6,0,P|192:88|216:112,1,52.5000020027161
256,200,140843,6,0,P|320:184|328:184,1,52.5000020027161
408,192,141093,5,0,0:0:0:0:
448,224,141155,1,0,0:0:0:0:
448,272,141218,1,0,0:0:0:0:
336,352,141343,1,0,0:0:0:0:
224,256,141468,2,0,P|192:272|176:296,1,52.5000020027161
104,240,141718,5,0,0:0:0:0:
88,208,141801,1,0,0:0:0:0:
80,176,141884,1,0,0:0:0:0:
80,144,141968,1,2,0:0:0:0:
88,112,142051,1,0,0:0:0:0:
112,88,142134,1,0,0:0:0:0:
144,80,142218,1,0,0:0:0:0:
176,88,142301,1,0,0:0:0:0:
200,112,142384,1,0,0:0:0:0:
208,144,142468,1,2,0:0:0:0:
208,176,142551,1,0,0:0:0:0:
216,208,142634,5,0,0:0:0:0:
232,240,142718,1,0,0:0:0:0:
256,264,142801,1,0,0:0:0:0:
288,272,142884,1,0,0:0:0:0:
320,264,142968,1,2,0:0:0:0:
344,240,143051,1,0,0:0:0:0:
352,208,143134,1,0,0:0:0:0:
344,176,143218,1,0,0:0:0:0:
336,144,143301,2,0,L|320:96,2,35.0000013351441
248,68,143530,5,0,0:0:0:0:
240,80,143593,1,0,0:0:0:0:
232,91,143655,2,2,L|208:123,1,26.2500010013581
155,180,143780,5,0,0:0:0:0:
149,170,143843,1,0,0:0:0:0:
144,160,143905,2,2,L|128:128,1,26.2500010013581
261,344,144030,5,0,0:0:0:0:
274,344,144093,1,0,0:0:0:0:
287,344,144155,2,2,L|327:344,1,26.2500010013581
464,168,144280,5,0,0:0:0:0:
464,160,144343,1,0,0:0:0:0:
464,152,144405,2,2,L|464:112,1,26.2500010013581
343,100,144530,5,0,0:0:0:0:
317,73,144593,1,0,0:0:0:0:
279,68,144655,2,0,P|223:76|191:100,1,78.7500030040742
254,175,144968,5,0,0:0:0:0:
184,264,145218,1,0,0:0:0:0:
392,152,145468,5,2,0:0:0:0:
202,67,145593,1,2,0:0:0:0:
336,256,145718,1,2,0:0:0:0:
319,53,145843,1,2,0:0:0:0:
155,237,145968,1,2,0:0:0:0:
173,55,146093,1,2,0:0:0:0:
258,282,146218,1,2,0:0:0:0:
325,100,146343,1,2,0:0:0:0:
117,209,146468,1,2,0:0:0:0:
368,208,146593,1,0,0:0:0:0:
328,344,146718,6,2,P|280:288|232:272,1,105.000004005432
216,272,146905,1,0,0:0:0:0:
184,272,146968,1,2,0:0:0:0:
152,272,147030,1,0,0:0:0:0:
120,256,147093,1,2,0:0:0:0:
104,224,147155,2,2,P|96:160|96:160,1,52.5000020027161
112,320,147468,5,2,0:0:0:0:
208,168,147593,1,2,0:0:0:0:
256,320,147718,1,2,0:0:0:0:
304,160,147843,1,2,0:0:0:0:
208,240,147968,1,2,0:0:0:0:
192,48,148093,1,2,0:0:0:0:
64,184,148218,5,2,0:0:0:0:
275,85,148343,1,2,0:0:0:0:
410,287,148468,1,2,0:0:0:0:
392,328,148530,5,0,0:0:0:0:
353,350,148593,1,2,0:0:0:0:
309,342,148655,1,0,0:0:0:0:
275,317,148718,1,2,0:0:0:0:
200,144,148968,5,4,0:0:0:0:
200,104,149218,1,4,0:0:0:0:
432,248,149468,5,2,0:0:0:0:
208,56,149593,1,2,0:0:0:0:
384,256,149718,1,2,0:0:0:0:
216,48,149843,1,2,0:0:0:0:
240,232,149968,1,2,0:0:0:0:
384,104,150093,1,2,0:0:0:0:
152,192,150218,1,2,0:0:0:0:
384,128,150343,1,2,0:0:0:0:
272,224,150468,6,2,P|256:280|216:320,1,105.000004005432
104,64,150718,2,2,P|176:48|200:80,1,105.000004005432
192,190,150968,5,2,0:0:0:0:
176,238,151030,1,0,0:0:0:0:
184,286,151093,1,2,0:0:0:0:
207,328,151155,1,0,0:0:0:0:
249,350,151218,1,2,0:0:0:0:
359,187,151468,5,2,0:0:0:0:
113,307,151593,1,2,0:0:0:0:
290,98,151718,1,2,0:0:0:0:
131,177,151843,1,2,0:0:0:0:
308,282,151968,1,2,0:0:0:0:
394,128,152093,1,2,0:0:0:0:
189,267,152218,1,2,0:0:0:0:
207,140,152343,6,0,L|226:28,2,105.000004005432
116,236,152718,1,0,0:0:0:0:
271,271,152843,1,0,0:0:0:0:
276,308,152968,1,0,0:0:0:0:
408,311,153218,5,0,0:0:0:0:
131,244,153468,5,12,0:0:0:0:
329,108,153593,1,12,0:0:0:0:
122,224,153718,1,12,0:0:0:0:
356,113,153843,1,12,0:0:0:0:
113,202,153968,1,12,0:0:0:0:
388,129,154093,1,12,0:0:0:0:
104,179,154218,1,12,0:0:0:0:
408,154,154343,1,12,0:0:0:0:
114,167,154468,1,12,0:0:0:0:
386,171,154593,6,12,P|426:224|405:282,1,105.000004005432
110,347,154843,2,12,P|74:284|88:234,1,105.000004005432
121,190,155093,1,6,0:0:0:0:
163,188,155155,1,0,0:0:0:0:
201,213,155218,2,6,P|230:264|291:264,1,105.000004005432
337,71,155468,5,6,0:0:0:0:
425,226,155593,1,6,0:0:0:0:
417,95,155718,1,6,0:0:0:0:
261,299,155843,1,6,0:0:0:0:
430,188,155968,1,6,0:0:0:0:
159,123,156093,1,6,0:0:0:0:
324,313,156218,1,6,0:0:0:0:
341,142,156343,1,6,0:0:0:0:
170,279,156468,1,6,0:0:0:0:
141,291,156530,5,0,0:0:0:0:
113,295,156593,1,6,0:0:0:0:
86,286,156655,1,0,0:0:0:0:
64,268,156718,2,6,P|46:213|57:151,1,105.000004005432
53,45,156968,1,4,0:0:0:0:
190,46,157218,5,4,0:0:0:0:
283,273,157468,5,12,0:0:0:0:
261,296,157530,1,0,0:0:0:0:
229,311,157593,1,12,0:0:0:0:
122,142,157718,1,12,0:0:0:0:
84,258,157843,1,12,0:0:0:0:
330,169,157968,1,12,0:0:0:0:
180,35,158093,1,12,0:0:0:0:
275,303,158218,1,12,0:0:0:0:
125,169,158343,1,12,0:0:0:0:
379,286,158468,5,12,0:0:0:0:
293,73,158593,1,12,0:0:0:0:
159,303,158718,1,12,0:0:0:0:
405,178,158843,1,12,0:0:0:0:
152,113,158968,1,6,0:0:0:0:
110,102,159030,5,0,0:0:0:0:
61,119,159093,1,6,0:0:0:0:
41,166,159155,1,0,0:0:0:0:
48,220,159218,2,6,P|88:273|155:293,1,105.000004005432
251,269,159468,5,6,0:0:0:0:
336,89,159593,1,6,0:0:0:0:
434,253,159718,1,6,0:0:0:0:
226,126,159843,1,6,0:0:0:0:
493,73,159968,1,6,0:0:0:0:
340,273,160093,1,6,0:0:0:0:
358,35,160218,1,6,0:0:0:0:
252,176,160343,1,6,0:0:0:0:
172,29,160468,6,4,P|127:81|130:222,1,210.000008010865
228,323,160843,1,12,0:0:0:0:
375,322,160968,1,12,0:0:0:0:
332,125,161218,1,12,0:0:0:0:
488,56,161468,6,2,P|408:56|368:88,1,105.000004005432
336,200,161718,2,2,P|272:224|208:224,1,105.000004005432
64,40,161968,2,2,P|136:16|160:24,1,105.000004005432
408,336,162218,2,2,P|360:368|304:352,1,105.000004005432
264,56,162468,5,0,0:0:0:0:
336,240,162593,1,0,0:0:0:0:
72,104,162718,1,0,0:0:0:0:
352,144,162843,1,0,0:0:0:0:
136,280,162968,5,0,0:0:0:0:
88,296,163030,1,0,0:0:0:0:
40,280,163093,1,0,0:0:0:0:
24,232,163155,1,0,0:0:0:0:
40,184,163218,2,0,P|96:120|128:112,1,105.000004005432
216,280,163468,5,8,0:0:0:0:
368,144,163593,1,8,0:0:0:0:
224,264,163718,1,8,0:0:0:0:
400,200,163843,1,8,0:0:0:0:
272,72,163968,1,8,0:0:0:0:
376,288,164093,1,8,0:0:0:0:
152,160,164218,1,8,0:0:0:0:
352,208,164343,1,8,0:0:0:0:
232,304,164468,5,0,0:0:0:0:
184,312,164530,1,0,0:0:0:0:
136,296,164593,1,0,0:0:0:0:
114,253,164655,1,0,0:0:0:0:
112,206,164718,1,0,0:0:0:0:
63,23,164968,1,4,0:0:0:0:
55,6,165218,5,4,0:0:0:0:
30,299,165468,6,2,P|99:264|146:262,1,105.000004005432
292,91,165718,1,2,0:0:0:0:
405,280,165843,1,2,0:0:0:0:
110,88,165968,1,2,0:0:0:0:
184,271,166093,1,2,0:0:0:0:
259,90,166218,1,2,0:0:0:0:
134,160,166343,1,2,0:0:0:0:
308,311,166468,1,2,0:0:0:0:
330,60,166593,5,2,0:0:0:0:
155,182,166718,1,2,0:0:0:0:
218,58,166843,1,2,0:0:0:0:
390,291,166968,5,0,0:0:0:0:
403,319,167030,1,0,0:0:0:0:
426,344,167093,1,0,0:0:0:0:
455,353,167155,1,0,0:0:0:0:
481,352,167218,2,0,P|511:297|501:242,1,105.000004005432
412,93,167468,5,8,0:0:0:0:
230,213,167593,1,8,0:0:0:0:
330,88,167718,1,8,0:0:0:0:
120,210,167843,1,8,0:0:0:0:
175,76,167968,1,8,0:0:0:0:
336,295,168093,1,8,0:0:0:0:
310,137,168218,1,8,0:0:0:0:
208,307,168343,5,0,0:0:0:0:
170,322,168405,1,0,0:0:0:0:
129,311,168468,1,0,0:0:0:0:
54,192,168718,2,4,P|36:137|36:80,1,105.000004005432
148,88,168968,5,4,0:0:0:0:
180,90,169218,1,4,0:0:0:0:
107,321,169468,5,12,0:0:0:0:
196,117,169593,1,12,0:0:0:0:
265,294,169718,1,12,0:0:0:0:
91,162,169843,1,12,0:0:0:0:
329,138,169968,1,12,0:0:0:0:
141,281,170093,1,12,0:0:0:0:
195,73,170218,1,12,0:0:0:0:
314,272,170343,1,12,0:0:0:0:
326,83,170468,5,12,0:0:0:0:
208,279,170593,1,12,0:0:0:0:
291,86,170718,1,12,0:0:0:0:
379,309,170843,1,12,0:0:0:0:
228,216,170968,5,0,0:0:0:0:
194,194,171030,1,0,0:0:0:0:
149,180,171093,1,0,0:0:0:0:
107,186,171155,1,0,0:0:0:0:
68,201,171218,2,0,P|34:251|36:302,1,105.000004005432
219,46,171468,5,6,0:0:0:0:
435,86,171593,1,6,0:0:0:0:
206,43,171718,1,6,0:0:0:0:
364,169,171843,1,6,0:0:0:0:
326,37,171968,1,6,0:0:0:0:
194,247,172093,1,6,0:0:0:0:
415,86,172218,1,6,0:0:0:0:
412,300,172343,1,6,0:0:0:0:
194,59,172468,5,0,0:0:0:0:
159,46,172530,1,0,0:0:0:0:
119,46,172593,1,0,0:0:0:0:
80,60,172655,1,0,0:0:0:0:
50,88,172718,1,0,0:0:0:0:
111,191,172968,1,4,0:0:0:0:
112,226,173218,1,4,0:0:0:0:
120,322,173468,5,0,0:0:0:0:
152,298,173530,1,0,0:0:0:0:
193,284,173593,1,0,0:0:0:0:
237,282,173655,1,0,0:0:0:0:
277,295,173718,1,0,0:0:0:0:
319,304,173780,1,0,0:0:0:0:
356,298,173843,1,0,0:0:0:0:
390,272,173905,1,0,0:0:0:0:
410,235,173968,6,0,L|425:180,7,52.5000020027161
425,148,174468,5,0,0:0:0:0:
414,108,174530,1,0,0:0:0:0:
377,78,174593,1,0,0:0:0:0:
334,73,174655,1,0,0:0:0:0:
288,82,174718,1,0,0:0:0:0:
255,116,174780,1,0,0:0:0:0:
218,140,174843,1,0,0:0:0:0:
173,144,174905,1,0,0:0:0:0:
135,136,174968,6,0,L|79:106,3,52.5000020027161
88,229,175218,5,0,0:0:0:0:
273,308,175468,6,0,L|229:267,11,35.0000013351441
356,240,175968,6,0,L|389:210,16,26.2500010013581
262,155,176718,1,8,0:0:0:0:
193,93,176843,1,8,0:0:0:0:
81,95,176968,5,8,0:0:0:0:
81,254,177218,1,8,0:0:0:0:
255,194,177468,5,4,0:0:0:0:
