osu file format v14

[General]
AudioFilename: audio.mp3
AudioLeadIn: 0
PreviewTime: 43725
Countdown: 0
SampleSet: Soft
StackLeniency: 0.7
Mode: 2
LetterboxInBreaks: 0
WidescreenStoryboard: 1

[Editor]
DistanceSpacing: 0.9
BeatDivisor: 4
GridSize: 4
TimelineZoom: 2

[Metadata]
Title:Refactoring Travel (feat. Nanahira) (Cut Ver.)
TitleUnicode:Refactoring Travel (feat. ななひら) (Cut Ver.)
Artist:t+pazolite
ArtistUnicode:t+pazolite
Creator:My Angel RangE
Version:Travel
Source:
Tags:リファクタリング・トラベル Electronic Japanese Juansy- juansy female vocal -Refactoring Travel- hardcore j-core MARE
BeatmapID:3060860
BeatmapSetID:1493251

[Difficulty]
HPDrainRate:6
CircleSize:4.2
OverallDifficulty:9.6
ApproachRate:9.6
SliderMultiplier:1.9
SliderTickRate:2

[Events]
//Background and Video events
0,0,"14.jpg",0,0
//Break Periods
//Storyboard Layer 0 (Background)
//Storyboard Layer 1 (Fail)
//Storyboard Layer 2 (Pass)
//Storyboard Layer 3 (Foreground)
//Storyboard Layer 4 (Overlay)
//Storyboard Sound Samples

[TimingPoints]
38,250,4,2,2,60,1,0
4038,-100,4,2,2,70,0,0
12038,-100,4,2,2,50,0,0
20038,-100,4,2,2,55,0,0
28038,-100,4,2,2,60,0,0
36038,-100,4,2,2,65,0,0
40038,-100,4,2,2,70,0,0
43038,-100,4,2,2,50,0,0
44038,-100,4,2,2,80,0,1
51788,-100,4,2,2,80,0,0
52038,-100,4,2,2,80,0,1
60038,-100,4,2,2,50,0,0
62038,-100,4,2,2,70,0,0
84038,-100,4,2,2,50,0,0

[Colours]
Combo1 : 204,0,0
Combo2 : 128,128,255
Combo3 : 255,189,123

[HitObjects]
188,184,3038,5,4,3:0:0:0:
112,160,3163,1,0,0:0:0:0:
100,88,3288,1,0,0:0:0:0:
164,40,3413,1,0,0:0:0:0:
315,184,3538,2,0,L|427:184,3,95,0|0|0|0,0:0|0:0|0:0|0:0,0:0:0:0:
155,228,4038,6,0,L|43:228,1,95,4|0,3:1|0:0,0:0:0:0:
108,228,4225,1,0,0:0:0:0:
284,232,4288,2,0,L|420:232,1,95,0|0,1:0|0:0,0:0:0:0:
148,168,4538,2,0,L|252:168,1,95,4|0,3:0|0:0,0:0:0:0:
204,168,4725,1,0,0:0:0:0:
24,144,4788,2,0,L|24:244,1,95,0|0,1:0|0:0,0:0:0:0:
228,176,5038,6,0,L|348:176,1,95,4|0,3:0|0:0,0:0:0:0:
96,284,5288,2,0,L|96:172,1,95,0|0,1:0|0:0,0:0:0:0:
296,248,5538,2,0,L|172:248,1,95,4|0,3:0|0:0,0:0:0:0:
400,248,5788,2,0,L|400:120,1,95,0|0,1:0|0:0,0:0:0:0:
200,144,6038,6,0,L|329:145,1,95,4|0,3:0|0:0,0:0:0:0:
100,128,6288,1,0,1:0:0:0:
294,144,6413,1,4,3:0:0:0:
28,184,6538,2,0,L|28:84,1,95,4|0,3:0|0:0,0:0:0:0:
248,212,6788,2,0,L|364:212,1,95,0|0,1:0|0:0,0:0:0:0:
116,264,7038,6,0,L|0:264,1,95,4|0,3:0|0:0,0:0:0:0:
64,264,7225,1,0,0:0:0:0:
244,232,7288,2,0,L|116:232,1,95,0|0,1:0|0:0,0:0:0:0:
372,196,7538,2,0,L|260:196,1,95,4|0,3:0|0:0,0:0:0:0:
496,192,7788,1,0,1:0:0:0:
264,168,7913,1,4,3:0:0:0:
496,192,8038,6,0,L|496:72,1,95,4|0,3:0|0:0,0:0:0:0:
264,168,8288,1,0,1:0:0:0:
496,192,8413,1,4,3:0:0:0:
264,168,8538,2,0,L|164:168,1,95,4|0,3:0|0:0,0:0:0:0:
400,172,8788,1,0,1:0:0:0:
216,168,8913,1,4,3:0:0:0:
32,144,9038,6,0,L|32:24,1,95,4|0,3:0|0:0,0:0:0:0:
232,56,9288,1,0,1:0:0:0:
32,164,9413,1,4,3:0:0:0:
232,151,9538,2,0,L|232:39,1,95,4|0,3:0|0:0,0:0:0:0:
32,49,9788,1,0,1:0:0:0:
232,151,9913,1,4,3:0:0:0:
440,200,10038,6,0,L|316:200,1,95,4|0,3:0|0:0,0:0:0:0:
64,216,10288,1,0,1:0:0:0:
152,216,10413,1,4,3:0:0:0:
64,216,10538,1,4,3:0:0:0:
248,216,10663,1,4,3:0:0:0:
64,216,10788,1,4,3:0:0:0:
304,216,10913,1,4,3:0:0:0:
64,284,11038,6,0,L|-4:284,1,47.5,4|0,3:0|3:0,0:0:0:0:
208,216,11163,2,0,L|280:216,1,47.5,0|0,3:0|3:0,0:0:0:0:
64,284,11288,2,0,L|-12:284,1,47.5,0|0,3:0|3:0,0:0:0:0:
208,216,11413,2,0,L|280:216,1,47.5,0|0,3:0|3:0,0:0:0:0:
64,284,11538,2,0,P|8:276|68:212,1,190,0|4,3:0|3:0,0:0:0:0:
152,216,11913,1,0,0:0:0:0:
352,168,12038,5,4,3:0:0:0:
352,168,12538,2,0,P|420:136|344:96,1,190,0|0,0:0|0:0,0:0:0:0:
152,216,12913,1,4,3:0:0:0:
152,76,13538,6,0,L|152:24,2,31.6666666666667,2|2|2,0:0|0:0|0:0,0:0:0:0:
196,76,13663,2,0,P|264:104|280:216,1,190,2|0,0:0|0:0,0:0:0:0:
28,164,14038,5,4,3:0:0:0:
28,164,14538,2,0,B|28:356,1,190,0|0,0:0|0:0,0:0:0:0:
272,320,14913,1,4,3:0:0:0:
272,320,15288,6,0,B|460:320|460:320|460:204,1,285,2|0,0:0|0:0,0:0:0:0:
365,223,15788,2,0,L|465:223,1,95,0|0,0:0|0:0,0:0:0:0:
244,240,16038,6,0,P|188:228|256:168,1,190,4|2,3:0|0:0,0:0:0:0:
336,160,16413,1,0,0:0:0:0:
424,160,16538,2,0,L|304:160,2,95,0|0|2,0:0|0:0|0:0,0:0:0:0:
208,96,16913,6,0,P|144:156|212:196,1,190,4|0,3:0|0:0,0:0:0:0:
288,96,17288,2,0,L|288:0,1,95,2|0,0:0|0:0,0:0:0:0:
382,96,17538,2,0,L|284:96,1,95,0|0,0:0|0:0,0:0:0:0:
382,96,17788,2,0,L|488:96,1,95,2|0,0:0|0:0,0:0:0:0:
252,264,18038,6,0,L|144:264,1,95,4|0,3:0|0:0,0:0:0:0:
252,264,18288,2,0,L|356:264,1,95,2|0,0:0|0:0,0:0:0:0:
252,264,18538,2,0,L|252:152,1,95,0|0,0:0|0:0,0:0:0:0:
344,168,18788,1,2,0:0:0:0:
130,175,18913,6,0,P|64:140|132:88,1,190,4|0,3:0|0:0,0:0:0:0:
224,175,19288,2,0,L|130:175,1,95,2|0,0:0|0:0,0:0:0:0:
320,176,19538,1,8,3:0:0:0:
130,175,19663,1,8,3:0:0:0:
224,175,19788,2,0,L|224:64,1,95,4|0,3:0|0:0,0:0:0:0:
16,128,20038,6,0,L|16:318,1,190,4|0,3:0|3:0,0:0:0:0:
328,168,20538,2,0,L|456:169,2,95,0|0|0,1:0|0:0|3:0,0:0:0:0:
124,160,20913,6,0,P|56:148|124:104,1,190,4|0,3:0|0:0,0:0:0:0:
214,100,21288,2,0,L|106:99,1,95,0|0,3:0|0:0,0:0:0:0:
328,104,21538,2,0,L|328:320,1,190,0|0,1:0|3:0,0:0:0:0:
232,296,21913,1,0,3:0:0:0:
440,264,22038,6,0,P|496:256|424:200,1,190,4|4,3:0|3:0,0:0:0:0:
124,156,22538,2,0,L|18:160,2,95,0|0|0,1:0|0:0|3:0,0:0:0:0:
308,160,22913,6,0,P|376:200|304:242,1,190,4|0,3:0|0:0,0:0:0:0:
218,245,23288,2,0,L|114:245,1,95,4|0,3:0|0:0,0:0:0:0:
359,316,23538,1,0,1:0:0:0:
275,316,23663,2,0,L|275:216,1,95,0|4,1:0|3:0,0:0:0:0:
359,316,23913,1,4,3:0:0:0:
107,214,24038,6,0,P|51:206|123:150,1,190,4|0,3:0|3:0,0:0:0:0:
423,150,24538,1,0,1:0:0:0:
490,149,24663,2,0,L|491:38,1,95,0|0,0:0|3:0,0:0:0:0:
292,152,24913,6,0,P|228:132|296:80,1,190,4|0,3:0|0:0,0:0:0:0:
404,80,25288,2,0,L|300:80,1,95,0|0,3:0|0:0,0:0:0:0:
116,164,25538,2,0,L|224:164,1,95,0|0,1:0|0:0,0:0:0:0:
116,164,25788,2,0,L|20:164,1,95,0|0,0:0|0:0,0:0:0:0:
220,232,26038,6,0,L|24:232,1,190,4|0,3:0|3:0,0:0:0:0:
368,80,26538,2,0,L|368:296,1,190,0|0,1:0|0:0,0:0:0:0:
156,144,26913,6,0,L|356:144,1,190,4|0,3:0|0:0,0:0:0:0:
252,144,27288,2,0,L|252:32,1,95,0|0,0:0|0:0,0:0:0:0:
44,144,27538,2,0,L|152:144,2,95,0|4|0,1:0|3:0|0:0,0:0:0:0:
44,144,27913,1,0,0:0:0:0:
240,144,28038,5,4,1:0:0:0:
156,144,28163,1,0,0:0:0:0:
240,144,28288,2,0,L|240:16,1,95,2|2,0:0|0:0,0:0:0:0:
124,144,28538,2,0,B|28:144|28:144|124:144,1,190,2|0,0:0|0:0,0:0:0:0:
256,144,28913,6,0,L|428:48,1,190,2|0,0:0|0:0,0:0:0:0:
320,49,29288,2,0,L|200:48,1,95,2|2,0:0|0:0,0:0:0:0:
324,84,29538,2,0,L|428:84,2,95,2|0|0,0:0|0:0|0:0,0:0:0:0:
196,84,29913,6,0,P|128:128|212:140,1,190,2|0,0:0|0:0,0:0:0:0:
290,156,30288,2,0,L|195:157,1,95,2|2,0:0|0:0,0:0:0:0:
290,156,30538,1,2,0:0:0:0:
195,157,30663,2,0,L|196:272,1,95,0|2,0:0|0:0,0:0:0:0:
456,220,30913,6,0,P|339:245|339:34,1,380,4|0,1:0|0:0,0:0:0:0:
456,220,31538,2,0,L|248:220,1,190,2|0,0:0|0:0,0:0:0:0:
352,220,31913,1,0,0:0:0:0:
160,220,32038,6,0,P|92:192|172:164,1,190,4|2,1:0|0:0,0:0:0:0:
252,152,32413,1,2,0:0:0:0:
160,153,32538,2,0,L|64:152,2,95,2|0|0,0:0|0:0|0:0,0:0:0:0:
56,216,32913,6,0,L|56:92,1,95,2|0,0:0|0:0,0:0:0:0:
132,116,33163,1,0,0:0:0:0:
220,116,33288,2,0,L|220:212,1,95,2|2,0:0|0:0,0:0:0:0:
124,200,33538,2,0,L|220:200,2,95,2|0|0,0:0|0:0|0:0,0:0:0:0:
219,200,33913,6,0,L|416:200,1,190,2|0,0:0|0:0,0:0:0:0:
312,196,34288,2,0,L|312:96,1,95,2|2,0:0|0:0,0:0:0:0:
408,108,34538,2,0,L|216:108,1,190,2|2,0:0|0:0,0:0:0:0:
428,272,34913,6,0,P|496:224|416:212,1,190,4|0,1:0|0:0,0:0:0:0:
324,200,35288,2,0,L|216:200,1,95,0|0,0:0|0:0,0:0:0:0:
430,198,35538,2,0,L|432:-4,1,190,4|0,1:0|0:0,0:0:0:0:
352,12,35913,1,0,0:0:0:0:
156,88,36038,6,0,L|48:88,3,95,0|0|0|0,1:0|0:0|1:0|0:0,0:0:0:0:
176,112,36538,2,0,L|288:112,3,95,0|0|0|0,1:0|0:0|1:0|0:0,0:0:0:0:
152,132,37038,6,0,L|32:132,1,95,0|0,1:0|0:0,0:0:0:0:
168,132,37288,2,0,L|292:132,1,95,0|0,1:0|0:0,0:0:0:0:
136,144,37538,2,0,L|256:144,1,95,0|0,1:0|0:0,0:0:0:0:
136,144,37788,2,0,L|136:252,1,95,0|0,1:0|0:0,0:0:0:0:
16,228,38038,6,0,L|144:228,1,95,0|0,1:0|0:0,0:0:0:0:
206,228,38288,2,0,L|106:228,1,95,0|0,1:0|0:0,0:0:0:0:
206,228,38538,2,0,L|322:228,2,95,0|0|0,1:0|0:0|1:0,0:0:0:0:
396,256,38913,1,4,1:0:0:0:
312,256,39038,6,0,L|312:160,1,95,0|0,1:0|0:0,0:0:0:0:
496,156,39288,2,0,L|397:156,1,95,0|0,1:0|0:0,0:0:0:0:
216,156,39538,2,0,L|328:156,1,95,0|0,1:0|0:0,0:0:0:0:
401,156,39788,2,0,L|540:156,1,95,0|0,1:0|0:0,0:0:0:0:
216,156,40038,5,0,1:0:0:0:
332,144,40163,1,4,3:0:0:0:
216,156,40288,1,4,3:0:0:0:
332,144,40413,1,4,3:0:0:0:
216,156,40538,1,4,3:0:0:0:
148,128,40663,1,4,3:0:0:0:
152,56,40788,1,4,3:0:0:0:
212,24,40913,1,4,3:0:0:0:
416,144,41038,5,0,1:0:0:0:
295,144,41163,1,4,3:0:0:0:
415,164,41288,1,4,3:0:0:0:
295,144,41413,1,4,3:0:0:0:
415,164,41538,1,4,3:0:0:0:
479,200,41663,1,4,3:0:0:0:
479,264,41788,1,4,3:0:0:0:
407,284,41913,1,4,3:0:0:0:
144,280,42038,6,0,L|60:256,1,47.5,0|4,1:0|3:0,0:0:0:0:
98,266,42163,2,0,L|152:284,1,47.5,4|4,3:0|3:0,0:0:0:0:
310,228,42288,2,0,L|390:204,1,47.5,4|4,3:0|3:0,0:0:0:0:
355,214,42413,2,0,L|310:228,1,47.5,4|4,3:0|3:0,0:0:0:0:
92,240,42538,6,0,L|47:254,1,47.5,0|4,1:0|3:0,0:0:0:0:
320,228,42663,2,0,L|368:235,1,47.5,4|4,3:0|3:0,0:0:0:0:
92,240,42788,2,0,L|46:250,1,47.5,4|4,3:0|3:0,0:0:0:0:
321,223,42913,2,0,L|368:235,1,47.5,4|4,3:0|3:0,0:0:0:0:
92,240,43038,6,0,P|40:205|186:193,1,380,2|0,0:0|0:0,0:0:0:0:
320,136,43788,2,0,L|436:136,1,95,2|0,0:0|0:0,0:0:0:0:
180,132,44038,6,0,P|116:96|204:64,1,190,4|0,1:0|1:0,0:0:0:0:
268,52,44413,1,0,0:0:0:0:
56,52,44538,2,0,L|56:156,1,95,4|0,3:0|0:0,0:0:0:0:
268,52,44788,2,0,L|140:52,1,95,0|0,1:0|0:0,0:0:0:0:
364,120,45038,6,0,L|488:120,1,95,4|0,3:0|0:0,0:0:0:0:
220,120,45288,2,0,L|336:120,1,95,0|0,1:0|0:0,0:0:0:0:
72,120,45538,2,0,L|72:16,1,95,4|0,3:0|0:0,0:0:0:0:
280,120,45788,2,0,L|176:120,1,95,0|0,1:0|0:0,0:0:0:0:
416,232,46038,6,0,L|208:232,1,190,4|0,3:0|1:0,0:0:0:0:
324,232,46413,1,0,0:0:0:0:
140,272,46538,2,0,L|32:272,3,95,4|0|0|0,3:0|0:0|1:0|0:0,0:0:0:0:
340,276,47038,6,0,P|404:220|324:224,1,190,4|0,3:0|1:0,0:0:0:0:
432,212,47413,1,0,0:0:0:0:
236,216,47538,2,0,L|132:216,1,95,4|0,3:0|0:0,0:0:0:0:
356,216,47788,2,0,L|472:216,1,95,0|0,1:0|0:0,0:0:0:0:
200,144,48038,6,0,L|392:144,1,190,4|0,1:0|1:0,0:0:0:0:
296,144,48413,1,0,0:0:0:0:
484,72,48538,2,0,L|484:172,1,95,4|0,3:0|0:0,0:0:0:0:
244,164,48788,2,0,L|360:164,1,95,0|0,1:0|0:0,0:0:0:0:
72,116,49038,6,0,L|192:116,2,95,4|0|0,3:0|0:0|1:0,0:0:0:0:
72,116,49413,1,0,0:0:0:0:
280,156,49538,2,0,L|400:156,1,95,4|0,3:0|0:0,0:0:0:0:
72,116,49788,2,0,L|72:216,1,95,0|0,1:0|0:0,0:0:0:0:
328,220,50038,5,4,3:0:0:0:
216,220,50163,1,4,3:0:0:0:
328,220,50288,1,4,3:0:0:0:
216,220,50413,1,4,3:0:0:0:
444,220,50538,1,4,3:0:0:0:
328,220,50663,2,0,L|328:152,1,47.5,4|4,3:0|3:0,0:0:0:0:
488,176,50788,1,4,3:0:0:0:
408,176,50913,1,4,3:0:0:0:
136,184,51038,6,0,L|136:68,1,95,0|0,1:0|0:0,0:0:0:0:
352,152,51288,2,0,L|452:152,1,95,0|0,1:0|0:0,0:0:0:0:
193,76,51538,2,0,L|305:76,1,95,4|0,3:0|0:0,0:0:0:0:
32,112,51788,2,0,L|32:12,1,95,0|0,1:0|0:0,0:0:0:0:
312,164,52038,6,0,L|104:164,1,190,4|0,1:0|1:0,0:0:0:0:
224,168,52413,1,0,0:0:0:0:
36,156,52538,2,0,L|36:40,1,95,4|0,3:0|0:0,0:0:0:0:
224,148,52788,2,0,L|336:148,1,95,0|0,1:0|0:0,0:0:0:0:
16,224,53038,6,0,L|120:224,1,95,4|0,3:0|0:0,0:0:0:0:
312,176,53288,2,0,L|208:176,1,95,0|0,1:0|0:0,0:0:0:0:
400,96,53538,2,0,L|495:96,1,95,4|0,3:0|0:0,0:0:0:0:
220,192,53788,2,0,L|120:192,1,95,0|0,1:0|0:0,0:0:0:0:
484,188,54038,6,0,B|322:187,1,142.5,4|0,1:0|0:0,0:0:0:0:
108,104,54288,2,0,B|289:103,1,142.5,4|0,1:0|0:0,0:0:0:0:
484,188,54538,2,0,L|484:45,1,142.5,4|0,1:0|0:0,0:0:0:0:
220,72,54788,6,0,B|124:72|124:72|328:72,1,285,4|0,1:0|0:0,0:0:0:0:
128,136,55288,2,0,L|128:16,1,95,0|0,1:0|0:0,0:0:0:0:
380,144,55538,2,0,L|380:240,1,95,0|0,1:0|0:0,0:0:0:0:
128,136,55788,2,0,L|260:136,1,95,0|0,1:0|0:0,0:0:0:0:
28,160,56038,6,0,L|28:52,1,95,4|0,1:0|0:0,0:0:0:0:
220,140,56288,2,0,L|220:244,1,95,0|0,1:0|0:0,0:0:0:0:
28,160,56538,2,0,L|124:160,1,95,4|0,3:0|0:0,0:0:0:0:
327,140,56788,2,0,L|219:140,1,95,0|0,1:0|0:0,0:0:0:0:
436,44,57038,6,0,L|436:152,1,95,4|0,3:0|0:0,0:0:0:0:
232,140,57288,2,0,L|116:140,1,95,0|0,1:0|0:0,0:0:0:0:
341,44,57538,2,0,L|436:44,1,95,4|0,3:0|0:0,0:0:0:0:
184,144,57788,2,0,L|308:144,1,95,0|0,1:0|0:0,0:0:0:0:
72,168,58038,5,4,3:0:0:0:
184,144,58163,1,4,3:0:0:0:
72,168,58288,1,4,3:0:0:0:
184,144,58413,1,4,3:0:0:0:
376,104,58538,1,4,3:0:0:0:
264,96,58663,1,4,3:0:0:0:
376,104,58788,1,4,3:0:0:0:
264,96,58913,1,4,3:0:0:0:
72,168,59038,6,0,L|-8:160,1,47.5,4|4,3:0|3:0,0:0:0:0:
232,209,59163,2,0,L|308:201,1,47.5,4|4,3:0|3:0,0:0:0:0:
72,168,59288,2,0,L|24:163,1,47.5,4|4,3:0|3:0,0:0:0:0:
232,209,59413,2,0,L|308:201,1,47.5,4|4,3:0|3:0,0:0:0:0:
72,168,59538,2,0,P|4:144|76:124,1,190,4|0,3:0|0:0,0:0:0:0:
157,138,59913,1,0,0:0:0:0:
83,143,60038,5,0,0:0:0:0:
27,179,60163,1,0,0:0:0:0:
31,235,60288,1,0,0:0:0:0:
91,251,60413,1,0,0:0:0:0:
215,211,60538,2,0,L|312:228,3,95,0|0|0|0,0:0|0:0|0:0|0:0,0:0:0:0:
432,260,61038,5,0,0:0:0:0:
496,228,61163,1,0,0:0:0:0:
500,172,61288,1,0,0:0:0:0:
440,148,61413,1,0,0:0:0:0:
316,204,61538,2,0,L|232:152,1,95,0|0,0:0|0:0,0:0:0:0:
316,204,61788,2,0,L|420:136,1,95,0|0,0:0|0:0,0:0:0:0:
64,152,62038,6,0,L|216:152,1,142.5,4|0,1:0|0:0,0:0:0:0:
440,154,62288,2,0,L|298:155,1,142.5,4|0,1:0|0:0,0:0:0:0:
48,152,62538,2,0,L|48:0,1,142.5,4|0,1:0|0:0,0:0:0:0:
368,208,62788,6,0,L|72:208,1,285,4|0,1:0|0:0,0:0:0:0:
336,204,63288,2,0,L|336:80,1,95,0|0,1:0|0:0,0:0:0:0:
140,104,63538,2,0,L|244:104,1,95,0|0,1:0|0:0,0:0:0:0:
28,112,63788,2,0,L|28:-4,1,95,0|0,1:0|0:0,0:0:0:0:
232,256,64038,6,0,L|352:256,1,95,4|0,1:0|0:0,0:0:0:0:
80,256,64288,2,0,L|80:368,1,95,0|0,1:0|0:0,0:0:0:0:
292,256,64538,2,0,L|172:256,1,95,4|0,3:0|0:0,0:0:0:0:
388,208,64788,2,0,L|496:208,1,95,0|0,1:0|0:0,0:0:0:0:
268,136,65038,6,0,L|376:136,1,95,4|0,3:0|0:0,0:0:0:0:
156,192,65288,2,0,L|40:192,1,95,0|0,1:0|0:0,0:0:0:0:
268,184,65538,2,0,L|388:184,1,95,4|0,3:0|0:0,0:0:0:0:
112,216,65788,2,0,L|112:104,1,95,0|0,1:0|0:0,0:0:0:0:
340,304,66038,5,4,3:0:0:0:
220,320,66163,1,4,3:0:0:0:
340,304,66288,1,4,3:0:0:0:
220,320,66413,1,4,3:0:0:0:
491,300,66538,1,4,3:0:0:0:
371,312,66663,1,4,3:0:0:0:
491,300,66788,1,4,3:0:0:0:
371,312,66913,1,4,3:0:0:0:
168,232,67038,6,0,L|112:232,1,47.5,4|4,3:0|3:0,0:0:0:0:
302,232,67163,2,0,L|360:232,1,47.5,4|4,3:0|3:0,0:0:0:0:
168,232,67288,2,0,L|116:232,1,47.5,4|4,3:0|3:0,0:0:0:0:
302,232,67413,2,0,L|360:232,1,47.5,4|4,3:0|3:0,0:0:0:0:
168,232,67538,2,0,L|40:232,1,95,4|0,3:0|0:0,0:0:0:0:
400,108,67788,2,0,L|400:284,1,142.5,4|0,1:0|0:0,0:0:0:0:
236,176,68038,6,0,L|348:176,1,95,4|0,3:1|0:0,0:0:0:0:
284,176,68225,1,0,0:0:0:0:
128,224,68288,2,0,L|12:224,1,95,0|0,1:0|0:0,0:0:0:0:
236,176,68538,2,0,L|132:176,1,95,4|0,3:0|0:0,0:0:0:0:
192,176,68725,1,0,0:0:0:0:
384,116,68788,2,0,L|488:116,1,95,0|0,1:0|0:0,0:0:0:0:
244,208,69038,6,0,L|372:208,1,95,4|0,3:0|0:0,0:0:0:0:
136,276,69288,2,0,L|12:276,1,95,0|0,1:0|0:0,0:0:0:0:
244,232,69538,2,0,L|352:232,1,95,4|0,3:0|0:0,0:0:0:0:
124,288,69788,2,0,L|124:152,1,95,0|0,1:0|0:0,0:0:0:0:
336,244,70038,6,0,L|456:244,1,95,4|0,3:0|0:0,0:0:0:0:
216,228,70288,1,0,1:0:0:0:
431,244,70413,1,4,3:0:0:0:
216,228,70538,2,0,L|120:228,1,95,4|0,3:0|0:0,0:0:0:0:
356,312,70788,2,0,L|260:312,1,95,0|0,1:0|0:0,0:0:0:0:
464,312,71038,6,0,L|464:192,1,95,4|0,3:0|0:0,0:0:0:0:
400,216,71225,1,0,0:0:0:0:
256,224,71288,2,0,L|380:224,1,95,0|0,1:0|0:0,0:0:0:0:
136,284,71538,2,0,L|16:284,1,95,4|0,3:0|0:0,0:0:0:0:
256,224,71788,1,0,1:0:0:0:
41,284,71913,1,4,3:0:0:0:
256,224,72038,6,0,L|256:112,1,95,4|0,3:0|0:0,0:0:0:0:
41,284,72288,1,0,1:0:0:0:
256,224,72413,1,4,3:0:0:0:
41,284,72538,2,0,L|40:180,1,95,4|0,3:0|0:0,0:0:0:0:
240,284,72788,1,0,1:0:0:0:
432,284,72913,1,4,3:0:0:0:
240,284,73038,6,0,L|112:284,1,95,4|0,3:0|0:0,0:0:0:0:
464,125,73288,1,0,1:0:0:0:
256,224,73413,1,4,3:0:0:0:
464,220,73538,2,0,L|464:100,1,95,4|0,3:0|0:0,0:0:0:0:
280,76,73788,1,0,1:0:0:0:
96,76,73913,1,4,3:0:0:0:
280,76,74038,6,0,L|392:76,1,95,4|0,3:0|0:0,0:0:0:0:
96,76,74288,2,0,L|96:200,1,95,0|0,1:0|0:0,0:0:0:0:
280,112,74538,2,0,L|416:112,1,95,4|0,3:0|0:0,0:0:0:0:
96,171,74788,2,0,L|96:51,1,95,0|0,1:0|0:0,0:0:0:0:
375,112,75038,6,0,P|419:84|347:48,1,142.5,0|0,1:0|0:0,0:0:0:0:
223,192,75288,2,0,L|107:192,1,95,4|0,3:0|0:0,0:0:0:0:
332,192,75538,2,0,L|332:72,1,95,0|0,1:0|0:0,0:0:0:0:
128,287,75788,2,0,L|128:167,1,95,4|0,3:0|0:0,0:0:0:0:
408,148,76038,6,0,L|408:260,1,95,4|0,3:1|0:0,0:0:0:0:
332,216,76225,1,0,0:0:0:0:
208,112,76288,2,0,L|104:112,1,95,0|0,1:0|0:0,0:0:0:0:
408,148,76538,2,0,L|408:48,1,95,4|0,3:0|0:0,0:0:0:0:
332,216,76725,1,0,0:0:0:0:
113,112,76788,2,0,L|225:112,1,95,0|0,1:0|0:0,0:0:0:0:
400,121,77038,6,0,L|400:257,1,95,4|0,3:0|0:0,0:0:0:0:
168,216,77288,2,0,L|48:216,1,95,0|0,1:0|0:0,0:0:0:0:
264,144,77538,2,0,L|380:144,1,95,4|0,3:0|0:0,0:0:0:0:
132,116,77788,2,0,L|132:232,1,95,0|0,1:0|0:0,0:0:0:0:
319,209,78038,6,0,L|192:208,1,95,4|0,3:0|0:0,0:0:0:0:
472,260,78288,1,0,1:0:0:0:
228,204,78413,1,4,3:0:0:0:
472,260,78538,2,0,L|472:152,1,95,4|0,3:0|0:0,0:0:0:0:
228,204,78788,2,0,L|108:204,1,95,0|0,1:0|0:0,0:0:0:0:
400,204,79038,6,0,L|400:100,1,95,4|0,3:0|0:0,0:0:0:0:
320,108,79225,1,0,0:0:0:0:
84,136,79288,2,0,L|204:136,1,95,0|0,1:0|0:0,0:0:0:0:
400,136,79538,2,0,L|276:136,1,95,4|0,3:0|0:0,0:0:0:0:
84,136,79788,1,0,1:0:0:0:
305,136,79913,1,4,3:0:0:0:
84,136,80038,6,0,L|84:252,1,95,4|0,3:0|0:0,0:0:0:0:
305,136,80288,1,0,1:0:0:0:
84,136,80413,1,4,3:0:0:0:
305,136,80538,2,0,L|304:16,1,95,4|0,3:0|0:0,0:0:0:0:
84,136,80788,1,0,1:0:0:0:
272,152,80913,1,4,3:0:0:0:
460,168,81038,6,0,L|460:64,1,95,4|0,3:0|0:0,0:0:0:0:
272,152,81288,1,0,1:0:0:0:
84,136,81413,1,4,3:0:0:0:
272,152,81538,2,0,L|272:48,1,95,4|0,3:0|0:0,0:0:0:0:
80,232,81788,1,0,1:0:0:0:
280,188,81913,1,4,3:0:0:0:
80,208,82038,6,0,L|212:208,1,95,4|0,3:0|0:0,0:0:0:0:
396,236,82288,1,0,1:0:0:0:
308,236,82413,1,4,3:0:0:0:
396,236,82538,1,4,3:0:0:0:
212,236,82663,1,4,3:0:0:0:
396,236,82788,1,4,3:0:0:0:
151,238,82913,1,4,3:0:0:0:
384,168,83038,6,0,L|460:168,1,47.5,4|0,3:0|3:0,0:0:0:0:
248,168,83163,2,0,L|176:168,1,47.5,0|0,3:0|3:0,0:0:0:0:
384,168,83288,2,0,L|452:168,1,47.5,0|0,3:0|3:0,0:0:0:0:
248,168,83413,2,0,L|172:168,1,47.5,0|0,3:0|3:0,0:0:0:0:
384,168,83538,2,0,P|452:192|380:240,1,190,0|4,3:0|3:0,0:0:0:0:
308,244,83913,1,0,0:0:0:0:
108,284,84038,5,4,3:0:0:0:
108,284,84538,2,0,P|40:320|116:356,1,190,0|0,0:0|0:0,0:0:0:0:
348,300,84913,1,4,3:0:0:0:
348,300,85538,6,0,L|348:340,2,31.6666666666667,2|2|2,0:0|0:0|0:0,0:0:0:0:
300,328,85663,2,0,P|240:316|312:268,1,190,2|0,0:0|0:0,0:0:0:0:
484,220,86038,5,4,3:0:0:0:
484,220,86538,2,0,L|484:24,1,190,0|0,0:0|0:0,0:0:0:0:
232,64,86913,1,4,3:0:0:0:
232,64,87288,2,0,B|60:64|60:64|172:64,1,285,2|0,0:0|0:0,0:0:0:0:
173,64,87788,2,0,L|65:64,1,95,0|0,0:0|0:0,0:0:0:0:
276,156,88038,6,0,P|336:208|272:204,1,190,4|2,3:0|0:0,0:0:0:0:
188,208,88413,1,0,0:0:0:0:
276,209,88538,2,0,L|384:208,2,95,0|0|2,0:0|0:0|0:0,0:0:0:0:
72,276,88913,6,0,P|8:244|92:220,1,190,4|0,3:0|0:0,0:0:0:0:
172,204,89288,2,0,L|284:204,1,95,2|0,0:0|0:0,0:0:0:0:
267,204,89538,2,0,L|152:204,1,95,0|0,0:0|0:0,0:0:0:0:
267,204,89788,2,0,L|380:204,1,95,2|0,0:0|0:0,0:0:0:0:
92,264,90038,6,0,P|24:244|96:216,1,190,4|2,3:0|0:0,0:0:0:0:
176,212,90413,1,0,0:0:0:0:
92,211,90538,2,0,L|8:155,2,95,0|0|2,0:0|0:0|0:0,0:0:0:0:
320,212,90913,1,4,3:0:0:0:
