osu file format v14

[General]
AudioFilename: audio.mp3
AudioLeadIn: 0
PreviewTime: 43725
Countdown: 0
SampleSet: Soft
StackLeniency: 0.7
Mode: 2
LetterboxInBreaks: 0
WidescreenStoryboard: 1

[Editor]
Bookmarks: 76038
DistanceSpacing: 0.9
BeatDivisor: 2
GridSize: 4
TimelineZoom: 1.5

[Metadata]
Title:Refactoring Travel (feat. Nanahira) (Cut Ver.)
TitleUnicode:Refactoring Travel (feat. ななひら) (Cut Ver.)
Artist:t+pazolite
ArtistUnicode:t+pazolite
Creator:My Angel RangE
Version:Salad
Source:
Tags:リファクタリング・トラベル Electronic Japanese Juansy- juansy female vocal -Refactoring Travel- hardcore j-core MARE
BeatmapID:3060859
BeatmapSetID:1493251

[Difficulty]
HPDrainRate:4
CircleSize:3
OverallDifficulty:7
ApproachRate:7
SliderMultiplier:1.1
SliderTickRate:1

[Events]
//Background and Video events
0,0,"14.jpg",0,0
//Break Periods
//Storyboard Layer 0 (Background)
//Storyboard Layer 1 (Fail)
//Storyboard Layer 2 (Pass)
//Storyboard Layer 3 (Foreground)
//Storyboard Layer 4 (Overlay)
//Storyboard Sound Samples

[TimingPoints]
38,250,4,2,2,60,1,0
4038,-100,4,2,2,70,0,0
12038,-100,4,2,2,50,0,0
20038,-100,4,2,2,55,0,0
28038,-100,4,2,2,60,0,0
36038,-100,4,2,2,65,0,0
40038,-100,4,2,2,70,0,0
43038,-100,4,2,2,50,0,0
44038,-100,4,2,2,80,0,1
51788,-100,4,2,2,80,0,0
52038,-100,4,2,2,80,0,1
60038,-100,4,2,2,50,0,0
62038,-100,4,2,2,70,0,0
84038,-100,4,2,2,50,0,0

[Colours]
Combo1 : 204,0,0
Combo2 : 128,128,255
Combo3 : 255,189,123

[HitObjects]
328,216,3038,6,0,P|296:188|340:152,1,110,4|0,3:0|0:0,0:0:0:0:
428,156,3538,2,0,P|460:128|416:92,1,110,0|0,0:0|0:0,0:0:0:0:
220,88,4038,6,0,L|96:88,2,110,4|0|4,3:1|1:0|3:0,0:0:0:0:
220,88,4788,1,0,1:0:0:0:
312,88,5038,6,0,L|312:204,1,110,4|0,3:0|1:0,0:0:0:0:
224,200,5538,2,0,L|108:200,1,110,4|0,3:0|1:0,0:0:0:0:
312,308,6038,6,0,L|312:188,1,110,4|0,3:0|1:0,0:0:0:0:
264,180,6413,1,4,3:0:0:0:
224,156,6538,2,0,L|224:28,1,110,4|0,3:0|1:0,0:0:0:0:
424,176,7038,6,0,L|296:176,2,110,4|0|4,3:0|1:0|3:0,0:0:0:0:
396,176,7788,1,0,1:0:0:0:
352,176,7913,1,4,3:0:0:0:
224,176,8038,6,0,L|88:176,1,110,4|0,3:0|1:0,0:0:0:0:
48,176,8413,1,4,3:0:0:0:
48,176,8538,2,0,L|170:175,1,110,4|0,3:0|1:0,0:0:0:0:
204,176,8913,1,4,3:0:0:0:
330,173,9038,6,0,P|358:125|318:121,1,110,4|0,3:0|1:0,0:0:0:0:
282,117,9413,1,4,3:0:0:0:
238,117,9538,2,0,L|128:117,1,110,4|0,3:0|1:0,0:0:0:0:
185,118,9913,1,4,3:0:0:0:
312,176,10038,6,0,P|344:128|312:116,1,110,4|0,3:0|1:0,0:0:0:0:
260,120,10413,1,4,3:0:0:0:
208,112,10538,2,0,P|176:64|208:52,1,110,4|4,3:0|3:0,0:0:0:0:
248,52,10913,1,4,3:0:0:0:
376,52,11038,6,0,L|500:52,2,110,4|0|0,3:0|3:0|3:0,0:0:0:0:
376,52,11788,1,4,3:0:0:0:
304,52,12038,5,4,3:0:0:0:
304,52,12538,2,0,L|184:52,1,110,0|0,0:0|0:0,0:0:0:0:
144,52,12913,1,4,3:0:0:0:
52,52,13538,1,2,0:0:0:0:
144,52,14038,5,4,3:0:0:0:
52,52,14538,2,0,L|184:52,1,110,0|0,0:0|0:0,0:0:0:0:
212,56,14913,1,4,3:0:0:0:
336,56,15288,1,2,0:0:0:0:
336,56,15788,1,0,0:0:0:0:
388,60,15913,1,0,0:0:0:0:
336,56,16038,6,0,L|216:60,1,110,4|2,3:0|0:0,0:0:0:0:
226,59,16538,2,0,L|352:56,1,110,0|2,0:0|0:0,0:0:0:0:
384,56,16913,1,4,3:0:0:0:
384,56,17288,6,0,L|268:56,2,110,2|0|2,0:0|0:0|0:0,0:0:0:0:
494,56,18038,6,0,L|384:56,1,110,4|2,3:0|0:0,0:0:0:0:
296,80,18538,2,0,L|432:80,1,110,0|2,0:0|0:0,0:0:0:0:
406,80,18913,1,4,3:0:0:0:
288,72,19288,5,2,0:0:0:0:
208,80,19538,2,0,L|152:80,2,55,8|8|4,3:0|3:0|3:0,0:0:0:0:
406,80,20038,6,0,P|446:112|402:124,1,110,4|0,3:0|3:0,0:0:0:0:
208,120,20538,2,0,L|324:120,1,110,0|0,1:0|3:0,0:0:0:0:
318,120,20913,6,0,L|128:120,1,165,4|0,3:0|3:0,0:0:0:0:
52,112,21538,2,0,P|20:152|68:180,1,110,0|0,1:0|3:0,0:0:0:0:
108,180,21913,1,0,3:0:0:0:
232,180,22038,6,0,P|268:144|224:124,1,110,4|4,3:0|3:0,0:0:0:0:
32,108,22538,2,0,L|156:108,1,110,0|0,1:0|3:0,0:0:0:0:
224,104,22913,6,0,L|224:272,1,165,4|4,3:0|3:0,0:0:0:0:
328,264,23538,2,0,L|387:219,2,55,0|0|4,1:0|1:0|3:0,0:0:0:0:
276,264,23913,1,4,3:0:0:0:
152,264,24038,6,0,P|112:244|160:216,1,110,4|0,3:0|3:0,0:0:0:0:
348,220,24538,2,0,L|480:220,1,110,0|0,1:0|3:0,0:0:0:0:
458,220,24913,1,4,3:0:0:0:
458,220,25288,6,0,L|332:220,1,110,0|0,3:0|1:0,0:0:0:0:
348,220,25788,1,0,0:0:0:0:
148,216,26038,6,0,P|112:204|156:168,1,110,4|0,3:0|3:0,0:0:0:0:
348,220,26538,2,0,P|384:208|340:172,1,110,0|0,1:0|0:0,0:0:0:0:
300,164,26913,1,4,3:0:0:0:
148,164,27538,6,0,L|76:164,2,55,0|4|0,1:0|3:0|0:0,0:0:0:0:
352,160,28038,6,0,P|392:132|348:104,1,110,4|2,1:0|0:0,0:0:0:0:
280,100,28538,1,2,0:0:0:0:
200,92,28913,6,0,L|380:92,1,165,2|2,0:0|0:0,0:0:0:0:
456,92,29538,2,0,P|496:128|448:156,1,110,2|0,0:0|0:0,0:0:0:0:
416,160,29913,6,0,L|292:156,1,110,2|0,0:0|0:0,0:0:0:0:
306,156,30288,2,0,L|368:156,1,55,2|2,0:0|0:0,0:0:0:0:
416,160,30538,2,0,P|456:132|412:128,1,110,2|2,0:0|0:0,0:0:0:0:
292,124,30913,6,0,P|192:156|292:196,1,275,4|2,1:0|0:0,0:0:0:0:
380,200,31788,1,0,0:0:0:0:
180,196,32038,6,0,L|70:196,2,110,4|2|2,1:0|0:0|0:0,0:0:0:0:
224,172,32913,1,2,0:0:0:0:
224,172,33038,6,0,L|88:176,1,110,0|2,0:0|0:0,0:0:0:0:
114,175,33538,1,2,0:0:0:0:
114,175,33913,1,2,0:0:0:0:
114,175,34038,6,0,L|236:176,1,110,0|2,0:0|0:0,0:0:0:0:
320,176,34538,2,0,P|340:116|308:120,1,110,2|2,0:0|0:0,0:0:0:0:
196,112,34913,6,0,B|70:244,1,165,4|0,1:0|0:0,0:0:0:0:
180,238,35538,2,0,B|290:237|290:237|330:188,1,165,4|0,1:0|0:0,0:0:0:0:
196,44,36038,6,0,L|72:44,1,110,0|0,1:0|1:0,0:0:0:0:
86,44,36538,2,0,L|196:44,1,110,0|0,1:0|1:0,0:0:0:0:
276,44,37038,6,0,L|276:168,1,110,0|0,1:0|1:0,0:0:0:0:
180,156,37538,2,0,L|180:280,1,110,0|0,1:0|1:0,0:0:0:0:
276,260,38038,6,0,L|152:260,1,110,0|0,1:0|1:0,0:0:0:0:
166,260,38538,2,0,L|164:132,1,110,0|0,1:0|1:0,0:0:0:0:
290,153,38913,6,0,P|353:147|314:52,1,165,4|0,1:0|1:0,0:0:0:0:
252,116,39538,2,0,L|124:116,1,110,0|0,1:0|1:0,0:0:0:0:
340,115,40038,6,0,L|340:239,1,110,0|4,1:0|3:0,0:0:0:0:
292,224,40413,1,4,3:0:0:0:
248,224,40538,2,0,L|358:224,1,110,4|4,3:0|3:0,0:0:0:0:
156,224,41038,6,0,L|156:92,1,110,0|4,1:0|3:0,0:0:0:0:
204,112,41413,1,4,3:0:0:0:
260,112,41538,2,0,L|136:112,1,110,4|4,3:0|3:0,0:0:0:0:
352,168,42038,6,0,L|472:168,1,110,0|4,1:0|3:0,0:0:0:0:
352,168,42538,2,0,L|232:168,1,110,0|4,1:0|3:0,0:0:0:0:
296,168,43038,6,0,P|364:144|276:100,1,220,2|0,0:0|0:0,0:0:0:0:
192,92,43788,1,2,0:0:0:0:
391,91,44038,6,0,L|263:91,1,110,4|0,1:0|1:0,0:0:0:0:
171,91,44538,2,0,L|172:212,1,110,4|0,3:0|1:0,0:0:0:0:
372,192,45038,6,0,L|372:76,1,110,4|0,3:0|1:0,0:0:0:0:
284,80,45538,1,4,3:0:0:0:
372,82,45788,1,0,1:0:0:0:
168,80,46038,6,0,L|60:144,2,110,4|0|4,3:0|1:0|3:0,0:0:0:0:
168,80,46788,1,0,1:0:0:0:
168,80,46913,1,0,0:0:0:0:
292,80,47038,6,0,L|376:160,2,110,4|0|4,3:0|1:0|3:0,0:0:0:0:
212,80,47788,1,0,1:0:0:0:
212,80,47913,1,0,0:0:0:0:
340,80,48038,6,0,L|472:80,1,110,4|0,1:0|1:0,0:0:0:0:
448,184,48538,2,0,L|328:184,1,110,4|0,3:0|1:0,0:0:0:0:
136,164,49038,6,0,L|136:280,1,110,4|0,3:0|1:0,0:0:0:0:
256,248,49538,1,4,3:0:0:0:
136,274,49788,1,0,1:0:0:0:
136,274,49913,1,0,0:0:0:0:
264,272,50038,6,0,L|376:272,1,110,4|4,3:0|3:0,0:0:0:0:
320,272,50413,1,4,3:0:0:0:
264,272,50538,2,0,P|228:260|272:220,1,110,4|4,3:0|3:0,0:0:0:0:
312,212,50913,1,4,3:0:0:0:
436,212,51038,6,0,L|436:84,1,110,0|0,1:0|1:0,0:0:0:0:
336,100,51538,2,0,L|224:100,1,110,4|0,3:0|1:0,0:0:0:0:
24,92,52038,6,0,L|124:156,2,110,4|0|4,1:0|1:0|3:0,0:0:0:0:
24,92,52788,1,0,1:0:0:0:
224,96,53038,6,0,P|252:144|224:144,1,110,4|0,3:0|1:0,0:0:0:0:
112,144,53538,2,0,P|80:108|104:16,1,110,4|0,3:0|1:0,0:0:0:0:
280,88,54038,6,0,L|404:88,2,110,4|4|4,1:0|1:0|1:0,0:0:0:0:
80,88,54788,6,0,P|56:166|180:232,1,220,4|0,1:0|1:0,0:0:0:0:
272,232,55538,1,0,1:0:0:0:
154,238,55788,1,0,1:0:0:0:
360,228,56038,6,0,L|496:228,1,110,4|0,1:0|1:0,0:0:0:0:
470,228,56538,2,0,L|334:228,1,110,4|0,3:0|1:0,0:0:0:0:
168,188,57038,6,0,L|36:188,1,110,4|0,3:0|1:0,0:0:0:0:
172,264,57538,1,4,3:0:0:0:
58,188,57788,1,0,1:0:0:0:
252,192,58038,6,0,P|287:150|215:142,1,110,4|4,3:0|3:0,0:0:0:0:
188,116,58413,1,4,3:0:0:0:
124,116,58538,2,0,P|68:108|60:60,1,110,4|4,3:0|3:0,0:0:0:0:
120,64,58913,1,4,3:0:0:0:
244,148,59038,6,0,P|292:156|240:68,1,220,4|4,3:0|3:0,0:0:0:0:
172,56,59788,1,0,0:0:0:0:
80,60,60038,6,0,L|328:60,1,220
216,60,60788,1,0,0:0:0:0:
300,60,61038,6,0,L|400:144,3,110,0|0|0|0,0:0|0:0|0:0|0:0,0:0:0:0:
184,144,62038,6,0,L|40:144,2,110,4|4|4,1:0|1:0|1:0,0:0:0:0:
388,176,62788,6,0,P|420:128|308:44,1,220,4|0,1:0|1:0,0:0:0:0:
212,40,63538,1,0,1:0:0:0:
321,38,63788,1,0,1:0:0:0:
124,84,64038,6,0,L|48:180,1,110,4|0,1:0|1:0,0:0:0:0:
164,176,64538,2,0,L|240:272,1,110,4|0,3:0|1:0,0:0:0:0:
432,168,65038,6,0,L|292:168,1,110,4|0,3:0|1:0,0:0:0:0:
432,168,65538,2,0,L|451:58,1,110,4|0,3:0|1:0,0:0:0:0:
248,76,66038,6,0,L|120:76,1,110,4|4,3:0|3:0,0:0:0:0:
192,76,66413,1,4,3:0:0:0:
248,76,66538,2,0,L|120:76,1,110,4|4,3:0|3:0,0:0:0:0:
138,76,66913,1,4,3:0:0:0:
260,128,67038,6,0,L|404:128,1,110,4|4,3:0|3:0,0:0:0:0:
420,128,67413,1,4,3:0:0:0:
370,128,67538,2,0,L|260:128,1,110,4|4,3:0|1:0,0:0:0:0:
60,132,68038,6,0,L|60:248,1,110,4|0,3:1|1:0,0:0:0:0:
156,240,68538,2,0,L|156:130,1,110,4|0,3:0|1:0,0:0:0:0:
252,124,69038,6,0,L|388:124,2,110,4|0|4,3:0|1:0|3:0,0:0:0:0:
252,124,69788,1,0,1:0:0:0:
56,120,70038,6,0,P|60:176|88:228,1,110,4|0,3:0|1:0,0:0:0:0:
140,228,70413,1,4,3:0:0:0:
192,228,70538,2,0,L|52:228,1,110,4|0,3:0|1:0,0:0:0:0:
280,168,71038,6,0,L|416:168,2,110,4|0|4,3:0|1:0|3:0,0:0:0:0:
192,168,71788,1,0,1:0:0:0:
192,168,71913,1,4,3:0:0:0:
320,172,72038,6,0,P|356:136|324:72,1,110,4|0,3:0|1:0,0:0:0:0:
288,80,72413,1,4,3:0:0:0:
236,80,72538,2,0,L|368:84,1,110,4|0,3:0|1:0,0:0:0:0:
345,83,72913,1,4,3:0:0:0:
220,76,73038,6,0,L|111:73,1,110,4|0,3:0|1:0,0:0:0:0:
24,72,73413,1,4,3:0:0:0:
24,72,73538,2,0,L|144:72,1,110,4|0,3:0|1:0,0:0:0:0:
179,73,73913,1,4,3:0:0:0:
306,68,74038,6,0,L|450:68,2,110,4|0|4,3:0|1:0|3:0,0:0:0:0:
270,68,74788,1,0,1:0:0:0:
68,72,75038,6,0,L|68:212,1,110,0|4,1:0|3:0,0:0:0:0:
168,252,75538,2,0,L|168:142,1,110,0|4,1:0|3:0,0:0:0:0:
368,224,76038,6,0,L|492:224,2,110,4|0|4,3:1|1:0|3:0,0:0:0:0:
368,224,76788,1,0,1:0:0:0:
276,224,77038,6,0,L|276:108,1,110,4|0,3:0|1:0,0:0:0:0:
364,112,77538,2,0,L|480:112,1,110,4|0,3:0|1:0,0:0:0:0:
276,4,78038,6,0,L|276:124,1,110,4|0,3:0|1:0,0:0:0:0:
328,112,78413,1,4,3:0:0:0:
376,112,78538,2,0,L|376:240,1,110,4|0,3:0|1:0,0:0:0:0:
176,132,79038,6,0,L|36:92,2,110,4|0|4,3:0|1:0|3:0,0:0:0:0:
176,132,79788,1,0,1:0:0:0:
236,132,79913,1,4,3:0:0:0:
364,136,80038,6,0,L|500:136,1,110,4|0,3:0|1:0,0:0:0:0:
474,136,80413,1,4,3:0:0:0:
474,136,80538,2,0,L|364:136,1,110,4|0,3:0|1:0,0:0:0:0:
322,137,80913,1,4,3:0:0:0:
199,140,81038,6,0,P|167:188|203:204,1,110,4|0,3:0|1:0,0:0:0:0:
243,204,81413,1,4,3:0:0:0:
283,206,81538,2,0,L|393:206,1,110,4|0,3:0|1:0,0:0:0:0:
404,190,81913,1,4,3:0:0:0:
276,136,82038,6,0,P|244:184|276:196,1,110,4|0,3:0|1:0,0:0:0:0:
328,196,82413,1,4,3:0:0:0:
380,200,82538,2,0,P|412:248|380:260,1,110,4|4,3:0|3:0,0:0:0:0:
336,260,82913,1,4,3:0:0:0:
208,128,83038,6,0,L|84:128,2,110,4|0|0,3:0|3:0|3:0,0:0:0:0:
296,128,83788,1,4,3:0:0:0:
380,128,84038,5,4,3:0:0:0:
380,128,84538,2,0,L|256:120,1,110,0|0,0:0|0:0,0:0:0:0:
200,116,84913,1,4,3:0:0:0:
368,96,85538,1,2,0:0:0:0:
368,96,86038,6,0,P|412:128|428:308,1,220,4|0,3:0|0:0,0:0:0:0:
340,280,86788,1,0,0:0:0:0:
312,280,86913,1,4,3:0:0:0:
168,280,87288,1,2,0:0:0:0:
168,280,87788,2,0,L|96:280,1,55,0|0,0:0|0:0,0:0:0:0:
72,276,88038,6,0,P|88:212|224:156,1,220,4|0,3:0|0:0,0:0:0:0:
292,156,88788,1,2,0:0:0:0:
292,156,88913,6,0,L|476:156,1,165,4|2,3:0|0:0,0:0:0:0:
380,100,89538,2,0,L|376:236,1,110,0|2,0:0|0:0,0:0:0:0:
180,204,90038,6,0,L|40:212,1,110,4|2,3:0|0:0,0:0:0:0:
180,244,90538,2,0,L|220:112,1,110,0|2,0:0|0:0,0:0:0:0:
124,132,90913,1,4,3:0:0:0:
