osu file format v14

[General]
AudioFilename: audio.mp3
AudioLeadIn: 0
PreviewTime: 43725
Countdown: 0
SampleSet: Soft
StackLeniency: 0.7
Mode: 2
LetterboxInBreaks: 0
WidescreenStoryboard: 1

[Editor]
Bookmarks: 76038
DistanceSpacing: 0.9
BeatDivisor: 2
GridSize: 4
TimelineZoom: 1.5

[Metadata]
Title:Refactoring Travel (feat. Nanahira) (Cut Ver.)
TitleUnicode:Refactoring Travel (feat. ななひら) (Cut Ver.)
Artist:t+pazolite
ArtistUnicode:t+pazolite
Creator:My Angel RangE
Version:Platter
Source:
Tags:リファクタリング・トラベル Electronic Japanese Juansy- juansy female vocal -Refactoring Travel- hardcore j-core MARE
BeatmapID:3226417
BeatmapSetID:1493251

[Difficulty]
HPDrainRate:5
CircleSize:3.5
OverallDifficulty:8
ApproachRate:8
SliderMultiplier:1.4
SliderTickRate:1

[Events]
//Background and Video events
0,0,"14.jpg",0,0
//Break Periods
//Storyboard Layer 0 (Background)
//Storyboard Layer 1 (Fail)
//Storyboard Layer 2 (Pass)
//Storyboard Layer 3 (Foreground)
//Storyboard Layer 4 (Overlay)
//Storyboard Sound Samples

[TimingPoints]
38,250,4,2,2,60,1,0
4038,-100,4,2,2,70,0,0
12038,-100,4,2,2,50,0,0
20038,-100,4,2,2,55,0,0
28038,-100,4,2,2,60,0,0
36038,-100,4,2,2,65,0,0
40038,-100,4,2,2,70,0,0
43038,-100,4,2,2,50,0,0
44038,-100,4,2,2,80,0,1
51788,-100,4,2,2,80,0,0
52038,-100,4,2,2,80,0,1
60038,-100,4,2,2,50,0,0
62038,-100,4,2,2,70,0,0
84038,-100,4,2,2,50,0,0

[Colours]
Combo1 : 204,0,0
Combo2 : 128,128,255
Combo3 : 255,189,123

[HitObjects]
79,222,3038,6,0,P|31:198|87:166,1,140,4|0,3:0|0:0,0:0:0:0:
135,162,3413,1,0,0:0:0:0:
205,162,3538,2,0,L|117:162,1,70,0|0,0:0|0:0,0:0:0:0:
135,162,3788,2,0,L|205:162,1,70,0|0,0:0|0:0,0:0:0:0:
395,176,4038,6,0,P|431:168|379:120,1,140,4|0,3:1|1:0,0:0:0:0:
324,113,4413,1,0,0:0:0:0:
250,112,4538,2,0,L|430:112,1,140,4|0,3:0|1:0,0:0:0:0:
244,104,5038,6,0,P|176:56|200:-16,1,140,4|0,3:0|1:0,0:0:0:0:
312,104,5538,2,0,P|380:56|356:-16,1,140,4|0,3:0|1:0,0:0:0:0:
44,96,6038,6,0,L|44:240,1,140,4|0,3:0|1:0,0:0:0:0:
100,236,6413,1,4,3:0:0:0:
172,216,6538,2,0,L|32:216,1,140,4|0,3:0|1:0,0:0:0:0:
232,160,7038,6,0,L|364:76,2,140,4|0|4,3:0|1:0|3:0,0:0:0:0:
120,160,7788,2,0,L|120:244,1,70,0|4,1:0|3:0,0:0:0:0:
312,232,8038,6,0,P|388:224|364:144,1,140,4|0,3:0|1:0,0:0:0:0:
344,160,8413,1,4,3:0:0:0:
292,160,8538,2,0,P|236:140|260:60,1,140,4|0,3:0|1:0,0:0:0:0:
292,64,8913,1,4,3:0:0:0:
424,64,9038,6,0,P|480:116|476:188,1,140,4|0,3:0|1:0,0:0:0:0:
432,180,9413,1,4,3:0:0:0:
380,176,9538,2,0,L|384:32,1,140,4|0,3:0|1:0,0:0:0:0:
320,40,9913,1,4,3:0:0:0:
104,36,10038,6,0,P|40:80|44:172,1,140,4|0,3:0|1:0,0:0:0:0:
88,140,10413,1,4,3:0:0:0:
158,140,10538,2,0,L|88:140,1,70,4|4,3:0|3:0,0:0:0:0:
18,140,10788,2,0,L|88:140,1,70,4|4,3:0|3:0,0:0:0:0:
288,136,11038,6,0,L|441:136,1,140,4|0,3:0|3:0,0:0:0:0:
472,136,11413,1,0,3:0:0:0:
428,136,11538,2,0,L|347:135,1,70,0|0,3:0|3:0,0:0:0:0:
164,328,11788,1,4,3:0:0:0:
164,328,12038,5,4,3:0:0:0:
164,328,12538,2,0,L|332:328,1,140,0|0,0:0|0:0,0:0:0:0:
304,328,12913,1,4,3:0:0:0:
232,328,13538,2,0,L|376:232,1,140,2|0,0:0|0:0,0:0:0:0:
112,184,14038,5,4,3:0:0:0:
112,184,14538,2,0,L|288:180,1,140,0|0,0:0|0:0,0:0:0:0:
184,180,14913,1,4,3:0:0:0:
468,176,15288,1,2,0:0:0:0:
468,176,15788,1,0,0:0:0:0:
416,176,15913,1,0,0:0:0:0:
468,176,16038,6,0,L|296:176,1,140,4|2,3:0|0:0,0:0:0:0:
328,176,16538,2,0,L|488:176,1,140,0|2,0:0|0:0,0:0:0:0:
468,176,16913,1,4,3:0:0:0:
468,176,17288,6,0,L|304:176,1,140,2|0,0:0|0:0,0:0:0:0:
408,176,17788,1,2,0:0:0:0:
184,108,18038,6,0,L|20:108,1,140,4|2,3:0|0:0,0:0:0:0:
20,108,18538,2,0,P|24:200|104:204,1,140,0|2,0:0|0:0,0:0:0:0:
176,216,18913,1,4,3:0:0:0:
176,216,19288,5,2,0:0:0:0:
176,216,19538,2,0,L|92:220,2,70,8|8|4,3:0|3:0|3:0,0:0:0:0:
496,212,20038,6,0,P|492:124|412:76,1,140,4|0,3:0|3:0,0:0:0:0:
248,88,20538,2,0,L|404:96,1,140,0|0,1:0|3:0,0:0:0:0:
316,120,20913,6,0,P|212:84|272:16,1,210,4|0,3:0|3:0,0:0:0:0:
464,32,21538,1,0,1:0:0:0:
464,32,21788,2,0,L|356:32,1,70,0|0,3:0|3:0,0:0:0:0:
196,32,22038,6,0,P|128:64|128:176,1,140,4|4,3:0|3:0,0:0:0:0:
344,112,22538,2,0,P|380:140|312:212,1,140,0|0,1:0|3:0,0:0:0:0:
272,212,22913,6,0,P|204:176|308:140,1,210,4|4,3:0|3:0,0:0:0:0:
420,120,23538,2,0,L|508:120,1,70,0|0,1:0|1:0,0:0:0:0:
490,120,23788,2,0,L|420:120,1,70,4|4,3:0|3:0,0:0:0:0:
232,120,24038,6,0,P|168:136|136:228,1,140,4|0,3:0|3:0,0:0:0:0:
268,204,24538,2,0,P|298:181|235:134,1,140,0|0,1:0|3:0,0:0:0:0:
100,140,24913,6,0,P|28:108|116:60,1,210,4|0,3:0|3:0,0:0:0:0:
192,48,25538,2,0,L|52:144,1,140,0|0,1:0|0:0,0:0:0:0:
112,128,25913,1,0,3:0:0:0:
312,128,26038,6,0,P|356:92|292:64,1,140,4|0,3:0|3:0,0:0:0:0:
192,48,26538,2,0,L|194:217,1,140,0|0,1:0|0:0,0:0:0:0:
336,192,26913,6,0,P|456:169|350:28,1,350,4|0,3:0|1:0,0:0:0:0:
300,24,27663,2,0,L|375:22,1,70,4|0,3:0|0:0,0:0:0:0:
16,116,28038,6,0,L|176:116,1,140,4|2,1:0|0:0,0:0:0:0:
156,116,28413,1,2,0:0:0:0:
84,116,28538,2,0,P|56:184|88:184,1,140,2|0,0:0|0:0,0:0:0:0:
208,188,28913,6,0,P|257:184|272:68,1,140,2|0,0:0|0:0,0:0:0:0:
224,112,29288,2,0,L|316:112,1,70,2|2,0:0|0:0,0:0:0:0:
352,112,29538,2,0,L|464:112,2,70,2|0|0,0:0|0:0|0:0,0:0:0:0:
224,116,29913,6,0,P|156:144|176:280,1,210,2|2,0:0|0:0,0:0:0:0:
220,264,30413,1,2,0:0:0:0:
157,265,30538,2,0,L|61:265,2,70,2|0|2,0:0|0:0|0:0,0:0:0:0:
364,264,30913,6,0,P|460:216|360:216,1,280,4|0,1:0|0:0,0:0:0:0:
292,208,31538,2,0,L|484:208,1,140,2|0,0:0|0:0,0:0:0:0:
96,220,32038,6,0,P|40:164|108:148,1,140,4|2,1:0|0:0,0:0:0:0:
124,140,32413,1,2,0:0:0:0:
180,140,32538,2,0,L|180:284,1,140,2|0,0:0|0:0,0:0:0:0:
52,252,32913,6,0,L|220:252,1,140,2|0,0:0|0:0,0:0:0:0:
192,252,33288,2,0,L|92:252,1,70,2|2,0:0|0:0,0:0:0:0:
122,252,33538,2,0,L|192:252,1,70,2|0,0:0|0:0,0:0:0:0:
396,248,33913,6,0,P|440:228|412:120,1,140,2|0,0:0|0:0,0:0:0:0:
396,144,34288,1,2,0:0:0:0:
446,144,34413,1,2,0:0:0:0:
496,144,34538,2,0,L|312:144,1,140,2|2,0:0|0:0,0:0:0:0:
142,213,34913,6,0,P|58:201|166:129,1,280,4|0,1:0|0:0,0:0:0:0:
356,144,35538,2,0,P|428:210|356:254,1,210,4|0,1:0|0:0,0:0:0:0:
142,213,36038,6,0,L|17:124,1,140,0|0,1:0|1:0,0:0:0:0:
68,128,36413,1,0,0:0:0:0:
116,128,36538,2,0,L|232:36,1,140,0|0,1:0|1:0,0:0:0:0:
180,40,36913,1,0,0:0:0:0:
48,40,37038,6,0,L|48:140,1,70,0|0,1:0|0:0,0:0:0:0:
116,112,37288,2,0,L|220:112,1,70,0|0,1:0|0:0,0:0:0:0:
256,112,37538,2,0,L|104:112,1,140,0|0,1:0|1:0,0:0:0:0:
184,112,37913,1,0,0:0:0:0:
328,112,38038,6,0,L|480:112,1,140,0|0,1:0|1:0,0:0:0:0:
400,112,38413,1,0,0:0:0:0:
328,112,38538,2,0,P|272:60|332:32,1,140,0|0,1:0|1:0,0:0:0:0:
496,32,38913,6,0,L|352:72,1,140,4|0,1:0|0:0,0:0:0:0:
308,36,39288,2,0,L|378:36,1,70,0|0,1:0|0:0,0:0:0:0:
436,40,39538,2,0,L|512:40,1,70,0|0,1:0|0:0,0:0:0:0:
428,104,39788,2,0,L|358:104,1,70,0|0,1:0|0:0,0:0:0:0:
140,100,40038,6,0,P|76:144|156:180,1,140,0|4,1:0|3:0,0:0:0:0:
144,184,40413,1,4,3:0:0:0:
192,184,40538,2,0,L|264:184,1,70,4|4,3:0|3:0,0:0:0:0:
320,176,40788,2,0,L|250:176,1,70,4|4,3:0|3:0,0:0:0:0:
28,184,41038,6,0,P|44:280|116:276,1,140,0|4,1:0|3:0,0:0:0:0:
132,288,41413,1,4,3:0:0:0:
71,288,41538,2,0,L|72:368,1,70,4|4,3:0|3:0,0:0:0:0:
136,348,41788,2,0,L|220:348,1,70,4|4,3:0|3:0,0:0:0:0:
432,288,42038,6,0,P|452:200|364:156,1,140,0|4,1:0|3:0,0:0:0:0:
372,164,42413,1,4,3:0:0:0:
156,164,42538,2,0,P|120:78|195:68,1,140,0|4,1:0|3:0,0:0:0:0:
194,63,42913,1,4,3:0:0:0:
328,68,43038,6,0,P|300:163|208:60,1,280,2|0,0:0|0:0,0:0:0:0:
68,40,43788,2,0,L|64:140,1,70,2|0,0:0|0:0,0:0:0:0:
280,112,44038,6,0,L|376:-8,1,140,4|0,1:0|1:0,0:0:0:0:
288,12,44413,1,0,0:0:0:0:
160,112,44538,2,0,P|128:184|164:192,1,140,4|0,3:0|1:0,0:0:0:0:
216,192,44913,1,0,0:0:0:0:
416,192,45038,6,0,L|486:192,1,70,4|0,3:0|0:0,0:0:0:0:
416,192,45288,2,0,L|346:192,1,70,0|0,1:0|0:0,0:0:0:0:
224,176,45538,2,0,L|144:176,1,70,4|0,3:0|0:0,0:0:0:0:
154,176,45788,2,0,L|224:176,1,70,0|0,1:0|0:0,0:0:0:0:
376,128,46038,6,0,P|408:56|348:68,1,140,4|0,3:0|1:0,0:0:0:0:
308,36,46413,1,0,0:0:0:0:
184,36,46538,2,0,L|112:68,1,70,4|0,3:0|0:0,0:0:0:0:
76,64,46788,2,0,L|76:164,1,70,0|0,1:0|0:0,0:0:0:0:
268,236,47038,6,0,P|316:188|244:168,1,140,4|0,3:0|1:0,0:0:0:0:
200,156,47413,1,0,0:0:0:0:
200,156,47538,2,0,L|270:156,1,70,4|0,3:0|0:0,0:0:0:0:
200,156,47788,2,0,L|200:76,1,70,0|0,1:0|0:0,0:0:0:0:
396,152,48038,6,0,P|464:136|432:84,1,140,4|0,1:0|1:0,0:0:0:0:
396,88,48413,1,0,0:0:0:0:
260,20,48538,2,0,P|192:36|224:88,1,140,4|0,3:0|1:0,0:0:0:0:
260,84,48913,1,0,0:0:0:0:
476,88,49038,6,0,L|476:168,1,70,4|0,3:0|0:0,0:0:0:0:
424,156,49288,2,0,L|328:156,1,70,0|0,1:0|0:0,0:0:0:0:
216,156,49538,2,0,P|224:72|292:48,1,140,4|0,3:0|1:0,0:0:0:0:
312,48,49913,1,0,0:0:0:0:
180,44,50038,6,0,L|84:44,1,70,4|4,3:0|3:0,0:0:0:0:
110,44,50288,2,0,L|180:44,1,70,4|4,3:0|3:0,0:0:0:0:
296,92,50538,2,0,L|392:92,1,70,4|4,3:0|3:0,0:0:0:0:
366,92,50788,2,0,L|296:92,1,70,4|4,3:0|3:0,0:0:0:0:
80,88,51038,6,0,L|80:232,1,140,0|0,1:0|1:0,0:0:0:0:
144,228,51413,1,0,0:0:0:0:
212,224,51538,2,0,L|28:224,1,140,4|0,3:0|1:0,0:0:0:0:
72,224,51913,1,0,0:0:0:0:
296,228,52038,6,0,P|336:200|272:140,1,140,4|0,1:0|1:0,0:0:0:0:
236,132,52413,1,0,0:0:0:0:
164,104,52538,2,0,L|312:104,1,140,4|0,3:0|1:0,0:0:0:0:
304,104,52913,1,0,0:0:0:0:
116,104,53038,6,0,L|32:104,1,70,4|0,3:0|0:0,0:0:0:0:
46,104,53288,2,0,L|116:104,1,70,0|0,1:0|0:0,0:0:0:0:
236,132,53538,2,0,L|306:132,1,70,4|0,3:0|0:0,0:0:0:0:
306,132,53788,2,0,L|236:132,1,70,0|0,1:0|0:0,0:0:0:0:
28,132,54038,6,0,L|28:300,1,140,4|4,1:0|1:0,0:0:0:0:
152,272,54538,1,4,1:0:0:0:
480,280,54788,6,0,P|488:188|300:120,1,280,4|0,1:0|1:0,0:0:0:0:
452,120,55538,2,0,L|304:128,1,140,0|0,1:0|1:0,0:0:0:0:
312,127,55913,1,0,0:0:0:0:
104,176,56038,6,0,L|-24:168,1,70,4|0,1:0|0:0,0:0:0:0:
34,171,56288,2,0,L|103:175,1,70,0|0,1:0|0:0,0:0:0:0:
224,176,56538,2,0,L|40:176,1,140,4|0,3:0|1:0,0:0:0:0:
140,176,56913,1,0,0:0:0:0:
344,172,57038,6,0,L|448:168,1,70,4|0,3:0|0:0,0:0:0:0:
413,169,57288,2,0,L|344:172,1,70,0|0,1:0|0:0,0:0:0:0:
224,176,57538,2,0,L|176:24,1,140,4|0,3:0|1:0,0:0:0:0:
244,40,57913,1,0,0:0:0:0:
472,36,58038,6,0,L|472:136,1,70,4|4,3:0|3:0,0:0:0:0:
416,108,58288,2,0,L|332:108,1,70,4|4,3:0|3:0,0:0:0:0:
228,52,58538,2,0,L|132:52,1,70,4|4,3:0|3:0,0:0:0:0:
152,88,58788,2,0,L|236:88,1,70,4|4,3:0|3:0,0:0:0:0:
345,101,59038,6,0,P|381:177|339:196,1,140,4|4,3:0|3:0,0:0:0:0:
294,101,59413,1,4,3:0:0:0:
345,101,59538,2,0,L|430:100,1,70,4|0,3:0|0:0,0:0:0:0:
345,101,59788,1,0,0:0:0:0:
200,236,60038,6,0,P|112:216|220:164,1,280,0|0,0:0|0:0,0:0:0:0:
276,152,60788,1,0,0:0:0:0:
344,152,61038,6,0,L|345:2,1,140,0|0,0:0|0:0,0:0:0:0:
272,12,61538,2,0,L|132:12,1,140,0|0,0:0|0:0,0:0:0:0:
484,252,62038,6,0,L|484:84,1,140,4|4,1:0|1:0,0:0:0:0:
360,112,62538,1,4,1:0:0:0:
44,112,62788,6,0,P|36:204|224:272,1,280,4|0,1:0|1:0,0:0:0:0:
88,248,63538,2,0,L|272:232,1,140,0|0,1:0|1:0,0:0:0:0:
227,235,63913,1,0,0:0:0:0:
16,160,64038,6,0,L|16:230,1,70,4|0,1:0|0:0,0:0:0:0:
68,224,64288,2,0,L|160:224,1,70,0|0,1:0|0:0,0:0:0:0:
272,224,64538,2,0,P|320:192|256:148,1,140,4|0,3:0|1:0,0:0:0:0:
224,140,64913,1,0,0:0:0:0:
424,140,65038,6,0,L|528:140,1,70,4|0,3:0|0:0,0:0:0:0:
494,140,65288,2,0,L|424:140,1,70,0|0,1:0|0:0,0:0:0:0:
304,64,65538,2,0,P|245:71|240:172,1,140,4|0,3:0|1:0,0:0:0:0:
280,140,65913,1,0,0:0:0:0:
484,164,66038,6,0,L|484:88,1,70,4|4,3:0|3:0,0:0:0:0:
428,92,66288,2,0,L|348:92,1,70,4|4,3:0|3:0,0:0:0:0:
232,120,66538,2,0,L|232:44,1,70,4|4,3:0|3:0,0:0:0:0:
288,48,66788,2,0,L|368:48,1,70,4|4,3:0|3:0,0:0:0:0:
136,48,67038,6,0,P|92:112|160:136,1,140,4|4,3:0|3:0,0:0:0:0:
196,148,67413,1,4,3:0:0:0:
268,156,67538,2,0,L|124:156,1,140,4|4,3:0|1:0,0:0:0:0:
440,256,68038,6,0,L|440:101,1,140,4|0,3:1|1:0,0:0:0:0:
368,119,68413,1,0,0:0:0:0:
244,120,68538,2,0,L|76:120,1,140,4|0,3:0|1:0,0:0:0:0:
264,192,69038,6,0,P|332:240|308:312,1,140,4|0,3:0|1:0,0:0:0:0:
196,192,69538,2,0,P|128:240|152:312,1,140,4|0,3:0|1:0,0:0:0:0:
464,200,70038,6,0,L|464:56,1,140,4|0,3:0|1:0,0:0:0:0:
408,60,70413,1,4,3:0:0:0:
352,60,70538,2,0,L|492:60,1,140,4|0,3:0|1:0,0:0:0:0:
288,224,71038,6,0,L|156:308,2,140,4|0|4,3:0|1:0|3:0,0:0:0:0:
392,224,71788,2,0,L|392:140,1,70,0|4,1:0|3:0,0:0:0:0:
200,152,72038,6,0,P|124:160|148:240,1,140,4|0,3:0|1:0,0:0:0:0:
168,224,72413,1,4,3:0:0:0:
220,224,72538,2,0,P|276:244|252:324,1,140,4|0,3:0|1:0,0:0:0:0:
216,316,72913,1,4,3:0:0:0:
104,320,73038,6,0,L|308:320,1,140,4|0,3:0|1:0,0:0:0:0:
180,320,73413,1,4,3:0:0:0:
104,320,73538,2,0,P|32:268|84:220,1,140,4|0,3:0|1:0,0:0:0:0:
104,236,73913,1,4,3:0:0:0:
308,244,74038,6,0,L|400:244,1,70,4|0,3:0|0:0,0:0:0:0:
378,244,74288,2,0,L|308:244,1,70,0|0,1:0|0:0,0:0:0:0:
184,168,74538,2,0,L|92:168,1,70,4|0,3:0|0:0,0:0:0:0:
114,168,74788,2,0,L|184:168,1,70,0|0,1:0|0:0,0:0:0:0:
396,168,75038,6,0,P|464:112|452:40,1,140,0|4,1:0|3:0,0:0:0:0:
400,64,75413,1,0,0:0:0:0:
272,64,75538,2,0,L|282:156,1,70,0|0,1:0|0:0,0:0:0:0:
359,129,75788,2,0,L|252:130,1,70,4|0,3:0|0:0,0:0:0:0:
100,168,76038,6,0,P|64:160|116:112,1,140,4|0,3:1|1:0,0:0:0:0:
172,104,76413,1,0,0:0:0:0:
228,104,76538,2,0,L|48:104,1,140,4|0,3:0|1:0,0:0:0:0:
240,104,77038,6,0,P|308:56|284:-16,1,140,4|0,3:0|1:0,0:0:0:0:
172,104,77538,2,0,P|104:56|128:-16,1,140,4|0,3:0|1:0,0:0:0:0:
468,96,78038,6,0,L|468:240,1,140,4|0,3:0|1:0,0:0:0:0:
400,236,78413,1,4,3:0:0:0:
468,236,78538,2,0,L|328:236,1,140,4|0,3:0|1:0,0:0:0:0:
128,232,79038,6,0,L|4:124,2,140,4|0|4,3:0|1:0|3:0,0:0:0:0:
258,236,79788,2,0,L|338:236,1,70,0|4,1:0|3:0,0:0:0:0:
128,232,80038,6,0,P|52:224|76:144,1,140,4|0,3:0|1:0,0:0:0:0:
96,160,80413,1,4,3:0:0:0:
148,160,80538,2,0,P|204:140|180:60,1,140,4|0,3:0|1:0,0:0:0:0:
148,64,80913,1,4,3:0:0:0:
36,88,81038,6,0,L|236:88,1,140,4|0,3:0|1:0,0:0:0:0:
120,88,81413,1,4,3:0:0:0:
176,88,81538,2,0,L|328:88,1,140,4|0,3:0|1:0,0:0:0:0:
260,84,81913,1,4,3:0:0:0:
56,68,82038,6,0,P|20:112|76:188,1,140,4|0,3:0|1:0,0:0:0:0:
112,184,82413,1,4,3:0:0:0:
182,184,82538,2,0,L|112:184,1,70,4|4,3:0|3:0,0:0:0:0:
42,184,82788,2,0,L|112:184,1,70,4|4,3:0|3:0,0:0:0:0:
324,144,83038,6,0,L|520:144,1,140,4|0,3:0|3:0,0:0:0:0:
384,112,83413,1,0,3:0:0:0:
324,48,83538,2,0,P|272:74|321:104,1,140,0|4,3:0|3:0,0:0:0:0:
372,304,84038,5,4,3:0:0:0:
372,304,84538,2,0,L|232:304,1,140,0|0,0:0|0:0,0:0:0:0:
232,304,84913,1,4,3:0:0:0:
312,300,85538,2,0,P|360:236|340:136,1,140,2|0,0:0|0:0,0:0:0:0:
124,180,86038,5,4,3:0:0:0:
124,180,86538,2,0,L|300:176,1,140,0|0,0:0|0:0,0:0:0:0:
188,176,86913,1,4,3:0:0:0:
480,172,87288,1,2,0:0:0:0:
480,172,87788,1,0,0:0:0:0:
436,172,87913,1,0,0:0:0:0:
480,172,88038,6,0,L|308:172,1,140,4|2,3:0|0:0,0:0:0:0:
228,172,88538,2,0,P|164:144|188:72,1,140,0|2,0:0|0:0,0:0:0:0:
276,84,88913,1,4,3:0:0:0:
276,84,89288,6,0,L|440:84,2,140,2|0|2,0:0|0:0|0:0,0:0:0:0:
188,48,90038,6,0,L|328:48,1,140,4|2,3:0|0:0,0:0:0:0:
412,44,90538,2,0,P|408:136|328:140,1,140,0|2,0:0|0:0,0:0:0:0:
260,148,90913,1,4,3:0:0:0:
