osu file format v14

[General]
AudioFilename: audio.mp3
AudioLeadIn: 0
PreviewTime: 43725
Countdown: 0
SampleSet: Soft
StackLeniency: 0.7
Mode: 2
LetterboxInBreaks: 0
WidescreenStoryboard: 1

[Editor]
Bookmarks: 44538,45538,46538,47538,76038,84038
DistanceSpacing: 1.6
BeatDivisor: 8
GridSize: 32
TimelineZoom: 2.599999

[Metadata]
Title:Refactoring Travel (feat. Nanahira) (Cut Ver.)
TitleUnicode:Refactoring Travel (feat. ななひら) (Cut Ver.)
Artist:t+pazolite
ArtistUnicode:t+pazolite
Creator:My Angel RangE
Version:Juansy's Rain
Source:
Tags:リファクタリング・トラベル Electronic Japanese Juansy- juansy female vocal -Refactoring Travel- hardcore j-core MARE
BeatmapID:3300075
BeatmapSetID:1493251

[Difficulty]
HPDrainRate:5
CircleSize:4
OverallDifficulty:9
ApproachRate:9
SliderMultiplier:1.5
SliderTickRate:2

[Events]
//Background and Video events
0,0,"14.jpg",0,0
//Break Periods
//Storyboard Layer 0 (Background)
//Storyboard Layer 1 (Fail)
//Storyboard Layer 2 (Pass)
//Storyboard Layer 3 (Foreground)
//Storyboard Layer 4 (Overlay)
//Storyboard Sound Samples

[TimingPoints]
38,250,4,2,2,60,1,0
4038,-100,4,2,2,70,0,0
12038,-100,4,2,2,50,0,0
20038,-100,4,2,2,55,0,0
28038,-100,4,2,2,60,0,0
36038,-100,4,2,2,65,0,0
40038,-100,4,2,2,70,0,0
43038,-100,4,2,2,50,0,0
44038,-100,4,2,2,80,0,1
51788,-100,4,2,2,80,0,0
52038,-100,4,2,2,80,0,1
60038,-100,4,2,2,50,0,0
62038,-100,4,2,2,70,0,0
84038,-100,4,2,2,50,0,0

[Colours]
Combo1 : 204,0,0
Combo2 : 128,128,255
Combo3 : 255,189,123

[HitObjects]
288,251,3038,5,4,3:0:0:0:
357,205,3163,1,0,0:0:0:0:
360,122,3288,1,0,0:0:0:0:
288,251,3413,1,0,0:0:0:0:
175,249,3538,1,0,0:0:0:0:
103,290,3663,1,0,0:0:0:0:
100,372,3788,1,0,0:0:0:0:
175,249,3913,1,0,0:0:0:0:
362,250,4038,6,0,L|357:145,1,75,4|0,3:1|0:0,0:0:0:0:
230,164,4288,2,0,L|148:162,1,75,0|0,1:0|0:0,0:0:0:0:
282,166,4538,1,4,3:0:0:0:
359,193,4663,1,0,0:0:0:0:
359,193,4788,1,0,1:0:0:0:
282,166,4913,1,0,0:0:0:0:
98,217,5038,6,0,L|204:216,1,75,4|0,3:0|0:0,0:0:0:0:
300,218,5288,2,0,L|311:123,1,75,0|0,1:0|0:0,0:0:0:0:
154,61,5538,2,0,L|73:58,1,75,4|0,3:0|0:0,0:0:0:0:
206,60,5788,2,0,L|301:62,1,75,0|0,1:0|0:0,0:0:0:0:
93,63,6038,6,0,P|45:110|109:155,1,150,4|0,3:0|1:0,0:0:0:0:
191,157,6413,1,4,3:0:0:0:
318,146,6538,2,0,L|220:148,1,75,4|0,3:0|0:0,0:0:0:0:
114,148,6788,2,0,L|202:146,1,75,0|0,1:0|0:0,0:0:0:0:
376,158,7038,6,0,P|426:112|353:93,1,150,4|0,3:0|1:0,0:0:0:0:
245,83,7413,1,0,0:0:0:0:
369,245,7538,2,0,L|375:149,1,75,4|0,3:0|0:0,0:0:0:0:
259,134,7788,1,0,1:0:0:0:
373,170,7913,1,4,3:0:0:0:
185,164,8038,6,0,P|103:200|112:267,1,150,4|0,3:0|1:0,0:0:0:0:
199,247,8413,1,4,3:0:0:0:
326,247,8538,2,0,P|406:213|406:153,1,150,4|0,3:0|1:0,0:0:0:0:
312,150,8913,1,4,3:0:0:0:
122,143,9038,6,0,B|124:229|124:229|207:250,1,150,4|0,3:0|1:0,0:0:0:0:
283,249,9413,1,4,3:0:0:0:
155,246,9538,2,0,P|103:276|169:322,1,150,4|0,3:0|1:0,0:0:0:0:
246,331,9913,1,4,3:0:0:0:
433,331,10038,6,0,P|337:322|262:340,1,150,4|0,3:0|1:0,0:0:0:0:
156,332,10413,1,4,3:0:0:0:
245,327,10538,1,4,3:0:0:0:
335,327,10663,1,4,3:0:0:0:
204,235,10788,2,0,L|93:237,1,75,4|4,3:0|3:0,0:0:0:0:
369,200,11038,6,0,L|415:200,1,37.5,4|0,3:0|3:0,0:0:0:0:
406,200,11163,2,0,L|368:200,1,37.5,0|0,3:0|3:0,0:0:0:0:
240,200,11288,2,0,L|188:202,1,37.5,0|0,3:0|3:0,0:0:0:0:
202,201,11413,2,0,L|250:202,1,37.5,0|0,3:0|3:0,0:0:0:0:
367,201,11538,2,0,L|371:94,1,75,0|0,3:0|3:0,0:0:0:0:
249,119,11788,2,0,L|359:119,1,75,4|0,3:0|0:0,0:0:0:0:
140,236,12038,6,0,P|82:185|128:113,1,150,4|0,3:0|0:0,0:0:0:0:
304,106,12538,2,0,P|350:181|296:212,1,150,0|0,0:0|0:0,0:0:0:0:
126,216,12913,1,4,3:0:0:0:
368,214,13538,6,0,L|400:214,2,25,2|2|2,0:0|0:0|0:0,0:0:0:0:
342,212,13663,1,2,0:0:0:0:
267,207,13788,2,0,L|172:206,1,75,0|0,0:0|0:0,0:0:0:0:
379,83,14038,5,4,3:0:0:0:
83,93,14538,2,0,L|237:94,1,150,0|0,0:0|0:0,0:0:0:0:
45,97,14913,1,4,3:0:0:0:
311,98,15288,1,2,0:0:0:0:
311,144,15319,2,0,L|313:289,1,131.25,0|0,0:0|0:0,0:0:0:0:
199,94,15788,2,0,L|99:94,1,75,0|0,0:0|0:0,0:0:0:0:
311,95,16038,6,0,P|360:155|305:175,1,150,4|2,3:0|0:0,0:0:0:0:
202,179,16413,1,0,0:0:0:0:
316,177,16538,2,0,P|386:229|342:293,1,150,0|2,0:0|0:0,0:0:0:0:
180,281,16913,1,4,3:0:0:0:
442,195,17288,6,0,L|450:105,1,75,2|0,0:0|0:0,0:0:0:0:
320,112,17538,2,0,L|237:116,1,75,0|0,0:0|0:0,0:0:0:0:
372,111,17788,2,0,L|463:108,1,75,2|0,0:0|0:0,0:0:0:0:
259,113,18038,6,0,L|100:111,2,150,4|2|0,3:0|0:0|0:0,0:0:0:0:
408,119,18788,1,2,0:0:0:0:
220,120,18913,6,0,P|144:151|144:227,1,150,4|0,3:0|0:0,0:0:0:0:
264,211,19288,2,0,L|180:212,1,75,2|0,0:0|0:0,0:0:0:0:
376,210,19538,2,0,L|386:112,1,75,8|8,3:0|3:0,0:0:0:0:
273,112,19788,1,4,3:0:0:0:
385,122,19913,1,0,0:0:0:0:
197,111,20038,6,0,P|157:184|217:214,1,150,4|0,3:0|3:0,0:0:0:0:
408,217,20538,2,0,L|500:217,2,75,0|0|0,1:0|0:0|3:0,0:0:0:0:
220,212,20913,6,0,P|236:122|305:129,1,150,4|0,3:0|0:0,0:0:0:0:
166,115,21288,1,0,3:0:0:0:
390,119,21538,1,0,1:0:0:0:
240,117,21788,2,0,L|136:117,1,75,0|0,3:0|3:0,0:0:0:0:
352,118,22038,6,0,P|399:182|335:212,1,150,4|4,3:0|3:0,0:0:0:0:
130,229,22538,2,0,L|49:218,2,75,0|0|0,1:0|0:0|3:0,0:0:0:0:
317,230,22913,6,0,P|234:217|157:229,1,150,4|0,3:0|0:0,0:0:0:0:
281,221,23288,2,0,L|300:133,1,75,4|0,3:0|0:0,0:0:0:0:
109,136,23538,2,0,L|22:137,1,75,0|0,1:0|1:0,0:0:0:0:
146,136,23788,2,0,L|242:137,1,75,4|4,3:0|3:0,0:0:0:0:
409,140,24038,6,0,P|457:200|392:213,1,150,4|0,3:0|3:0,0:0:0:0:
186,222,24538,2,0,L|187:122,1,75,0|0,1:0|0:0,0:0:0:0:
277,147,24788,1,0,3:0:0:0:
89,142,24913,6,0,P|46:212|92:239,1,150,4|0,3:0|0:0,0:0:0:0:
216,244,25288,2,0,L|217:337,1,75,0|0,3:0|0:0,0:0:0:0:
89,328,25538,2,0,L|91:236,1,75,0|0,1:0|0:0,0:0:0:0:
217,246,25788,2,0,L|108:246,1,75,0|0,0:0|3:0,0:0:0:0:
329,243,26038,6,0,L|493:243,2,150,4|0|0,3:0|3:0|1:0,0:0:0:0:
179,239,26788,1,0,0:0:0:0:
366,246,26913,6,0,P|403:161|356:137,1,150,4|0,3:0|0:0,0:0:0:0:
257,133,27288,2,0,L|350:134,1,75,0|0,3:0|0:0,0:0:0:0:
144,132,27538,2,0,L|48:130,2,75,0|4|0,1:0|3:0|0:0,0:0:0:0:
256,134,27913,1,0,0:0:0:0:
68,136,28038,6,0,B|62:213|62:213|146:237,1,150,4|2,1:0|0:0,0:0:0:0:
221,244,28413,1,2,0:0:0:0:
324,244,28538,2,0,P|376:303|318:329,1,150,2|0,0:0|0:0,0:0:0:0:
145,327,28913,6,0,P|67:304|69:233,1,150,2|0,0:0|0:0,0:0:0:0:
190,242,29288,2,0,L|199:152,1,75,2|2,0:0|0:0,0:0:0:0:
69,153,29538,2,0,P|31:83|103:54,1,150,2|0,0:0|0:0,0:0:0:0:
265,55,29913,6,0,P|334:77|352:162,1,150,2|0,0:0|0:0,0:0:0:0:
229,151,30288,2,0,L|120:150,1,75,2|2,0:0|0:0,0:0:0:0:
281,151,30538,2,0,L|389:153,2,75,2|0|2,0:0|0:0|0:0,0:0:0:0:
93,146,30913,6,0,P|248:164|282:319,1,300,4|0,1:0|0:0,0:0:0:0:
135,231,31788,2,0,L|128:132,1,75,0|0,0:0|0:0,0:0:0:0:
336,141,32038,6,0,P|414:112|403:39,1,150,4|2,1:0|0:0,0:0:0:0:
324,51,32413,1,2,0:0:0:0:
220,47,32538,2,0,B|149:71|149:71|189:151,1,150,2|0,0:0|0:0,0:0:0:0:
341,141,32913,6,0,L|430:140,2,75,2|0|0,0:0|0:0|0:0,0:0:0:0:
214,143,33288,2,0,L|214:237,1,75,2|2,0:0|0:0,0:0:0:0:
342,217,33538,2,0,P|376:294|334:348,1,150,2|0,0:0|0:0,0:0:0:0:
156,334,33913,6,0,P|233:327|339:341,1,150,2|0,0:0|0:0,0:0:0:0:
177,331,34288,2,0,L|171:245,1,75,2|2,0:0|0:0,0:0:0:0:
301,247,34538,2,0,P|305:174|230:159,1,150,2|2,0:0|0:0,0:0:0:0:
431,161,34913,6,0,P|466:244|417:254,1,150,4|0,1:0|0:0,0:0:0:0:
309,256,35288,2,0,L|208:254,1,75,0|0,0:0|0:0,0:0:0:0:
424,253,35538,2,0,L|511:243,2,75,4|0|0,1:0|0:0|0:0,0:0:0:0:
311,261,35913,1,0,0:0:0:0:
124,260,36038,6,0,L|117:152,1,75,0|0,1:0|0:0,0:0:0:0:
231,169,36288,1,0,1:0:0:0:
119,174,36413,1,0,0:0:0:0:
307,168,36538,2,0,L|415:164,2,75,0|0|0,1:0|0:0|1:0,0:0:0:0:
119,174,36913,6,0,L|26:169,2,75,0|0|0,0:0|1:0|0:0,0:0:0:0:
247,175,37288,2,0,L|347:177,1,75,0|0,1:0|0:0,0:0:0:0:
195,173,37538,2,0,L|90:173,2,75,0|0|0,1:0|0:0|1:0,0:0:0:0:
383,170,37913,1,0,0:0:0:0:
473,167,38038,6,0,L|472:73,1,75,0|0,1:0|0:0,0:0:0:0:
360,92,38288,1,0,1:0:0:0:
473,90,38413,1,0,0:0:0:0:
285,258,38538,2,0,L|181:257,2,75,0|0|0,1:0|0:0|1:0,0:0:0:0:
97,257,38913,6,0,P|56:187|117:157,1,150,4|0,1:0|0:0,0:0:0:0:
227,155,39288,2,0,L|337:156,1,75,0|0,1:0|0:0,0:0:0:0:
175,153,39538,2,0,L|77:152,2,75,0|0|0,1:0|0:0|1:0,0:0:0:0:
288,152,39913,1,0,0:0:0:0:
101,152,40038,5,0,1:0:0:0:
32,208,40163,1,4,3:0:0:0:
28,297,40288,1,4,3:0:0:0:
111,333,40413,1,4,3:0:0:0:
299,336,40538,1,4,3:0:0:0:
210,333,40663,1,4,3:0:0:0:
121,336,40788,1,4,3:0:0:0:
210,333,40913,1,4,3:0:0:0:
398,329,41038,6,0,L|402:237,1,75,0|4,1:0|3:0,0:0:0:0:
289,249,41288,1,4,3:0:0:0:
402,245,41413,1,4,3:0:0:0:
215,242,41538,1,4,3:0:0:0:
126,243,41663,2,0,L|37:246,2,75,4|4|4,3:0|3:0|3:0,0:0:0:0:
316,106,42038,6,0,L|369:106,2,37.5,0|4|4,1:0|3:0|3:0,0:0:0:0:
189,109,42288,2,0,L|99:109,1,75,4|4,3:0|3:0,0:0:0:0:
242,105,42538,2,0,L|247:212,1,75,0|4,1:0|3:0,0:0:0:0:
118,190,42788,2,0,L|69:191,2,37.5,4|4|4,3:0|3:0|3:0,0:0:0:0:
307,187,43038,1,2,0:0:0:0:
117,217,43788,6,0,L|106:119,1,75,2|0,0:0|0:0,0:0:0:0:
306,139,44038,6,0,L|147:137,1,150,4|0,1:0|1:0,0:0:0:0:
284,138,44413,1,0,0:0:0:0:
97,142,44538,2,0,L|6:144,1,75,4|0,3:0|0:0,0:0:0:0:
150,141,44788,2,0,L|153:248,1,75,0|0,1:0|0:0,0:0:0:0:
340,212,45038,6,0,L|440:212,1,75,4|0,3:0|0:0,0:0:0:0:
288,214,45288,2,0,L|185:214,1,75,0|0,1:0|0:0,0:0:0:0:
401,211,45538,2,0,L|403:108,1,75,4|0,3:0|0:0,0:0:0:0:
283,129,45788,1,0,1:0:0:0:
403,136,45913,1,0,0:0:0:0:
212,299,46038,6,0,P|165:233|223:204,1,150,4|0,3:0|1:0,0:0:0:0:
335,201,46413,1,0,0:0:0:0:
148,206,46538,2,0,L|54:206,2,75,4|0|0,3:0|0:0|1:0,0:0:0:0:
261,203,46913,1,0,0:0:0:0:
449,192,47038,6,0,L|455:86,1,75,4|0,3:0|0:0,0:0:0:0:
333,108,47288,1,0,1:0:0:0:
453,108,47413,1,0,0:0:0:0:
260,266,47538,1,4,3:0:0:0:
186,216,47663,1,0,0:0:0:0:
183,126,47788,1,0,1:0:0:0:
258,75,47913,1,0,0:0:0:0:
446,68,48038,6,0,L|447:168,1,75,4|0,1:0|0:0,0:0:0:0:
334,147,48288,2,0,L|336:256,1,75,0|0,1:0|0:0,0:0:0:0:
147,228,48538,2,0,L|57:226,1,75,4|0,3:0|0:0,0:0:0:0:
200,226,48788,2,0,L|297:228,1,75,0|0,1:0|0:0,0:0:0:0:
88,231,49038,6,0,L|81:123,1,75,4|0,3:0|0:0,0:0:0:0:
203,140,49288,1,0,1:0:0:0:
84,156,49413,1,0,0:0:0:0:
282,247,49538,2,0,L|379:246,2,75,4|0|0,3:0|0:0|1:0,0:0:0:0:
169,247,49913,1,0,0:0:0:0:
357,246,50038,5,4,3:0:0:0:
244,247,50163,2,0,L|151:247,2,75,4|4|4,3:0|3:0|3:0,0:0:0:0:
370,101,50538,2,0,L|457:101,1,75,4|4,3:0|3:0,0:0:0:0:
408,101,50725,1,4,3:0:0:0:
218,100,50788,2,0,L|122:100,1,75,4|4,3:0|3:0,0:0:0:0:
361,235,51038,6,0,L|361:341,1,75,0|0,1:0|0:0,0:0:0:0:
233,231,51288,2,0,L|216:133,1,75,0|0,1:0|0:0,0:0:0:0:
408,148,51538,2,0,L|491:147,2,75,4|0|0,3:0|0:0|1:0,0:0:0:0:
295,146,51913,1,0,0:0:0:0:
108,150,52038,6,0,P|111:229|177:248,1,150,4|0,1:0|1:0,0:0:0:0:
298,250,52413,1,0,0:0:0:0:
111,257,52538,2,0,L|103:147,1,75,4|0,3:0|0:0,0:0:0:0:
226,169,52788,2,0,L|221:63,1,75,0|0,1:0|0:0,0:0:0:0:
36,86,53038,6,0,L|40:187,1,75,4|0,3:0|0:0,0:0:0:0:
159,170,53288,1,0,1:0:0:0:
40,169,53413,1,0,0:0:0:0:
228,171,53538,2,0,L|324:169,1,75,4|0,3:0|0:0,0:0:0:0:
175,289,53788,2,0,L|77:290,1,75,0|0,1:0|0:0,0:0:0:0:
293,98,54038,6,0,L|384:98,1,75,4|0,1:0|0:0,0:0:0:0:
241,98,54288,2,0,L|231:201,1,75,4|0,1:0|0:0,0:0:0:0:
421,186,54538,2,0,L|508:185,1,75,4|0,1:0|0:0,0:0:0:0:
309,189,54788,6,0,B|258:124|258:124|392:126|392:126|334:59,1,300,4|0,1:0|1:0,0:0:0:0:
127,68,55538,1,0,1:0:0:0:
337,62,55788,2,0,L|341:154,1,75,0|0,1:0|0:0,0:0:0:0:
154,148,56038,6,0,L|53:148,1,75,4|0,1:0|0:0,0:0:0:0:
207,148,56288,2,0,L|311:147,1,75,0|0,1:0|0:0,0:0:0:0:
95,149,56538,2,0,L|94:253,1,75,4|0,3:0|0:0,0:0:0:0:
214,236,56788,1,0,1:0:0:0:
95,235,56913,1,0,0:0:0:0:
282,77,57038,6,0,L|282:183,1,75,4|0,3:0|0:0,0:0:0:0:
154,148,57288,2,0,L|60:148,1,75,0|0,1:0|0:0,0:0:0:0:
270,288,57538,2,0,L|377:287,1,75,4|0,3:0|0:0,0:0:0:0:
218,287,57788,2,0,L|210:185,1,75,0|0,1:0|0:0,0:0:0:0:
399,201,58038,6,0,L|480:193,2,75,4|4|4,3:0|3:0|3:0,0:0:0:0:
213,205,58413,1,4,3:0:0:0:
303,202,58538,1,4,3:0:0:0:
393,204,58663,1,4,3:0:0:0:
199,64,58788,2,0,L|196:157,1,75,4|4,3:0|3:0,0:0:0:0:
394,142,59038,6,0,L|446:140,2,37.5,4|4|4,3:0|3:0|3:0,0:0:0:0:
266,146,59288,2,0,L|217:147,2,37.5,4|4|4,3:0|3:0|3:0,0:0:0:0:
394,142,59538,2,0,L|392:48,3,75,4|0|0|0,3:0|0:0|0:0|0:0,0:0:0:0:
265,61,60038,6,0,B|189:78|189:78|191:166,1,150,0|0,0:0|0:0,0:0:0:0:
333,158,60538,2,0,P|380:230|311:253,1,150,0|0,0:0|0:0,0:0:0:0:
195,265,61038,5,0,0:0:0:0:
92,156,61288,1,0,0:0:0:0:
196,264,61538,1,0,0:0:0:0:
346,260,61788,2,0,L|350:153,1,75,0|0,0:0|0:0,0:0:0:0:
162,186,62038,6,0,L|153:83,1,75,4|0,1:0|0:0,0:0:0:0:
283,108,62288,2,0,L|363:109,1,75,4|0,1:0|0:0,0:0:0:0:
231,103,62538,2,0,L|128:104,1,75,4|0,1:0|0:0,0:0:0:0:
345,102,62788,6,0,B|338:268|338:268|179:296,1,300,4|0,1:0|1:0,0:0:0:0:
416,282,63538,1,0,1:0:0:0:
206,282,63788,2,0,L|115:284,1,75,0|0,1:0|0:0,0:0:0:0:
318,285,64038,6,0,L|402:284,1,75,4|0,1:0|0:0,0:0:0:0:
272,284,64288,2,0,L|254:202,1,75,0|0,1:0|0:0,0:0:0:0:
439,132,64538,2,0,L|437:239,1,75,4|0,3:0|0:0,0:0:0:0:
310,205,64788,2,0,L|206:206,1,75,0|0,1:0|0:0,0:0:0:0:
47,201,65038,6,0,L|41:112,1,75,4|0,3:0|0:0,0:0:0:0:
161,124,65288,1,0,1:0:0:0:
41,127,65413,1,0,0:0:0:0:
228,232,65538,2,0,L|328:230,1,75,4|0,3:0|0:0,0:0:0:0:
175,234,65788,2,0,L|165:130,1,75,0|0,1:0|0:0,0:0:0:0:
356,155,66038,6,0,L|450:155,2,75,4|4|4,3:0|3:0|3:0,0:0:0:0:
168,156,66413,1,4,3:0:0:0:
165,66,66538,1,4,3:0:0:0:
254,63,66663,1,4,3:0:0:0:
381,68,66788,2,0,L|389:159,1,75,4|4,3:0|3:0,0:0:0:0:
199,308,67038,6,0,L|139:306,2,37.5,4|4|4,3:0|3:0|3:0,0:0:0:0:
326,312,67288,2,0,L|387:311,2,37.5,4|4|4,3:0|3:0|3:0,0:0:0:0:
141,103,67538,2,0,L|136:19,1,75,4|0,3:0|0:0,0:0:0:0:
327,38,67788,2,0,L|426:36,1,75,4|0,1:0|0:0,0:0:0:0:
214,41,68038,6,0,B|207:115|207:115|295:142,1,150,4|0,3:1|1:0,0:0:0:0:
376,155,68413,1,0,0:0:0:0:
249,153,68538,1,4,3:0:0:0:
163,197,68663,1,0,0:0:0:0:
157,294,68788,1,0,1:0:0:0:
248,330,68913,1,0,0:0:0:0:
436,332,69038,6,0,L|353:329,1,75,4|0,3:0|0:0,0:0:0:0:
233,323,69288,2,0,L|147:318,1,75,0|0,1:0|0:0,0:0:0:0:
286,315,69538,2,0,L|384:315,1,75,4|0,3:0|0:0,0:0:0:0:
234,310,69788,2,0,L|143:310,1,75,0|0,1:0|0:0,0:0:0:0:
347,308,70038,6,0,P|424:262|411:211,1,150,4|0,3:0|1:0,0:0:0:0:
316,211,70413,1,4,3:0:0:0:
189,208,70538,2,0,L|179:123,1,75,4|0,3:0|0:0,0:0:0:0:
308,134,70788,2,0,L|318:53,1,75,0|0,1:0|0:0,0:0:0:0:
130,55,71038,6,0,P|75:94|146:114,1,150,4|0,3:0|1:0,0:0:0:0:
223,131,71413,1,0,0:0:0:0:
347,100,71538,2,0,L|353:196,1,75,4|0,3:0|0:0,0:0:0:0:
237,209,71788,1,0,1:0:0:0:
353,177,71913,1,4,3:0:0:0:
166,182,72038,6,0,B|160:260|160:260|249:297,1,150,4|0,3:0|1:0,0:0:0:0:
322,309,72413,1,4,3:0:0:0:
195,299,72538,2,0,P|111:258|122:193,1,150,4|0,3:0|1:0,0:0:0:0:
209,205,72913,1,4,3:0:0:0:
397,206,73038,6,0,P|449:168|385:128,1,150,4|0,3:0|1:0,0:0:0:0:
303,125,73413,1,4,3:0:0:0:
176,124,73538,2,0,L|171:222,1,75,4|0,3:0|0:0,0:0:0:0:
285,241,73788,1,0,1:0:0:0:
170,208,73913,1,4,3:0:0:0:
358,204,74038,6,0,L|437:203,1,75,4|0,3:0|0:0,0:0:0:0:
305,203,74288,2,0,L|206:198,1,75,0|0,1:0|0:0,0:0:0:0:
358,206,74538,2,0,L|364:300,1,75,4|0,3:0|0:0,0:0:0:0:
236,288,74788,2,0,L|234:189,1,75,0|0,1:0|0:0,0:0:0:0:
424,202,75038,6,0,B|419:120|419:120|337:94,1,150,0|4,1:0|3:0,0:0:0:0:
257,97,75413,1,0,0:0:0:0:
130,92,75538,2,0,L|209:89,1,75,0|0,1:0|0:0,0:0:0:0:
333,93,75788,2,0,L|229:89,1,75,4|0,3:0|0:0,0:0:0:0:
70,98,76038,6,0,B|71:181|71:181|150:206,1,150,4|0,3:1|1:0,0:0:0:0:
225,211,76413,1,0,0:0:0:0:
98,209,76538,2,0,P|48:166|120:131,1,150,4|0,3:0|1:0,0:0:0:0:
189,124,76913,1,0,0:0:0:0:
377,121,77038,6,0,L|269:120,1,75,4|0,3:0|0:0,0:0:0:0:
175,122,77288,2,0,L|171:225,1,75,0|0,1:0|0:0,0:0:0:0:
300,195,77538,2,0,L|393:195,1,75,4|0,3:0|0:0,0:0:0:0:
248,193,77788,2,0,L|173:192,1,75,0|0,1:0|0:0,0:0:0:0:
361,197,78038,6,0,P|413:229|340:263,1,150,4|0,3:0|1:0,0:0:0:0:
274,281,78413,1,4,3:0:0:0:
147,280,78538,2,0,L|147:173,1,75,4|0,3:0|0:0,0:0:0:0:
275,202,78788,2,0,L|285:100,1,75,0|0,1:0|0:0,0:0:0:0:
96,111,79038,6,0,B|95:188|95:188|173:217,1,150,4|0,3:0|1:0,0:0:0:0:
253,227,79413,1,0,0:0:0:0:
381,228,79538,2,0,L|384:124,1,75,4|0,3:0|0:0,0:0:0:0:
272,106,79788,1,0,1:0:0:0:
388,139,79913,1,4,3:0:0:0:
201,130,80038,6,0,B|124:115|124:115|105:20,1,150,4|0,3:0|1:0,0:0:0:0:
208,42,80413,1,4,3:0:0:0:
81,42,80538,2,0,B|80:118|80:118|162:146,1,150,4|0,3:0|1:0,0:0:0:0:
247,158,80913,1,4,3:0:0:0:
435,156,81038,6,0,P|480:196|419:245,1,150,4|0,3:0|1:0,0:0:0:0:
330,250,81413,1,4,3:0:0:0:
203,249,81538,2,0,B|202:175|202:175|282:156,1,150,4|0,3:0|1:0,0:0:0:0:
366,147,81913,1,4,3:0:0:0:
179,147,82038,6,0,P|99:169|94:240,1,150,4|0,3:0|1:0,0:0:0:0:
218,232,82413,2,0,L|320:228,2,75,4|4|4,3:0|3:0|3:0,0:0:0:0:
91,234,82788,2,0,L|186:233,1,75,4|4,3:0|3:0,0:0:0:0:
353,331,83038,6,0,L|414:332,1,37.5,4|0,3:0|3:0,0:0:0:0:
391,331,83163,2,0,L|339:332,1,37.5,0|0,3:0|3:0,0:0:0:0:
193,324,83288,2,0,L|142:325,1,37.5,0|0,3:0|3:0,0:0:0:0:
156,324,83413,2,0,L|194:325,1,37.5,0|0,3:0|3:0,0:0:0:0:
341,198,83538,2,0,P|373:115|309:94,1,150,0|4,3:0|3:0,0:0:0:0:
222,90,83913,1,0,0:0:0:0:
35,89,84038,1,4,3:0:0:0:
298,88,84538,6,0,P|371:110|361:189,1,150,0|0,0:0|0:0,0:0:0:0:
185,173,84913,1,4,3:0:0:0:
393,171,85538,6,0,L|391:123,3,25,2|2|2|2,0:0|0:0|0:0|0:0,0:0:0:0:
318,142,85788,2,0,L|220:143,1,75,0|0,0:0|0:0,0:0:0:0:
433,286,86038,5,4,3:0:0:0:
158,314,86538,2,0,P|116:241|184:205,1,150,0|0,0:0|0:0,0:0:0:0:
342,195,86913,1,4,3:0:0:0:
153,193,87288,1,2,0:0:0:0:
142,147,87319,2,0,P|123:118|184:66,1,131.25,0|0,0:0|0:0,0:0:0:0:
328,107,87788,2,0,L|418:109,1,75,0|0,0:0|0:0,0:0:0:0:
197,114,88038,5,4,3:0:0:0:
357,111,88538,2,0,P|274:95|203:111,1,150,0|2,0:0|0:0,0:0:0:0:
399,111,88913,1,4,3:0:0:0:
198,108,89288,6,0,B|204:182|204:182|292:196,1,150,2|0,0:0|0:0,0:0:0:0:
144,205,89788,1,2,0:0:0:0:
473,202,90038,6,0,L|309:208,2,150,4|2|0,3:0|0:0|0:0,0:0:0:0:
256,230,90788,1,2,0:0:0:0:
444,230,90913,1,4,3:0:0:0:
