osu file format v14

[General]
AudioFilename: audio.mp3
AudioLeadIn: 0
PreviewTime: 43725
Countdown: 0
SampleSet: Soft
StackLeniency: 0.7
Mode: 2
LetterboxInBreaks: 0
WidescreenStoryboard: 1

[Editor]
Bookmarks: 76038
DistanceSpacing: 0.9
BeatDivisor: 2
GridSize: 4
TimelineZoom: 1.5

[Metadata]
Title:Refactoring Travel (feat. Nanahira) (Cut Ver.)
TitleUnicode:Refactoring Travel (feat. ななひら) (Cut Ver.)
Artist:t+pazolite
ArtistUnicode:t+pazolite
Creator:My Angel RangE
Version:Cup
Source:
Tags:リファクタリング・トラベル Electronic Japanese Juansy- juansy female vocal -Refactoring Travel- hardcore j-core MARE
BeatmapID:3060857
BeatmapSetID:1493251

[Difficulty]
HPDrainRate:3
CircleSize:2
OverallDifficulty:6
ApproachRate:6
SliderMultiplier:1
SliderTickRate:1

[Events]
//Background and Video events
0,0,"14.jpg",0,0
//Break Periods
//Storyboard Layer 0 (Background)
//Storyboard Layer 1 (Fail)
//Storyboard Layer 2 (Pass)
//Storyboard Layer 3 (Foreground)
//Storyboard Layer 4 (Overlay)
//Storyboard Sound Samples

[TimingPoints]
38,250,4,2,2,60,1,0
4038,-100,4,2,2,70,0,0
12038,-100,4,2,2,50,0,0
20038,-100,4,2,2,55,0,0
28038,-100,4,2,2,60,0,0
36038,-100,4,2,2,65,0,0
40038,-100,4,2,2,70,0,0
43038,-100,4,2,2,50,0,0
44038,-100,4,2,2,80,0,1
51788,-100,4,2,2,80,0,0
52038,-100,4,2,2,80,0,1
60038,-100,4,2,2,50,0,0
62038,-100,4,2,2,70,0,0
84038,-100,4,2,2,50,0,0

[Colours]
Combo1 : 204,0,0
Combo2 : 128,128,255
Combo3 : 255,189,123

[HitObjects]
144,240,3038,6,0,P|68:204|148:180,1,200,4|0,3:0|0:0,0:0:0:0:
220,172,3788,1,0,0:0:0:0:
304,176,4038,6,0,P|376:128|292:96,1,200,4|4,3:1|3:0,0:0:0:0:
224,88,4788,1,0,1:0:0:0:
144,88,5038,2,0,L|144:296,1,200,4|4,3:0|3:0,0:0:0:0:
224,284,5788,1,0,1:0:0:0:
308,284,6038,6,0,L|100:288,1,200,4|4,3:0|3:0,0:0:0:0:
192,280,6788,1,0,1:0:0:0:
272,280,7038,6,0,P|328:264|248:208,1,200,4|4,3:0|3:0,0:0:0:0:
178,195,7788,1,0,1:0:0:0:
96,184,8038,2,0,L|300:172,1,200,4|4,3:0|3:0,0:0:0:0:
384,176,8788,1,0,1:0:0:0:
295,172,9038,6,0,P|239:192|319:248,1,200,4|4,3:0|3:0,0:0:0:0:
392,264,9788,1,0,1:0:0:0:
480,256,10038,2,0,L|264:244,1,200,4|4,3:0|3:0,0:0:0:0:
280,244,10788,1,4,3:0:0:0:
360,248,11038,6,0,P|424:244|372:164,1,200,4|0,3:0|3:0,0:0:0:0:
288,160,11788,1,4,3:0:0:0:
374,163,12038,5,4,3:0:0:0:
374,163,12538,2,0,L|208:164,1,150,0|4,0:0|3:0,0:0:0:0:
224,163,13538,1,2,0:0:0:0:
272,164,13788,1,0,0:0:0:0:
324,168,14038,5,4,3:0:0:0:
324,168,14538,2,0,L|156:168,1,150,0|4,0:0|3:0,0:0:0:0:
174,168,15288,1,2,0:0:0:0:
68,168,15788,6,0,L|184:168,1,100,0|4,0:0|3:0,0:0:0:0:
168,168,16538,2,0,L|324:168,1,150,0|4,0:0|3:0,0:0:0:0:
208,192,17288,2,0,L|104:192,2,100,2|0|2,0:0|0:0|0:0,0:0:0:0:
276,192,18038,6,0,P|348:160|272:120,1,200,4|0,3:0|0:0,0:0:0:0:
208,116,18788,1,2,0:0:0:0:
208,116,18913,1,4,3:0:0:0:
304,112,19788,1,4,3:0:0:0:
224,116,20038,6,0,P|152:168|220:184,1,200,4|0,3:0|1:0,0:0:0:0:
336,156,20913,2,0,L|68:156,1,250,4|0,3:0|1:0,0:0:0:0:
86,156,21788,1,0,3:0:0:0:
148,156,22038,6,0,P|224:180|148:212,1,200,4|0,3:0|1:0,0:0:0:0:
40,216,22913,2,0,L|296:216,1,250,4|0,3:0|1:0,0:0:0:0:
290,216,23788,1,4,3:0:0:0:
372,216,24038,6,0,P|444:176|368:156,1,200,4|0,3:0|1:0,0:0:0:0:
260,156,24913,2,0,L|92:156,1,150,4|0,3:0|3:0,0:0:0:0:
110,156,25538,2,0,L|226:156,1,100,0|0,1:0|0:0,0:0:0:0:
288,156,26038,6,0,P|360:108|280:84,1,200,4|0,3:0|1:0,0:0:0:0:
208,76,26788,1,0,0:0:0:0:
208,76,26913,1,4,3:0:0:0:
208,76,27538,2,0,L|207:199,1,100,0|0,1:0|0:0,0:0:0:0:
108,76,28038,6,0,L|316:76,1,200,4|2,1:0|0:0,0:0:0:0:
308,76,29038,2,0,P|376:120|296:132,1,200,0|2,0:0|0:0,0:0:0:0:
164,140,30038,6,0,P|96:184|176:196,1,200,0|2,0:0|0:0,0:0:0:0:
252,204,30788,1,2,0:0:0:0:
252,204,30913,1,4,1:0:0:0:
328,200,31788,1,0,0:0:0:0:
252,204,32038,6,0,L|464:200,1,200,4|2,1:0|0:0,0:0:0:0:
451,200,33038,2,0,L|252:204,1,200,0|2,0:0|0:0,0:0:0:0:
352,200,34038,6,0,P|420:172|336:120,1,200,0|2,0:0|0:0,0:0:0:0:
240,112,34913,2,0,L|72:112,1,150,4|0,1:0|0:0,0:0:0:0:
90,112,35538,2,0,L|192:112,1,100,4|0,1:0|0:0,0:0:0:0:
272,112,36038,6,0,P|348:144|264:172,1,200,0|0,1:0|1:0,0:0:0:0:
216,184,36788,1,0,1:0:0:0:
156,184,37038,2,0,P|80:216|164:244,1,200,0|0,1:0|1:0,0:0:0:0:
208,264,37788,1,0,1:0:0:0:
268,264,38038,6,0,L|288:52,1,200,0|0,1:0|1:0,0:0:0:0:
364,72,38788,1,0,1:0:0:0:
364,72,38913,2,0,L|196:68,1,150,4|0,1:0|1:0,0:0:0:0:
214,68,39538,2,0,L|328:68,1,100,0|0,1:0|1:0,0:0:0:0:
392,72,40038,6,0,P|464:116|400:132,1,200,0|4,1:0|3:0,0:0:0:0:
336,128,40788,1,4,3:0:0:0:
264,128,41038,2,0,L|368:128,1,100,0|4,1:0|3:0,0:0:0:0:
364,128,41538,2,0,L|264:128,1,100,4|4,3:0|3:0,0:0:0:0:
264,120,42038,6,0,L|468:112,2,200,0|0|2,1:0|1:0|0:0,0:0:0:0:
120,124,43788,1,2,0:0:0:0:
120,124,44038,6,0,P|48:164|120:192,1,200,4|4,1:0|3:0,0:0:0:0:
204,192,44788,1,0,1:0:0:0:
288,192,45038,2,0,P|360:236|284:268,1,200,4|4,3:0|3:0,0:0:0:0:
204,272,45788,1,0,1:0:0:0:
120,276,46038,6,0,L|328:236,2,200,4|4|4,3:0|3:0|3:0,0:0:0:0:
120,276,47288,1,0,1:0:0:0:
204,276,47538,2,0,L|204:144,1,100,4|0,3:0|1:0,0:0:0:0:
288,248,48038,6,0,L|84:248,1,200,4|4,1:0|3:0,0:0:0:0:
88,248,48788,1,0,1:0:0:0:
172,248,49038,2,0,L|376:248,1,200,4|4,3:0|3:0,0:0:0:0:
379,240,49788,1,0,1:0:0:0:
292,224,50038,6,0,P|220:216|292:156,1,200,4|4,3:0|3:0,0:0:0:0:
360,148,50788,1,4,3:0:0:0:
440,148,51038,2,0,L|320:148,1,100,0|0,1:0|1:0,0:0:0:0:
256,112,51538,2,0,L|356:112,1,100,4|0,3:0|1:0,0:0:0:0:
444,88,52038,6,0,L|236:88,1,200,4|4,1:0|3:0,0:0:0:0:
244,88,52788,1,0,1:0:0:0:
324,88,53038,2,0,P|388:148|324:152,1,200,4|4,3:0|3:0,0:0:0:0:
244,88,53788,1,0,1:0:0:0:
244,88,54038,6,0,L|140:84,2,100,4|4|4,1:0|1:0|1:0,0:0:0:0:
320,88,54788,1,4,1:0:0:0:
320,88,55288,2,0,L|428:88,2,100,0|0|0,1:0|1:0|1:0,0:0:0:0:
232,88,56038,6,0,L|120:88,1,100,4|0,1:0|1:0,0:0:0:0:
132,88,56538,2,0,L|244:88,1,100,4|0,3:0|1:0,0:0:0:0:
312,88,57038,2,0,P|384:128|304:152,1,200,4|4,3:0|3:0,0:0:0:0:
228,160,57788,1,0,1:0:0:0:
140,160,58038,6,0,L|356:164,1,200,4|4,3:0|3:0,0:0:0:0:
339,163,58788,1,4,3:0:0:0:
260,160,59038,2,0,P|200:156|264:96,1,200,4|4,3:0|3:0,0:0:0:0:
339,163,59788,1,0,0:0:0:0:
260,160,60038,6,0,L|44:156,1,200,0|0,0:0|0:0,0:0:0:0:
60,156,61038,2,0,L|260:160,1,200,0|0,0:0|0:0,0:0:0:0:
259,159,62038,6,0,L|143:159,2,100,4|4|4,1:0|1:0|1:0,0:0:0:0:
328,160,62788,2,0,P|376:168|320:108,1,200,4|0,1:0|1:0,0:0:0:0:
236,96,63538,2,0,L|240:216,1,100,0|0,1:0|1:0,0:0:0:0:
328,192,64038,6,0,L|436:188,2,100,4|0|4,1:0|1:0|3:0,0:0:0:0:
239,195,64788,1,0,1:0:0:0:
152,196,65038,2,0,L|152:88,1,100,4|0,3:0|1:0,0:0:0:0:
228,92,65538,2,0,L|327:95,1,100,4|0,3:0|1:0,0:0:0:0:
248,92,66038,6,0,P|180:108|256:152,1,200,4|4,3:0|3:0,0:0:0:0:
319,151,66788,1,4,3:0:0:0:
319,151,67038,2,0,L|119:151,1,200,4|4,3:0|3:0,0:0:0:0:
119,151,67788,1,4,1:0:0:0:
200,152,68038,6,0,P|272:132|196:92,1,200,4|4,3:1|3:0,0:0:0:0:
120,88,68788,1,0,1:0:0:0:
120,88,69038,2,0,L|320:88,1,200,4|4,3:0|3:0,0:0:0:0:
320,88,69788,1,0,1:0:0:0:
240,92,70038,6,0,P|176:148|240:148,1,200,4|4,3:0|3:0,0:0:0:0:
320,152,70788,1,0,1:0:0:0:
320,152,71038,2,0,L|120:152,1,200,4|4,3:0|3:0,0:0:0:0:
120,152,71788,1,0,1:0:0:0:
196,152,72038,6,0,P|268:192|192:208,1,200,4|4,3:0|3:0,0:0:0:0:
120,216,72788,1,0,1:0:0:0:
120,216,73038,2,0,L|332:212,1,200,4|4,3:0|3:0,0:0:0:0:
392,212,73788,1,0,1:0:0:0:
319,212,74038,6,0,P|255:216|315:152,1,200,4|4,3:0|3:0,0:0:0:0:
384,144,74788,1,0,1:0:0:0:
456,148,75038,2,0,L|248:148,1,200,0|0,1:0|1:0,0:0:0:0:
256,148,75788,1,4,3:0:0:0:
336,144,76038,6,0,P|404:208|340:224,1,200,4|4,3:1|3:0,0:0:0:0:
264,224,76788,1,0,1:0:0:0:
184,224,77038,2,0,P|116:288|180:304,1,200,4|4,3:0|3:0,0:0:0:0:
256,304,77788,1,0,1:0:0:0:
332,304,78038,6,0,L|112:300,1,200,4|4,3:0|3:0,0:0:0:0:
132,300,78788,1,0,1:0:0:0:
212,300,79038,2,0,P|284:284|212:236,1,200,4|4,3:0|3:0,0:0:0:0:
136,236,79788,1,0,1:0:0:0:
56,240,80038,6,0,L|264:240,1,200,4|4,3:0|3:0,0:0:0:0:
256,240,80788,1,0,1:0:0:0:
176,240,81038,2,0,P|112:228|180:172,1,200,4|4,3:0|3:0,0:0:0:0:
256,176,81788,1,0,1:0:0:0:
332,176,82038,6,0,L|112:176,1,200,4|4,3:0|3:0,0:0:0:0:
132,176,82788,1,4,3:0:0:0:
48,176,83038,2,0,L|256:176,1,200,4|0,3:0|3:0,0:0:0:0:
340,176,83788,1,4,3:0:0:0:
248,176,84038,5,4,3:0:0:0:
244,304,84538,2,0,L|404:300,1,150,0|4,0:0|3:0,0:0:0:0:
320,300,85788,1,0,0:0:0:0:
240,300,86038,5,4,3:0:0:0:
240,300,86538,2,0,L|408:300,1,150,0|4,0:0|3:0,0:0:0:0:
390,300,87288,1,2,0:0:0:0:
496,300,87788,6,0,L|380:300,1,100,0|4,0:0|3:0,0:0:0:0:
396,300,88538,2,0,L|240:300,1,150,0|4,0:0|3:0,0:0:0:0:
356,324,89288,2,0,L|460:324,2,100,2|0|2,0:0|0:0|0:0,0:0:0:0:
288,324,90038,6,0,P|216:292|292:252,1,200,4|0,3:0|0:0,0:0:0:0:
356,248,90788,1,2,0:0:0:0:
356,248,90913,1,4,3:0:0:0:
