osu file format v14

[General]
AudioFilename: audio.ogg
AudioLeadIn: 0
PreviewTime: 14841
Countdown: 0
SampleSet: Soft
StackLeniency: 0.7
Mode: 3
LetterboxInBreaks: 0
EpilepsyWarning: 1
SpecialStyle: 0
WidescreenStoryboard: 1

[Editor]
Bookmarks: 834,8304,12040,15775,23246,30717,38188,45658,53129,60600,71806,78110,83946,91884,100756,115697,130639
DistanceSpacing: 1.6
BeatDivisor: 4
GridSize: 16
TimelineZoom: 1.3

[Metadata]
Title:QZKago Requiem
TitleUnicode:QZKago Requiem
Artist:t+pazolite
ArtistUnicode:t+pazolite
Creator:keksikosu
Version:NIKO'S ADVANCED
Source:maimai FiNALE
Tags:tpz t+pz tpazolite pazolite topazoraito c.h.s chs cutie & headshaking sounds 浜田知幸 hamada tomoyuki 百舌谷 mozuya くずかご kuzukago video game videogame music vg vgm instrumental electronic hardcore j-core jcore japanese core speedcore pandora boxxx plus maimai green garakuta doll play oshama scramble! sega all perfect collection オンゲキ ongeki R.E.D. memorial soundtrack CHUNITHM NEW PLUS!! O.N.G.E.K.I. YuanLiang Ainer Niko_Plays FLeVI Antipole Symmatrix- [Crz]Alleyne [RT]Alleyne Critical_Star
BeatmapID:4152212
BeatmapSetID:1997707

[Difficulty]
HPDrainRate:7
CircleSize:4
OverallDifficulty:7
ApproachRate:5
SliderMultiplier:1.4
SliderTickRate:1

[Events]
//Background and Video events
Video,685,"kiski.mp4"
0,0,"Catgirls because I can.jpg",0,0
//Break Periods
//Storyboard Layer 0 (Background)
//Storyboard Layer 1 (Fail)
//Storyboard Layer 2 (Pass)
//Storyboard Layer 3 (Foreground)
//Storyboard Layer 4 (Overlay)
//Storyboard Sound Samples

[TimingPoints]
834,233.463035019455,4,2,1,40,1,0
15775,-100.0,4,2,1,40,0,1
22312,-100.0,4,2,1,40,0,0
23246,-100.0,4,2,1,40,0,1
27682,-100.0,4,2,1,40,0,0
27915,-100.0,4,2,1,40,0,1
28382,-100.0,4,2,1,40,0,0
28849,-100.0,4,2,1,40,0,1
29783,-100.0,4,2,1,40,0,0
60600,-100.0,4,2,1,40,0,1
67137,-100.0,4,2,1,40,0,0
68071,-100.0,4,2,1,40,0,1
72507,-100.0,4,2,1,40,0,0
72740,-100.0,4,2,1,40,0,1
73207,-100.0,4,2,1,40,0,0
73382,-100.0,4,2,1,40,0,1
73441,-100.0,4,2,1,40,0,0
73557,-100.0,4,2,1,40,0,1
74024,-100.0,4,2,1,40,0,0
74258,-100.0,4,2,1,40,0,1
74374,-100.0,4,2,1,40,0,0
78110,233.463035019455,4,2,1,40,1,0
84413,233.463035019455,4,2,1,40,1,0
100755,233.463035019455,4,2,1,40,1,0
115696,-100.0,4,2,1,40,0,1
119432,-100.0,4,2,1,40,0,0
123167,-100.0,4,2,1,40,0,1
126902,-100.0,4,2,1,40,0,0
130639,232.55814,4,2,1,40,1,0
130639,-100.0,4,2,1,40,0,1
131570,226.415094,4,2,1,40,1,0
131570,-103.092783505155,4,2,1,40,0,1
132475,220.588235,4,2,1,40,1,0
132475,-106.382978723404,4,2,1,40,0,1
132696,218.978102,4,2,1,40,1,0
132696,-106.382978723404,4,2,1,40,0,1
132915,216.606498,4,2,1,40,1,0
132915,-107.52688172043,4,2,1,40,0,1
133132,212.014134,4,2,1,40,1,0
133132,-109.89010989011,4,2,1,40,0,1
133344,206.896552,4,2,1,40,1,0
133344,-112.359550561798,4,2,1,40,0,1
134171,-112.359550561798,4,2,1,40,0,0

[HitObjects]
64,192,834,1,0,0:0:0:70:Ride.wav
448,192,834,1,0,0:0:0:0:
192,192,1067,1,0,0:0:0:0:
320,192,1300,1,0,0:0:0:0:
64,192,1534,1,0,0:0:0:0:
320,192,1767,1,0,0:0:0:70:Ride.wav
448,192,1767,1,0,0:0:0:0:
192,192,2001,1,0,0:0:0:0:
192,192,2468,1,0,0:0:0:0:
64,192,2701,1,0,0:0:0:70:Ride.wav
448,192,2701,1,0,0:0:0:0:
192,192,2935,1,0,0:0:0:0:
320,192,3168,1,0,0:0:0:0:
64,192,3402,1,0,0:0:0:0:
192,192,3635,1,0,0:0:0:70:Ride.wav
448,192,3635,1,0,0:0:0:0:
320,192,3869,1,0,0:0:0:0:
320,192,4102,1,0,0:0:0:0:
64,192,4335,1,0,0:0:0:0:
192,192,4569,1,0,0:0:0:70:Ride.wav
448,192,4569,1,0,0:0:0:0:
320,192,4802,1,0,0:0:0:0:
448,192,5036,1,0,0:0:0:0:
192,192,5269,1,0,0:0:0:0:
64,192,5503,1,0,0:0:0:70:Ride.wav
320,192,5503,1,0,0:0:0:0:
448,192,5736,1,0,0:0:0:0:
320,192,6203,1,0,0:0:0:0:
64,192,6437,1,0,0:0:0:70:Ride.wav
192,192,6437,1,0,0:0:0:0:
448,192,6670,1,0,0:0:0:0:
320,192,6904,1,0,0:0:0:0:
192,192,7137,1,0,0:0:0:0:
192,192,7837,1,0,0:0:0:0:
64,192,8071,1,0,0:0:0:0:
320,192,8304,1,2,0:0:0:0:
448,192,8304,1,0,0:0:0:70:Ride.wav
192,192,8538,1,0,0:0:0:0:
64,192,8771,1,0,0:0:0:0:
448,192,9005,1,0,0:0:0:0:
64,192,9238,1,0,0:0:0:70:Ride.wav
320,192,9238,1,0,0:0:0:0:
192,192,9472,1,0,0:0:0:0:
192,192,9939,1,0,0:0:0:0:
64,192,10172,1,0,0:0:0:70:Ride.wav
448,192,10172,1,0,0:0:0:0:
320,192,10405,1,0,0:0:0:0:
192,192,10639,1,0,0:0:0:0:
320,192,10872,1,0,0:0:0:0:
64,192,11106,1,0,0:0:0:70:Ride.wav
448,192,11106,1,0,0:0:0:0:
192,192,11339,1,0,0:0:0:0:
320,192,11573,1,0,0:0:0:0:
320,192,12040,1,0,0:0:0:70:Ride.wav
448,192,12040,1,0,0:0:0:0:
64,192,12273,1,0,0:0:0:0:
192,192,12507,1,0,0:0:0:0:
320,192,12740,1,0,0:0:0:0:
64,192,12974,1,0,0:0:0:70:Ride.wav
192,192,12974,1,0,0:0:0:0:
448,192,13207,1,0,0:0:0:0:
320,192,13441,1,0,0:0:0:0:
64,192,13674,1,0,0:0:0:0:
192,192,13907,1,0,0:0:0:70:Ride.wav
448,192,13907,1,0,0:0:0:0:
320,192,14141,1,0,0:0:0:0:
448,192,14374,1,0,0:0:0:0:
192,192,14608,1,0,0:0:0:0:
320,192,14841,1,0,0:0:0:0:
64,192,15075,1,0,0:0:0:0:
448,192,15133,1,0,0:0:0:0:
192,192,15308,128,0,15775:0:0:0:0:
64,192,15775,1,2,0:0:0:0:
448,192,15775,1,4,0:0:0:0:
320,192,16009,1,2,0:0:0:0:
192,192,16125,1,2,0:0:0:0:
64,192,16242,1,2,0:0:0:0:
448,192,16476,1,2,0:0:0:0:
320,192,16592,1,2,0:0:0:0:
64,192,16709,1,2,0:0:0:0:
192,192,16942,1,2,0:0:0:0:
448,192,17059,1,2,0:0:0:0:
320,192,17176,1,2,0:0:0:0:
64,192,17293,1,2,0:0:0:0:
192,192,17409,1,2,0:0:0:0:
448,192,17526,1,2,0:0:0:0:
64,192,17643,1,2,0:0:0:0:
320,192,17876,1,2,0:0:0:0:
192,192,17993,1,2,0:0:0:0:
448,192,18110,1,2,0:0:0:0:
64,192,18343,1,2,0:0:0:0:
192,192,18460,1,2,0:0:0:0:
320,192,18577,1,2,0:0:0:0:
64,192,18693,1,2,0:0:0:0:
448,192,18810,1,2,0:0:0:0:
192,192,18927,1,2,0:0:0:0:
320,192,19044,1,2,0:0:0:0:
448,192,19160,1,2,0:0:0:0:
64,192,19277,1,2,0:0:0:0:
320,192,19394,1,2,0:0:0:0:
192,192,19511,1,2,0:0:0:0:
448,192,19511,1,4,0:0:0:0:
64,192,19744,1,2,0:0:0:0:
192,192,19861,1,2,0:0:0:0:
448,192,19977,1,2,0:0:0:0:
192,192,20211,1,2,0:0:0:0:
320,192,20328,1,2,0:0:0:0:
64,192,20444,1,2,0:0:0:0:
320,192,20678,1,2,0:0:0:0:
192,192,20795,1,2,0:0:0:0:
448,192,20911,1,2,0:0:0:0:
64,192,21028,1,2,0:0:0:0:
192,192,21145,1,2,0:0:0:0:
320,192,21262,1,2,0:0:0:0:
64,192,21378,1,2,0:0:0:0:
448,192,21612,1,2,0:0:0:0:
320,192,21728,1,2,0:0:0:0:
64,192,21845,1,2,0:0:0:0:
192,192,22079,1,2,0:0:0:0:
320,192,22195,1,2,0:0:0:0:
64,192,22312,1,2,0:0:0:0:
448,192,22312,1,0,0:0:0:0:
64,192,22546,1,2,0:0:0:0:
192,192,22546,1,0,0:0:0:0:
192,192,22779,1,2,0:0:0:0:
320,192,22779,1,0,0:0:0:0:
64,192,23012,128,0,23246:0:0:0:0:
448,192,23012,128,0,23246:0:0:0:0:
192,192,23246,1,4,0:0:0:0:
320,192,23246,1,2,0:0:0:0:
64,192,23479,1,2,0:0:0:0:
448,192,23596,1,2,0:0:0:0:
320,192,23713,1,2,0:0:0:0:
64,192,23946,1,2,0:0:0:0:
192,192,24063,1,2,0:0:0:0:
448,192,24180,1,2,0:0:0:0:
320,192,24413,1,2,0:0:0:0:
64,192,24530,1,2,0:0:0:0:
192,192,24647,1,2,0:0:0:0:
448,192,24763,1,2,0:0:0:0:
320,192,24880,1,2,0:0:0:0:
64,192,24997,1,2,0:0:0:0:
192,192,25114,1,2,0:0:0:0:
448,192,25347,1,2,0:0:0:0:
64,192,25464,1,2,0:0:0:0:
192,192,25581,1,2,0:0:0:0:
320,192,25814,1,2,0:0:0:0:
192,192,25931,1,2,0:0:0:0:
64,192,26048,1,2,0:0:0:0:
320,192,26164,1,2,0:0:0:0:
448,192,26281,1,2,0:0:0:0:
192,192,26398,1,2,0:0:0:0:
64,192,26514,1,2,0:0:0:0:
192,192,26631,1,2,0:0:0:0:
320,192,26748,1,2,0:0:0:0:
448,192,26865,1,2,0:0:0:0:
64,192,26981,1,2,0:0:0:0:
192,192,26981,1,4,0:0:0:0:
320,192,27215,1,2,0:0:0:0:
64,192,27332,1,2,0:0:0:0:
192,192,27448,1,2,0:0:0:0:
448,192,27682,128,0,27915:0:0:0:0:
64,192,27915,1,2,0:0:0:0:
192,192,27915,1,4,0:0:0:0:
320,192,28149,1,2,0:0:0:0:
448,192,28265,1,2,0:0:0:0:
64,192,28382,1,0,0:0:0:0:
320,192,28616,1,0,0:0:0:0:
64,192,28849,1,2,0:0:0:0:
448,192,28849,1,4,0:0:0:0:
192,192,28966,1,2,0:0:0:0:
320,192,29083,1,0,0:0:0:0:
448,192,29199,1,2,0:0:0:0:
64,192,29316,1,2,0:0:0:0:
192,192,29433,1,2,0:0:0:0:
320,192,29549,1,0,0:0:0:0:
448,192,29666,1,2,0:0:0:0:
64,192,29783,1,2,0:0:0:0:
192,192,29783,1,0,0:0:0:0:
320,192,30717,1,2,0:0:0:0:
448,192,30717,1,4,0:0:0:0:
64,192,30950,1,2,0:0:0:0:
320,192,30950,1,0,0:0:0:0:
64,192,31184,1,2,0:0:0:0:
320,192,31184,1,0,0:0:0:0:
192,192,31417,1,2,0:0:0:0:
448,192,31417,1,0,0:0:0:0:
64,192,31651,1,2,0:0:0:0:
448,192,31651,1,0,0:0:0:0:
192,192,31884,1,2,0:0:0:0:
320,192,31884,1,0,0:0:0:0:
192,192,32118,1,2,0:0:0:0:
320,192,32118,1,0,0:0:0:0:
192,192,32351,1,2,0:0:0:0:
448,192,32351,1,0,0:0:0:0:
320,192,32468,1,2,0:0:0:0:
64,192,32584,1,2,0:0:0:0:
448,192,32584,1,0,0:0:0:0:
64,192,32818,1,2,0:0:0:0:
192,192,32818,1,0,0:0:0:0:
192,192,33051,1,2,0:0:0:0:
448,192,33051,1,0,0:0:0:0:
320,192,33285,1,2,0:0:0:0:
448,192,33285,1,0,0:0:0:0:
64,192,33518,1,2,0:0:0:0:
320,192,33518,1,0,0:0:0:0:
192,192,33752,128,2,33985:0:0:0:0:
320,192,33985,1,2,0:0:0:0:
448,192,33985,1,0,0:0:0:0:
64,192,34102,1,2,0:0:0:0:
192,192,34219,1,2,0:0:0:0:
320,192,34219,1,0,0:0:0:0:
192,192,34452,1,2,0:0:0:0:
448,192,34452,1,0,0:0:0:0:
64,192,34686,1,2,0:0:0:0:
448,192,34686,1,0,0:0:0:0:
64,192,34919,1,2,0:0:0:0:
192,192,34919,1,0,0:0:0:0:
192,192,35153,1,2,0:0:0:0:
448,192,35153,1,0,0:0:0:0:
320,192,35386,1,2,0:0:0:0:
448,192,35386,1,0,0:0:0:0:
64,192,35619,1,2,0:0:0:0:
320,192,35619,1,0,0:0:0:0:
64,192,35853,1,2,0:0:0:0:
448,192,35853,1,0,0:0:0:0:
192,192,36086,1,2,0:0:0:0:
448,192,36086,1,0,0:0:0:0:
320,192,36203,1,2,0:0:0:0:
64,192,36320,1,2,0:0:0:0:
192,192,36320,1,0,0:0:0:0:
64,192,36553,1,2,0:0:0:0:
448,192,36553,1,0,0:0:0:0:
320,192,36787,1,2,0:0:0:0:
448,192,36787,1,0,0:0:0:0:
192,192,37020,1,2,0:0:0:0:
320,192,37020,1,0,0:0:0:0:
64,192,37254,128,2,37487:0:0:0:0:
320,192,37487,1,0,0:0:0:0:
192,192,37604,1,2,0:0:0:0:
448,192,37721,128,2,37954:0:0:0:0:
320,192,37954,128,0,38188:0:0:0:0:
64,192,38188,1,2,0:0:0:0:
192,192,38188,1,4,0:0:0:0:
64,192,38538,1,2,0:0:0:0:
448,192,38538,1,0,0:0:0:0:
320,192,38888,1,2,0:0:0:0:
448,192,38888,1,0,0:0:0:0:
64,192,39238,1,2,0:0:0:0:
320,192,39238,1,0,0:0:0:0:
64,192,39588,1,2,0:0:0:0:
192,192,39588,1,0,0:0:0:0:
320,192,40055,1,2,0:0:0:0:
448,192,40055,1,4,0:0:0:0:
192,192,40289,1,2,0:0:0:0:
320,192,40289,1,0,0:0:0:0:
64,192,40522,1,2,0:0:0:0:
192,192,40522,1,0,0:0:0:0:
64,192,40756,1,2,0:0:0:0:
448,192,40756,1,0,0:0:0:0:
192,192,40989,1,2,0:0:0:0:
448,192,40989,1,0,0:0:0:0:
320,192,41223,128,2,41456:0:0:0:0:
64,192,41456,1,2,0:0:0:0:
192,192,41456,1,0,0:0:0:0:
448,192,41573,1,2,0:0:0:0:
192,192,41690,1,2,0:0:0:0:
320,192,41690,1,0,0:0:0:0:
64,192,41923,1,2,0:0:0:0:
320,192,41923,1,0,0:0:0:0:
64,192,42156,1,2,0:0:0:0:
192,192,42156,1,0,0:0:0:0:
192,192,42390,1,2,0:0:0:0:
448,192,42390,1,0,0:0:0:0:
320,192,42507,1,2,0:0:0:0:
64,192,42623,1,2,0:0:0:0:
448,192,42623,1,0,0:0:0:0:
192,192,42740,1,2,0:0:0:0:
64,192,42857,128,2,43090:0:0:0:0:
320,192,42857,1,0,0:0:0:0:
192,192,43090,128,2,43324:0:0:0:0:
320,192,43324,128,2,43557:0:0:0:0:
448,192,43557,128,2,43791:0:0:0:0:
64,192,43791,1,0,0:0:0:70:Ride.wav
448,192,44725,1,0,0:0:0:70:Ride.wav
192,192,45658,1,2,0:0:0:0:
320,192,45658,1,0,0:0:0:0:
64,192,45892,1,0,0:0:0:0:
320,192,46009,1,0,0:0:0:0:
448,192,46359,1,0,0:0:0:0:
64,192,46592,1,0,0:0:0:0:
192,192,46592,1,0,0:0:0:0:
320,192,46826,1,0,0:0:0:0:
192,192,47059,1,0,0:0:0:0:
448,192,47176,1,0,0:0:0:0:
320,192,47293,1,0,0:0:0:0:
192,192,47409,1,0,0:0:0:0:
64,192,47526,1,2,0:0:0:0:
448,192,47526,1,0,0:0:0:0:
320,192,47760,1,0,0:0:0:0:
64,192,47876,1,0,0:0:0:0:
192,192,48226,1,2,0:0:0:0:
448,192,48226,1,0,0:0:0:0:
64,192,48460,1,0,0:0:0:0:
320,192,48460,1,0,0:0:0:0:
192,192,48693,1,0,0:0:0:0:
448,192,48927,1,0,0:0:0:0:
320,192,49044,1,0,0:0:0:0:
64,192,49160,1,0,0:0:0:0:
320,192,49277,1,0,0:0:0:0:
192,192,49394,1,2,0:0:0:0:
448,192,49394,1,0,0:0:0:0:
320,192,49627,1,0,0:0:0:0:
64,192,49744,1,0,0:0:0:0:
192,192,50094,1,0,0:0:0:0:
64,192,50328,1,0,0:0:0:0:
448,192,50328,1,0,0:0:0:0:
320,192,50561,1,0,0:0:0:0:
192,192,50795,1,0,0:0:0:0:
448,192,50911,1,0,0:0:0:0:
64,192,51028,1,0,0:0:0:0:
320,192,51145,1,0,0:0:0:0:
64,192,51262,1,2,0:0:0:0:
192,192,51262,1,0,0:0:0:0:
448,192,51495,1,0,0:0:0:0:
64,192,51612,1,0,0:0:0:0:
192,192,51962,1,0,0:0:0:0:
64,192,52195,1,0,0:0:0:0:
448,192,52195,1,0,0:0:0:0:
192,192,52429,1,0,0:0:0:0:
320,192,52662,1,0,0:0:0:0:
448,192,52779,1,0,0:0:0:0:
64,192,52896,1,0,0:0:0:0:
448,192,53012,1,0,0:0:0:0:
192,192,53129,1,2,0:0:0:0:
320,192,53129,1,0,0:0:0:70:LR_Cymbal.wav
64,192,53479,1,2,0:0:0:0:
320,192,53479,1,0,0:0:0:70:LR_Cymbal.wav
64,192,53830,1,2,0:0:0:0:
192,192,53830,1,0,0:0:0:70:LR_Cymbal.wav
320,192,54297,128,0,54530:0:0:0:0:
448,192,54530,128,2,54647:0:0:0:0:
192,192,54647,128,0,54763:0:0:0:0:
64,192,54763,128,0,54997:0:0:0:0:
320,192,54997,1,2,0:0:0:0:
448,192,54997,1,0,0:0:0:70:LR_Cymbal.wav
64,192,55347,1,2,0:0:0:0:
448,192,55347,1,0,0:0:0:70:LR_Cymbal.wav
64,192,55697,1,2,0:0:0:0:
192,192,55697,1,0,0:0:0:70:LR_Cymbal.wav
320,192,56164,128,0,56398:0:0:0:0:
448,192,56398,128,2,56514:0:0:0:0:
192,192,56514,128,0,56631:0:0:0:0:
64,192,56631,128,0,56865:0:0:0:0:
320,192,56865,1,2,0:0:0:0:
448,192,56865,1,0,0:0:0:70:LR_Cymbal.wav
192,192,57565,1,2,0:0:0:0:
320,192,57565,1,0,0:0:0:0:
192,192,57798,1,2,0:0:0:0:
448,192,57798,1,0,0:0:0:70:LR_Cymbal.wav
64,192,58265,128,0,58499:0:0:0:0:
320,192,58499,1,2,0:0:0:0:
448,192,58499,1,0,0:0:0:0:
192,192,58732,1,2,0:0:0:0:
320,192,58732,1,0,0:0:0:70:LR_Cymbal.wav
448,192,58966,128,0,59199:0:0:0:0:
64,192,59199,1,2,0:0:0:0:
320,192,59199,1,0,0:0:0:70:LR_Cymbal.wav
192,192,59433,128,0,59666:0:0:0:0:
320,192,59666,128,0,59900:0:0:0:0:
448,192,59900,128,0,60016:0:0:0:0:
64,192,60016,128,0,60133:0:0:0:0:
192,192,60133,128,0,60367:0:0:0:0:
448,192,60367,128,0,60600:0:0:0:0:
64,192,60600,1,2,0:0:0:0:
192,192,60600,1,4,0:0:0:0:
320,192,60833,1,2,0:0:0:0:
448,192,60833,1,0,0:0:0:0:
192,192,60950,1,0,0:0:0:0:
64,192,61184,1,0,0:0:0:0:
192,192,61300,1,2,0:0:0:0:
448,192,61300,1,0,0:0:0:0:
64,192,61534,1,2,0:0:0:0:
320,192,61534,1,0,0:0:0:0:
192,192,61651,1,0,0:0:0:0:
64,192,61767,1,2,0:0:0:0:
448,192,61767,1,0,0:0:0:0:
320,192,61884,1,0,0:0:0:0:
192,192,62001,1,2,0:0:0:0:
448,192,62001,1,0,0:0:0:0:
64,192,62234,1,2,0:0:0:0:
192,192,62234,1,0,0:0:0:0:
320,192,62351,1,2,0:0:0:0:
64,192,62468,1,2,0:0:0:0:
448,192,62468,1,0,0:0:0:0:
192,192,62701,1,2,0:0:0:0:
320,192,62701,1,0,0:0:0:0:
448,192,62818,1,0,0:0:0:0:
320,192,63051,1,0,0:0:0:0:
64,192,63168,1,2,0:0:0:0:
192,192,63168,1,0,0:0:0:0:
320,192,63402,1,2,0:0:0:0:
448,192,63402,1,0,0:0:0:0:
64,192,63518,1,0,0:0:0:0:
192,192,63635,128,2,63869:0:0:0:0:
448,192,63635,1,0,0:0:0:0:
64,192,63869,1,2,0:0:0:0:
320,192,63869,1,0,0:0:0:0:
448,192,63985,1,2,0:0:0:0:
64,192,64102,1,2,0:0:0:0:
192,192,64102,1,0,0:0:0:0:
320,192,64335,1,2,0:0:0:0:
448,192,64335,1,4,0:0:0:0:
64,192,64569,1,2,0:0:0:0:
448,192,64569,1,0,0:0:0:0:
192,192,64686,1,0,0:0:0:0:
448,192,64919,1,0,0:0:0:0:
64,192,65036,1,2,0:0:0:0:
320,192,65036,1,0,0:0:0:0:
192,192,65269,1,2,0:0:0:0:
320,192,65269,1,0,0:0:0:0:
448,192,65386,1,0,0:0:0:0:
64,192,65503,1,2,0:0:0:0:
192,192,65503,1,0,0:0:0:0:
320,192,65619,1,0,0:0:0:0:
64,192,65736,1,2,0:0:0:0:
448,192,65736,1,0,0:0:0:0:
192,192,65970,1,2,0:0:0:0:
448,192,65970,1,0,0:0:0:0:
320,192,66086,1,2,0:0:0:0:
64,192,66203,1,2,0:0:0:0:
192,192,66203,1,0,0:0:0:0:
320,192,66437,1,2,0:0:0:0:
448,192,66437,1,0,0:0:0:0:
192,192,66553,1,0,0:0:0:0:
64,192,66787,1,0,0:0:0:0:
192,192,66904,1,2,0:0:0:0:
448,192,66904,1,0,0:0:0:0:
64,192,67137,1,2,0:0:0:0:
320,192,67137,1,0,0:0:0:0:
320,192,68071,1,2,0:0:0:0:
448,192,68071,1,4,0:0:0:0:
64,192,68304,1,2,0:0:0:0:
192,192,68304,1,0,0:0:0:0:
320,192,68421,1,0,0:0:0:0:
64,192,68655,1,0,0:0:0:0:
192,192,68771,1,2,0:0:0:0:
320,192,68771,1,0,0:0:0:0:
64,192,69005,1,2,0:0:0:0:
448,192,69005,1,0,0:0:0:0:
320,192,69121,1,0,0:0:0:0:
64,192,69238,1,2,0:0:0:0:
192,192,69238,1,0,0:0:0:0:
448,192,69355,1,0,0:0:0:0:
192,192,69472,1,2,0:0:0:0:
320,192,69472,1,0,0:0:0:0:
64,192,69705,1,2,0:0:0:0:
448,192,69705,1,0,0:0:0:0:
192,192,69822,1,2,0:0:0:0:
320,192,69939,1,2,0:0:0:0:
448,192,69939,1,0,0:0:0:0:
64,192,70172,1,2,0:0:0:0:
320,192,70172,1,0,0:0:0:0:
192,192,70289,1,0,0:0:0:0:
320,192,70522,1,0,0:0:0:0:
64,192,70639,1,2,0:0:0:0:
448,192,70639,1,0,0:0:0:0:
192,192,70872,1,2,0:0:0:0:
320,192,70872,1,0,0:0:0:0:
64,192,70989,1,0,0:0:0:0:
320,192,71106,128,2,71339:0:0:0:0:
448,192,71106,1,0,0:0:0:0:
64,192,71339,1,2,0:0:0:0:
192,192,71339,1,0,0:0:0:0:
320,192,71573,1,2,0:0:0:0:
448,192,71573,1,0,0:0:0:0:
64,192,71806,1,2,0:0:0:0:
448,192,71806,1,4,0:0:0:0:
64,192,72040,1,2,0:0:0:0:
192,192,72040,1,0,0:0:0:0:
320,192,72156,1,0,0:0:0:0:
64,192,72390,1,0,0:0:0:0:
448,192,72507,1,2,0:0:0:0:
192,192,72740,1,2,0:0:0:0:
320,192,72740,1,0,0:0:0:0:
64,192,72857,1,0,0:0:0:0:
448,192,72974,1,0,0:0:0:0:
64,192,73090,1,0,0:0:0:0:
192,192,73557,1,2,0:0:0:0:
320,192,73557,1,0,0:0:0:0:
64,192,73732,1,2,0:0:0:0:
448,192,73732,1,0,0:0:0:0:
192,192,73907,1,2,0:0:0:0:
320,192,73907,1,0,0:0:0:0:
320,192,74258,1,2,0:0:0:0:
448,192,74258,1,8,0:0:0:0:
192,192,74608,1,0,0:0:0:0:
448,192,75075,1,0,0:0:0:0:
320,192,75162,1,0,0:0:0:0:
192,192,75250,1,0,0:0:0:0:
64,192,75600,1,0,0:0:0:0:
192,192,75688,1,0,0:0:0:0:
320,192,75775,1,0,0:0:0:0:
448,192,75863,1,0,0:0:0:0:
64,192,75979,128,0,77001:0:0:0:0:
320,192,78110,1,2,0:0:0:0:
448,192,78110,1,4,0:0:0:0:
192,192,78343,1,0,0:0:0:0:
320,192,78576,128,8,78810:0:0:0:0:
64,192,78810,128,0,79043:0:0:0:0:
320,192,79043,1,2,0:0:0:0:
192,192,79277,1,0,0:0:0:0:
64,192,79510,1,8,0:0:0:0:
448,192,79510,1,0,0:0:0:0:
192,192,79744,128,0,79977:0:0:0:0:
320,192,79977,128,0,80211:0:0:0:0:
64,192,80211,128,0,80444:0:0:0:0:
448,192,80444,128,0,80678:0:0:0:0:
320,192,80678,128,0,80911:0:0:0:0:
192,192,80911,128,0,81145:0:0:0:0:
64,192,81145,1,0,0:0:0:0:
448,192,81261,1,0,0:0:0:0:
320,192,81378,128,0,83012:0:0:0:0:
320,192,83946,1,0,0:0:0:0:
192,192,84180,1,0,0:0:0:0:
64,192,84413,1,2,0:0:0:0:
448,192,84413,1,8,0:0:0:0:
320,192,84646,1,0,0:0:0:0:
192,192,84879,1,0,0:0:0:0:
448,192,85113,1,0,0:0:0:0:
320,192,85230,1,0,0:0:0:0:
64,192,85463,1,0,0:0:0:0:
192,192,85697,1,0,0:0:0:0:
448,192,85813,1,0,0:0:0:0:
192,192,86047,1,0,0:0:0:0:
64,192,86280,1,0,0:0:0:0:
192,192,86514,1,0,0:0:0:0:
320,192,86747,1,0,0:0:0:0:
192,192,86981,1,0,0:0:0:0:
448,192,87097,1,0,0:0:0:0:
64,192,87331,1,0,0:0:0:0:
320,192,87564,1,0,0:0:0:0:
192,192,87681,1,0,0:0:0:0:
320,192,87914,1,0,0:0:0:0:
448,192,88148,1,0,0:0:0:0:
192,192,88381,1,0,0:0:0:0:
64,192,88615,1,0,0:0:0:0:
320,192,88848,1,0,0:0:0:0:
64,192,88965,1,0,0:0:0:0:
448,192,89198,1,0,0:0:0:0:
192,192,89315,1,0,0:0:0:0:
448,192,89432,1,0,0:0:0:0:
320,192,89549,1,0,0:0:0:0:
64,192,89782,1,0,0:0:0:0:
192,192,90016,1,0,0:0:0:0:
320,192,90249,1,0,0:0:0:0:
448,192,90366,1,0,0:0:0:0:
192,192,90483,1,0,0:0:0:0:
320,192,90716,128,0,91416:0:0:0:0:
64,192,91416,1,0,0:0:0:0:
192,192,91650,1,0,0:0:0:0:
320,192,91883,1,8,0:0:0:0:
448,192,91883,1,2,0:0:0:0:
64,192,92117,1,8,0:0:0:0:
448,192,92117,1,0,0:0:0:0:
64,192,92350,1,8,0:0:0:0:
192,192,92350,1,0,0:0:0:0:
192,192,92584,1,8,0:0:0:0:
320,192,92584,1,0,0:0:0:0:
448,192,92700,1,0,0:0:0:0:
64,192,92934,1,0,0:0:0:0:
192,192,93167,1,0,0:0:0:0:
64,192,93284,1,8,0:0:0:0:
320,192,93284,1,0,0:0:0:0:
320,192,93518,1,8,0:0:0:0:
448,192,93518,1,0,0:0:0:0:
192,192,93751,1,8,0:0:0:0:
448,192,93751,1,2,0:0:0:0:
64,192,93984,1,8,0:0:0:0:
192,192,93984,1,0,0:0:0:0:
320,192,94218,1,8,0:0:0:0:
448,192,94218,1,0,0:0:0:0:
192,192,94451,1,8,0:0:0:0:
448,192,94451,1,0,0:0:0:0:
64,192,94568,1,0,0:0:0:0:
192,192,94802,1,0,0:0:0:0:
320,192,94918,1,8,0:0:0:0:
448,192,94918,1,0,0:0:0:0:
64,192,95035,1,0,0:0:0:0:
192,192,95152,1,8,0:0:0:0:
320,192,95152,128,0,95619:0:0:0:0:
64,192,95619,1,8,0:0:0:0:
448,192,95619,1,2,0:0:0:0:
192,192,95735,1,8,0:0:0:0:
320,192,95852,1,8,0:0:0:0:
448,192,95969,1,8,0:0:0:0:
64,192,96086,1,8,0:0:0:0:
192,192,96086,1,2,0:0:0:0:
320,192,96202,1,8,0:0:0:0:
448,192,96319,1,8,0:0:0:0:
64,192,96436,1,8,0:0:0:0:
192,192,96553,1,8,0:0:0:0:
320,192,96553,1,2,0:0:0:0:
448,192,96669,1,8,0:0:0:0:
64,192,96786,1,8,0:0:0:0:
192,192,96903,1,8,0:0:0:0:
320,192,97020,1,8,0:0:0:0:
448,192,97020,1,2,0:0:0:0:
64,192,97136,1,8,0:0:0:0:
192,192,97253,1,8,0:0:0:0:
320,192,97370,1,8,0:0:0:0:
64,192,97486,128,8,97953:0:0:0:0:
448,192,97486,1,2,0:0:0:0:
192,192,97953,128,8,98420:0:0:0:0:
448,192,98420,1,0,0:0:0:0:
320,192,98654,1,0,0:0:0:0:
64,192,98887,1,0,0:0:0:0:
192,192,98887,1,0,0:0:0:0:
192,192,100755,1,4,0:0:0:0:
320,192,100755,1,2,0:0:0:0:
192,192,100988,1,2,0:0:0:0:
448,192,100988,1,0,0:0:0:0:
64,192,101221,1,2,0:0:0:0:
448,192,101221,1,0,0:0:0:0:
64,192,101455,1,2,0:0:0:0:
192,192,101455,1,0,0:0:0:0:
192,192,101688,1,2,0:0:0:0:
320,192,101688,1,0,0:0:0:0:
64,192,101922,1,2,0:0:0:0:
320,192,101922,1,0,0:0:0:0:
64,192,102155,1,2,0:0:0:0:
448,192,102155,1,0,0:0:0:0:
320,192,102389,1,2,0:0:0:0:
448,192,102389,1,0,0:0:0:0:
192,192,102505,1,2,0:0:0:0:
64,192,102622,1,2,0:0:0:0:
320,192,102622,1,0,0:0:0:0:
64,192,102856,1,2,0:0:0:0:
448,192,102856,1,0,0:0:0:0:
320,192,103089,1,2,0:0:0:0:
448,192,103089,1,0,0:0:0:0:
64,192,103323,1,2,0:0:0:0:
320,192,103323,1,0,0:0:0:0:
64,192,103556,1,2,0:0:0:0:
192,192,103556,1,0,0:0:0:0:
448,192,103790,128,2,104023:0:0:0:0:
192,192,104023,1,2,0:0:0:0:
320,192,104023,1,0,0:0:0:0:
64,192,104140,1,2,0:0:0:0:
320,192,104256,1,2,0:0:0:0:
448,192,104256,1,0,0:0:0:0:
64,192,104490,1,2,0:0:0:0:
448,192,104490,1,0,0:0:0:0:
64,192,104723,1,2,0:0:0:0:
320,192,104723,1,0,0:0:0:0:
320,192,104957,1,2,0:0:0:0:
448,192,104957,1,0,0:0:0:0:
64,192,105190,1,2,0:0:0:0:
448,192,105190,1,0,0:0:0:0:
192,192,105307,1,0,0:0:0:0:
64,192,105540,1,0,0:0:0:0:
192,192,105657,1,2,0:0:0:0:
320,192,105657,1,0,0:0:0:0:
448,192,105774,1,0,0:0:0:0:
64,192,105891,1,2,0:0:0:0:
320,192,105891,1,0,0:0:0:0:
192,192,106124,1,2,0:0:0:0:
448,192,106124,1,0,0:0:0:0:
64,192,106241,1,2,0:0:0:0:
320,192,106358,1,2,0:0:0:0:
448,192,106358,1,0,0:0:0:0:
64,192,106591,1,2,0:0:0:0:
320,192,106591,1,0,0:0:0:0:
192,192,106708,1,0,0:0:0:0:
320,192,106825,1,2,0:0:0:0:
448,192,106825,1,0,0:0:0:0:
64,192,107058,1,2,0:0:0:0:
448,192,107058,1,0,0:0:0:0:
64,192,107291,1,2,0:0:0:0:
192,192,107291,1,0,0:0:0:0:
64,192,107525,1,2,0:0:0:0:
192,192,107525,1,0,0:0:0:0:
320,192,107758,1,2,0:0:0:0:
448,192,107758,1,0,0:0:0:0:
320,192,107992,1,2,0:0:0:0:
448,192,107992,1,0,0:0:0:0:
192,192,108225,1,2,0:0:0:0:
448,192,108225,1,4,0:0:0:0:
192,192,108459,1,2,0:0:0:0:
320,192,108459,1,0,0:0:0:0:
64,192,108692,1,2,0:0:0:0:
320,192,108692,1,0,0:0:0:0:
64,192,108926,1,2,0:0:0:0:
448,192,108926,1,0,0:0:0:0:
192,192,109159,1,2,0:0:0:0:
448,192,109159,1,0,0:0:0:0:
64,192,109393,1,2,0:0:0:0:
192,192,109393,1,0,0:0:0:0:
64,192,109626,1,2,0:0:0:0:
448,192,109626,1,0,0:0:0:0:
320,192,109860,1,2,0:0:0:0:
448,192,109860,1,0,0:0:0:0:
192,192,109976,1,2,0:0:0:0:
64,192,110093,1,2,0:0:0:0:
320,192,110093,1,0,0:0:0:0:
64,192,110326,1,2,0:0:0:0:
448,192,110326,1,0,0:0:0:0:
192,192,110560,1,2,0:0:0:0:
448,192,110560,1,0,0:0:0:0:
192,192,110793,1,2,0:0:0:0:
320,192,110793,1,0,0:0:0:0:
64,192,111027,1,2,0:0:0:0:
320,192,111027,1,0,0:0:0:0:
448,192,111260,128,2,111494:0:0:0:0:
192,192,111494,1,2,0:0:0:0:
320,192,111494,1,0,0:0:0:0:
64,192,111611,1,2,0:0:0:0:
320,192,111727,1,2,0:0:0:0:
448,192,111727,1,0,0:0:0:0:
64,192,111961,1,2,0:0:0:0:
448,192,111961,1,0,0:0:0:0:
64,192,112194,1,2,0:0:0:0:
192,192,112194,1,0,0:0:0:0:
192,192,112428,1,2,0:0:0:0:
448,192,112428,1,0,0:0:0:0:
320,192,112661,1,2,0:0:0:0:
448,192,112661,1,0,0:0:0:0:
64,192,112778,1,0,0:0:0:0:
320,192,113011,1,0,0:0:0:0:
64,192,113128,1,2,0:0:0:0:
192,192,113128,1,0,0:0:0:0:
448,192,113245,1,0,0:0:0:0:
192,192,113362,1,2,0:0:0:0:
320,192,113362,1,0,0:0:0:0:
64,192,113478,1,0,0:0:0:0:
320,192,113595,1,2,0:0:0:0:
448,192,113595,1,0,0:0:0:0:
192,192,113712,1,2,0:0:0:0:
64,192,113945,1,0,0:0:0:0:
192,192,114062,1,2,0:0:0:0:
448,192,114062,1,0,0:0:0:0:
320,192,114179,1,0,0:0:0:0:
64,192,114295,1,2,0:0:0:0:
448,192,114295,1,0,0:0:0:0:
192,192,114412,1,0,0:0:0:0:
320,192,114529,1,2,0:0:0:0:
448,192,114529,1,0,0:0:0:0:
64,192,114646,1,0,0:0:0:0:
192,192,114762,128,0,115696:0:0:0:0:
320,192,114996,1,0,0:0:0:0:
448,192,115229,1,0,0:0:0:0:
320,192,115463,1,0,0:0:0:0:
64,192,115696,1,2,0:0:0:0:
448,192,115696,1,4,0:0:0:0:
320,192,115813,1,2,0:0:0:0:
192,192,115930,1,2,0:0:0:0:
64,192,116046,1,2,0:0:0:0:
448,192,116163,1,2,0:0:0:0:
192,192,116280,1,2,0:0:0:0:
320,192,116397,128,2,116630:0:0:0:0:
64,192,116513,1,2,0:0:0:0:
448,192,116630,1,2,0:0:0:0:
192,192,116747,1,2,0:0:0:0:
320,192,116980,1,2,0:0:0:0:
64,192,117097,1,2,0:0:0:0:
320,192,117330,128,2,117564:0:0:0:0:
64,192,117447,1,2,0:0:0:0:
448,192,117564,1,2,0:0:0:0:
192,192,117681,1,2,0:0:0:0:
320,192,117797,1,2,0:0:0:0:
64,192,117914,1,2,0:0:0:0:
192,192,118031,1,2,0:0:0:0:
448,192,118147,1,2,0:0:0:0:
320,192,118264,128,2,118498:0:0:0:0:
64,192,118381,1,2,0:0:0:0:
448,192,118498,1,2,0:0:0:0:
192,192,118614,1,2,0:0:0:0:
64,192,118731,128,2,118965:0:0:0:0:
448,192,118848,1,2,0:0:0:0:
320,192,118965,1,2,0:0:0:0:
192,192,119198,128,2,119432:0:0:0:0:
64,192,119432,1,2,0:0:0:0:
320,192,119432,1,4,0:0:0:0:
448,192,119665,1,2,0:0:0:0:
64,192,119898,1,2,0:0:0:0:
192,192,120132,128,2,120365:0:0:0:0:
320,192,120249,1,2,0:0:0:0:
64,192,120482,1,2,0:0:0:0:
448,192,120599,1,2,0:0:0:0:
320,192,120716,1,2,0:0:0:0:
192,192,120832,1,2,0:0:0:0:
320,192,121066,128,2,121299:0:0:0:0:
64,192,121299,1,2,0:0:0:0:
192,192,121416,1,2,0:0:0:0:
448,192,121533,1,2,0:0:0:0:
64,192,121649,1,2,0:0:0:0:
320,192,121766,1,2,0:0:0:0:
64,192,122000,128,2,122233:0:0:0:0:
448,192,122233,128,0,122700:0:0:0:0:
192,192,122700,128,0,122933:0:0:0:0:
64,192,122933,128,0,123167:0:0:0:0:
320,192,123167,1,2,0:0:0:0:
448,192,123167,1,4,0:0:0:0:
192,192,123284,1,2,0:0:0:0:
320,192,123400,1,2,0:0:0:0:
64,192,123517,1,2,0:0:0:0:
448,192,123634,1,2,0:0:0:0:
320,192,123751,1,2,0:0:0:0:
192,192,123867,128,2,124101:0:0:0:0:
64,192,123984,1,2,0:0:0:0:
448,192,124101,1,2,0:0:0:0:
320,192,124218,1,2,0:0:0:0:
192,192,124451,1,2,0:0:0:0:
448,192,124568,1,2,0:0:0:0:
64,192,124801,128,2,125035:0:0:0:0:
320,192,124918,1,2,0:0:0:0:
192,192,125035,1,6,0:0:0:0:
448,192,125151,1,2,0:0:0:0:
320,192,125268,1,2,0:0:0:0:
192,192,125385,1,2,0:0:0:0:
64,192,125502,1,2,0:0:0:0:
320,192,125618,1,2,0:0:0:0:
448,192,125735,128,2,125969:0:0:0:0:
64,192,125852,1,2,0:0:0:0:
320,192,126085,1,2,0:0:0:0:
64,192,126202,1,2,0:0:0:0:
448,192,126319,1,2,0:0:0:0:
192,192,126435,128,2,126902:0:0:0:0:
320,192,126669,1,2,0:0:0:0:
64,192,126902,1,2,0:0:0:0:
448,192,126902,1,4,0:0:0:0:
192,192,127136,1,2,0:0:0:0:
448,192,127369,1,2,0:0:0:0:
320,192,127603,128,2,127836:0:0:0:0:
64,192,127719,1,2,0:0:0:0:
192,192,127953,1,2,0:0:0:0:
320,192,128070,1,2,0:0:0:0:
448,192,128186,1,2,0:0:0:0:
64,192,128303,1,2,0:0:0:0:
192,192,128420,1,2,0:0:0:0:
448,192,128537,128,2,128770:0:0:0:0:
64,192,128653,1,2,0:0:0:0:
192,192,128887,1,2,0:0:0:0:
64,192,129004,1,0,0:0:0:0:
320,192,129120,1,2,0:0:0:0:
448,192,129237,1,6,0:0:0:0:
192,192,129354,1,2,0:0:0:0:
320,192,129470,1,0,0:0:0:0:
64,192,129587,1,2,0:0:0:0:
320,192,129704,1,2,0:0:0:0:
448,192,129704,1,4,0:0:0:0:
192,192,129937,1,0,0:0:0:0:
64,192,130171,128,0,130639:0:0:0:0:
320,192,130639,1,2,0:0:0:0:
448,192,130639,1,4,0:0:0:0:
192,192,130755,1,2,0:0:0:0:
64,192,130871,1,2,0:0:0:0:
448,192,130987,1,2,0:0:0:0:
320,192,131104,1,2,0:0:0:0:
192,192,131220,1,2,0:0:0:0:
64,192,131336,128,2,131452:0:0:0:0:
320,192,131452,1,2,0:0:0:0:
448,192,131570,1,2,0:0:0:0:
64,192,131683,1,2,0:0:0:0:
192,192,131796,1,2,0:0:0:0:
320,192,131909,1,2,0:0:0:0:
448,192,132022,1,2,0:0:0:0:
64,192,132136,128,2,132249:0:0:0:0:
192,192,132249,1,2,0:0:0:0:
448,192,132362,128,2,132475:0:0:0:0:
320,192,132475,1,2,0:0:0:0:
192,192,132585,1,2,0:0:0:0:
64,192,132696,128,2,132805:0:0:0:0:
320,192,132805,1,2,0:0:0:0:
448,192,132915,1,2,0:0:0:0:
192,192,133023,128,2,133132:0:0:0:0:
320,192,133132,128,2,133238:0:0:0:0:
64,192,133238,128,2,133344:0:0:0:0:
192,192,133344,1,2,0:0:0:0:
448,192,133344,1,0,0:0:0:0:
320,192,133550,1,8,0:0:0:0:
192,192,133654,1,8,0:0:0:0:
448,192,133757,1,8,0:0:0:0:
64,192,133861,1,8,0:0:0:0:
320,192,133964,1,8,0:0:0:0:
192,192,134068,1,8,0:0:0:0:
64,192,134171,1,2,0:0:0:0:
448,192,134171,1,4,0:0:0:0:
