osu file format v14

[General]
AudioFilename: audio.ogg
AudioLeadIn: 0
PreviewTime: 14841
Countdown: 0
SampleSet: Soft
StackLeniency: 0.7
Mode: 3
LetterboxInBreaks: 0
EpilepsyWarning: 1
SpecialStyle: 0
WidescreenStoryboard: 1

[Editor]
Bookmarks: 834,8304,12040,15775,23246,30717,38188,45658,53129,60600,71806,78110,83946,91884,100756,115697,130639
DistanceSpacing: 1.6
BeatDivisor: 4
GridSize: 16
TimelineZoom: 1.2

[Metadata]
Title:QZKago Requiem
TitleUnicode:QZKago Requiem
Artist:t+pazolite
ArtistUnicode:t+pazolite
Creator:keksikosu
Version:BEGINNER
Source:maimai FiNALE
Tags:tpz t+pz tpazolite pazolite topazoraito c.h.s chs cutie & headshaking sounds 浜田知幸 hamada tomoyuki 百舌谷 mozuya くずかご kuzukago video game videogame music vg vgm instrumental electronic hardcore j-core jcore japanese core speedcore pandora boxxx plus maimai green garakuta doll play oshama scramble! sega all perfect collection オンゲキ ongeki R.E.D. memorial soundtrack CHUNITHM NEW PLUS!! O.N.G.E.K.I. YuanLiang Ainer Niko_Plays FLeVI Antipole Symmatrix- [Crz]Alleyne [RT]Alleyne Critical_Star
BeatmapID:4364059
BeatmapSetID:1997707

[Difficulty]
HPDrainRate:6
CircleSize:4
OverallDifficulty:6
ApproachRate:5
SliderMultiplier:1.4
SliderTickRate:1

[Events]
//Background and Video events
Video,685,"kiski.mp4"
0,0,"Catgirls because I can.jpg",0,0
//Break Periods
//Storyboard Layer 0 (Background)
//Storyboard Layer 1 (Fail)
//Storyboard Layer 2 (Pass)
//Storyboard Layer 3 (Foreground)
//Storyboard Layer 4 (Overlay)
//Storyboard Sound Samples
Sample,8304,0,"Ride.wav",70
Sample,53129,0,"LR_Cymbal.wav",70
Sample,53830,0,"LR_Cymbal.wav",70
Sample,54997,0,"LR_Cymbal.wav",70
Sample,55697,0,"LR_Cymbal.wav",70
Sample,56865,0,"LR_Cymbal.wav",70
Sample,57798,0,"LR_Cymbal.wav",70
Sample,58732,0,"LR_Cymbal.wav",70
Sample,59199,0,"LR_Cymbal.wav",70

[TimingPoints]
834,233.463035019455,4,2,1,40,1,0
15775,-100.0,4,2,1,40,0,1
22312,-100.0,4,2,1,40,0,0
23246,-100.0,4,2,1,40,0,1
27682,-100.0,4,2,1,40,0,0
27915,-100.0,4,2,1,40,0,1
28382,-100.0,4,2,1,40,0,0
28849,-100.0,4,2,1,40,0,1
29783,-100.0,4,2,1,40,0,0
60600,-100.0,4,2,1,40,0,1
67137,-100.0,4,2,1,40,0,0
68071,-100.0,4,2,1,40,0,1
72507,-100.0,4,2,1,40,0,0
72740,-100.0,4,2,1,40,0,1
73207,-100.0,4,2,1,40,0,0
73382,-100.0,4,2,1,40,0,1
73441,-100.0,4,2,1,40,0,0
73557,-100.0,4,2,1,40,0,1
74024,-100.0,4,2,1,40,0,0
74258,-100.0,4,2,1,40,0,1
74374,-100.0,4,2,1,40,0,0
78110,233.463035019455,4,2,1,40,1,0
84413,233.463035019455,4,2,1,40,1,0
100755,233.463035019455,4,2,1,40,1,0
115696,-100.0,4,2,1,40,0,1
119432,-100.0,4,2,1,40,0,0
123167,-100.0,4,2,1,40,0,1
126902,-100.0,4,2,1,40,0,0
130639,232.55814,4,2,1,40,1,0
130639,-100.0,4,2,1,40,0,1
131570,226.415094,4,2,1,40,1,0
131570,-103.092783505155,4,2,1,40,0,1
132475,220.588235,4,2,1,40,1,0
132475,-106.382978723404,4,2,1,40,0,1
132696,218.978102,4,2,1,40,1,0
132696,-106.382978723404,4,2,1,40,0,1
132915,216.606498,4,2,1,40,1,0
132915,-107.52688172043,4,2,1,40,0,1
133132,212.014134,4,2,1,40,1,0
133132,-109.89010989011,4,2,1,40,0,1
133344,206.896552,4,2,1,40,1,0
133344,-112.359550561798,4,2,1,40,0,1
134171,-112.359550561798,4,2,1,40,0,0

[HitObjects]
64,192,834,128,0,1767:0:0:0:70:Ride.wav
320,192,1767,128,0,2701:0:0:0:70:Ride.wav
192,192,2701,128,0,3635:0:0:0:70:Ride.wav
448,192,3635,128,0,4569:0:0:0:70:Ride.wav
64,192,4569,128,0,5503:0:0:0:70:Ride.wav
192,192,5503,128,0,6437:0:0:0:70:Ride.wav
320,192,6437,128,0,7370:0:0:0:70:Ride.wav
448,192,7370,1,0,0:0:0:0:
192,192,8304,128,2,9238:0:0:0:0:
448,192,9238,128,0,10172:0:0:0:70:Ride.wav
64,192,10172,128,0,11106:0:0:0:70:Ride.wav
320,192,11106,128,0,12040:0:0:0:70:Ride.wav
192,192,12040,128,0,12974:0:0:0:70:Ride.wav
64,192,12974,128,0,13907:0:0:0:70:Ride.wav
448,192,13907,128,0,14841:0:0:0:70:Ride.wav
320,192,14841,1,0,0:0:0:0:
192,192,15775,1,6,0:0:0:0:
192,192,16709,1,2,0:0:0:0:
448,192,17643,1,2,0:0:0:0:
448,192,18577,1,2,0:0:0:0:
64,192,19044,1,2,0:0:0:0:
320,192,19511,1,6,0:0:0:0:
320,192,20444,1,2,0:0:0:0:
64,192,21378,1,2,0:0:0:0:
64,192,22312,128,2,23246:0:0:0:0:
448,192,23246,1,6,0:0:0:0:
448,192,24180,1,2,0:0:0:0:
192,192,25114,1,2,0:0:0:0:
192,192,26048,1,2,0:0:0:0:
320,192,26514,1,2,0:0:0:0:
64,192,26981,1,6,0:0:0:0:
448,192,27915,1,6,0:0:0:0:
192,192,28849,128,6,29783:0:0:0:0:
320,192,29783,1,2,0:0:0:0:
64,192,30717,1,6,0:0:0:0:
192,192,31651,1,2,0:0:0:0:
448,192,32584,1,2,0:0:0:0:
320,192,33518,1,2,0:0:0:0:
64,192,33985,1,2,0:0:0:0:
448,192,34452,1,2,0:0:0:0:
192,192,35386,1,2,0:0:0:0:
320,192,36320,1,2,0:0:0:0:
64,192,37254,1,2,0:0:0:0:
192,192,37721,1,2,0:0:0:0:
320,192,38188,128,6,40055:0:0:0:0:
448,192,40055,1,6,0:0:0:0:
192,192,40989,1,2,0:0:0:0:
320,192,41456,1,2,0:0:0:0:
64,192,41923,1,2,0:0:0:0:
448,192,42857,128,2,43791:0:0:0:0:
192,192,43791,1,0,0:0:0:70:Ride.wav
320,192,44725,1,0,0:0:0:70:Ride.wav
64,192,45658,128,2,46592:0:0:0:0:
448,192,46592,1,0,0:0:0:0:
192,192,47526,128,2,48460:0:0:0:0:
320,192,48460,1,0,0:0:0:0:
448,192,49394,128,2,50328:0:0:0:0:
64,192,50328,1,0,0:0:0:0:
320,192,51262,128,2,52195:0:0:0:0:
192,192,52195,1,0,0:0:0:0:
64,192,53129,1,2,0:0:0:0:
64,192,53830,1,2,0:0:0:0:
448,192,54997,1,2,0:0:0:0:
448,192,55697,1,2,0:0:0:0:
192,192,56865,1,2,0:0:0:0:
320,192,57798,1,2,0:0:0:0:
192,192,58732,1,2,0:0:0:0:
320,192,59199,1,2,0:0:0:0:
64,192,60600,1,6,0:0:0:0:
320,192,61534,1,2,0:0:0:0:
192,192,62468,1,2,0:0:0:0:
448,192,63402,1,2,0:0:0:0:
320,192,63869,1,2,0:0:0:0:
192,192,64335,1,6,0:0:0:0:
448,192,65269,1,2,0:0:0:0:
64,192,66203,1,2,0:0:0:0:
192,192,67137,128,2,68071:0:0:0:0:
320,192,68071,1,6,0:0:0:0:
64,192,69005,1,2,0:0:0:0:
448,192,69939,1,2,0:0:0:0:
192,192,70872,1,2,0:0:0:0:
320,192,71339,1,2,0:0:0:0:
448,192,71806,1,6,0:0:0:0:
64,192,72740,1,2,0:0:0:0:
320,192,73557,1,2,0:0:0:0:
192,192,74258,128,10,75600:0:0:0:0:
448,192,75600,128,0,77001:0:0:0:0:
448,192,78110,1,6,0:0:0:0:
192,192,79043,1,2,0:0:0:0:
320,192,79510,128,8,81349:0:0:0:0:
64,192,81349,128,8,83012:0:0:0:0:
448,192,84413,128,10,85346:0:0:0:0:
192,192,85346,128,0,86280:0:0:0:0:
320,192,86280,128,0,87214:0:0:0:0:
64,192,87214,128,0,88148:0:0:0:0:
448,192,88148,128,0,89082:0:0:0:0:
192,192,89082,128,0,90016:0:0:0:0:
320,192,90016,128,0,90949:0:0:0:0:
64,192,90949,128,0,91883:0:0:0:0:
448,192,91883,1,10,0:0:0:0:
192,192,92817,1,8,0:0:0:0:
320,192,93751,1,10,0:0:0:0:
64,192,94685,1,8,0:0:0:0:
448,192,95619,1,10,0:0:0:0:
448,192,96086,1,10,0:0:0:0:
192,192,96553,1,10,0:0:0:0:
192,192,97020,1,10,0:0:0:0:
320,192,97486,128,10,98420:0:0:0:0:
64,192,98420,1,0,0:0:0:0:
448,192,98887,1,0,0:0:0:0:
320,192,100755,1,6,0:0:0:0:
320,192,101688,1,2,0:0:0:0:
64,192,102622,1,2,0:0:0:0:
64,192,103556,1,2,0:0:0:0:
320,192,104023,1,2,0:0:0:0:
192,192,104490,1,2,0:0:0:0:
448,192,105424,1,2,0:0:0:0:
64,192,106358,1,2,0:0:0:0:
320,192,107291,128,2,108225:0:0:0:0:
192,192,108225,1,6,0:0:0:0:
192,192,109159,1,2,0:0:0:0:
448,192,110093,1,2,0:0:0:0:
448,192,111027,1,2,0:0:0:0:
64,192,111494,1,2,0:0:0:0:
320,192,111961,1,2,0:0:0:0:
192,192,112895,1,2,0:0:0:0:
448,192,113828,1,2,0:0:0:0:
64,192,114762,128,0,115696:0:0:0:0:
320,192,115696,128,6,116630:0:0:0:0:
192,192,116630,1,2,0:0:0:0:
448,192,117564,128,2,118498:0:0:0:0:
64,192,118498,1,2,0:0:0:0:
320,192,118965,1,2,0:0:0:0:
192,192,119432,1,6,0:0:0:0:
448,192,120365,1,2,0:0:0:0:
64,192,121299,1,2,0:0:0:0:
320,192,122233,128,0,123167:0:0:0:0:
192,192,123167,128,6,124101:0:0:0:0:
448,192,124101,1,2,0:0:0:0:
64,192,125035,128,6,125969:0:0:0:0:
320,192,125969,1,2,0:0:0:0:
192,192,126435,1,2,0:0:0:0:
448,192,126902,128,6,127836:0:0:0:0:
320,192,127836,128,6,128770:0:0:0:0:
192,192,128770,128,6,129704:0:0:0:0:
448,192,129704,128,6,130639:0:0:0:0:
64,192,130639,128,2,133344:0:0:0:0:
192,192,130639,128,4,133344:0:0:0:0:
320,192,133344,1,2,0:0:0:0:
64,192,134171,1,2,0:0:0:0:
448,192,134171,1,4,0:0:0:0:
