osu file format v14

[General]
AudioFilename: audio.ogg
AudioLeadIn: 0
PreviewTime: 14841
Countdown: 0
SampleSet: Soft
StackLeniency: 0.7
Mode: 3
LetterboxInBreaks: 0
EpilepsyWarning: 1
SpecialStyle: 0
WidescreenStoryboard: 1

[Editor]
Bookmarks: 834,8304,12040,15775,23246,30717,38188,45658,53129,60600,71806,78110,83946,91884,100756,115697,130639
DistanceSpacing: 1.6
BeatDivisor: 8
GridSize: 16
TimelineZoom: 2.1

[Metadata]
Title:QZKago Requiem
TitleUnicode:QZKago Requiem
Artist:t+pazolite
ArtistUnicode:t+pazolite
Creator:keksikosu
Version:ALLEYNE'S MASTER
Source:maimai FiNALE
Tags:tpz t+pz tpazolite pazolite topazoraito c.h.s chs cutie & headshaking sounds 浜田知幸 hamada tomoyuki 百舌谷 mozuya くずかご kuzukago video game videogame music vg vgm instrumental electronic hardcore j-core jcore japanese core speedcore pandora boxxx plus maimai green garakuta doll play oshama scramble! sega all perfect collection オンゲキ ongeki R.E.D. memorial soundtrack CHUNITHM NEW PLUS!! O.N.G.E.K.I. YuanLiang Ainer Niko_Plays FLeVI Antipole Symmatrix- [Crz]Alleyne [RT]Alleyne Critical_Star
BeatmapID:4152215
BeatmapSetID:1997707

[Difficulty]
HPDrainRate:8
CircleSize:4
OverallDifficulty:8
ApproachRate:5
SliderMultiplier:1.4
SliderTickRate:1

[Events]
//Background and Video events
Video,685,"kiski.mp4"
0,0,"Catgirls because I can.jpg",0,0
//Break Periods
//Storyboard Layer 0 (Background)
//Storyboard Layer 1 (Fail)
//Storyboard Layer 2 (Pass)
//Storyboard Layer 3 (Foreground)
//Storyboard Layer 4 (Overlay)
//Storyboard Sound Samples

[TimingPoints]
834,233.463035019455,4,2,1,40,1,0
15775,-100,4,2,1,40,0,1
22312,-100,4,2,1,40,0,0
23246,-100,4,2,1,40,0,1
27682,-100,4,2,1,40,0,0
27915,-100,4,2,1,40,0,1
28382,-100,4,2,1,40,0,0
28849,-100,4,2,1,40,0,1
29783,-100,4,2,1,40,0,0
60600,-100,4,2,1,40,0,1
67137,-100,4,2,1,40,0,0
68071,-100,4,2,1,40,0,1
72507,-100,4,2,1,40,0,0
72740,-100,4,2,1,40,0,1
73207,-100,4,2,1,40,0,0
73382,-100,4,2,1,40,0,1
73441,-100,4,2,1,40,0,0
73557,-100,4,2,1,40,0,1
74024,-100,4,2,1,40,0,0
74258,-100,4,2,1,40,0,1
74374,-100,4,2,1,40,0,0
78110,233.463035019455,4,2,1,40,1,0
84413,233.463035019455,4,2,1,40,1,0
100755,233.463035019455,4,2,1,40,1,0
115696,-100,4,2,1,40,0,1
119432,-100,4,2,1,40,0,0
123167,-100,4,2,1,40,0,1
126902,-100,4,2,1,40,0,0
130639,232.55814,4,2,1,40,1,0
130639,-100,4,2,1,40,0,1
131570,226.415094,4,2,1,40,1,0
131570,-103.092783505155,4,2,1,40,0,1
132475,220.588235,4,2,1,40,1,0
132475,-106.382978723404,4,2,1,40,0,1
132696,218.978102,4,2,1,40,1,0
132696,-106.382978723404,4,2,1,40,0,1
132915,216.606498,4,2,1,40,1,0
132915,-107.52688172043,4,2,1,40,0,1
133132,212.014134,4,2,1,40,1,0
133132,-109.89010989011,4,2,1,40,0,1
133344,206.896552,4,2,1,40,1,0
133344,-112.359550561798,4,2,1,40,0,1
134171,-112.359550561798,4,2,1,40,0,0

[HitObjects]
64,192,834,128,0,1300:0:0:0:70:Ride.wav
192,192,834,1,0,0:0:0:0:
448,192,834,1,0,0:0:0:0:
320,192,1067,1,0,0:0:0:0:
192,192,1300,1,0,0:0:0:0:
448,192,1534,1,0,0:0:0:0:
64,192,1767,1,0,0:0:0:70:Ride.wav
192,192,1767,128,0,2234:0:0:0:0:
448,192,1767,1,0,0:0:0:0:
320,192,2001,128,0,2234:0:0:0:0:
320,192,2468,128,0,2701:0:0:0:0:
64,192,2701,1,0,0:0:0:70:Ride.wav
192,192,2701,1,0,0:0:0:0:
448,192,2701,128,0,3168:0:0:0:0:
64,192,2935,1,0,0:0:0:0:
320,192,3168,1,0,0:0:0:0:
64,192,3402,1,0,0:0:0:0:
64,192,3635,128,0,4102:0:0:0:70:Ride.wav
192,192,3635,1,0,0:0:0:0:
448,192,3635,1,0,0:0:0:0:
320,192,3869,1,0,0:0:0:0:
320,192,4102,1,0,0:0:0:0:
448,192,4335,1,0,0:0:0:0:
64,192,4569,1,0,0:0:0:70:Ride.wav
192,192,4569,128,0,5036:0:0:0:0:
448,192,4569,1,0,0:0:0:0:
320,192,4802,1,0,0:0:0:0:
64,192,5036,1,0,0:0:0:0:
320,192,5269,1,0,0:0:0:0:
64,192,5503,1,0,0:0:0:70:Ride.wav
192,192,5503,1,0,0:0:0:0:
320,192,5503,128,0,5970:0:0:0:0:
448,192,5736,128,0,5970:0:0:0:0:
192,192,6203,128,0,6437:0:0:0:0:
64,192,6437,128,0,6904:0:0:0:70:Ride.wav
320,192,6437,1,0,0:0:0:0:
448,192,6437,1,0,0:0:0:0:
192,192,6670,1,0,0:0:0:0:
320,192,6904,1,0,0:0:0:0:
64,192,7137,1,0,0:0:0:0:
448,192,7137,128,0,7837:0:0:0:0:
320,192,7370,128,0,7837:0:0:0:0:
64,192,7837,1,0,0:0:0:0:
192,192,8071,1,0,0:0:0:0:
192,192,8304,1,2,0:0:0:0:
320,192,8304,128,0,8655:0:0:0:70:Ride.wav
448,192,8304,128,0,9005:0:0:0:0:
64,192,8538,1,0,0:0:0:0:
320,192,8771,1,0,0:0:0:0:
64,192,9005,1,0,0:0:0:0:
64,192,9238,1,0,0:0:0:70:Ride.wav
192,192,9238,128,0,9705:0:0:0:0:
448,192,9238,1,0,0:0:0:0:
320,192,9472,128,0,9705:0:0:0:0:
320,192,9939,128,0,10172:0:0:0:0:
64,192,10172,128,0,10639:0:0:0:70:Ride.wav
192,192,10172,1,0,0:0:0:0:
448,192,10172,1,0,0:0:0:0:
320,192,10405,1,0,0:0:0:0:
192,192,10639,1,0,0:0:0:0:
320,192,10872,1,0,0:0:0:0:
64,192,11106,1,0,0:0:0:70:Ride.wav
320,192,11106,1,0,0:0:0:0:
448,192,11106,128,0,11573:0:0:0:0:
192,192,11339,1,0,0:0:0:0:
320,192,11456,128,0,11573:0:0:0:0:
64,192,11573,128,0,11806:0:0:0:0:
192,192,11573,1,0,0:0:0:0:
64,192,12040,128,0,12273:0:0:0:70:Ride.wav
320,192,12040,1,0,0:0:0:0:
448,192,12040,1,0,0:0:0:0:
192,192,12156,1,0,0:0:0:0:
448,192,12273,128,0,12507:0:0:0:0:
320,192,12390,1,0,0:0:0:0:
64,192,12507,128,0,12740:0:0:0:0:
192,192,12623,128,0,12740:0:0:0:0:
448,192,12740,128,0,12974:0:0:0:0:
320,192,12857,128,0,12974:0:0:0:0:
64,192,12974,128,0,13207:0:0:0:70:Ride.wav
192,192,12974,128,0,13207:0:0:0:0:
448,192,13090,128,0,13324:0:0:0:0:
320,192,13207,128,0,13324:0:0:0:0:
64,192,13324,128,0,13441:0:0:0:0:
192,192,13441,128,0,13674:0:0:0:0:
448,192,13441,128,0,13557:0:0:0:0:
320,192,13557,128,0,13674:0:0:0:0:
64,192,13674,128,0,13791:0:0:0:0:
448,192,13674,128,0,13907:0:0:0:0:
192,192,13791,128,0,13907:0:0:0:0:
64,192,13907,128,0,14141:0:0:0:70:Ride.wav
320,192,13907,128,0,14141:0:0:0:0:
192,192,14024,128,0,14141:0:0:0:0:
448,192,14141,128,0,14374:0:0:0:0:
320,192,14258,128,0,14374:0:0:0:0:
192,192,14374,128,0,14608:0:0:0:0:
64,192,14491,128,0,14608:0:0:0:0:
320,192,14608,128,0,14841:0:0:0:0:
448,192,14725,128,0,14841:0:0:0:0:
64,192,14841,128,0,15075:0:0:0:0:
448,192,15075,128,0,15308:0:0:0:0:
320,192,15133,128,0,15308:0:0:0:0:
192,192,15308,128,0,15542:0:0:0:0:
320,192,15542,128,0,15600:0:0:0:0:
192,192,15600,128,0,15658:0:0:0:0:
320,192,15658,128,0,15717:0:0:0:0:
192,192,15717,128,0,15775:0:0:0:0:
64,192,15775,1,2,0:0:0:0:
320,192,15775,1,4,0:0:0:0:
448,192,15775,1,0,0:0:0:0:
64,192,15892,1,2,0:0:0:0:
192,192,15892,1,0,0:0:0:0:
192,192,16009,1,2,0:0:0:0:
320,192,16009,1,0,0:0:0:0:
64,192,16125,1,2,0:0:0:0:
448,192,16125,1,0,0:0:0:0:
64,192,16242,1,2,0:0:0:0:
448,192,16242,1,0,0:0:0:0:
320,192,16359,1,2,0:0:0:0:
448,192,16359,1,0,0:0:0:0:
64,192,16476,1,2,0:0:0:0:
192,192,16476,1,0,0:0:0:0:
448,192,16534,1,2,0:0:0:0:
192,192,16592,1,2,0:0:0:0:
320,192,16592,1,0,0:0:0:0:
64,192,16651,1,2,0:0:0:0:
320,192,16709,1,2,0:0:0:0:
448,192,16709,1,0,0:0:0:0:
64,192,16826,1,2,0:0:0:0:
192,192,16826,1,0,0:0:0:0:
320,192,16884,1,2,0:0:0:0:
192,192,16942,1,2,0:0:0:0:
448,192,16942,1,0,0:0:0:0:
192,192,17059,1,2,0:0:0:0:
448,192,17059,1,0,0:0:0:0:
64,192,17176,128,2,17293:0:0:0:0:
320,192,17176,128,0,17293:0:0:0:0:
448,192,17293,128,2,17409:0:0:0:0:
64,192,17409,1,2,0:0:0:0:
192,192,17409,1,0,0:0:0:0:
320,192,17468,1,2,0:0:0:0:
64,192,17526,1,2,0:0:0:0:
448,192,17526,1,0,0:0:0:0:
192,192,17584,1,2,0:0:0:0:
320,192,17643,1,2,0:0:0:0:
448,192,17643,1,0,0:0:0:0:
192,192,17760,1,2,0:0:0:0:
320,192,17760,1,0,0:0:0:0:
64,192,17876,1,2,0:0:0:0:
192,192,17876,1,0,0:0:0:0:
320,192,17993,1,2,0:0:0:0:
448,192,17993,1,0,0:0:0:0:
320,192,18110,1,2,0:0:0:0:
448,192,18110,1,0,0:0:0:0:
64,192,18226,1,2,0:0:0:0:
320,192,18226,1,0,0:0:0:0:
192,192,18343,1,2,0:0:0:0:
448,192,18343,1,0,0:0:0:0:
64,192,18402,1,2,0:0:0:0:
320,192,18460,1,2,0:0:0:0:
448,192,18460,1,0,0:0:0:0:
192,192,18518,1,2,0:0:0:0:
64,192,18577,1,2,0:0:0:0:
320,192,18577,1,0,0:0:0:0:
192,192,18693,1,2,0:0:0:0:
448,192,18693,1,0,0:0:0:0:
320,192,18752,1,2,0:0:0:0:
64,192,18810,128,2,18927:0:0:0:0:
192,192,18810,128,0,18927:0:0:0:0:
448,192,18927,1,2,0:0:0:0:
192,192,19044,128,2,19160:0:0:0:0:
320,192,19044,128,0,19160:0:0:0:0:
448,192,19160,128,2,19277:0:0:0:0:
192,192,19277,1,2,0:0:0:0:
320,192,19277,1,0,0:0:0:0:
448,192,19335,1,2,0:0:0:0:
64,192,19394,128,2,19511:0:0:0:0:
192,192,19394,128,0,19511:0:0:0:0:
320,192,19511,1,2,0:0:0:0:
448,192,19511,1,4,0:0:0:0:
64,192,19627,1,2,0:0:0:0:
320,192,19627,1,0,0:0:0:0:
64,192,19744,1,2,0:0:0:0:
448,192,19744,1,0,0:0:0:0:
192,192,19861,1,2,0:0:0:0:
320,192,19861,1,0,0:0:0:0:
192,192,19977,1,2,0:0:0:0:
320,192,19977,1,0,0:0:0:0:
64,192,20094,1,2,0:0:0:0:
192,192,20094,1,0,0:0:0:0:
320,192,20211,1,2,0:0:0:0:
448,192,20211,1,0,0:0:0:0:
64,192,20269,1,2,0:0:0:0:
192,192,20328,1,2,0:0:0:0:
448,192,20328,1,0,0:0:0:0:
320,192,20386,1,2,0:0:0:0:
64,192,20444,1,2,0:0:0:0:
192,192,20444,1,0,0:0:0:0:
320,192,20561,1,2,0:0:0:0:
448,192,20561,1,0,0:0:0:0:
192,192,20619,1,2,0:0:0:0:
64,192,20678,1,2,0:0:0:0:
320,192,20678,1,0,0:0:0:0:
64,192,20795,1,2,0:0:0:0:
320,192,20795,1,0,0:0:0:0:
192,192,20911,128,2,21028:0:0:0:0:
448,192,20911,128,0,21028:0:0:0:0:
64,192,21028,128,2,21145:0:0:0:0:
320,192,21145,1,2,0:0:0:0:
448,192,21145,1,0,0:0:0:0:
192,192,21203,1,2,0:0:0:0:
64,192,21262,1,2,0:0:0:0:
448,192,21262,1,0,0:0:0:0:
320,192,21320,1,2,0:0:0:0:
64,192,21378,1,2,0:0:0:0:
192,192,21378,1,0,0:0:0:0:
320,192,21495,1,2,0:0:0:0:
448,192,21495,1,0,0:0:0:0:
64,192,21553,1,2,0:0:0:0:
192,192,21612,128,2,21728:0:0:0:0:
320,192,21612,128,0,21728:0:0:0:0:
448,192,21728,1,2,0:0:0:0:
64,192,21845,1,2,0:0:0:0:
192,192,21845,1,0,0:0:0:0:
320,192,21962,1,2,0:0:0:0:
192,192,22079,1,2,0:0:0:0:
448,192,22079,1,0,0:0:0:0:
320,192,22137,1,2,0:0:0:0:
64,192,22195,128,2,22312:0:0:0:0:
192,192,22195,128,0,22312:0:0:0:0:
448,192,22312,128,2,22546:0:0:0:0:
320,192,22429,1,0,0:0:0:0:
64,192,22546,128,2,22779:0:0:0:0:
448,192,22662,1,0,0:0:0:0:
192,192,22779,128,2,23012:0:0:0:0:
320,192,22896,1,0,0:0:0:0:
64,192,23012,1,0,0:0:0:0:
320,192,23012,1,0,0:0:0:0:
448,192,23012,1,0,0:0:0:0:
64,192,23246,1,4,0:0:0:0:
192,192,23246,1,2,0:0:0:0:
448,192,23246,1,0,0:0:0:0:
320,192,23363,1,2,0:0:0:0:
448,192,23363,1,0,0:0:0:0:
192,192,23479,1,2,0:0:0:0:
320,192,23479,1,0,0:0:0:0:
64,192,23596,1,2,0:0:0:0:
448,192,23596,1,0,0:0:0:0:
64,192,23713,1,2,0:0:0:0:
448,192,23713,1,0,0:0:0:0:
64,192,23830,1,2,0:0:0:0:
192,192,23830,1,0,0:0:0:0:
320,192,23946,1,2,0:0:0:0:
448,192,23946,1,0,0:0:0:0:
64,192,24005,1,2,0:0:0:0:
192,192,24063,1,2,0:0:0:0:
320,192,24063,1,0,0:0:0:0:
448,192,24121,1,2,0:0:0:0:
64,192,24180,1,2,0:0:0:0:
192,192,24180,1,0,0:0:0:0:
320,192,24297,1,2,0:0:0:0:
448,192,24297,1,0,0:0:0:0:
192,192,24355,1,2,0:0:0:0:
64,192,24413,1,2,0:0:0:0:
320,192,24413,1,0,0:0:0:0:
64,192,24530,1,2,0:0:0:0:
320,192,24530,1,0,0:0:0:0:
192,192,24647,128,2,24763:0:0:0:0:
448,192,24647,128,0,24763:0:0:0:0:
64,192,24763,128,2,24880:0:0:0:0:
320,192,24880,1,2,0:0:0:0:
448,192,24880,1,0,0:0:0:0:
192,192,24939,1,2,0:0:0:0:
64,192,24997,1,2,0:0:0:0:
448,192,24997,1,0,0:0:0:0:
320,192,25055,1,2,0:0:0:0:
64,192,25114,1,2,0:0:0:0:
192,192,25114,1,0,0:0:0:0:
192,192,25230,1,2,0:0:0:0:
320,192,25230,1,0,0:0:0:0:
320,192,25347,1,2,0:0:0:0:
448,192,25347,1,0,0:0:0:0:
64,192,25464,1,2,0:0:0:0:
192,192,25464,1,0,0:0:0:0:
64,192,25581,1,2,0:0:0:0:
192,192,25581,1,0,0:0:0:0:
192,192,25697,1,2,0:0:0:0:
448,192,25697,1,0,0:0:0:0:
64,192,25814,1,2,0:0:0:0:
320,192,25814,1,0,0:0:0:0:
448,192,25872,1,2,0:0:0:0:
64,192,25931,1,2,0:0:0:0:
192,192,25931,1,0,0:0:0:0:
320,192,25989,1,2,0:0:0:0:
192,192,26048,1,2,0:0:0:0:
448,192,26048,1,0,0:0:0:0:
64,192,26164,1,2,0:0:0:0:
320,192,26164,1,0,0:0:0:0:
192,192,26223,1,2,0:0:0:0:
320,192,26281,128,2,26398:0:0:0:0:
448,192,26281,128,0,26398:0:0:0:0:
64,192,26398,1,2,0:0:0:0:
192,192,26514,128,2,26631:0:0:0:0:
320,192,26514,128,0,26631:0:0:0:0:
64,192,26631,128,2,26748:0:0:0:0:
192,192,26748,1,2,0:0:0:0:
320,192,26748,1,0,0:0:0:0:
64,192,26806,1,2,0:0:0:0:
320,192,26865,128,2,26981:0:0:0:0:
448,192,26865,128,0,26981:0:0:0:0:
64,192,26981,1,2,0:0:0:0:
192,192,26981,1,4,0:0:0:0:
192,192,27098,1,2,0:0:0:0:
448,192,27098,1,0,0:0:0:0:
64,192,27215,1,2,0:0:0:0:
320,192,27215,1,0,0:0:0:0:
320,192,27332,1,2,0:0:0:0:
448,192,27332,1,0,0:0:0:0:
320,192,27448,1,2,0:0:0:0:
448,192,27448,1,0,0:0:0:0:
64,192,27565,1,2,0:0:0:0:
192,192,27565,1,0,0:0:0:0:
64,192,27682,128,0,27915:0:0:0:0:
320,192,27915,1,2,0:0:0:0:
448,192,27915,1,4,0:0:0:0:
64,192,28032,1,2,0:0:0:0:
448,192,28032,1,0,0:0:0:0:
192,192,28149,1,2,0:0:0:0:
320,192,28149,1,0,0:0:0:0:
192,192,28265,1,2,0:0:0:0:
320,192,28265,1,0,0:0:0:0:
64,192,28382,128,0,28616:0:0:0:0:
448,192,28616,128,0,28849:0:0:0:0:
64,192,28849,1,2,0:0:0:0:
192,192,28849,1,4,0:0:0:0:
320,192,28907,1,0,0:0:0:0:
64,192,28966,1,2,0:0:0:0:
192,192,29024,1,2,0:0:0:0:
320,192,29083,1,0,0:0:0:0:
448,192,29083,1,0,0:0:0:0:
192,192,29141,1,2,0:0:0:0:
448,192,29199,1,2,0:0:0:0:
320,192,29258,1,2,0:0:0:0:
64,192,29316,1,2,0:0:0:0:
192,192,29316,1,0,0:0:0:0:
320,192,29374,1,0,0:0:0:0:
64,192,29433,1,2,0:0:0:0:
448,192,29433,1,0,0:0:0:0:
192,192,29491,1,2,0:0:0:0:
320,192,29549,1,0,0:0:0:0:
448,192,29549,1,0,0:0:0:0:
64,192,29608,1,2,0:0:0:0:
192,192,29666,1,2,0:0:0:0:
320,192,29666,1,0,0:0:0:0:
448,192,29725,1,2,0:0:0:0:
64,192,29783,128,2,30250:0:0:0:0:
192,192,29783,128,0,30016:0:0:0:0:
320,192,30016,1,0,0:0:0:0:
192,192,30133,1,0,0:0:0:0:
448,192,30250,128,0,30717:0:0:0:0:
320,192,30367,1,0,0:0:0:0:
192,192,30483,1,0,0:0:0:0:
64,192,30600,1,0,0:0:0:0:
64,192,30717,1,2,0:0:0:0:
192,192,30717,1,4,0:0:0:0:
320,192,30717,1,0,0:0:0:0:
320,192,30833,1,0,0:0:0:0:
64,192,30950,1,2,0:0:0:0:
192,192,30950,1,0,0:0:0:0:
192,192,31067,1,0,0:0:0:0:
448,192,31067,1,0,0:0:0:0:
64,192,31184,1,2,0:0:0:0:
192,192,31184,1,0,0:0:0:0:
192,192,31300,1,0,0:0:0:0:
448,192,31300,1,0,0:0:0:0:
64,192,31417,1,2,0:0:0:0:
320,192,31417,1,0,0:0:0:0:
64,192,31534,1,0,0:0:0:0:
320,192,31534,1,0,0:0:0:0:
192,192,31651,1,2,0:0:0:0:
320,192,31651,1,0,0:0:0:0:
448,192,31651,1,0,0:0:0:0:
192,192,31767,1,0,0:0:0:0:
320,192,31884,1,2,0:0:0:0:
448,192,31884,1,0,0:0:0:0:
64,192,32001,1,0,0:0:0:0:
320,192,32001,1,0,0:0:0:0:
320,192,32118,1,2,0:0:0:0:
448,192,32118,1,0,0:0:0:0:
64,192,32234,1,0,0:0:0:0:
320,192,32234,1,0,0:0:0:0:
192,192,32351,1,2,0:0:0:0:
448,192,32351,1,0,0:0:0:0:
192,192,32468,1,2,0:0:0:0:
448,192,32468,1,0,0:0:0:0:
64,192,32584,128,2,32818:0:0:0:0:
320,192,32584,1,0,0:0:0:0:
448,192,32584,1,0,0:0:0:0:
192,192,32701,1,0,0:0:0:0:
192,192,32818,1,2,0:0:0:0:
320,192,32818,128,0,33051:0:0:0:0:
448,192,32818,1,0,0:0:0:0:
64,192,32935,1,0,0:0:0:0:
64,192,33051,1,2,0:0:0:0:
192,192,33051,1,0,0:0:0:0:
448,192,33051,128,0,33285:0:0:0:0:
320,192,33168,1,0,0:0:0:0:
64,192,33285,1,2,0:0:0:0:
192,192,33285,128,0,33518:0:0:0:0:
320,192,33285,1,0,0:0:0:0:
448,192,33402,1,0,0:0:0:0:
64,192,33518,1,2,0:0:0:0:
320,192,33518,1,0,0:0:0:0:
448,192,33518,1,0,0:0:0:0:
64,192,33752,1,2,0:0:0:0:
192,192,33752,1,0,0:0:0:0:
320,192,33810,1,2,0:0:0:0:
64,192,33869,1,2,0:0:0:0:
448,192,33869,1,0,0:0:0:0:
192,192,33927,1,2,0:0:0:0:
320,192,33985,1,2,0:0:0:0:
448,192,33985,1,0,0:0:0:0:
192,192,34102,1,2,0:0:0:0:
320,192,34102,1,0,0:0:0:0:
64,192,34219,1,2,0:0:0:0:
192,192,34219,1,0,0:0:0:0:
448,192,34219,128,0,34452:0:0:0:0:
64,192,34452,1,2,0:0:0:0:
192,192,34452,1,0,0:0:0:0:
320,192,34452,1,0,0:0:0:0:
64,192,34569,1,0,0:0:0:0:
192,192,34686,1,2,0:0:0:0:
320,192,34686,1,0,0:0:0:0:
448,192,34686,1,0,0:0:0:0:
64,192,34802,1,0,0:0:0:0:
320,192,34802,1,0,0:0:0:0:
64,192,34919,1,2,0:0:0:0:
192,192,34919,1,0,0:0:0:0:
448,192,34919,1,0,0:0:0:0:
192,192,35036,1,0,0:0:0:0:
64,192,35153,1,2,0:0:0:0:
320,192,35153,1,0,0:0:0:0:
448,192,35153,1,0,0:0:0:0:
320,192,35269,1,0,0:0:0:0:
448,192,35269,1,0,0:0:0:0:
64,192,35386,1,2,0:0:0:0:
192,192,35386,1,0,0:0:0:0:
320,192,35386,1,0,0:0:0:0:
64,192,35503,1,0,0:0:0:0:
192,192,35619,1,2,0:0:0:0:
320,192,35619,1,0,0:0:0:0:
448,192,35619,1,0,0:0:0:0:
64,192,35736,1,0,0:0:0:0:
192,192,35736,1,0,0:0:0:0:
64,192,35853,1,2,0:0:0:0:
320,192,35853,1,0,0:0:0:0:
448,192,35853,1,0,0:0:0:0:
320,192,35970,1,0,0:0:0:0:
64,192,36086,1,2,0:0:0:0:
192,192,36086,1,0,0:0:0:0:
448,192,36086,1,0,0:0:0:0:
192,192,36203,1,2,0:0:0:0:
320,192,36203,1,0,0:0:0:0:
64,192,36320,1,2,0:0:0:0:
320,192,36320,1,0,0:0:0:0:
448,192,36320,1,0,0:0:0:0:
64,192,36437,128,0,36553:0:0:0:0:
192,192,36553,1,2,0:0:0:0:
320,192,36553,1,0,0:0:0:0:
448,192,36553,1,0,0:0:0:0:
64,192,36670,128,0,36787:0:0:0:0:
320,192,36670,1,0,0:0:0:0:
192,192,36787,128,2,36904:0:0:0:0:
448,192,36787,1,0,0:0:0:0:
64,192,36904,1,0,0:0:0:0:
320,192,36904,128,0,37020:0:0:0:0:
192,192,37020,128,2,37254:0:0:0:0:
448,192,37020,128,0,37254:0:0:0:0:
64,192,37254,128,2,37721:0:0:0:0:
320,192,37254,1,0,0:0:0:0:
192,192,37487,1,0,0:0:0:0:
320,192,37604,1,2,0:0:0:0:
192,192,37721,1,2,0:0:0:0:
448,192,37721,128,0,37954:0:0:0:0:
320,192,37954,1,0,0:0:0:0:
192,192,37993,1,0,0:0:0:0:
64,192,38032,1,0,0:0:0:0:
448,192,38110,1,0,0:0:0:0:
320,192,38149,1,0,0:0:0:0:
64,192,38188,128,2,38538:0:0:0:0:
192,192,38188,1,4,0:0:0:0:
448,192,38421,1,0,0:0:0:0:
192,192,38538,1,2,0:0:0:0:
320,192,38538,128,0,38888:0:0:0:0:
448,192,38538,1,0,0:0:0:0:
64,192,38655,1,0,0:0:0:0:
448,192,38771,1,0,0:0:0:0:
64,192,38888,1,2,0:0:0:0:
192,192,38888,128,0,39238:0:0:0:0:
448,192,38888,1,0,0:0:0:0:
320,192,39005,1,0,0:0:0:0:
64,192,39121,1,0,0:0:0:0:
64,192,39238,1,2,0:0:0:0:
320,192,39238,1,0,0:0:0:0:
448,192,39238,128,0,39588:0:0:0:0:
192,192,39355,1,0,0:0:0:0:
320,192,39472,1,0,0:0:0:0:
64,192,39588,128,2,39939:0:0:0:0:
192,192,39588,128,0,39822:0:0:0:0:
320,192,39588,128,0,39705:0:0:0:0:
64,192,40055,1,2,0:0:0:0:
192,192,40055,1,4,0:0:0:0:
448,192,40055,128,0,40289:0:0:0:0:
320,192,40172,1,0,0:0:0:0:
64,192,40289,1,2,0:0:0:0:
192,192,40289,128,0,40522:0:0:0:0:
320,192,40289,1,0,0:0:0:0:
448,192,40405,1,0,0:0:0:0:
64,192,40522,128,2,40756:0:0:0:0:
320,192,40522,1,0,0:0:0:0:
448,192,40522,1,0,0:0:0:0:
192,192,40639,1,0,0:0:0:0:
192,192,40756,1,2,0:0:0:0:
320,192,40756,128,0,40989:0:0:0:0:
448,192,40756,1,0,0:0:0:0:
64,192,40872,1,0,0:0:0:0:
64,192,40989,1,2,0:0:0:0:
192,192,40989,1,0,0:0:0:0:
448,192,40989,1,0,0:0:0:0:
192,192,41106,1,0,0:0:0:0:
448,192,41106,1,0,0:0:0:0:
320,192,41223,1,2,0:0:0:0:
448,192,41223,1,0,0:0:0:0:
192,192,41281,1,2,0:0:0:0:
64,192,41339,1,2,0:0:0:0:
448,192,41339,1,0,0:0:0:0:
320,192,41398,1,2,0:0:0:0:
64,192,41456,1,2,0:0:0:0:
192,192,41456,1,0,0:0:0:0:
192,192,41573,1,2,0:0:0:0:
320,192,41573,1,0,0:0:0:0:
64,192,41690,128,2,41923:0:0:0:0:
320,192,41690,1,0,0:0:0:0:
448,192,41690,1,0,0:0:0:0:
192,192,41923,1,2,0:0:0:0:
320,192,41923,1,0,0:0:0:0:
448,192,41923,1,0,0:0:0:0:
192,192,42040,1,0,0:0:0:0:
64,192,42156,1,2,0:0:0:0:
320,192,42156,1,0,0:0:0:0:
448,192,42156,1,0,0:0:0:0:
192,192,42273,1,0,0:0:0:0:
320,192,42273,1,0,0:0:0:0:
64,192,42390,1,2,0:0:0:0:
192,192,42390,1,0,0:0:0:0:
448,192,42390,1,0,0:0:0:0:
64,192,42507,1,2,0:0:0:0:
448,192,42507,1,0,0:0:0:0:
192,192,42623,1,2,0:0:0:0:
320,192,42623,1,0,0:0:0:0:
448,192,42623,1,0,0:0:0:0:
192,192,42740,1,2,0:0:0:0:
320,192,42740,1,0,0:0:0:0:
64,192,42857,128,2,42915:0:0:0:0:
192,192,42857,128,0,42915:0:0:0:0:
448,192,42857,1,0,0:0:0:0:
192,192,42974,128,2,43032:0:0:0:0:
320,192,42974,128,0,43090:0:0:0:0:
64,192,43090,1,2,0:0:0:0:
448,192,43090,1,0,0:0:0:0:
192,192,43207,128,2,43324:0:0:0:0:
320,192,43207,128,0,43265:0:0:0:0:
64,192,43324,1,2,0:0:0:0:
448,192,43324,1,0,0:0:0:0:
320,192,43441,128,2,43499:0:0:0:0:
448,192,43441,128,0,43557:0:0:0:0:
64,192,43557,1,2,0:0:0:0:
192,192,43557,1,0,0:0:0:0:
64,192,43674,128,2,43791:0:0:0:0:
320,192,43674,128,0,43732:0:0:0:0:
192,192,43791,128,0,44258:0:0:0:70:Ride.wav
448,192,43791,128,0,44725:0:0:0:0:
64,192,44725,128,0,45658:0:0:0:70:Ride.wav
320,192,44725,128,0,45191:0:0:0:0:
320,192,45658,128,2,46009:0:0:0:0:
448,192,45658,128,0,46476:0:0:0:0:
192,192,46009,128,0,46359:0:0:0:0:
64,192,46359,128,0,46826:0:0:0:0:
320,192,46592,1,0,0:0:0:0:
448,192,46592,1,0,0:0:0:0:
192,192,46826,128,0,47059:0:0:0:0:
320,192,46826,1,0,0:0:0:0:
448,192,47059,128,0,47293:0:0:0:0:
320,192,47293,128,0,47526:0:0:0:0:
64,192,47526,128,2,48343:0:0:0:0:
192,192,47526,128,0,47876:0:0:0:0:
320,192,47876,128,0,48226:0:0:0:0:
192,192,48226,1,2,0:0:0:0:
448,192,48226,128,0,48693:0:0:0:0:
64,192,48460,1,0,0:0:0:0:
192,192,48460,1,0,0:0:0:0:
64,192,48693,128,0,48927:0:0:0:0:
320,192,48693,1,0,0:0:0:0:
320,192,48927,128,0,49160:0:0:0:0:
192,192,49160,128,0,49394:0:0:0:0:
320,192,49394,128,2,49744:0:0:0:0:
448,192,49394,128,0,50211:0:0:0:0:
192,192,49744,128,0,50094:0:0:0:0:
64,192,50094,128,0,50561:0:0:0:0:
320,192,50328,1,0,0:0:0:0:
448,192,50328,1,0,0:0:0:0:
192,192,50561,128,0,50795:0:0:0:0:
320,192,50561,1,0,0:0:0:0:
448,192,50795,128,0,51028:0:0:0:0:
320,192,51028,128,0,51262:0:0:0:0:
64,192,51262,128,2,52079:0:0:0:0:
192,192,51262,128,0,51612:0:0:0:0:
320,192,51612,128,0,51962:0:0:0:0:
448,192,51962,128,0,52429:0:0:0:0:
64,192,52195,1,0,0:0:0:0:
192,192,52195,1,0,0:0:0:0:
192,192,52429,128,0,52662:0:0:0:0:
320,192,52662,128,0,52896:0:0:0:0:
64,192,52896,128,0,53129:0:0:0:0:
192,192,53129,128,2,53363:0:0:0:0:
320,192,53129,128,0,53363:0:0:0:70:LR_Cymbal.wav
448,192,53129,128,0,53479:0:0:0:0:
64,192,53479,128,2,53830:0:0:0:0:
192,192,53479,128,0,53596:0:0:0:70:LR_Cymbal.wav
320,192,53479,128,0,53596:0:0:0:0:
192,192,53830,128,2,54297:0:0:0:0:
320,192,53830,128,0,54297:0:0:0:70:LR_Cymbal.wav
448,192,53830,128,0,54297:0:0:0:0:
64,192,54297,128,0,54530:0:0:0:0:
320,192,54530,128,2,54647:0:0:0:0:
192,192,54647,128,0,54763:0:0:0:0:
448,192,54763,128,0,54997:0:0:0:0:
64,192,54997,128,2,55347:0:0:0:0:
192,192,54997,128,0,55230:0:0:0:70:LR_Cymbal.wav
320,192,54997,128,0,55230:0:0:0:0:
192,192,55347,128,2,55464:0:0:0:0:
320,192,55347,128,0,55464:0:0:0:70:LR_Cymbal.wav
448,192,55347,128,0,55697:0:0:0:0:
64,192,55697,128,2,56164:0:0:0:0:
192,192,55697,128,0,56164:0:0:0:70:LR_Cymbal.wav
320,192,55697,128,0,56164:0:0:0:0:
448,192,56164,128,0,56398:0:0:0:0:
192,192,56398,128,2,56514:0:0:0:0:
64,192,56514,128,0,56631:0:0:0:0:
320,192,56631,128,0,56865:0:0:0:0:
64,192,56865,128,2,57215:0:0:0:0:
192,192,56865,128,0,57332:0:0:0:70:LR_Cymbal.wav
448,192,56865,128,0,57215:0:0:0:0:
64,192,57332,1,0,0:0:0:0:
448,192,57332,1,0,0:0:0:0:
192,192,57565,128,2,57682:0:0:0:0:
320,192,57565,128,0,58265:0:0:0:0:
64,192,57798,128,2,58032:0:0:0:0:
192,192,57798,128,0,58032:0:0:0:70:LR_Cymbal.wav
448,192,57798,128,0,58032:0:0:0:0:
192,192,58265,128,0,58499:0:0:0:0:
320,192,58499,1,2,0:0:0:0:
448,192,58499,128,0,58732:0:0:0:0:
64,192,58732,128,2,59199:0:0:0:0:
192,192,58732,128,0,59083:0:0:0:70:LR_Cymbal.wav
320,192,58732,128,0,58966:0:0:0:0:
192,192,59199,128,2,59433:0:0:0:0:
320,192,59199,128,0,59549:0:0:0:70:LR_Cymbal.wav
448,192,59199,128,0,59666:0:0:0:0:
64,192,59433,128,0,59666:0:0:0:0:
192,192,59666,128,0,59900:0:0:0:0:
320,192,59666,128,0,59900:0:0:0:0:
448,192,59900,128,0,60016:0:0:0:0:
192,192,60016,128,0,60133:0:0:0:0:
320,192,60016,128,0,60250:0:0:0:0:
192,192,60191,128,0,60250:0:0:0:0:
448,192,60250,128,0,60367:0:0:0:0:
192,192,60308,128,0,60600:0:0:0:0:
320,192,60367,128,0,60542:0:0:0:0:
64,192,60600,1,2,0:0:0:0:
320,192,60600,1,4,0:0:0:0:
448,192,60600,1,0,0:0:0:0:
64,192,60717,1,0,0:0:0:0:
192,192,60833,1,2,0:0:0:0:
320,192,60833,1,0,0:0:0:0:
320,192,60950,1,0,0:0:0:0:
448,192,60950,1,0,0:0:0:0:
64,192,61067,1,2,0:0:0:0:
192,192,61067,1,0,0:0:0:0:
320,192,61184,1,0,0:0:0:0:
448,192,61184,1,0,0:0:0:0:
192,192,61300,1,2,0:0:0:0:
320,192,61300,1,0,0:0:0:0:
192,192,61417,1,0,0:0:0:0:
64,192,61534,1,2,0:0:0:0:
448,192,61534,1,0,0:0:0:0:
64,192,61651,1,0,0:0:0:0:
320,192,61651,1,0,0:0:0:0:
192,192,61767,1,2,0:0:0:0:
448,192,61767,1,0,0:0:0:0:
64,192,61884,1,0,0:0:0:0:
448,192,61884,1,0,0:0:0:0:
64,192,62001,1,2,0:0:0:0:
192,192,62001,1,0,0:0:0:0:
320,192,62001,1,0,0:0:0:0:
192,192,62118,1,0,0:0:0:0:
64,192,62234,1,2,0:0:0:0:
320,192,62234,1,0,0:0:0:0:
448,192,62234,1,0,0:0:0:0:
192,192,62351,1,2,0:0:0:0:
320,192,62351,1,0,0:0:0:0:
64,192,62468,1,2,0:0:0:0:
192,192,62468,1,0,0:0:0:0:
448,192,62468,1,0,0:0:0:0:
64,192,62584,1,0,0:0:0:0:
192,192,62701,1,2,0:0:0:0:
448,192,62701,1,0,0:0:0:0:
64,192,62818,1,0,0:0:0:0:
192,192,62818,1,0,0:0:0:0:
320,192,62935,1,2,0:0:0:0:
448,192,62935,1,0,0:0:0:0:
64,192,63051,1,0,0:0:0:0:
192,192,63051,1,0,0:0:0:0:
192,192,63168,1,2,0:0:0:0:
448,192,63168,1,0,0:0:0:0:
320,192,63285,1,0,0:0:0:0:
64,192,63402,1,2,0:0:0:0:
448,192,63402,1,0,0:0:0:0:
64,192,63518,1,0,0:0:0:0:
192,192,63518,1,0,0:0:0:0:
320,192,63635,1,2,0:0:0:0:
448,192,63635,1,0,0:0:0:0:
192,192,63693,1,2,0:0:0:0:
64,192,63752,1,2,0:0:0:0:
448,192,63752,1,0,0:0:0:0:
320,192,63810,1,2,0:0:0:0:
64,192,63869,1,2,0:0:0:0:
192,192,63869,1,0,0:0:0:0:
192,192,63985,1,2,0:0:0:0:
320,192,63985,1,0,0:0:0:0:
64,192,64102,1,2,0:0:0:0:
320,192,64102,1,0,0:0:0:0:
448,192,64102,1,0,0:0:0:0:
192,192,64335,1,2,0:0:0:0:
320,192,64335,1,4,0:0:0:0:
448,192,64335,1,0,0:0:0:0:
448,192,64452,1,0,0:0:0:0:
64,192,64569,1,2,0:0:0:0:
320,192,64569,1,0,0:0:0:0:
64,192,64686,1,0,0:0:0:0:
192,192,64686,1,0,0:0:0:0:
320,192,64802,1,2,0:0:0:0:
448,192,64802,1,0,0:0:0:0:
64,192,64919,1,0,0:0:0:0:
192,192,64919,1,0,0:0:0:0:
64,192,65036,1,2,0:0:0:0:
320,192,65036,1,0,0:0:0:0:
192,192,65153,1,0,0:0:0:0:
64,192,65269,1,2,0:0:0:0:
448,192,65269,1,0,0:0:0:0:
192,192,65386,1,0,0:0:0:0:
448,192,65386,1,0,0:0:0:0:
64,192,65503,1,2,0:0:0:0:
320,192,65503,1,0,0:0:0:0:
64,192,65619,1,0,0:0:0:0:
448,192,65619,1,0,0:0:0:0:
192,192,65736,1,2,0:0:0:0:
320,192,65736,1,0,0:0:0:0:
448,192,65736,1,0,0:0:0:0:
320,192,65853,1,0,0:0:0:0:
64,192,65970,1,2,0:0:0:0:
192,192,65970,1,0,0:0:0:0:
448,192,65970,1,0,0:0:0:0:
64,192,66086,1,2,0:0:0:0:
320,192,66086,1,0,0:0:0:0:
192,192,66203,1,2,0:0:0:0:
320,192,66203,1,0,0:0:0:0:
448,192,66203,1,0,0:0:0:0:
448,192,66320,1,0,0:0:0:0:
64,192,66437,1,2,0:0:0:0:
320,192,66437,1,0,0:0:0:0:
192,192,66553,1,0,0:0:0:0:
320,192,66553,1,0,0:0:0:0:
64,192,66670,1,2,0:0:0:0:
448,192,66670,1,0,0:0:0:0:
192,192,66787,1,0,0:0:0:0:
320,192,66787,1,0,0:0:0:0:
64,192,66904,1,2,0:0:0:0:
192,192,66904,1,0,0:0:0:0:
448,192,67020,1,0,0:0:0:0:
192,192,67137,128,2,67370:0:0:0:0:
320,192,67137,128,0,67487:0:0:0:0:
448,192,67137,128,0,67604:0:0:0:0:
64,192,67604,1,2,0:0:0:0:
192,192,67604,1,0,0:0:0:0:
64,192,68071,1,2,0:0:0:0:
192,192,68071,1,4,0:0:0:0:
448,192,68071,1,0,0:0:0:0:
448,192,68188,1,0,0:0:0:0:
192,192,68304,1,2,0:0:0:0:
320,192,68304,1,0,0:0:0:0:
64,192,68421,1,0,0:0:0:0:
192,192,68421,1,0,0:0:0:0:
320,192,68538,1,2,0:0:0:0:
448,192,68538,1,0,0:0:0:0:
64,192,68655,1,0,0:0:0:0:
192,192,68655,1,0,0:0:0:0:
192,192,68771,1,2,0:0:0:0:
320,192,68771,1,0,0:0:0:0:
320,192,68888,1,0,0:0:0:0:
64,192,69005,1,2,0:0:0:0:
448,192,69005,1,0,0:0:0:0:
192,192,69121,1,0,0:0:0:0:
448,192,69121,1,0,0:0:0:0:
64,192,69238,1,2,0:0:0:0:
320,192,69238,1,0,0:0:0:0:
64,192,69355,1,0,0:0:0:0:
448,192,69355,1,0,0:0:0:0:
192,192,69472,1,2,0:0:0:0:
320,192,69472,1,0,0:0:0:0:
448,192,69472,1,0,0:0:0:0:
320,192,69588,1,0,0:0:0:0:
64,192,69705,1,2,0:0:0:0:
192,192,69705,1,0,0:0:0:0:
448,192,69705,1,0,0:0:0:0:
192,192,69822,1,2,0:0:0:0:
320,192,69822,1,0,0:0:0:0:
64,192,69939,1,2,0:0:0:0:
320,192,69939,1,0,0:0:0:0:
448,192,69939,1,0,0:0:0:0:
448,192,70055,1,0,0:0:0:0:
64,192,70172,1,2,0:0:0:0:
320,192,70172,1,0,0:0:0:0:
320,192,70289,1,0,0:0:0:0:
448,192,70289,1,0,0:0:0:0:
64,192,70405,1,2,0:0:0:0:
192,192,70405,1,0,0:0:0:0:
320,192,70522,1,0,0:0:0:0:
448,192,70522,1,0,0:0:0:0:
64,192,70639,1,2,0:0:0:0:
320,192,70639,1,0,0:0:0:0:
192,192,70756,1,0,0:0:0:0:
64,192,70872,1,2,0:0:0:0:
448,192,70872,1,0,0:0:0:0:
320,192,70989,1,0,0:0:0:0:
448,192,70989,1,0,0:0:0:0:
64,192,71106,1,2,0:0:0:0:
192,192,71106,1,0,0:0:0:0:
320,192,71164,1,2,0:0:0:0:
64,192,71223,1,2,0:0:0:0:
448,192,71223,1,0,0:0:0:0:
192,192,71281,1,2,0:0:0:0:
320,192,71339,1,2,0:0:0:0:
448,192,71339,1,0,0:0:0:0:
192,192,71456,1,2,0:0:0:0:
320,192,71456,1,0,0:0:0:0:
64,192,71573,1,2,0:0:0:0:
192,192,71573,1,0,0:0:0:0:
448,192,71573,1,0,0:0:0:0:
64,192,71806,1,2,0:0:0:0:
192,192,71806,1,4,0:0:0:0:
320,192,71806,1,0,0:0:0:0:
64,192,71923,1,0,0:0:0:0:
192,192,72040,1,2,0:0:0:0:
448,192,72040,1,0,0:0:0:0:
320,192,72156,1,0,0:0:0:0:
448,192,72156,1,0,0:0:0:0:
64,192,72273,1,2,0:0:0:0:
192,192,72273,1,0,0:0:0:0:
320,192,72390,1,0,0:0:0:0:
448,192,72390,1,0,0:0:0:0:
64,192,72507,1,2,0:0:0:0:
192,192,72507,128,0,72740:0:0:0:0:
64,192,72623,1,0,0:0:0:0:
320,192,72740,1,2,0:0:0:0:
448,192,72740,1,0,0:0:0:0:
192,192,72857,1,0,0:0:0:0:
448,192,72857,1,0,0:0:0:0:
64,192,72974,1,0,0:0:0:0:
192,192,72974,1,0,0:0:0:0:
64,192,73090,1,0,0:0:0:0:
320,192,73090,1,0,0:0:0:0:
320,192,73207,128,0,73441:0:0:0:0:
448,192,73207,1,0,0:0:0:0:
448,192,73382,1,0,0:0:0:0:
192,192,73441,128,0,73557:0:0:0:0:
64,192,73557,128,2,73674:0:0:0:0:
320,192,73557,128,0,73674:0:0:0:0:
64,192,73732,128,2,73849:0:0:0:0:
320,192,73732,128,0,73849:0:0:0:0:
64,192,73907,128,2,74024:0:0:0:0:
320,192,73907,128,0,74024:0:0:0:0:
192,192,74024,128,0,74258:0:0:0:0:
448,192,74024,1,0,0:0:0:0:
448,192,74141,128,0,74258:0:0:0:0:
64,192,74258,128,2,74491:0:0:0:0:
320,192,74258,128,8,74491:0:0:0:0:
64,192,74608,1,0,0:0:0:0:
192,192,74608,1,0,0:0:0:0:
320,192,74686,1,0,0:0:0:0:
448,192,74763,1,0,0:0:0:0:
192,192,74841,1,0,0:0:0:0:
320,192,74919,1,0,0:0:0:0:
64,192,74997,1,0,0:0:0:0:
320,192,75075,1,0,0:0:0:0:
448,192,75075,1,0,0:0:0:0:
64,192,75168,1,0,0:0:0:0:
192,192,75168,1,0,0:0:0:0:
320,192,75262,1,0,0:0:0:0:
448,192,75262,1,0,0:0:0:0:
192,192,75328,1,0,0:0:0:0:
64,192,75386,1,0,0:0:0:0:
320,192,75444,1,0,0:0:0:0:
192,192,75503,1,0,0:0:0:0:
320,192,75588,1,0,0:0:0:0:
448,192,75588,1,0,0:0:0:0:
64,192,75682,1,0,0:0:0:0:
192,192,75682,1,0,0:0:0:0:
320,192,75775,1,0,0:0:0:0:
448,192,75775,1,0,0:0:0:0:
64,192,75869,1,0,0:0:0:0:
192,192,75869,1,0,0:0:0:0:
320,192,75962,1,0,0:0:0:0:
448,192,75962,1,0,0:0:0:0:
64,192,76055,1,0,0:0:0:0:
192,192,76055,1,0,0:0:0:0:
320,192,76149,128,0,76242:0:0:0:0:
64,192,76289,128,0,76382:0:0:0:0:
448,192,76382,128,0,76476:0:0:0:0:
192,192,76476,1,0,0:0:0:0:
320,192,76534,1,0,0:0:0:0:
64,192,76592,1,0,0:0:0:0:
192,192,76651,1,0,0:0:0:0:
448,192,76709,128,0,76802:0:0:0:0:
320,192,76802,1,0,0:0:0:0:
192,192,76849,1,0,0:0:0:0:
64,192,76896,1,0,0:0:0:0:
320,192,76942,1,0,0:0:0:0:
448,192,76989,1,0,0:0:0:0:
64,192,78110,1,2,0:0:0:0:
320,192,78110,1,4,0:0:0:0:
448,192,78110,1,0,0:0:0:0:
64,192,78226,1,0,0:0:0:0:
192,192,78343,1,0,0:0:0:0:
192,192,78460,1,0,0:0:0:0:
64,192,78576,1,8,0:0:0:0:
320,192,78576,1,0,0:0:0:0:
448,192,78576,128,0,78810:0:0:0:0:
192,192,78810,128,0,79043:0:0:0:0:
64,192,79043,1,2,0:0:0:0:
448,192,79043,1,0,0:0:0:0:
448,192,79160,1,0,0:0:0:0:
320,192,79277,1,0,0:0:0:0:
320,192,79394,1,0,0:0:0:0:
64,192,79510,128,8,79744:0:0:0:0:
192,192,79510,128,0,79627:0:0:0:0:
448,192,79627,1,0,0:0:0:0:
320,192,79744,1,0,0:0:0:0:
64,192,79860,1,0,0:0:0:0:
192,192,79919,1,0,0:0:0:0:
192,192,80094,1,0,0:0:0:0:
64,192,80152,1,0,0:0:0:0:
320,192,80269,1,0,0:0:0:0:
448,192,80327,1,0,0:0:0:0:
448,192,80502,1,0,0:0:0:0:
320,192,80561,1,0,0:0:0:0:
192,192,80678,1,0,0:0:0:0:
320,192,80736,1,0,0:0:0:0:
64,192,80911,1,0,0:0:0:0:
192,192,80969,1,0,0:0:0:0:
448,192,81028,1,0,0:0:0:0:
320,192,81086,1,0,0:0:0:0:
192,192,81145,128,0,81232:0:0:0:0:
320,192,81232,128,8,81349:0:0:0:0:
64,192,81349,128,8,83012:0:0:0:0:
448,192,81349,128,0,83012:0:0:0:0:
64,192,83946,128,0,84180:0:0:0:0:
320,192,84180,128,0,84413:0:0:0:0:
64,192,84413,1,2,0:0:0:0:
192,192,84413,128,8,84646:0:0:0:0:
448,192,84413,128,0,85346:0:0:0:0:
320,192,84646,128,0,84879:0:0:0:0:
64,192,84879,128,0,84996:0:0:0:0:
192,192,85113,128,0,85230:0:0:0:0:
320,192,85230,128,0,85463:0:0:0:0:
64,192,85346,128,0,86280:0:0:0:0:
448,192,85463,128,0,85580:0:0:0:0:
320,192,85697,128,0,85813:0:0:0:0:
192,192,85813,128,0,85930:0:0:0:0:
320,192,86047,128,0,86163:0:0:0:0:
192,192,86280,128,0,86514:0:0:0:0:
320,192,86280,128,0,87214:0:0:0:0:
448,192,86514,128,0,86747:0:0:0:0:
64,192,86747,128,0,86981:0:0:0:0:
448,192,86981,128,0,87097:0:0:0:0:
64,192,87097,128,0,87331:0:0:0:0:
192,192,87214,128,0,87681:0:0:0:0:
320,192,87331,128,0,87564:0:0:0:0:
64,192,87564,128,0,87681:0:0:0:0:
448,192,87681,128,0,88148:0:0:0:0:
192,192,87914,128,0,88148:0:0:0:0:
64,192,88148,128,0,89082:0:0:0:0:
320,192,88148,128,0,88381:0:0:0:0:
448,192,88381,128,0,88615:0:0:0:0:
192,192,88615,128,0,88848:0:0:0:0:
448,192,88848,128,0,88965:0:0:0:0:
192,192,88965,128,0,89198:0:0:0:0:
320,192,89082,128,0,90016:0:0:0:0:
64,192,89198,128,0,89315:0:0:0:0:
448,192,89315,128,0,89432:0:0:0:0:
64,192,89432,128,0,89549:0:0:0:0:
448,192,89549,128,0,89782:0:0:0:0:
64,192,89782,128,0,90016:0:0:0:0:
192,192,90016,128,0,90483:0:0:0:0:
448,192,90016,128,0,90249:0:0:0:0:
320,192,90249,128,0,90307:0:0:0:0:
320,192,90366,128,0,90424:0:0:0:0:
64,192,90483,128,0,90716:0:0:0:0:
448,192,90483,128,0,91767:0:0:0:0:
192,192,90716,128,0,91416:0:0:0:0:
320,192,90949,128,0,91767:0:0:0:0:
64,192,91416,128,0,91650:0:0:0:0:
192,192,91650,128,0,91883:0:0:0:0:
64,192,91883,1,8,0:0:0:0:
320,192,91883,1,2,0:0:0:0:
448,192,91883,128,0,92000:0:0:0:0:
64,192,92117,1,8,0:0:0:0:
192,192,92117,1,0,0:0:0:0:
320,192,92117,128,0,92234:0:0:0:0:
64,192,92350,1,8,0:0:0:0:
192,192,92350,128,0,92467:0:0:0:0:
64,192,92584,128,8,92700:0:0:0:0:
192,192,92584,1,0,0:0:0:0:
320,192,92700,128,0,92817:0:0:0:0:
64,192,92817,1,8,0:0:0:0:
192,192,92817,1,0,0:0:0:0:
448,192,92934,128,0,93051:0:0:0:0:
64,192,93051,1,8,0:0:0:0:
192,192,93051,1,0,0:0:0:0:
448,192,93167,128,0,93284:0:0:0:0:
64,192,93284,1,8,0:0:0:0:
192,192,93284,1,0,0:0:0:0:
320,192,93284,128,0,93401:0:0:0:0:
64,192,93518,1,8,0:0:0:0:
192,192,93518,1,0,0:0:0:0:
448,192,93518,128,0,93634:0:0:0:0:
64,192,93751,128,8,93868:0:0:0:0:
320,192,93751,1,2,0:0:0:0:
448,192,93751,1,0,0:0:0:0:
192,192,93984,128,8,94101:0:0:0:0:
320,192,93984,1,0,0:0:0:0:
448,192,93984,1,0,0:0:0:0:
320,192,94218,128,8,94335:0:0:0:0:
448,192,94218,1,0,0:0:0:0:
320,192,94451,1,8,0:0:0:0:
448,192,94451,128,0,94568:0:0:0:0:
192,192,94568,128,0,94802:0:0:0:0:
320,192,94685,1,8,0:0:0:0:
448,192,94685,1,0,0:0:0:0:
64,192,94802,128,0,94918:0:0:0:0:
320,192,94918,128,8,95035:0:0:0:0:
448,192,94918,1,0,0:0:0:0:
64,192,95035,128,0,95152:0:0:0:0:
192,192,95152,128,8,95502:0:0:0:0:
320,192,95152,1,0,0:0:0:0:
448,192,95152,1,0,0:0:0:0:
320,192,95385,1,8,0:0:0:0:
448,192,95385,1,0,0:0:0:0:
64,192,95619,1,8,0:0:0:0:
192,192,95619,1,2,0:0:0:0:
320,192,95619,1,0,0:0:0:0:
64,192,95735,1,8,0:0:0:0:
64,192,95852,1,8,0:0:0:0:
64,192,95969,1,8,0:0:0:0:
192,192,96086,1,8,0:0:0:0:
320,192,96086,1,2,0:0:0:0:
448,192,96086,1,0,0:0:0:0:
320,192,96202,1,8,0:0:0:0:
320,192,96319,1,8,0:0:0:0:
320,192,96436,1,8,0:0:0:0:
64,192,96553,1,8,0:0:0:0:
192,192,96553,1,2,0:0:0:0:
448,192,96553,1,0,0:0:0:0:
192,192,96669,1,8,0:0:0:0:
192,192,96786,1,8,0:0:0:0:
192,192,96903,1,8,0:0:0:0:
64,192,97020,1,8,0:0:0:0:
320,192,97020,1,2,0:0:0:0:
448,192,97020,1,0,0:0:0:0:
448,192,97136,1,8,0:0:0:0:
448,192,97253,1,8,0:0:0:0:
448,192,97370,1,8,0:0:0:0:
64,192,97486,1,8,0:0:0:0:
192,192,97486,1,2,0:0:0:0:
448,192,97545,1,8,0:0:0:0:
320,192,97603,1,8,0:0:0:0:
192,192,97662,1,8,0:0:0:0:
64,192,97720,1,8,0:0:0:0:
448,192,97720,1,0,0:0:0:0:
320,192,97778,1,8,0:0:0:0:
448,192,97837,1,8,0:0:0:0:
192,192,97895,1,8,0:0:0:0:
320,192,97953,1,8,0:0:0:0:
64,192,98012,1,8,0:0:0:0:
192,192,98070,1,8,0:0:0:0:
320,192,98128,1,8,0:0:0:0:
448,192,98187,1,8,0:0:0:0:
64,192,98245,1,8,0:0:0:0:
320,192,98304,1,8,0:0:0:0:
192,192,98362,1,8,0:0:0:0:
64,192,98420,128,0,98654:0:0:0:0:
448,192,98420,128,0,98654:0:0:0:0:
192,192,98654,128,0,98887:0:0:0:0:
320,192,98654,128,0,98887:0:0:0:0:
64,192,98887,1,0,0:0:0:0:
448,192,98887,1,0,0:0:0:0:
64,192,100755,128,4,101105:0:0:0:0:
192,192,100755,1,2,0:0:0:0:
320,192,100755,1,0,0:0:0:0:
192,192,100988,1,2,0:0:0:0:
320,192,100988,1,0,0:0:0:0:
448,192,100988,1,0,0:0:0:0:
320,192,101105,128,0,101455:0:0:0:0:
64,192,101221,1,2,0:0:0:0:
192,192,101221,1,0,0:0:0:0:
448,192,101221,1,0,0:0:0:0:
64,192,101455,1,2,0:0:0:0:
192,192,101455,1,0,0:0:0:0:
448,192,101455,128,0,101572:0:0:0:0:
192,192,101572,128,0,101688:0:0:0:0:
64,192,101688,1,2,0:0:0:0:
320,192,101688,128,0,101922:0:0:0:0:
448,192,101688,1,0,0:0:0:0:
64,192,101922,1,2,0:0:0:0:
192,192,101922,1,0,0:0:0:0:
448,192,101922,1,0,0:0:0:0:
320,192,102039,128,0,102272:0:0:0:0:
64,192,102155,1,2,0:0:0:0:
192,192,102155,1,0,0:0:0:0:
448,192,102155,1,0,0:0:0:0:
64,192,102389,1,2,0:0:0:0:
320,192,102389,1,0,0:0:0:0:
448,192,102389,1,0,0:0:0:0:
64,192,102505,1,2,0:0:0:0:
320,192,102505,1,0,0:0:0:0:
448,192,102505,1,0,0:0:0:0:
64,192,102622,128,2,102856:0:0:0:0:
192,192,102622,1,0,0:0:0:0:
448,192,102622,1,0,0:0:0:0:
192,192,102856,1,2,0:0:0:0:
320,192,102856,128,0,103089:0:0:0:0:
448,192,102856,1,0,0:0:0:0:
64,192,103089,1,2,0:0:0:0:
192,192,103089,128,0,103323:0:0:0:0:
448,192,103089,1,0,0:0:0:0:
64,192,103323,1,2,0:0:0:0:
320,192,103323,1,0,0:0:0:0:
448,192,103323,1,0,0:0:0:0:
320,192,103439,128,0,103673:0:0:0:0:
64,192,103556,1,2,0:0:0:0:
192,192,103556,1,0,0:0:0:0:
448,192,103556,1,0,0:0:0:0:
320,192,103790,1,2,0:0:0:0:
448,192,103790,1,0,0:0:0:0:
192,192,103848,1,2,0:0:0:0:
64,192,103906,1,2,0:0:0:0:
448,192,103906,1,0,0:0:0:0:
192,192,103965,1,2,0:0:0:0:
320,192,104023,1,2,0:0:0:0:
448,192,104023,1,0,0:0:0:0:
192,192,104140,1,2,0:0:0:0:
320,192,104140,1,0,0:0:0:0:
64,192,104256,1,2,0:0:0:0:
192,192,104256,1,0,0:0:0:0:
448,192,104256,1,0,0:0:0:0:
64,192,104490,128,2,104723:0:0:0:0:
320,192,104490,1,0,0:0:0:0:
448,192,104490,1,0,0:0:0:0:
192,192,104607,1,0,0:0:0:0:
192,192,104723,1,2,0:0:0:0:
320,192,104723,128,0,104957:0:0:0:0:
448,192,104723,1,0,0:0:0:0:
64,192,104840,1,0,0:0:0:0:
64,192,104957,1,2,0:0:0:0:
192,192,104957,128,0,105190:0:0:0:0:
448,192,104957,1,0,0:0:0:0:
320,192,105074,1,0,0:0:0:0:
64,192,105190,1,2,0:0:0:0:
320,192,105190,1,0,0:0:0:0:
448,192,105190,128,0,105307:0:0:0:0:
192,192,105307,128,0,105424:0:0:0:0:
64,192,105424,1,2,0:0:0:0:
320,192,105424,1,0,0:0:0:0:
448,192,105424,1,0,0:0:0:0:
320,192,105540,128,0,105657:0:0:0:0:
64,192,105657,128,2,105774:0:0:0:0:
192,192,105657,1,0,0:0:0:0:
448,192,105657,1,0,0:0:0:0:
320,192,105774,128,0,105891:0:0:0:0:
64,192,105891,128,2,106007:0:0:0:0:
192,192,105891,1,0,0:0:0:0:
448,192,105891,1,0,0:0:0:0:
320,192,106007,1,0,0:0:0:0:
64,192,106124,1,2,0:0:0:0:
192,192,106124,1,0,0:0:0:0:
448,192,106124,128,0,106358:0:0:0:0:
64,192,106241,1,2,0:0:0:0:
192,192,106241,1,0,0:0:0:0:
64,192,106358,1,2,0:0:0:0:
192,192,106358,1,0,0:0:0:0:
320,192,106358,128,0,106591:0:0:0:0:
448,192,106474,1,0,0:0:0:0:
64,192,106591,128,2,106649:0:0:0:0:
192,192,106591,1,0,0:0:0:0:
448,192,106591,1,0,0:0:0:0:
64,192,106708,128,0,106766:0:0:0:0:
192,192,106825,128,2,107058:0:0:0:0:
320,192,106825,1,0,0:0:0:0:
448,192,106825,1,0,0:0:0:0:
64,192,106941,1,0,0:0:0:0:
64,192,107058,1,2,0:0:0:0:
320,192,107058,128,0,107758:0:0:0:0:
448,192,107058,1,0,0:0:0:0:
192,192,107175,1,0,0:0:0:0:
64,192,107291,1,2,0:0:0:0:
448,192,107291,1,0,0:0:0:0:
192,192,107408,128,0,107467:0:0:0:0:
64,192,107525,1,2,0:0:0:0:
448,192,107525,1,0,0:0:0:0:
192,192,107642,128,0,107700:0:0:0:0:
64,192,107758,1,2,0:0:0:0:
448,192,107758,128,0,107933:0:0:0:0:
320,192,107875,128,0,107933:0:0:0:0:
64,192,107992,128,2,108167:0:0:0:0:
448,192,107992,1,0,0:0:0:0:
192,192,108109,128,0,108167:0:0:0:0:
192,192,108225,1,2,0:0:0:0:
320,192,108225,1,4,0:0:0:0:
448,192,108225,128,0,108576:0:0:0:0:
64,192,108459,1,2,0:0:0:0:
192,192,108459,1,0,0:0:0:0:
320,192,108459,1,0,0:0:0:0:
192,192,108576,128,0,108926:0:0:0:0:
64,192,108692,1,2,0:0:0:0:
320,192,108692,1,0,0:0:0:0:
448,192,108692,1,0,0:0:0:0:
64,192,108926,128,2,109159:0:0:0:0:
320,192,108926,1,0,0:0:0:0:
448,192,108926,1,0,0:0:0:0:
192,192,109159,1,2,0:0:0:0:
320,192,109159,1,0,0:0:0:0:
448,192,109159,128,0,109393:0:0:0:0:
64,192,109393,1,2,0:0:0:0:
192,192,109393,1,0,0:0:0:0:
320,192,109393,1,0,0:0:0:0:
192,192,109509,128,0,109743:0:0:0:0:
64,192,109626,1,2,0:0:0:0:
320,192,109626,1,0,0:0:0:0:
448,192,109626,1,0,0:0:0:0:
64,192,109860,1,2,0:0:0:0:
192,192,109860,1,0,0:0:0:0:
448,192,109860,1,0,0:0:0:0:
64,192,109976,1,2,0:0:0:0:
192,192,109976,1,0,0:0:0:0:
448,192,109976,1,0,0:0:0:0:
64,192,110093,1,2,0:0:0:0:
320,192,110093,1,0,0:0:0:0:
448,192,110093,128,0,110443:0:0:0:0:
64,192,110326,1,2,0:0:0:0:
192,192,110326,1,0,0:0:0:0:
320,192,110326,1,0,0:0:0:0:
192,192,110443,128,0,110677:0:0:0:0:
64,192,110560,1,2,0:0:0:0:
320,192,110560,1,0,0:0:0:0:
448,192,110560,1,0,0:0:0:0:
320,192,110677,128,0,110793:0:0:0:0:
64,192,110793,1,2,0:0:0:0:
192,192,110793,1,0,0:0:0:0:
448,192,110793,128,0,111027:0:0:0:0:
64,192,111027,1,2,0:0:0:0:
192,192,111027,1,0,0:0:0:0:
320,192,111027,1,0,0:0:0:0:
64,192,111260,1,2,0:0:0:0:
192,192,111260,1,0,0:0:0:0:
320,192,111319,1,2,0:0:0:0:
64,192,111377,1,2,0:0:0:0:
448,192,111377,1,0,0:0:0:0:
320,192,111435,1,2,0:0:0:0:
64,192,111494,1,2,0:0:0:0:
192,192,111494,1,0,0:0:0:0:
192,192,111611,1,2,0:0:0:0:
320,192,111611,1,0,0:0:0:0:
64,192,111727,1,2,0:0:0:0:
320,192,111727,1,0,0:0:0:0:
448,192,111727,1,0,0:0:0:0:
64,192,111961,1,2,0:0:0:0:
192,192,111961,1,0,0:0:0:0:
448,192,111961,128,0,112194:0:0:0:0:
320,192,112077,1,0,0:0:0:0:
64,192,112194,1,2,0:0:0:0:
192,192,112194,128,0,112428:0:0:0:0:
320,192,112194,1,0,0:0:0:0:
448,192,112311,1,0,0:0:0:0:
64,192,112428,1,2,0:0:0:0:
320,192,112428,128,0,112661:0:0:0:0:
448,192,112428,1,0,0:0:0:0:
192,192,112544,1,0,0:0:0:0:
64,192,112661,128,2,112778:0:0:0:0:
192,192,112661,1,0,0:0:0:0:
448,192,112661,1,0,0:0:0:0:
320,192,112778,128,0,112895:0:0:0:0:
64,192,112895,1,2,0:0:0:0:
192,192,112895,1,0,0:0:0:0:
448,192,112895,1,0,0:0:0:0:
192,192,113011,128,0,113128:0:0:0:0:
64,192,113128,1,2,0:0:0:0:
320,192,113128,1,0,0:0:0:0:
448,192,113128,128,0,113245:0:0:0:0:
64,192,113245,128,0,113362:0:0:0:0:
192,192,113362,1,2,0:0:0:0:
320,192,113362,128,0,113478:0:0:0:0:
448,192,113362,1,0,0:0:0:0:
192,192,113478,128,0,113595:0:0:0:0:
320,192,113595,1,2,0:0:0:0:
448,192,113595,128,0,113712:0:0:0:0:
192,192,113712,128,2,113828:0:0:0:0:
64,192,113828,1,2,0:0:0:0:
448,192,113828,1,0,0:0:0:0:
320,192,113945,128,0,114062:0:0:0:0:
64,192,114062,1,2,0:0:0:0:
192,192,114062,1,0,0:0:0:0:
448,192,114062,128,0,114179:0:0:0:0:
64,192,114179,128,0,114295:0:0:0:0:
192,192,114295,1,2,0:0:0:0:
320,192,114295,128,0,114412:0:0:0:0:
448,192,114295,1,0,0:0:0:0:
192,192,114412,128,0,114529:0:0:0:0:
64,192,114529,128,2,114646:0:0:0:0:
320,192,114529,1,0,0:0:0:0:
448,192,114529,1,0,0:0:0:0:
320,192,114646,128,0,114762:0:0:0:0:
448,192,114762,128,0,115696:0:0:0:0:
64,192,115696,1,2,0:0:0:0:
192,192,115696,1,4,0:0:0:0:
320,192,115696,1,0,0:0:0:0:
64,192,115813,1,2,0:0:0:0:
192,192,115813,1,0,0:0:0:0:
320,192,115930,1,2,0:0:0:0:
448,192,115930,1,0,0:0:0:0:
64,192,116046,1,2,0:0:0:0:
192,192,116046,1,0,0:0:0:0:
64,192,116163,1,2,0:0:0:0:
192,192,116163,1,0,0:0:0:0:
192,192,116280,1,2,0:0:0:0:
320,192,116280,1,0,0:0:0:0:
320,192,116397,1,2,0:0:0:0:
448,192,116397,1,0,0:0:0:0:
64,192,116455,1,2,0:0:0:0:
192,192,116513,1,2,0:0:0:0:
448,192,116513,1,0,0:0:0:0:
320,192,116572,1,2,0:0:0:0:
64,192,116630,1,2,0:0:0:0:
192,192,116630,1,0,0:0:0:0:
64,192,116747,1,2,0:0:0:0:
448,192,116747,1,0,0:0:0:0:
320,192,116805,1,2,0:0:0:0:
192,192,116863,1,2,0:0:0:0:
448,192,116863,1,0,0:0:0:0:
192,192,116980,1,2,0:0:0:0:
320,192,116980,1,0,0:0:0:0:
64,192,117097,1,2,0:0:0:0:
320,192,117097,1,0,0:0:0:0:
448,192,117214,128,2,117330:0:0:0:0:
64,192,117330,1,2,0:0:0:0:
192,192,117330,1,0,0:0:0:0:
320,192,117389,1,2,0:0:0:0:
64,192,117447,1,2,0:0:0:0:
448,192,117447,1,0,0:0:0:0:
192,192,117505,1,2,0:0:0:0:
320,192,117564,1,2,0:0:0:0:
448,192,117564,1,0,0:0:0:0:
320,192,117681,1,2,0:0:0:0:
448,192,117681,1,0,0:0:0:0:
64,192,117797,1,2,0:0:0:0:
192,192,117797,1,0,0:0:0:0:
320,192,117914,1,2,0:0:0:0:
448,192,117914,1,0,0:0:0:0:
320,192,118031,1,2,0:0:0:0:
448,192,118031,1,0,0:0:0:0:
192,192,118147,1,2,0:0:0:0:
320,192,118147,1,0,0:0:0:0:
64,192,118264,1,2,0:0:0:0:
192,192,118264,1,0,0:0:0:0:
448,192,118323,1,2,0:0:0:0:
64,192,118381,1,2,0:0:0:0:
320,192,118381,1,0,0:0:0:0:
192,192,118439,1,2,0:0:0:0:
320,192,118498,1,2,0:0:0:0:
448,192,118498,1,0,0:0:0:0:
64,192,118614,1,2,0:0:0:0:
448,192,118614,1,0,0:0:0:0:
320,192,118673,1,2,0:0:0:0:
64,192,118731,128,2,118848:0:0:0:0:
192,192,118731,128,0,118848:0:0:0:0:
320,192,118848,1,2,0:0:0:0:
448,192,118848,1,0,0:0:0:0:
64,192,118965,1,2,0:0:0:0:
192,192,118965,1,0,0:0:0:0:
448,192,118965,1,0,0:0:0:0:
320,192,119081,1,2,0:0:0:0:
64,192,119198,1,2,0:0:0:0:
448,192,119198,1,0,0:0:0:0:
192,192,119256,1,2,0:0:0:0:
320,192,119315,128,2,119432:0:0:0:0:
448,192,119315,128,0,119432:0:0:0:0:
64,192,119432,1,2,0:0:0:0:
192,192,119432,1,4,0:0:0:0:
64,192,119548,1,2,0:0:0:0:
320,192,119548,1,0,0:0:0:0:
320,192,119665,1,2,0:0:0:0:
448,192,119665,1,0,0:0:0:0:
192,192,119782,1,2,0:0:0:0:
448,192,119782,1,0,0:0:0:0:
64,192,119898,1,2,0:0:0:0:
192,192,119898,1,0,0:0:0:0:
320,192,120015,1,2,0:0:0:0:
448,192,120015,1,0,0:0:0:0:
64,192,120132,1,2,0:0:0:0:
448,192,120132,1,0,0:0:0:0:
192,192,120190,1,2,0:0:0:0:
64,192,120249,1,2,0:0:0:0:
320,192,120249,1,0,0:0:0:0:
448,192,120307,1,2,0:0:0:0:
192,192,120365,1,2,0:0:0:0:
320,192,120365,1,0,0:0:0:0:
64,192,120482,1,2,0:0:0:0:
192,192,120482,1,0,0:0:0:0:
320,192,120540,1,2,0:0:0:0:
64,192,120599,1,2,0:0:0:0:
448,192,120599,1,0,0:0:0:0:
320,192,120716,1,2,0:0:0:0:
448,192,120716,1,0,0:0:0:0:
64,192,120832,1,2,0:0:0:0:
320,192,120832,1,0,0:0:0:0:
192,192,120949,1,2,0:0:0:0:
320,192,121066,1,2,0:0:0:0:
448,192,121066,1,0,0:0:0:0:
192,192,121124,1,2,0:0:0:0:
64,192,121183,1,2,0:0:0:0:
448,192,121183,1,0,0:0:0:0:
320,192,121241,1,2,0:0:0:0:
64,192,121299,1,2,0:0:0:0:
192,192,121299,1,0,0:0:0:0:
192,192,121416,1,2,0:0:0:0:
448,192,121416,1,0,0:0:0:0:
64,192,121474,1,2,0:0:0:0:
320,192,121533,128,2,121649:0:0:0:0:
448,192,121533,128,0,121649:0:0:0:0:
64,192,121649,1,2,0:0:0:0:
192,192,121649,1,0,0:0:0:0:
320,192,121766,1,2,0:0:0:0:
448,192,121766,1,0,0:0:0:0:
64,192,121883,128,2,122000:0:0:0:0:
192,192,122000,1,2,0:0:0:0:
448,192,122000,1,0,0:0:0:0:
320,192,122058,1,2,0:0:0:0:
64,192,122116,128,2,122233:0:0:0:0:
192,192,122116,128,0,122233:0:0:0:0:
448,192,122233,128,0,123167:0:0:0:0:
320,192,122700,128,0,123167:0:0:0:0:
64,192,123167,1,2,0:0:0:0:
192,192,123167,1,4,0:0:0:0:
64,192,123284,1,2,0:0:0:0:
192,192,123284,1,0,0:0:0:0:
320,192,123400,1,2,0:0:0:0:
448,192,123400,1,0,0:0:0:0:
64,192,123517,1,2,0:0:0:0:
192,192,123517,1,0,0:0:0:0:
64,192,123634,1,2,0:0:0:0:
192,192,123634,1,0,0:0:0:0:
192,192,123751,1,2,0:0:0:0:
320,192,123751,1,0,0:0:0:0:
320,192,123867,1,2,0:0:0:0:
448,192,123867,1,0,0:0:0:0:
64,192,123926,1,2,0:0:0:0:
192,192,123984,1,2,0:0:0:0:
448,192,123984,1,0,0:0:0:0:
320,192,124042,1,2,0:0:0:0:
64,192,124101,1,2,0:0:0:0:
192,192,124101,1,0,0:0:0:0:
64,192,124218,1,2,0:0:0:0:
448,192,124218,1,0,0:0:0:0:
320,192,124276,1,2,0:0:0:0:
192,192,124334,1,2,0:0:0:0:
448,192,124334,1,0,0:0:0:0:
192,192,124451,1,2,0:0:0:0:
320,192,124451,1,0,0:0:0:0:
64,192,124568,1,2,0:0:0:0:
320,192,124568,1,0,0:0:0:0:
448,192,124684,1,2,0:0:0:0:
64,192,124801,1,2,0:0:0:0:
192,192,124801,1,0,0:0:0:0:
320,192,124860,1,2,0:0:0:0:
64,192,124918,1,2,0:0:0:0:
448,192,124918,1,0,0:0:0:0:
192,192,124976,1,2,0:0:0:0:
320,192,125035,1,2,0:0:0:0:
448,192,125035,1,4,0:0:0:0:
320,192,125151,1,2,0:0:0:0:
448,192,125151,1,0,0:0:0:0:
64,192,125268,1,2,0:0:0:0:
192,192,125268,1,0,0:0:0:0:
320,192,125385,1,2,0:0:0:0:
448,192,125385,1,0,0:0:0:0:
320,192,125502,1,2,0:0:0:0:
448,192,125502,1,0,0:0:0:0:
192,192,125618,1,2,0:0:0:0:
320,192,125618,1,0,0:0:0:0:
64,192,125735,1,2,0:0:0:0:
192,192,125735,1,0,0:0:0:0:
448,192,125793,1,2,0:0:0:0:
64,192,125852,1,2,0:0:0:0:
320,192,125852,1,0,0:0:0:0:
192,192,125910,1,2,0:0:0:0:
320,192,125969,1,2,0:0:0:0:
448,192,125969,1,0,0:0:0:0:
64,192,126085,1,2,0:0:0:0:
448,192,126085,1,0,0:0:0:0:
320,192,126144,1,2,0:0:0:0:
64,192,126202,128,2,126319:0:0:0:0:
192,192,126202,128,0,126319:0:0:0:0:
320,192,126319,1,2,0:0:0:0:
448,192,126319,1,0,0:0:0:0:
64,192,126435,1,2,0:0:0:0:
448,192,126435,1,0,0:0:0:0:
192,192,126552,1,2,0:0:0:0:
64,192,126669,1,2,0:0:0:0:
320,192,126669,1,0,0:0:0:0:
192,192,126727,1,2,0:0:0:0:
320,192,126786,128,2,126902:0:0:0:0:
448,192,126786,128,0,126902:0:0:0:0:
64,192,126902,1,2,0:0:0:0:
192,192,126902,1,4,0:0:0:0:
64,192,127019,1,2,0:0:0:0:
192,192,127019,1,0,0:0:0:0:
320,192,127136,1,2,0:0:0:0:
448,192,127136,1,0,0:0:0:0:
192,192,127253,1,2,0:0:0:0:
448,192,127253,1,0,0:0:0:0:
64,192,127369,1,2,0:0:0:0:
192,192,127369,1,0,0:0:0:0:
320,192,127486,1,2,0:0:0:0:
448,192,127486,1,0,0:0:0:0:
64,192,127603,1,2,0:0:0:0:
448,192,127603,1,0,0:0:0:0:
192,192,127661,1,2,0:0:0:0:
320,192,127719,1,2,0:0:0:0:
448,192,127719,1,0,0:0:0:0:
64,192,127778,1,2,0:0:0:0:
192,192,127836,1,2,0:0:0:0:
320,192,127836,1,4,0:0:0:0:
192,192,127953,1,2,0:0:0:0:
448,192,127953,1,0,0:0:0:0:
320,192,128011,1,2,0:0:0:0:
64,192,128070,1,2,0:0:0:0:
448,192,128070,1,0,0:0:0:0:
192,192,128186,1,2,0:0:0:0:
320,192,128186,1,0,0:0:0:0:
192,192,128303,1,2,0:0:0:0:
320,192,128303,1,0,0:0:0:0:
64,192,128420,1,2,0:0:0:0:
448,192,128420,1,0,0:0:0:0:
64,192,128537,1,2,0:0:0:0:
192,192,128537,1,0,0:0:0:0:
320,192,128595,1,2,0:0:0:0:
192,192,128653,1,2,0:0:0:0:
448,192,128653,1,0,0:0:0:0:
64,192,128712,1,2,0:0:0:0:
320,192,128770,1,2,0:0:0:0:
448,192,128770,1,4,0:0:0:0:
64,192,128887,1,2,0:0:0:0:
192,192,128887,1,0,0:0:0:0:
448,192,128945,1,2,0:0:0:0:
192,192,129004,1,0,0:0:0:0:
320,192,129004,1,0,0:0:0:0:
64,192,129062,1,2,0:0:0:0:
320,192,129120,1,2,0:0:0:0:
448,192,129120,1,0,0:0:0:0:
192,192,129179,1,2,0:0:0:0:
320,192,129237,1,4,0:0:0:0:
448,192,129237,1,2,0:0:0:0:
64,192,129354,1,2,0:0:0:0:
192,192,129354,1,0,0:0:0:0:
320,192,129412,1,2,0:0:0:0:
64,192,129470,1,0,0:0:0:0:
448,192,129470,1,0,0:0:0:0:
192,192,129529,1,2,0:0:0:0:
320,192,129587,1,2,0:0:0:0:
448,192,129587,1,0,0:0:0:0:
64,192,129646,1,2,0:0:0:0:
192,192,129704,128,2,129821:0:0:0:0:
320,192,129704,128,4,129821:0:0:0:0:
448,192,129704,128,0,130639:0:0:0:0:
320,192,129937,128,0,130054:0:0:0:0:
320,192,130171,128,0,130639:0:0:0:0:
64,192,130639,1,2,0:0:0:0:
192,192,130639,1,4,0:0:0:0:
320,192,130697,1,2,0:0:0:0:
64,192,130755,1,2,0:0:0:0:
448,192,130755,1,0,0:0:0:0:
192,192,130813,1,2,0:0:0:0:
320,192,130871,1,2,0:0:0:0:
448,192,130871,1,0,0:0:0:0:
64,192,130929,1,2,0:0:0:0:
192,192,130987,1,2,0:0:0:0:
448,192,130987,1,0,0:0:0:0:
320,192,131045,1,2,0:0:0:0:
64,192,131104,1,2,0:0:0:0:
192,192,131104,1,0,0:0:0:0:
448,192,131162,1,2,0:0:0:0:
64,192,131220,1,2,0:0:0:0:
320,192,131220,1,0,0:0:0:0:
192,192,131278,1,2,0:0:0:0:
320,192,131336,128,2,131452:0:0:0:0:
448,192,131336,128,0,131452:0:0:0:0:
64,192,131452,1,2,0:0:0:0:
192,192,131511,1,2,0:0:0:0:
320,192,131570,1,2,0:0:0:0:
448,192,131570,1,0,0:0:0:0:
64,192,131626,1,2,0:0:0:0:
192,192,131683,1,2,0:0:0:0:
320,192,131683,1,0,0:0:0:0:
448,192,131739,1,2,0:0:0:0:
64,192,131796,1,2,0:0:0:0:
192,192,131796,1,0,0:0:0:0:
320,192,131853,1,2,0:0:0:0:
64,192,131909,1,2,0:0:0:0:
448,192,131909,1,0,0:0:0:0:
192,192,131966,1,2,0:0:0:0:
320,192,132022,1,2,0:0:0:0:
448,192,132022,1,0,0:0:0:0:
64,192,132079,1,2,0:0:0:0:
192,192,132136,128,2,132249:0:0:0:0:
320,192,132136,128,0,132249:0:0:0:0:
448,192,132249,1,2,0:0:0:0:
320,192,132305,1,2,0:0:0:0:
64,192,132362,128,2,132475:0:0:0:0:
192,192,132362,128,0,132475:0:0:0:0:
448,192,132475,1,2,0:0:0:0:
320,192,132530,1,2,0:0:0:0:
64,192,132585,1,2,0:0:0:0:
192,192,132585,1,0,0:0:0:0:
448,192,132640,1,2,0:0:0:0:
64,192,132696,128,2,132805:0:0:0:0:
192,192,132696,128,0,132805:0:0:0:0:
320,192,132805,1,2,0:0:0:0:
448,192,132805,1,0,0:0:0:0:
192,192,132860,1,2,0:0:0:0:
64,192,132915,1,2,0:0:0:0:
448,192,132915,1,0,0:0:0:0:
320,192,132969,1,0,0:0:0:0:
64,192,133023,128,2,133131:0:0:0:0:
192,192,133023,128,0,133131:0:0:0:0:
320,192,133132,128,2,133238:0:0:0:0:
448,192,133132,128,0,133238:0:0:0:0:
64,192,133238,128,2,133344:0:0:0:0:
192,192,133238,128,0,133344:0:0:0:0:
320,192,133344,1,2,0:0:0:0:
448,192,133344,1,0,0:0:0:0:
320,192,133550,1,8,0:0:0:0:
320,192,133654,1,8,0:0:0:0:
64,192,133757,1,8,0:0:0:0:
64,192,133861,1,8,0:0:0:0:
192,192,133964,1,8,0:0:0:0:
192,192,134068,1,8,0:0:0:0:
64,192,134171,128,2,134688:0:0:0:0:
192,192,134171,128,4,134481:0:0:0:0:
320,192,134171,128,0,134481:0:0:0:0:
448,192,134171,128,0,134688:0:0:0:0:
