osu file format v14

[General]
AudioFilename: audio.mp3
AudioLeadIn: 0
PreviewTime: -1
Countdown: 1
SampleSet: Normal
StackLeniency: 0.7
Mode: 1
LetterboxInBreaks: 0
WidescreenStoryboard: 0

[Editor]
DistanceSpacing: 1.4
BeatDivisor: 4
GridSize: 32
TimelineZoom: 3.999999

[Metadata]
Title:QZKago Requiem
TitleUnicode:QZKago Requiem
Artist:t+pazolite
ArtistUnicode:t+pazolite
Creator:jyake_ou
Version:Hell Oni
Source:maimai FiNALE
Tags:speedcore maimai garakuta doll play oshama scramble
BeatmapID:1874560
BeatmapSetID:897265

[Difficulty]
HPDrainRate:5
CircleSize:5
OverallDifficulty:7
ApproachRate:5
SliderMultiplier:1.4
SliderTickRate:1

[Events]
//Background and Video events
0,0,"388c893f9deaa2f333011c51113e8917.jpg",0,0
//Break Periods
//Storyboard Layer 0 (Background)
//Storyboard Layer 1 (Fail)
//Storyboard Layer 2 (Pass)
//Storyboard Layer 3 (Foreground)
//Storyboard Sound Samples

[TimingPoints]
291,233.463035019455,4,1,0,100,1,0
15232,-95.2380952380952,4,1,0,100,0,1
21769,-95.2380952380952,4,1,0,100,0,0
22469,-80,4,1,0,100,0,0
22703,-95.2380952380952,4,1,0,100,0,1
27139,-95.2380952380952,4,1,0,100,0,0
27372,-95.2380952380952,4,1,0,100,0,1
27839,-95.2380952380952,4,1,0,100,0,0
28306,-95.2380952380952,4,1,0,100,0,1
29707,-96.1538461538461,4,1,0,100,0,1
29824,-97.0873786407767,4,1,0,100,0,1
29940,-98.0392156862745,4,1,0,100,0,1
30057,-99.009900990099,4,1,0,100,0,1
30174,-100,4,1,0,100,0,0
45115,466.926070038911,4,1,0,100,1,0
45115,-80,4,1,0,100,0,0
45348,-81.3008130081301,4,1,0,100,0,0
45465,-82.6446280991736,4,1,0,100,0,0
45815,-84.7457627118644,4,1,0,100,0,0
46048,-86.2068965517241,4,1,0,100,0,0
46282,-87.719298245614,4,1,0,100,0,0
46515,-89.2857142857143,4,1,0,100,0,0
46632,-90.0900900900901,4,1,0,100,0,0
46749,-90.9090909090909,4,1,0,100,0,0
46865,-91.743119266055,4,1,0,100,0,0
46982,-92.5925925925926,4,1,0,100,0,0
47216,-90.9090909090909,4,1,0,100,0,0
47332,-90.0900900900901,4,1,0,100,0,0
47683,-87.719298245614,4,1,0,100,0,0
47916,-86.2068965517241,4,1,0,100,0,0
48150,-84.7457627118644,4,1,0,100,0,0
48383,-83.3333333333333,4,1,0,100,0,0
48500,-82.6446280991736,4,1,0,100,0,0
48616,-81.9672131147541,4,1,0,100,0,0
48733,-81.3008130081301,4,1,0,100,0,0
48850,-80,4,1,0,100,0,0
49083,-81.3008130081301,4,1,0,100,0,0
49200,-82.6446280991736,4,1,0,100,0,0
49783,-86.2068965517241,4,1,0,100,0,0
50017,-87.719298245614,4,1,0,100,0,0
50250,-89.2857142857143,4,1,0,100,0,0
50367,-90.0900900900901,4,1,0,100,0,0
50484,-90.9090909090909,4,1,0,100,0,0
50717,-92.5925925925926,4,1,0,100,0,0
50951,-90.9090909090909,4,1,0,100,0,0
51067,-90.0900900900901,4,1,0,100,0,0
51651,-86.2068965517241,4,1,0,100,0,0
51885,-84.7457627118644,4,1,0,100,0,0
52118,-83.3333333333333,4,1,0,100,0,0
52235,-82.6446280991736,4,1,0,100,0,0
52351,-81.9672131147541,4,1,0,100,0,0
52468,-81.3008130081301,4,1,0,100,0,0
52585,233.463035019455,4,1,0,100,1,0
52585,-66.6666666666667,4,1,0,100,0,0
53752,-71.4285714285714,4,1,0,100,0,0
54452,-66.6666666666667,4,1,0,100,0,0
55620,-71.4285714285714,4,1,0,100,0,0
56320,-66.6666666666667,4,1,0,100,0,0
56787,-68.9655172413793,4,1,0,100,0,0
57020,-71.4285714285714,4,1,0,100,0,0
57254,-74.0740740740741,4,1,0,100,0,0
57721,-71.4285714285714,4,1,0,100,0,0
57954,-74.0740740740741,4,1,0,100,0,0
58188,-76.9230769230769,4,1,0,100,0,0
58655,-80,4,1,0,100,0,0
59121,-71.4285714285714,4,1,0,100,0,0
59355,-76.9230769230769,4,1,0,100,0,0
59588,-83.3333333333333,4,1,0,100,0,0
59822,-90.9090909090909,4,1,0,100,0,0
60055,-100,4,1,0,100,0,0
67059,-133.333333333333,4,1,0,100,0,0
67526,-95.2380952380952,4,1,0,100,0,0
77332,-111.111111111111,4,1,0,100,0,0
77565,-120.481927710843,4,1,0,100,0,0
77799,-133.333333333333,4,1,0,100,0,0
84802,-120.481927710843,4,1,0,100,0,0
85036,-111.111111111111,4,1,0,100,0,0
85269,-100,4,1,0,100,0,0
92740,-100,4,1,0,100,0,0
107682,-95.2380952380952,4,1,0,100,0,1
122623,-95.2380952380952,4,1,0,100,0,0

[HitObjects]
256,192,291,5,8,0:0:0:0:
256,192,524,1,8,0:0:0:0:
256,192,757,1,0,0:0:0:0:
256,192,991,1,8,0:0:0:0:
256,192,1224,1,0,0:0:0:0:
256,192,1458,1,8,0:0:0:0:
256,192,1925,1,8,0:0:0:0:
256,192,2158,1,0,0:0:0:0:
256,192,2392,1,8,0:0:0:0:
256,192,2625,1,8,0:0:0:0:
256,192,2859,1,0,0:0:0:0:
256,192,3092,1,8,0:0:0:0:
256,192,3326,1,8,0:0:0:0:
256,192,3559,1,0,0:0:0:0:
256,192,3792,1,8,0:0:0:0:
256,192,4026,1,8,0:0:0:0:
256,192,4259,1,8,0:0:0:0:
256,192,4493,1,0,0:0:0:0:
256,192,4726,1,8,0:0:0:0:
256,192,4960,1,0,0:0:0:0:
256,192,5193,1,8,0:0:0:0:
256,192,5660,1,0,0:0:0:0:
256,192,5894,1,8,0:0:0:0:
256,192,6127,1,0,0:0:0:0:
256,192,6361,1,8,0:0:0:0:
256,192,6594,1,8,0:0:0:0:
256,192,7294,1,0,0:0:0:0:
256,192,7528,1,8,0:0:0:0:
256,192,7761,1,4,0:0:0:0:
256,192,7995,1,8,0:0:0:0:
256,192,8228,1,0,0:0:0:0:
256,192,8462,1,8,0:0:0:0:
256,192,8695,1,0,0:0:0:0:
256,192,8929,1,8,0:0:0:0:
256,192,9396,1,8,0:0:0:0:
256,192,9629,1,0,0:0:0:0:
256,192,9862,1,8,0:0:0:0:
256,192,10096,1,8,0:0:0:0:
256,192,10329,1,0,0:0:0:0:
256,192,10563,1,8,0:0:0:0:
256,192,10796,1,0,0:0:0:0:
256,192,11030,1,8,0:0:0:0:
256,192,11497,1,8,0:0:0:0:
256,192,11730,1,8,0:0:0:0:
256,192,11964,1,0,0:0:0:0:
256,192,12197,1,8,0:0:0:0:
256,192,12431,1,0,0:0:0:0:
256,192,12664,1,0,0:0:0:0:
256,192,12898,1,0,0:0:0:0:
256,192,13053,1,0,0:0:0:0:
256,192,13131,1,8,0:0:0:0:
256,192,13364,1,0,0:0:0:0:
256,192,13481,1,8,0:0:0:0:
256,192,13598,1,8,0:0:0:0:
256,192,13715,1,8,0:0:0:0:
256,192,13831,1,0,0:0:0:0:
256,192,13948,1,0,0:0:0:0:
256,192,14065,1,8,0:0:0:0:
256,192,14182,1,0,0:0:0:0:
256,192,15232,1,0,0:0:0:0:
256,192,15349,1,0,0:0:0:0:
256,192,15407,1,0,0:0:0:0:
256,192,15466,1,8,0:0:0:0:
256,192,15582,1,0,0:0:0:0:
256,192,15699,1,8,0:0:0:0:
256,192,15757,1,8,0:0:0:0:
256,192,15816,1,0,0:0:0:0:
256,192,15933,1,8,0:0:0:0:
256,192,15991,1,0,0:0:0:0:
256,192,16049,1,8,0:0:0:0:
256,192,16108,1,8,0:0:0:0:
256,192,16166,1,0,0:0:0:0:
256,192,16283,1,0,0:0:0:0:
256,192,16341,1,0,0:0:0:0:
256,192,16399,1,8,0:0:0:0:
256,192,16516,1,0,0:0:0:0:
256,192,16633,1,8,0:0:0:0:
256,192,16691,1,0,0:0:0:0:
256,192,16750,1,0,0:0:0:0:
256,192,16866,1,8,0:0:0:0:
256,192,16925,1,8,0:0:0:0:
256,192,16983,1,8,0:0:0:0:
256,192,17041,1,8,0:0:0:0:
256,192,17100,1,0,0:0:0:0:
256,192,17217,1,0,0:0:0:0:
256,192,17275,1,0,0:0:0:0:
256,192,17333,1,8,0:0:0:0:
256,192,17450,1,0,0:0:0:0:
256,192,17567,1,8,0:0:0:0:
256,192,17625,1,8,0:0:0:0:
256,192,17683,1,0,0:0:0:0:
256,192,17800,1,8,0:0:0:0:
256,192,17859,1,8,0:0:0:0:
256,192,17917,1,0,0:0:0:0:
256,192,17975,1,8,0:0:0:0:
256,192,18034,1,0,0:0:0:0:
256,192,18150,1,0,0:0:0:0:
256,192,18189,1,8,0:0:0:0:
256,192,18228,1,8,0:0:0:0:
256,192,18267,1,0,0:0:0:0:
256,192,18384,1,8,0:0:0:0:
256,192,18501,1,0,0:0:0:0:
256,192,18540,1,0,0:0:0:0:
256,192,18578,1,0,0:0:0:0:
256,192,18617,1,8,0:0:0:0:
256,192,18734,1,0,0:0:0:0:
256,192,18773,1,0,0:0:0:0:
256,192,18812,1,0,0:0:0:0:
256,192,18851,1,8,0:0:0:0:
256,192,18909,1,8,0:0:0:0:
256,192,18968,1,0,0:0:0:0:
256,192,19084,1,0,0:0:0:0:
256,192,19143,1,0,0:0:0:0:
256,192,19201,1,8,0:0:0:0:
256,192,19318,1,0,0:0:0:0:
256,192,19434,1,8,0:0:0:0:
256,192,19493,1,8,0:0:0:0:
256,192,19551,1,0,0:0:0:0:
256,192,19668,1,8,0:0:0:0:
256,192,19726,1,0,0:0:0:0:
256,192,19785,1,8,0:0:0:0:
256,192,19843,1,8,0:0:0:0:
256,192,19901,1,0,0:0:0:0:
256,192,20018,1,0,0:0:0:0:
256,192,20076,1,0,0:0:0:0:
256,192,20135,1,8,0:0:0:0:
256,192,20252,1,0,0:0:0:0:
256,192,20368,1,8,0:0:0:0:
256,192,20407,1,8,0:0:0:0:
256,192,20446,1,0,0:0:0:0:
256,192,20485,1,0,0:0:0:0:
256,192,20602,1,8,0:0:0:0:
256,192,20660,1,8,0:0:0:0:
256,192,20719,1,8,0:0:0:0:
256,192,20777,1,8,0:0:0:0:
256,192,20835,1,0,0:0:0:0:
256,192,20952,1,8,0:0:0:0:
256,192,21069,1,0,0:0:0:0:
256,192,21108,1,0,0:0:0:0:
256,192,21147,1,0,0:0:0:0:
256,192,21185,1,8,0:0:0:0:
256,192,21302,1,0,0:0:0:0:
256,192,21341,1,0,0:0:0:0:
256,192,21380,1,0,0:0:0:0:
256,192,21419,1,8,0:0:0:0:
256,192,21536,1,0,0:0:0:0:
256,192,21575,1,0,0:0:0:0:
256,192,21613,1,0,0:0:0:0:
256,192,21652,1,8,0:0:0:0:
256,192,21691,1,8,0:0:0:0:
256,192,21730,1,8,0:0:0:0:
256,192,21769,1,0,0:0:0:0:
256,192,22003,1,0,0:0:0:0:
256,192,22236,1,0,0:0:0:0:
256,192,22469,1,12,0:0:0:0:
256,192,22703,1,0,0:0:0:0:
256,192,22820,1,0,0:0:0:0:
256,192,22878,1,0,0:0:0:0:
256,192,22936,1,8,0:0:0:0:
256,192,23053,1,0,0:0:0:0:
256,192,23170,1,8,0:0:0:0:
256,192,23228,1,8,0:0:0:0:
256,192,23287,1,0,0:0:0:0:
256,192,23403,1,8,0:0:0:0:
256,192,23462,1,0,0:0:0:0:
256,192,23520,1,8,0:0:0:0:
256,192,23578,1,8,0:0:0:0:
256,192,23637,1,0,0:0:0:0:
256,192,23754,1,0,0:0:0:0:
256,192,23812,1,0,0:0:0:0:
256,192,23870,1,8,0:0:0:0:
256,192,23987,1,0,0:0:0:0:
256,192,24104,1,8,0:0:0:0:
256,192,24162,1,8,0:0:0:0:
256,192,24220,1,0,0:0:0:0:
256,192,24337,1,8,0:0:0:0:
256,192,24396,1,8,0:0:0:0:
256,192,24454,1,8,0:0:0:0:
256,192,24512,1,8,0:0:0:0:
256,192,24571,1,0,0:0:0:0:
256,192,24687,1,0,0:0:0:0:
256,192,24746,1,0,0:0:0:0:
256,192,24804,1,8,0:0:0:0:
256,192,24921,1,0,0:0:0:0:
256,192,25038,1,8,0:0:0:0:
256,192,25096,1,8,0:0:0:0:
256,192,25154,1,0,0:0:0:0:
256,192,25271,1,8,0:0:0:0:
256,192,25329,1,8,0:0:0:0:
256,192,25388,1,0,0:0:0:0:
256,192,25446,1,8,0:0:0:0:
256,192,25505,1,0,0:0:0:0:
256,192,25621,1,0,0:0:0:0:
256,192,25660,1,8,0:0:0:0:
256,192,25699,1,8,0:0:0:0:
256,192,25738,1,0,0:0:0:0:
256,192,25855,1,8,0:0:0:0:
256,192,25971,1,0,0:0:0:0:
256,192,26010,1,0,0:0:0:0:
256,192,26049,1,0,0:0:0:0:
256,192,26088,1,8,0:0:0:0:
256,192,26205,1,0,0:0:0:0:
256,192,26244,1,0,0:0:0:0:
256,192,26283,1,0,0:0:0:0:
256,192,26322,1,8,0:0:0:0:
256,192,26380,1,8,0:0:0:0:
256,192,26438,1,0,0:0:0:0:
256,192,26555,1,0,0:0:0:0:
256,192,26613,1,0,0:0:0:0:
256,192,26672,1,8,0:0:0:0:
256,192,26789,1,0,0:0:0:0:
256,192,26905,1,8,0:0:0:0:
256,192,26964,1,8,0:0:0:0:
256,192,27022,1,0,0:0:0:0:
256,192,27139,1,8,0:0:0:0:
256,192,27372,1,0,0:0:0:0:
256,192,27489,1,0,0:0:0:0:
256,192,27547,1,0,0:0:0:0:
256,192,27606,1,8,0:0:0:0:
256,192,27722,1,8,0:0:0:0:
256,192,27839,1,0,0:0:0:0:
256,192,28073,1,8,0:0:0:0:
256,192,28306,1,0,0:0:0:0:
256,192,28423,1,0,0:0:0:0:
256,192,28481,1,0,0:0:0:0:
256,192,28540,1,8,0:0:0:0:
256,192,28656,1,0,0:0:0:0:
256,192,28715,1,8,0:0:0:0:
256,192,28773,1,8,0:0:0:0:
256,192,28831,1,8,0:0:0:0:
256,192,28890,1,0,0:0:0:0:
256,192,28948,1,0,0:0:0:0:
256,192,29006,1,8,0:0:0:0:
256,192,29065,1,0,0:0:0:0:
256,192,29123,1,8,0:0:0:0:
256,192,29182,1,8,0:0:0:0:
256,192,29240,1,0,0:0:0:0:
256,192,29415,1,0,0:0:0:0:
256,192,29590,1,8,0:0:0:0:
256,192,29707,1,0,0:0:0:0:
256,192,29824,1,0,0:0:0:0:
256,192,29940,1,8,0:0:0:0:
256,192,30057,1,8,0:0:0:0:
256,192,30174,1,0,0:0:0:0:
256,192,30290,1,0,0:0:0:0:
256,192,30349,1,0,0:0:0:0:
256,192,30407,1,8,0:0:0:0:
256,192,30524,1,0,0:0:0:0:
256,192,30641,1,8,0:0:0:0:
256,192,30757,1,0,0:0:0:0:
256,192,30874,1,8,0:0:0:0:
256,192,30991,1,8,0:0:0:0:
256,192,31108,1,0,0:0:0:0:
256,192,31224,1,8,0:0:0:0:
256,192,31283,1,0,0:0:0:0:
256,192,31341,1,0,0:0:0:0:
256,192,31458,1,8,0:0:0:0:
256,192,31516,1,0,0:0:0:0:
256,192,31575,1,0,0:0:0:0:
256,192,31691,1,8,0:0:0:0:
256,192,31808,1,0,0:0:0:0:
256,192,31866,1,8,0:0:0:0:
256,192,31925,1,0,0:0:0:0:
256,192,32041,1,8,0:0:0:0:
256,192,32158,1,0,0:0:0:0:
256,192,32275,1,8,0:0:0:0:
256,192,32333,1,8,0:0:0:0:
256,192,32392,1,0,0:0:0:0:
256,192,32508,1,8,0:0:0:0:
256,192,32567,1,8,0:0:0:0:
256,192,32625,1,0,0:0:0:0:
256,192,32683,1,0,0:0:0:0:
256,192,32742,1,8,0:0:0:0:
256,192,32859,1,8,0:0:0:0:
256,192,32975,1,0,0:0:0:0:
256,192,33092,1,8,0:0:0:0:
256,192,33209,1,0,0:0:0:0:
256,192,33267,1,8,0:0:0:0:
256,192,33326,1,8,0:0:0:0:
256,192,33384,1,8,0:0:0:0:
256,192,33442,1,0,0:0:0:0:
256,192,33559,1,0,0:0:0:0:
256,192,33676,1,8,0:0:0:0:
256,192,33909,1,0,0:0:0:0:
256,192,34026,1,0,0:0:0:0:
256,192,34084,1,0,0:0:0:0:
256,192,34143,1,8,0:0:0:0:
256,192,34259,1,0,0:0:0:0:
256,192,34376,1,8,0:0:0:0:
256,192,34551,1,0,0:0:0:0:
256,192,34610,1,8,0:0:0:0:
256,192,34726,1,8,0:0:0:0:
256,192,34843,1,0,0:0:0:0:
256,192,35018,1,8,0:0:0:0:
256,192,35076,1,0,0:0:0:0:
256,192,35193,1,0,0:0:0:0:
256,192,35252,1,0,0:0:0:0:
256,192,35310,1,8,0:0:0:0:
256,192,35427,1,0,0:0:0:0:
256,192,35543,1,8,0:0:0:0:
256,192,35602,1,0,0:0:0:0:
256,192,35660,1,8,0:0:0:0:
256,192,35719,1,8,0:0:0:0:
256,192,35777,1,0,0:0:0:0:
256,192,35894,1,0,0:0:0:0:
256,192,36010,1,8,0:0:0:0:
256,192,36069,1,8,0:0:0:0:
256,192,36127,1,0,0:0:0:0:
256,192,36244,1,8,0:0:0:0:
256,192,36302,1,8,0:0:0:0:
256,192,36361,1,8,0:0:0:0:
256,192,36477,1,8,0:0:0:0:
256,192,36536,1,8,0:0:0:0:
256,192,36594,1,8,0:0:0:0:
256,192,36711,1,0,0:0:0:0:
256,192,36944,1,8,0:0:0:0:
256,192,37061,1,0,0:0:0:0:
256,192,37178,1,8,0:0:0:0:
256,192,37236,1,8,0:0:0:0:
256,192,37411,1,8,0:0:0:0:
256,192,37450,1,8,0:0:0:0:
256,192,37489,1,8,0:0:0:0:
256,192,37528,1,0,0:0:0:0:
256,192,37645,1,0,0:0:0:0:
256,192,37878,1,8,0:0:0:0:
256,192,37995,1,0,0:0:0:0:
256,192,38112,1,8,0:0:0:0:
256,192,38228,1,8,0:0:0:0:
256,192,38345,1,0,0:0:0:0:
256,192,38462,1,8,0:0:0:0:
256,192,38578,1,8,0:0:0:0:
256,192,38695,1,0,0:0:0:0:
256,192,38754,1,8,0:0:0:0:
256,192,38812,1,8,0:0:0:0:
256,192,38870,1,8,0:0:0:0:
256,192,38929,1,8,0:0:0:0:
256,192,39045,1,0,0:0:0:0:
256,192,39279,1,8,0:0:0:0:
256,192,39318,1,8,0:0:0:0:
256,192,39512,1,8,0:0:0:0:
256,192,39629,1,0,0:0:0:0:
256,192,39746,1,8,0:0:0:0:
256,192,39804,1,8,0:0:0:0:
256,192,39862,1,0,0:0:0:0:
256,192,39979,1,8,0:0:0:0:
256,192,40038,1,8,0:0:0:0:
256,192,40096,1,0,0:0:0:0:
256,192,40154,1,0,0:0:0:0:
256,192,40213,1,8,0:0:0:0:
256,192,40329,1,8,0:0:0:0:
256,192,40446,1,0,0:0:0:0:
256,192,40563,1,8,0:0:0:0:
256,192,40680,1,0,0:0:0:0:
256,192,40738,1,8,0:0:0:0:
256,192,40796,1,8,0:0:0:0:
256,192,40855,1,8,0:0:0:0:
256,192,40913,1,0,0:0:0:0:
256,192,41030,1,0,0:0:0:0:
256,192,41147,1,0,0:0:0:0:
256,192,41380,1,0,0:0:0:0:
256,192,41497,1,0,0:0:0:0:
256,192,41555,1,0,0:0:0:0:
256,192,41613,1,8,0:0:0:0:
256,192,41730,1,0,0:0:0:0:
256,192,41847,1,8,0:0:0:0:
256,192,41964,1,0,0:0:0:0:
256,192,42080,1,8,0:0:0:0:
256,192,42197,1,8,0:0:0:0:
256,192,42314,1,0,0:0:0:0:
256,192,42431,1,8,0:0:0:0:
256,192,42489,1,8,0:0:0:0:
256,192,42547,1,0,0:0:0:0:
256,192,42664,1,8,0:0:0:0:
256,192,42703,1,8,0:0:0:0:
256,192,42742,1,8,0:0:0:0:
256,192,42781,1,0,0:0:0:0:
256,192,42898,1,8,0:0:0:0:
256,192,42956,1,8,0:0:0:0:
256,192,43014,1,0,0:0:0:0:
256,192,43131,1,8,0:0:0:0:
256,192,43170,1,8,0:0:0:0:
256,192,43209,1,8,0:0:0:0:
256,192,43248,1,0,0:0:0:0:
256,192,44182,1,0,0:0:0:0:
256,192,45115,1,0,0:0:0:0:
256,192,45348,1,8,0:0:0:0:
256,192,45465,1,0,0:0:0:0:
256,192,45815,1,0,0:0:0:0:
256,192,46048,1,8,0:0:0:0:
256,192,46282,1,0,0:0:0:0:
256,192,46515,1,8,0:0:0:0:
256,192,46632,1,8,0:0:0:0:
256,192,46749,1,8,0:0:0:0:
256,192,46865,1,0,0:0:0:0:
256,192,46982,1,0,0:0:0:0:
256,192,47216,1,8,0:0:0:0:
256,192,47332,1,0,0:0:0:0:
256,192,47683,1,0,0:0:0:0:
256,192,47916,1,8,0:0:0:0:
256,192,48150,1,0,0:0:0:0:
256,192,48383,1,0,0:0:0:0:
256,192,48500,1,8,0:0:0:0:
256,192,48616,1,0,0:0:0:0:
256,192,48733,1,8,0:0:0:0:
256,192,48850,1,0,0:0:0:0:
256,192,49083,1,8,0:0:0:0:
256,192,49200,1,0,0:0:0:0:
256,192,49784,1,8,0:0:0:0:
256,192,50017,1,0,0:0:0:0:
256,192,50251,1,0,0:0:0:0:
256,192,50367,1,8,0:0:0:0:
256,192,50484,1,0,0:0:0:0:
256,192,50718,1,0,0:0:0:0:
256,192,50951,1,8,0:0:0:0:
256,192,51068,1,0,0:0:0:0:
256,192,51651,1,8,0:0:0:0:
256,192,51885,1,0,0:0:0:0:
256,192,52118,1,0,0:0:0:0:
256,192,52235,1,8,0:0:0:0:
256,192,52352,1,0,0:0:0:0:
256,192,52469,1,8,0:0:0:0:
256,192,52585,1,4,0:0:0:0:
256,192,52935,1,0,0:0:0:0:
256,192,53285,1,4,0:0:0:0:
256,192,53752,1,4,0:0:0:0:
256,192,53985,1,4,0:0:0:0:
256,192,54102,1,12,0:0:0:0:
256,192,54219,1,4,0:0:0:0:
256,192,54452,1,4,0:0:0:0:
256,192,54802,1,0,0:0:0:0:
256,192,55153,1,4,0:0:0:0:
256,192,55620,1,12,0:0:0:0:
256,192,55853,1,4,0:0:0:0:
256,192,55970,1,12,0:0:0:0:
256,192,56086,1,4,0:0:0:0:
256,192,56320,1,4,0:0:0:0:
256,192,56787,1,12,0:0:0:0:
256,192,57020,1,4,0:0:0:0:
256,192,57254,1,4,0:0:0:0:
256,192,57721,1,12,0:0:0:0:
256,192,57954,1,4,0:0:0:0:
256,192,58188,1,4,0:0:0:0:
256,192,58655,1,4,0:0:0:0:
256,192,59121,1,8,0:0:0:0:
256,192,59355,1,8,0:0:0:0:
256,192,59588,1,0,0:0:0:0:
256,192,59822,1,0,0:0:0:0:
256,192,60055,1,0,0:0:0:0:
256,192,60114,1,0,0:0:0:0:
256,192,60172,1,8,0:0:0:0:
256,192,60230,1,8,0:0:0:0:
256,192,60289,1,0,0:0:0:0:
256,192,60406,1,8,0:0:0:0:
256,192,60522,1,0,0:0:0:0:
256,192,60639,1,8,0:0:0:0:
256,192,60756,1,0,0:0:0:0:
256,192,60872,1,8,0:0:0:0:
256,192,60931,1,8,0:0:0:0:
256,192,60989,1,0,0:0:0:0:
256,192,61106,1,8,0:0:0:0:
256,192,61223,1,0,0:0:0:0:
256,192,61339,1,8,0:0:0:0:
256,192,61456,1,0,0:0:0:0:
256,192,61514,1,0,0:0:0:0:
256,192,61573,1,8,0:0:0:0:
256,192,61631,1,8,0:0:0:0:
256,192,61690,1,0,0:0:0:0:
256,192,61806,1,8,0:0:0:0:
256,192,61923,1,0,0:0:0:0:
256,192,61981,1,0,0:0:0:0:
256,192,62040,1,8,0:0:0:0:
256,192,62098,1,8,0:0:0:0:
256,192,62156,1,0,0:0:0:0:
256,192,62273,1,8,0:0:0:0:
256,192,62390,1,0,0:0:0:0:
256,192,62507,1,8,0:0:0:0:
256,192,62623,1,0,0:0:0:0:
256,192,62740,1,8,0:0:0:0:
256,192,62799,1,8,0:0:0:0:
256,192,62857,1,0,0:0:0:0:
256,192,62974,1,8,0:0:0:0:
256,192,63090,1,0,0:0:0:0:
256,192,63149,1,8,0:0:0:0:
256,192,63207,1,8,0:0:0:0:
256,192,63265,1,8,0:0:0:0:
256,192,63324,1,0,0:0:0:0:
256,192,63441,1,0,0:0:0:0:
256,192,63557,1,8,0:0:0:0:
256,192,63791,1,0,0:0:0:0:
256,192,63849,1,0,0:0:0:0:
256,192,63907,1,8,0:0:0:0:
256,192,63966,1,8,0:0:0:0:
256,192,64024,1,0,0:0:0:0:
256,192,64141,1,8,0:0:0:0:
256,192,64258,1,0,0:0:0:0:
256,192,64374,1,8,0:0:0:0:
256,192,64491,1,0,0:0:0:0:
256,192,64608,1,8,0:0:0:0:
256,192,64666,1,8,0:0:0:0:
256,192,64725,1,0,0:0:0:0:
256,192,64841,1,8,0:0:0:0:
256,192,64958,1,8,0:0:0:0:
256,192,65075,1,8,0:0:0:0:
256,192,65133,1,0,0:0:0:0:
256,192,65192,1,0,0:0:0:0:
256,192,65250,1,0,0:0:0:0:
256,192,65308,1,8,0:0:0:0:
256,192,65367,1,8,0:0:0:0:
256,192,65425,1,0,0:0:0:0:
256,192,65542,1,8,0:0:0:0:
256,192,65658,1,0,0:0:0:0:
256,192,65775,1,8,0:0:0:0:
256,192,65834,1,8,0:0:0:0:
256,192,65892,1,0,0:0:0:0:
256,192,66009,1,8,0:0:0:0:
256,192,66125,1,0,0:0:0:0:
256,192,66242,1,8,0:0:0:0:
256,192,66359,1,0,0:0:0:0:
256,192,66476,1,0,0:0:0:0:
256,192,66592,1,8,0:0:0:0:
256,192,66631,1,8,0:0:0:0:
256,192,66670,1,8,0:0:0:0:
256,192,66709,1,8,0:0:0:0:
256,192,66748,1,8,0:0:0:0:
256,192,66787,1,8,0:0:0:0:
256,192,66826,1,0,0:0:0:0:
256,192,67059,1,4,0:0:0:0:
256,192,67526,1,0,0:0:0:0:
256,192,67584,1,0,0:0:0:0:
256,192,67643,1,8,0:0:0:0:
256,192,67701,1,8,0:0:0:0:
256,192,67760,1,0,0:0:0:0:
256,192,67876,1,8,0:0:0:0:
256,192,67935,1,8,0:0:0:0:
256,192,67993,1,0,0:0:0:0:
256,192,68110,1,8,0:0:0:0:
256,192,68227,1,0,0:0:0:0:
256,192,68285,1,8,0:0:0:0:
256,192,68343,1,8,0:0:0:0:
256,192,68402,1,8,0:0:0:0:
256,192,68460,1,0,0:0:0:0:
256,192,68577,1,8,0:0:0:0:
256,192,68635,1,8,0:0:0:0:
256,192,68693,1,0,0:0:0:0:
256,192,68810,1,8,0:0:0:0:
256,192,68927,1,0,0:0:0:0:
256,192,68985,1,0,0:0:0:0:
256,192,69044,1,8,0:0:0:0:
256,192,69102,1,8,0:0:0:0:
256,192,69160,1,0,0:0:0:0:
256,192,69277,1,8,0:0:0:0:
256,192,69394,1,0,0:0:0:0:
256,192,69452,1,0,0:0:0:0:
256,192,69511,1,8,0:0:0:0:
256,192,69569,1,0,0:0:0:0:
256,192,69627,1,0,0:0:0:0:
256,192,69744,1,8,0:0:0:0:
256,192,69802,1,8,0:0:0:0:
256,192,69861,1,0,0:0:0:0:
256,192,69977,1,8,0:0:0:0:
256,192,70094,1,0,0:0:0:0:
256,192,70153,1,0,0:0:0:0:
256,192,70211,1,8,0:0:0:0:
256,192,70269,1,8,0:0:0:0:
256,192,70328,1,0,0:0:0:0:
256,192,70444,1,8,0:0:0:0:
256,192,70561,1,0,0:0:0:0:
256,192,70620,1,8,0:0:0:0:
256,192,70678,1,8,0:0:0:0:
256,192,70736,1,8,0:0:0:0:
256,192,70795,1,0,0:0:0:0:
256,192,70911,1,0,0:0:0:0:
256,192,71028,1,8,0:0:0:0:
256,192,71262,1,0,0:0:0:0:
256,192,71320,1,0,0:0:0:0:
256,192,71378,1,8,0:0:0:0:
256,192,71437,1,8,0:0:0:0:
256,192,71495,1,0,0:0:0:0:
256,192,71612,1,8,0:0:0:0:
256,192,71670,1,8,0:0:0:0:
256,192,71728,1,0,0:0:0:0:
256,192,71845,1,8,0:0:0:0:
256,192,71962,1,0,0:0:0:0:
256,192,72020,1,8,0:0:0:0:
256,192,72079,1,8,0:0:0:0:
256,192,72137,1,8,0:0:0:0:
256,192,72195,1,0,0:0:0:0:
256,192,72312,1,8,0:0:0:0:
256,192,72370,1,8,0:0:0:0:
256,192,72429,1,0,0:0:0:0:
256,192,72546,1,8,0:0:0:0:
256,192,72662,1,0,0:0:0:0:
256,192,72779,1,8,0:0:0:0:
256,192,72896,1,0,0:0:0:0:
256,192,72925,1,0,0:0:0:0:
256,192,73013,1,8,0:0:0:0:
256,192,73042,1,8,0:0:0:0:
256,192,73188,1,8,0:0:0:0:
256,192,73217,1,8,0:0:0:0:
256,192,73363,1,8,0:0:0:0:
256,192,73392,1,8,0:0:0:0:
256,192,73479,1,0,0:0:0:0:
256,192,73635,1,8,0:0:0:0:
256,192,73713,1,0,0:0:0:0:
256,192,74063,1,0,0:0:0:0:
256,192,74180,1,8,0:0:0:0:
256,192,74297,1,8,0:0:0:0:
256,192,74413,1,8,0:0:0:0:
256,192,74530,1,0,0:0:0:0:
256,192,74647,1,0,0:0:0:0:
256,192,74763,1,8,0:0:0:0:
256,192,74997,1,0,0:0:0:0:
256,192,75114,1,0,0:0:0:0:
256,192,75230,1,0,0:0:0:0:
256,192,75347,1,0,0:0:0:0:
256,192,75464,1,8,0:0:0:0:
256,192,75493,1,0,0:0:0:0:
256,192,75581,1,8,0:0:0:0:
256,192,75610,1,0,0:0:0:0:
256,192,75697,1,8,0:0:0:0:
256,192,75727,1,0,0:0:0:0:
256,192,75814,1,8,0:0:0:0:
256,192,75931,1,0,0:0:0:0:
256,192,75989,1,0,0:0:0:0:
256,192,76048,1,8,0:0:0:0:
256,192,76106,1,8,0:0:0:0:
256,192,76164,1,0,0:0:0:0:
256,192,76203,1,0,0:0:0:0:
256,192,76242,1,8,0:0:0:0:
256,192,76281,1,0,0:0:0:0:
256,192,76320,1,8,0:0:0:0:
256,192,76359,1,8,0:0:0:0:
256,192,76398,1,0,0:0:0:0:
256,192,77332,1,0,0:0:0:0:
256,192,77565,1,8,0:0:0:0:
256,192,77799,1,4,0:0:0:0:
256,192,78032,1,8,0:0:0:0:
256,192,78265,1,0,0:0:0:0:
256,192,78499,1,0,0:0:0:0:
256,192,78616,1,8,0:0:0:0:
256,192,78849,1,8,0:0:0:0:
256,192,79083,1,8,0:0:0:0:
256,192,79199,1,0,0:0:0:0:
256,192,79433,1,8,0:0:0:0:
256,192,79666,1,8,0:0:0:0:
256,192,79900,1,0,0:0:0:0:
256,192,80133,1,0,0:0:0:0:
256,192,80367,1,8,0:0:0:0:
256,192,80483,1,0,0:0:0:0:
256,192,80717,1,0,0:0:0:0:
256,192,80950,1,0,0:0:0:0:
256,192,81067,1,8,0:0:0:0:
256,192,81300,1,8,0:0:0:0:
256,192,81534,1,0,0:0:0:0:
256,192,81767,1,8,0:0:0:0:
256,192,82001,1,0,0:0:0:0:
256,192,82234,1,8,0:0:0:0:
256,192,82351,1,0,0:0:0:0:
256,192,82584,1,8,0:0:0:0:
256,192,82701,1,0,0:0:0:0:
256,192,82818,1,8,0:0:0:0:
256,192,82935,1,8,0:0:0:0:
256,192,83168,1,0,0:0:0:0:
256,192,83402,1,8,0:0:0:0:
256,192,83635,1,0,0:0:0:0:
256,192,83752,1,0,0:0:0:0:
256,192,83869,1,0,0:0:0:0:
256,192,84102,1,8,0:0:0:0:
256,192,84802,1,0,0:0:0:0:
256,192,85036,1,8,0:0:0:0:
256,192,85269,1,0,0:0:0:0:
256,192,85503,1,8,0:0:0:0:
256,192,85620,1,0,0:0:0:0:
256,192,85736,1,8,0:0:0:0:
256,192,85970,1,8,0:0:0:0:
256,192,86203,1,0,0:0:0:0:
256,192,86437,1,8,0:0:0:0:
256,192,86670,1,8,0:0:0:0:
256,192,86904,1,8,0:0:0:0:
256,192,87137,1,0,0:0:0:0:
256,192,87370,1,0,0:0:0:0:
256,192,87487,1,8,0:0:0:0:
256,192,87604,1,0,0:0:0:0:
256,192,87837,1,8,0:0:0:0:
256,192,88071,1,0,0:0:0:0:
256,192,88188,1,8,0:0:0:0:
256,192,88304,1,0,0:0:0:0:
256,192,88421,1,8,0:0:0:0:
256,192,88538,1,8,0:0:0:0:
256,192,88771,1,8,0:0:0:0:
256,192,89005,1,0,0:0:0:0:
256,192,89121,1,8,0:0:0:0:
256,192,89238,1,8,0:0:0:0:
256,192,89355,1,8,0:0:0:0:
256,192,89472,1,0,0:0:0:0:
256,192,89588,1,8,0:0:0:0:
256,192,89705,1,0,0:0:0:0:
256,192,89822,1,8,0:0:0:0:
256,192,89939,1,0,0:0:0:0:
256,192,89997,1,8,0:0:0:0:
256,192,90055,1,8,0:0:0:0:
256,192,90114,1,8,0:0:0:0:
256,192,90172,1,0,0:0:0:0:
256,192,90289,1,8,0:0:0:0:
256,192,90406,1,0,0:0:0:0:
256,192,90464,1,0,0:0:0:0:
256,192,90522,1,8,0:0:0:0:
256,192,90581,1,8,0:0:0:0:
256,192,90639,1,0,0:0:0:0:
256,192,90697,1,0,0:0:0:0:
256,192,90756,1,8,0:0:0:0:
256,192,90814,1,8,0:0:0:0:
256,192,90872,12,0,91806,0:0:0:0:
256,192,92740,5,0,0:0:0:0:
256,192,92857,1,8,0:0:0:0:
256,192,92915,1,8,0:0:0:0:
256,192,92974,1,0,0:0:0:0:
256,192,93090,1,8,0:0:0:0:
256,192,93207,1,0,0:0:0:0:
256,192,93265,1,0,0:0:0:0:
256,192,93324,1,0,0:0:0:0:
256,192,93441,1,8,0:0:0:0:
256,192,93499,1,8,0:0:0:0:
256,192,93557,1,0,0:0:0:0:
256,192,93616,1,0,0:0:0:0:
256,192,93674,1,0,0:0:0:0:
256,192,93791,1,8,0:0:0:0:
256,192,93907,1,0,0:0:0:0:
256,192,94024,1,8,0:0:0:0:
256,192,94141,1,0,0:0:0:0:
256,192,94199,1,0,0:0:0:0:
256,192,94258,1,8,0:0:0:0:
256,192,94316,1,8,0:0:0:0:
256,192,94374,1,0,0:0:0:0:
256,192,94491,1,0,0:0:0:0:
256,192,94608,1,0,0:0:0:0:
256,192,94725,1,8,0:0:0:0:
256,192,94783,1,8,0:0:0:0:
256,192,94841,1,0,0:0:0:0:
256,192,94958,1,8,0:0:0:0:
256,192,95075,1,0,0:0:0:0:
256,192,95133,1,0,0:0:0:0:
256,192,95192,1,0,0:0:0:0:
256,192,95308,1,8,0:0:0:0:
256,192,95542,1,0,0:0:0:0:
256,192,95775,1,8,0:0:0:0:
256,192,95834,1,8,0:0:0:0:
256,192,95892,1,8,0:0:0:0:
256,192,95950,1,8,0:0:0:0:
256,192,96009,1,0,0:0:0:0:
256,192,96125,1,0,0:0:0:0:
256,192,96242,1,0,0:0:0:0:
256,192,96476,1,0,0:0:0:0:
256,192,96592,1,8,0:0:0:0:
256,192,96651,1,8,0:0:0:0:
256,192,96709,1,0,0:0:0:0:
256,192,96826,1,8,0:0:0:0:
256,192,96942,1,0,0:0:0:0:
256,192,97118,1,8,0:0:0:0:
256,192,97176,1,0,0:0:0:0:
256,192,97293,1,8,0:0:0:0:
256,192,97409,1,0,0:0:0:0:
256,192,97526,1,8,0:0:0:0:
256,192,97584,1,0,0:0:0:0:
256,192,97643,1,8,0:0:0:0:
256,192,97760,1,8,0:0:0:0:
256,192,97876,1,0,0:0:0:0:
256,192,98110,1,8,0:0:0:0:
256,192,98168,1,8,0:0:0:0:
256,192,98227,1,0,0:0:0:0:
256,192,98343,1,0,0:0:0:0:
256,192,98460,1,8,0:0:0:0:
256,192,98518,1,8,0:0:0:0:
256,192,98577,1,8,0:0:0:0:
256,192,98693,1,8,0:0:0:0:
256,192,98810,1,0,0:0:0:0:
256,192,98869,1,0,0:0:0:0:
256,192,98927,1,8,0:0:0:0:
256,192,99044,1,0,0:0:0:0:
256,192,99160,1,8,0:0:0:0:
256,192,99277,1,0,0:0:0:0:
256,192,99511,1,0,0:0:0:0:
256,192,99744,1,0,0:0:0:0:
256,192,99977,1,0,0:0:0:0:
256,192,100211,1,0,0:0:0:0:
256,192,100328,1,8,0:0:0:0:
256,192,100386,1,8,0:0:0:0:
256,192,100445,1,0,0:0:0:0:
256,192,100561,1,8,0:0:0:0:
256,192,100678,1,0,0:0:0:0:
256,192,100736,1,0,0:0:0:0:
256,192,100795,1,0,0:0:0:0:
256,192,100912,1,8,0:0:0:0:
256,192,100970,1,8,0:0:0:0:
256,192,101028,1,0,0:0:0:0:
256,192,101087,1,0,0:0:0:0:
256,192,101145,1,0,0:0:0:0:
256,192,101262,1,8,0:0:0:0:
256,192,101378,1,0,0:0:0:0:
256,192,101495,1,8,0:0:0:0:
256,192,101612,1,0,0:0:0:0:
256,192,101670,1,0,0:0:0:0:
256,192,101729,1,8,0:0:0:0:
256,192,101787,1,8,0:0:0:0:
256,192,101845,1,0,0:0:0:0:
256,192,101962,1,0,0:0:0:0:
256,192,102079,1,0,0:0:0:0:
256,192,102196,1,8,0:0:0:0:
256,192,102254,1,8,0:0:0:0:
256,192,102312,1,0,0:0:0:0:
256,192,102429,1,8,0:0:0:0:
256,192,102546,1,0,0:0:0:0:
256,192,102604,1,0,0:0:0:0:
256,192,102663,1,0,0:0:0:0:
256,192,102779,1,8,0:0:0:0:
256,192,103013,1,0,0:0:0:0:
256,192,103246,1,8,0:0:0:0:
256,192,103305,1,8,0:0:0:0:
256,192,103363,1,8,0:0:0:0:
256,192,103421,1,8,0:0:0:0:
256,192,103480,1,0,0:0:0:0:
256,192,103596,1,0,0:0:0:0:
256,192,103713,1,0,0:0:0:0:
256,192,103947,1,0,0:0:0:0:
256,192,104063,1,8,0:0:0:0:
256,192,104122,1,8,0:0:0:0:
256,192,104180,1,0,0:0:0:0:
256,192,104297,1,8,0:0:0:0:
256,192,104413,1,0,0:0:0:0:
256,192,104589,1,8,0:0:0:0:
256,192,104647,1,0,0:0:0:0:
256,192,104764,1,8,0:0:0:0:
256,192,104880,1,0,0:0:0:0:
256,192,104997,1,8,0:0:0:0:
256,192,105114,1,8,0:0:0:0:
256,192,105231,1,8,0:0:0:0:
256,192,105347,1,0,0:0:0:0:
256,192,105406,1,0,0:0:0:0:
256,192,105464,1,8,0:0:0:0:
256,192,105522,1,8,0:0:0:0:
256,192,105581,1,0,0:0:0:0:
256,192,105639,1,0,0:0:0:0:
256,192,105697,1,8,0:0:0:0:
256,192,105931,1,8,0:0:0:0:
256,192,105989,1,8,0:0:0:0:
256,192,106048,1,8,0:0:0:0:
256,192,106164,1,8,0:0:0:0:
256,192,106281,1,0,0:0:0:0:
256,192,106398,1,8,0:0:0:0:
256,192,106514,1,8,0:0:0:0:
256,192,106631,1,8,0:0:0:0:
256,192,106748,1,0,0:0:0:0:
256,192,106981,1,8,0:0:0:0:
256,192,107215,1,0,0:0:0:0:
256,192,107448,1,8,0:0:0:0:
256,192,107682,1,0,0:0:0:0:
256,192,107740,1,0,0:0:0:0:
256,192,107799,1,8,0:0:0:0:
256,192,107857,1,0,0:0:0:0:
256,192,107915,1,8,0:0:0:0:
256,192,107974,1,8,0:0:0:0:
256,192,108032,1,0,0:0:0:0:
256,192,108090,1,0,0:0:0:0:
256,192,108149,1,8,0:0:0:0:
256,192,108265,1,8,0:0:0:0:
256,192,108382,1,0,0:0:0:0:
256,192,108441,1,8,0:0:0:0:
256,192,108499,1,8,0:0:0:0:
256,192,108557,1,8,0:0:0:0:
256,192,108616,1,0,0:0:0:0:
256,192,108732,1,8,0:0:0:0:
256,192,108791,1,8,0:0:0:0:
256,192,108849,1,0,0:0:0:0:
256,192,108966,1,8,0:0:0:0:
256,192,109083,1,0,0:0:0:0:
256,192,109121,1,0,0:0:0:0:
256,192,109160,1,0,0:0:0:0:
256,192,109199,1,8,0:0:0:0:
256,192,109258,1,8,0:0:0:0:
256,192,109316,1,0,0:0:0:0:
256,192,109374,1,8,0:0:0:0:
256,192,109433,1,0,0:0:0:0:
256,192,109491,1,8,0:0:0:0:
256,192,109549,1,0,0:0:0:0:
256,192,109666,1,8,0:0:0:0:
256,192,109725,1,0,0:0:0:0:
256,192,109783,1,8,0:0:0:0:
256,192,109841,1,8,0:0:0:0:
256,192,109900,1,0,0:0:0:0:
256,192,109958,1,0,0:0:0:0:
256,192,110016,1,8,0:0:0:0:
256,192,110133,1,0,0:0:0:0:
256,192,110250,1,8,0:0:0:0:
256,192,110308,1,8,0:0:0:0:
256,192,110367,1,8,0:0:0:0:
256,192,110425,1,8,0:0:0:0:
256,192,110483,1,0,0:0:0:0:
256,192,110600,1,0,0:0:0:0:
256,192,110658,1,8,0:0:0:0:
256,192,110717,1,0,0:0:0:0:
256,192,110756,1,8,0:0:0:0:
256,192,110795,1,8,0:0:0:0:
256,192,110834,1,0,0:0:0:0:
256,192,110950,1,0,0:0:0:0:
256,192,111009,1,8,0:0:0:0:
256,192,111067,1,0,0:0:0:0:
256,192,111125,1,8,0:0:0:0:
256,192,111184,1,0,0:0:0:0:
256,192,111223,1,0,0:0:0:0:
256,192,111262,1,0,0:0:0:0:
256,192,111300,1,8,0:0:0:0:
256,192,111359,1,8,0:0:0:0:
256,192,111417,1,0,0:0:0:0:
256,192,111534,1,8,0:0:0:0:
256,192,111592,1,0,0:0:0:0:
256,192,111651,1,8,0:0:0:0:
256,192,111709,1,8,0:0:0:0:
256,192,111767,1,0,0:0:0:0:
256,192,111826,1,0,0:0:0:0:
256,192,111884,1,8,0:0:0:0:
256,192,112001,1,8,0:0:0:0:
256,192,112118,1,0,0:0:0:0:
256,192,112176,1,8,0:0:0:0:
256,192,112234,1,8,0:0:0:0:
256,192,112293,1,8,0:0:0:0:
256,192,112351,1,0,0:0:0:0:
256,192,112468,1,8,0:0:0:0:
256,192,112526,1,8,0:0:0:0:
256,192,112584,1,0,0:0:0:0:
256,192,112701,1,8,0:0:0:0:
256,192,112818,1,0,0:0:0:0:
256,192,112876,1,0,0:0:0:0:
256,192,112935,1,8,0:0:0:0:
256,192,112974,1,0,0:0:0:0:
256,192,113013,1,0,0:0:0:0:
256,192,113051,1,8,0:0:0:0:
256,192,113110,1,8,0:0:0:0:
256,192,113168,1,0,0:0:0:0:
256,192,113227,1,8,0:0:0:0:
256,192,113285,1,0,0:0:0:0:
256,192,113402,1,8,0:0:0:0:
256,192,113460,1,0,0:0:0:0:
256,192,113518,1,8,0:0:0:0:
256,192,113557,1,8,0:0:0:0:
256,192,113596,1,8,0:0:0:0:
256,192,113635,1,0,0:0:0:0:
256,192,113693,1,0,0:0:0:0:
256,192,113752,1,8,0:0:0:0:
256,192,113869,1,8,0:0:0:0:
256,192,113985,1,0,0:0:0:0:
256,192,114024,1,0,0:0:0:0:
256,192,114063,1,0,0:0:0:0:
256,192,114102,1,8,0:0:0:0:
256,192,114141,1,8,0:0:0:0:
256,192,114180,1,8,0:0:0:0:
256,192,114219,1,0,0:0:0:0:
256,192,115153,1,0,0:0:0:0:
256,192,115211,1,0,0:0:0:0:
256,192,115269,1,8,0:0:0:0:
256,192,115328,1,8,0:0:0:0:
256,192,115386,1,0,0:0:0:0:
256,192,115444,1,8,0:0:0:0:
256,192,115503,1,0,0:0:0:0:
256,192,115561,1,0,0:0:0:0:
256,192,115620,1,8,0:0:0:0:
256,192,115678,1,0,0:0:0:0:
256,192,115736,1,8,0:0:0:0:
256,192,115795,1,8,0:0:0:0:
256,192,115853,1,0,0:0:0:0:
256,192,115911,1,0,0:0:0:0:
256,192,115970,1,8,0:0:0:0:
256,192,116028,1,8,0:0:0:0:
256,192,116086,1,0,0:0:0:0:
256,192,116145,1,0,0:0:0:0:
256,192,116203,1,0,0:0:0:0:
256,192,116262,1,8,0:0:0:0:
256,192,116320,1,0,0:0:0:0:
256,192,116378,1,8,0:0:0:0:
256,192,116437,1,0,0:0:0:0:
256,192,116495,1,0,0:0:0:0:
256,192,116553,1,8,0:0:0:0:
256,192,116612,1,0,0:0:0:0:
256,192,116670,1,8,0:0:0:0:
256,192,116728,1,8,0:0:0:0:
256,192,116787,1,0,0:0:0:0:
256,192,116845,1,0,0:0:0:0:
256,192,116904,1,0,0:0:0:0:
256,192,116962,1,0,0:0:0:0:
256,192,117020,1,8,0:0:0:0:
256,192,117079,1,0,0:0:0:0:
256,192,117137,1,8,0:0:0:0:
256,192,117195,1,8,0:0:0:0:
256,192,117254,1,0,0:0:0:0:
256,192,117312,1,8,0:0:0:0:
256,192,117370,1,0,0:0:0:0:
256,192,117429,1,0,0:0:0:0:
256,192,117487,1,8,0:0:0:0:
256,192,117546,1,0,0:0:0:0:
256,192,117604,1,8,0:0:0:0:
256,192,117662,1,8,0:0:0:0:
256,192,117721,1,0,0:0:0:0:
256,192,117779,1,8,0:0:0:0:
256,192,117837,1,8,0:0:0:0:
256,192,117896,1,8,0:0:0:0:
256,192,117954,1,0,0:0:0:0:
256,192,118013,1,0,0:0:0:0:
256,192,118071,1,8,0:0:0:0:
256,192,118129,1,0,0:0:0:0:
256,192,118188,1,8,0:0:0:0:
256,192,118246,1,8,0:0:0:0:
256,192,118304,1,0,0:0:0:0:
256,192,118363,1,8,0:0:0:0:
256,192,118421,1,0,0:0:0:0:
256,192,118479,1,0,0:0:0:0:
256,192,118538,1,8,0:0:0:0:
256,192,118596,1,0,0:0:0:0:
256,192,118655,1,8,0:0:0:0:
256,192,118713,1,8,0:0:0:0:
256,192,118771,1,0,0:0:0:0:
256,192,118830,1,8,0:0:0:0:
256,192,118888,1,0,0:0:0:0:
256,192,118946,1,0,0:0:0:0:
256,192,119005,1,0,0:0:0:0:
256,192,119063,1,0,0:0:0:0:
256,192,119121,1,8,0:0:0:0:
256,192,119180,1,0,0:0:0:0:
256,192,119238,1,8,0:0:0:0:
256,192,119297,1,8,0:0:0:0:
256,192,119355,1,0,0:0:0:0:
256,192,119413,1,0,0:0:0:0:
256,192,119472,1,8,0:0:0:0:
256,192,119530,1,0,0:0:0:0:
256,192,119588,1,8,0:0:0:0:
256,192,119647,1,8,0:0:0:0:
256,192,119705,1,0,0:0:0:0:
256,192,119763,1,8,0:0:0:0:
256,192,119822,1,0,0:0:0:0:
256,192,119880,1,0,0:0:0:0:
256,192,119939,1,0,0:0:0:0:
256,192,119997,1,8,0:0:0:0:
256,192,120055,1,0,0:0:0:0:
256,192,120114,1,8,0:0:0:0:
256,192,120172,1,0,0:0:0:0:
256,192,120230,1,0,0:0:0:0:
256,192,120289,1,8,0:0:0:0:
256,192,120347,1,0,0:0:0:0:
256,192,120406,1,8,0:0:0:0:
256,192,120464,1,8,0:0:0:0:
256,192,120522,1,0,0:0:0:0:
256,192,120581,1,8,0:0:0:0:
256,192,120639,1,8,0:0:0:0:
256,192,120697,1,8,0:0:0:0:
256,192,120756,1,0,0:0:0:0:
256,192,120814,1,0,0:0:0:0:
256,192,120872,1,8,0:0:0:0:
256,192,120931,1,8,0:0:0:0:
256,192,120989,1,0,0:0:0:0:
256,192,121048,1,0,0:0:0:0:
256,192,121106,1,8,0:0:0:0:
256,192,121164,1,0,0:0:0:0:
256,192,121223,1,8,0:0:0:0:
256,192,121262,1,0,0:0:0:0:
256,192,121300,1,0,0:0:0:0:
256,192,121339,1,8,0:0:0:0:
256,192,121398,1,0,0:0:0:0:
256,192,121456,1,8,0:0:0:0:
256,192,121495,1,8,0:0:0:0:
256,192,121534,1,8,0:0:0:0:
256,192,121573,1,0,0:0:0:0:
256,192,121631,1,0,0:0:0:0:
256,192,121690,1,8,0:0:0:0:
256,192,122623,1,4,0:0:0:0:
