osu file format v14

[General]
AudioFilename: audio.mp3
AudioLeadIn: 2000
PreviewTime: 81546
Countdown: 0
SampleSet: Normal
StackLeniency: 0.7
Mode: 0
LetterboxInBreaks: 0
WidescreenStoryboard: 0

[Editor]
Bookmarks: 18346,19346,25746,32146,46346,51346,57746,64146,70546,93114,93272,93588,93903,94219,94535,94851,95798,96114,96430,96746,97061,97377,98324,98640,98956,99114,99272
DistanceSpacing: 1.6
BeatDivisor: 4
GridSize: 32
TimelineZoom: 3.099999

[Metadata]
Title:QLWA
TitleUnicode:QLWA
Artist:t+pazolite
ArtistUnicode:t+pazolite
Creator:Yugu
Version:Hard
Source:GROOVE COASTER 2
Tags:ORIGINAL SOUNDTRACK BOOST Gyro Zeppeli Suzuki_1112 1112deng Koiyuki liaoxingyao ExNeko Good Evening, HOLLOWood ayyri eiri- unpredictable Gyro_Zeppeli
BeatmapID:1670007
BeatmapSetID:685008

[Difficulty]
HPDrainRate:6
CircleSize:4
OverallDifficulty:6
ApproachRate:8
SliderMultiplier:1.4
SliderTickRate:1

[Events]
//Background and Video events
0,0,"623.jpg",0,0
//Break Periods
//Storyboard Layer 0 (Background)
//Storyboard Layer 1 (Fail)
//Storyboard Layer 2 (Pass)
//Storyboard Layer 3 (Foreground)
//Storyboard Sound Samples

[TimingPoints]
146,400,4,1,3,70,1,0
51346,-100,4,1,3,90,0,1
53746,-100,4,1,3,90,0,0
57746,-100,4,1,3,90,0,1
60146,-100,4,1,3,90,0,0
64146,-100,4,1,3,90,0,1
66546,-100,4,1,3,90,0,0
70546,-100,4,1,3,90,0,1
72946,-100,4,1,3,90,0,0
81746,315.789473684211,4,1,3,100,1,0
83009,-100,4,1,3,100,0,1
103219,-100,4,1,3,70,0,0

[Colours]
Combo1 : 248,24,41
Combo2 : 241,182,116
Combo3 : 145,237,129
Combo4 : 72,84,132

[HitObjects]
83,56,146,6,0,L|91:128,1,70,8|0,0:0|0:0,0:0:0:0:
154,180,546,2,0,L|146:252,1,70,2|0,0:0|0:0,0:0:0:0:
209,305,946,2,0,L|211:345,3,35,8|0|0|8,0:0|0:0|0:0|0:0,0:0:0:0:
241,279,1346,2,0,P|283:266|308:270,1,70,6|0,0:0|0:0,0:0:0:0:
384,280,1746,6,0,L|373:207,1,70,8|0,0:0|0:0,0:0:0:0:
406,140,2146,2,0,L|417:67,1,70,2|8,0:0|0:0,0:0:0:0:
351,27,2546,1,0,0:0:0:0:
351,27,2646,2,0,P|297:24|276:39,1,70,8|8,0:0|0:0,0:0:0:0:
248,17,2946,2,0,L|262:101,1,70,2|8,0:0|0:0,0:0:0:0:
210,145,3346,6,0,P|173:153|134:140,1,70,8|0,0:0|0:0,0:0:0:0:
98,81,3746,2,0,P|61:73|22:86,1,70,2|0,0:0|0:0,0:0:0:0:
3,153,4146,2,0,L|-2:194,3,35,8|0|0|8,0:0|0:0|0:0|0:0,0:0:0:0:
28,212,4546,2,0,L|33:290,1,70,6|0,0:0|0:0,0:0:0:0:
91,331,4946,6,0,P|134:317|170:324,1,70,8|0,0:0|0:0,0:0:0:0:
231,341,5346,2,0,P|274:355|310:348,1,70,2|8,0:0|0:0,0:0:0:0:
362,309,5746,1,0,0:0:0:0:
362,309,5846,2,0,L|367:215,1,70,8|0,0:0|0:0,0:0:0:0:
388,208,6146,2,0,P|435:200|475:213,1,70,2|8,0:0|0:0,0:0:0:0:
501,141,6546,6,0,P|474:108|467:59,1,70,8|0,0:0|0:0,0:0:0:0:
402,40,6946,2,0,P|375:73|368:122,1,70,2|0,0:0|0:0,0:0:0:0:
296,126,7346,2,0,L|257:131,3,35,8|0|0|8,0:0|0:0|0:0|0:0,0:0:0:0:
229,108,7746,2,0,L|130:95,1,70,6|0,0:0|0:0,0:0:0:0:
101,48,8146,6,0,P|84:92|89:135,1,70,8|0,0:0|0:0,0:0:0:0:
112,186,8546,2,0,P|126:217|128:252,1,70,2|8,0:0|0:0,0:0:0:0:
87,317,8946,1,0,0:0:0:0:
87,317,9046,2,0,P|139:328|168:318,1,70,8|8,0:0|0:0,0:0:0:0:
189,308,9346,2,0,P|235:301|279:312,1,70,2|8,0:0|0:0,0:0:0:0:
322,345,9746,6,0,P|332:296|323:261,1,70,8|0,0:0|0:0,0:0:0:0:
282,214,10146,2,0,P|272:165|281:130,1,70,2|0,0:0|0:0,0:0:0:0:
314,79,10546,2,0,L|354:67,3,35,8|0|0|8,0:0|0:0|0:0|0:0,0:0:0:0:
273,67,10946,2,0,P|232:57|177:71,1,70,6|0,0:0|0:0,0:0:0:0:
231,132,11346,6,0,L|248:229,1,70,8|0,0:0|0:0,0:0:0:0:
291,261,11746,2,0,L|274:358,1,70,2|8,0:0|0:0,0:0:0:0:
278,329,12046,1,8,0:0:0:0:
360,370,12246,1,8,0:0:0:0:
432,314,12446,1,8,0:0:0:0:
432,314,12546,2,0,P|425:275|431:227,1,70,2|8,0:0|0:0,0:0:0:0:
491,179,12946,6,0,P|421:155|466:43,1,210,8|8,0:0|0:0,0:0:0:0:
451,46,14346,2,0,P|379:35|303:49,1,140,8|8,0:0|0:0,0:0:0:0:
313,45,15346,1,0,0:0:0:0:
178,85,15746,1,0,0:0:0:0:
313,125,16146,6,0,P|328:177|221:149,1,210,8|8,0:0|0:0,0:0:0:0:
219,171,17546,2,0,P|208:227|228:318,1,140,8|0,0:0|0:0,0:0:0:0:
223,307,18546,1,8,0:0:0:0:
223,307,18946,2,0,L|218:349,3,35,2|2|2|2,0:2|0:2|0:2|0:2,0:0:0:0:
252,276,19346,6,0,P|294:272|336:302,1,70,12|0,0:0|0:0,0:0:0:0:
348,300,19646,1,8,0:0:0:0:
380,313,19746,2,0,P|415:324|470:311,1,70,2|8,0:0|0:0,0:0:0:0:
447,320,20346,2,0,L|432:225,1,70,8|2,0:0|0:0,0:0:0:0:
444,166,20746,1,8,0:0:0:0:
444,166,21146,2,0,P|388:144|361:144,1,70,8|2,0:0|0:0,0:0:0:0:
344,146,21446,2,0,P|292:160|214:145,1,105,8|8,0:0|0:0,0:0:0:0:
241,155,22146,5,2,0:0:0:0:
231,188,22246,2,0,P|227:228|236:284,1,70,8|8,0:0|0:0,0:0:0:0:
241,301,22546,2,0,P|245:341|236:397,1,70,8|0,0:0|0:0,0:0:0:0:
209,381,22846,1,8,0:0:0:0:
175,370,22946,2,0,L|105:373,1,70,2|8,0:0|0:0,0:0:0:0:
105,372,23546,5,8,0:0:0:0:
75,285,23746,1,2,0:0:0:0:
114,202,23946,1,8,0:0:0:0:
114,202,24346,2,0,P|152:194|194:200,1,70,8|2,0:0|0:0,0:0:0:0:
216,207,24646,2,0,P|275:220|334:213,1,105,8|8,0:0|0:0,0:0:0:0:
319,216,25346,1,2,0:0:0:0:
349,199,25446,2,0,P|360:135|357:98,1,70,8|8,0:0|0:0,0:0:0:0:
353,95,25746,6,0,P|334:76|265:64,1,70,12|0,0:0|0:0,0:0:0:0:
259,63,26046,1,8,0:0:0:0:
225,71,26146,2,0,P|182:71|149:58,1,70,2|8,0:0|0:0,0:0:0:0:
156,62,26746,2,0,L|146:136,1,70,8|2,0:0|0:0,0:0:0:0:
155,221,27146,1,8,0:0:0:0:
155,221,27546,2,0,P|207:227|238:245,1,70,8|2,0:0|0:0,0:0:0:0:
250,255,27846,2,0,P|285:274|375:266,1,105,8|8,0:0|0:0,0:0:0:0:
349,276,28546,5,2,0:0:0:0:
382,267,28646,2,0,P|426:260|470:265,1,70,8|8,0:0|0:0,0:0:0:0:
483,248,28946,2,0,P|475:208|490:155,1,70,8|0,0:0|0:0,0:0:0:0:
488,145,29246,1,8,0:0:0:0:
494,110,29346,2,0,P|502:70|487:17,1,70,2|8,0:0|0:0,0:0:0:0:
497,41,29946,5,8,0:0:0:0:
410,13,30146,1,2,0:0:0:0:
326,50,30346,1,8,0:0:0:0:
326,50,30746,2,0,P|310:96|316:146,1,70,8|2,0:0|0:0,0:0:0:0:
317,151,31046,2,0,P|326:199|289:276,1,105,8|8,0:0|0:0,0:0:0:0:
309,251,31746,1,2,0:0:0:0:
275,261,31846,2,0,L|205:269,1,70,8|8,0:0|0:0,0:0:0:0:
170,270,32146,6,0,L|81:259,1,70,12|0,0:0|0:0,0:0:0:0:
69,244,32446,1,8,0:0:0:0:
64,209,32546,2,0,L|56:111,1,70,2|8,0:0|0:0,0:0:0:0:
58,139,33146,2,0,L|66:41,1,70,8|2,0:0|0:0,0:0:0:0:
145,29,33546,1,8,0:0:0:0:
145,29,33946,2,0,P|193:32|223:49,1,70,8|2,0:0|0:0,0:0:0:0:
241,60,34246,2,0,P|297:80|343:76,1,105,8|8,0:0|0:0,0:0:0:0:
341,76,34946,5,2,0:0:0:0:
374,65,35046,2,0,P|423:66|450:82,1,70,8|8,0:0|0:0,0:0:0:0:
465,100,35346,2,0,P|473:136|466:178,1,70,8|0,0:0|0:0,0:0:0:0:
459,202,35646,1,8,0:0:0:0:
449,235,35746,2,0,P|444:278|462:333,1,70,2|8,0:0|0:0,0:0:0:0:
448,303,36346,5,8,0:0:0:0:
361,276,36546,1,2,0:0:0:0:
282,322,36746,1,8,0:0:0:0:
282,322,37146,2,0,P|227:328|195:317,1,70,8|2,0:0|0:0,0:0:0:0:
180,312,37446,2,0,P|132:298|70:310,1,105,8|8,0:0|0:0,0:0:0:0:
78,306,38146,1,2,0:0:0:0:
66,272,38246,2,0,P|63:217|78:178,1,70,8|8,0:0|0:0,0:0:0:0:
77,169,38546,5,10,0:0:0:0:
65,64,38746,1,10,0:0:0:0:
161,106,38946,2,0,L|210:104,3,35,8|8|8|8,0:0|0:0|0:0|0:0,0:0:0:0:
227,74,39346,2,0,L|232:212,1,105,12|8,0:0|0:0,0:0:0:0:
211,281,39946,5,2,0:0:0:0:
417,240,40346,1,2,0:0:0:0:
336,172,40546,2,0,L|341:125,3,35,8|8|8|8,0:0|0:0|0:0|0:0,0:0:0:0:
317,101,40946,2,0,L|449:88,1,105,8|8,0:0|0:0,0:0:0:0:
421,90,41746,5,2,0:0:0:0:
470,182,41946,1,2,0:0:0:0:
365,178,42146,2,0,L|328:188,3,35,8|8|8|8,0:0|0:0|0:0|0:0,0:0:0:0:
292,170,42546,2,0,L|278:291,1,105,12|8,0:0|0:0,0:0:0:0:
219,360,43146,5,2,0:0:0:0:
14,311,43546,1,2,0:0:0:0:
105,260,43746,2,0,L|121:213,3,35,8|8|8|8,0:0|0:0|0:0|0:0,0:0:0:0:
110,185,44146,2,0,L|106:82,1,70,8|8,0:0|0:0,0:0:0:0:
120,75,44446,1,0,0:0:0:0:
147,43,44546,2,0,P|188:35|232:42,1,70,8|8,0:0|0:0,0:0:0:0:
298,18,44946,5,2,0:0:0:0:
278,121,45146,1,2,0:0:0:0:
378,87,45346,2,0,L|423:93,3,35,12|8|8|8,0:0|0:0|0:0|0:0,0:0:0:0:
445,118,45746,5,2,0:0:0:0:
455,222,45946,1,2,0:0:0:0:
359,178,46146,2,0,L|320:190,3,35,12|8|8|8,0:0|0:0|0:0|0:0,0:0:0:0:
297,219,46546,5,2,0:0:0:0:
319,321,46746,1,2,0:0:0:0:
219,289,46946,2,0,L|176:298,2,35,12|8|2,0:0|0:0|0:0,0:0:0:0:
174,194,47346,2,0,L|217:203,2,35,12|8|2,0:0|0:0|0:0,0:0:0:0:
96,122,47746,5,12,0:0:0:0:
96,122,47846,1,8,0:0:0:0:
96,122,47946,2,0,L|92:89,2,23.3333333333333,8|0|0,0:0|0:0|0:0,0:0:0:0:
88,149,48146,2,0,P|76:188|90:246,1,70,8|8,0:0|0:0,0:0:0:0:
164,261,48546,2,0,P|176:222|162:164,1,70,8|8,0:0|0:0,0:0:0:0:
266,143,48946,2,0,P|254:182|268:240,1,70,8|8,0:0|0:0,0:0:0:0:
342,255,49346,2,0,P|354:216|340:158,1,70,8|8,0:0|0:0,0:0:0:0:
404,120,49746,5,0,0:0:0:0:
404,120,50046,1,0,0:0:0:0:
404,120,50346,1,0,0:0:0:0:
442,194,50546,1,0,0:0:0:0:
408,271,50746,2,0,L|400:297,2,23.3333333333333,8|8|8,0:0|0:0|0:0,0:0:0:0:
387,251,50946,6,0,P|348:239|312:249,1,70,2|2,0:0|0:0,0:0:0:0:
240,289,51346,2,0,L|232:188,1,70,8|0,0:0|0:0,0:0:0:0:
300,156,51746,2,0,L|308:55,1,70,2|0,0:0|0:0,0:0:0:0:
239,22,52146,2,0,P|200:21|159:48,1,70,8|0,0:0|0:0,0:0:0:0:
143,69,52446,1,8,0:0:0:0:
143,69,52546,1,2,0:0:0:0:
64,22,52746,2,0,L|77:180,1,140,8|8,0:0|0:0,0:0:0:0:
6,220,53346,2,0,P|67:252|146:218,1,140,2|12,0:0|0:0,0:0:0:0:
214,193,53946,5,8,0:0:0:0:
287,247,54146,2,0,L|277:312,2,35,2|0|0,0:0|0:0|0:0,0:0:0:0:
321,216,54446,2,0,L|425:209,1,105,8|8,0:0|0:0,0:0:0:0:
482,137,54946,2,0,P|435:125|405:90,1,70,2|8,0:0|0:0,0:0:0:0:
387,78,55246,2,0,P|350:51|286:60,1,105,8|8,0:0|0:0,0:0:0:0:
203,40,55746,2,0,L|112:50,1,70,2|0,0:0|0:0,0:0:0:0:
88,38,56046,2,0,P|109:78|87:146,1,105,8|8,0:0|0:0,0:0:0:0:
19,182,56546,2,0,L|8:145,2,35,2|8|0,0:0|0:0|0:0,0:0:0:0:
39,223,56846,2,0,P|83:240|128:231,1,70,2|8,0:0|0:0,0:0:0:0:
149,228,57146,1,2,0:0:0:0:
190,209,57246,1,8,0:0:0:0:
235,206,57346,6,0,P|281:212|312:239,1,70,2|10,0:0|0:0,0:0:0:0:
383,262,57746,2,0,P|429:256|460:229,1,70,8|0,0:0|0:0,0:0:0:0:
509,175,58146,2,0,L|493:83,1,70,2|0,0:0|0:0,0:0:0:0:
417,61,58546,2,0,P|371:67|340:94,1,70,8|0,0:0|0:0,0:0:0:0:
326,118,58846,1,8,0:0:0:0:
326,118,58946,1,2,0:0:0:0:
251,66,59146,2,0,L|89:41,1,140,8|8,0:0|0:0,0:0:0:0:
23,64,59746,2,0,P|11:129|27:223,1,140,2|12,0:0|0:0,0:0:0:0:
111,207,60346,5,8,0:0:0:0:
183,262,60546,2,0,L|188:315,2,35,2|0|0,0:0|0:0|0:0,0:0:0:0:
218,232,60846,2,0,P|234:170|214:111,1,105,8|8,0:0|0:0,0:0:0:0:
265,49,61346,2,0,P|308:46|346:67,1,70,2|8,0:0|0:0,0:0:0:0:
373,77,61646,2,0,P|436:94|485:74,1,105,8|0,0:0|0:0,0:0:0:0:
475,173,62146,1,2,0:0:0:0:
475,173,62246,2,0,L|518:155,2,35,8|8|8,0:0|0:0|0:0,0:0:0:0:
478,218,62546,1,2,0:0:0:0:
484,263,62646,2,0,L|492:332,1,70,8|8,0:0|0:0,0:0:0:0:
401,332,63046,2,0,L|414:230,1,70,8|8,0:0|0:0,0:0:0:0:
327,222,63446,1,8,0:0:0:0:
327,222,63546,2,0,L|317:158,1,46.6666666666667,8|8,0:0|0:0,0:0:0:0:
307,245,63746,6,0,P|266:257|224:246,1,70,2|2,0:0|0:0,0:0:0:0:
153,222,64146,2,0,P|112:210|70:221,1,70,8|0,0:0|0:0,0:0:0:0:
109,302,64546,2,0,L|115:375,1,70,2|0,0:0|0:0,0:0:0:0:
203,349,64946,2,0,L|209:276,1,70,8|0,0:0|0:0,0:0:0:0:
227,237,65246,1,8,0:0:0:0:
227,237,65346,1,2,0:0:0:0:
194,151,65546,2,0,L|337:176,1,140,8|8,0:0|0:0,0:0:0:0:
398,236,66146,2,0,P|420:166|392:105,1,140,2|12,0:0|0:0,0:0:0:0:
330,42,66746,5,8,0:0:0:0:
246,77,66946,2,0,L|240:118,2,35,2|0|0,0:0|0:0|0:0,0:0:0:0:
206,54,67246,2,0,P|169:53|113:100,1,105,8|8,0:0|0:0,0:0:0:0:
33,131,67746,2,0,L|44:213,1,70,2|8,0:0|0:0,0:0:0:0:
19,239,68046,2,0,P|65:231|127:261,1,105,8|8,0:0|0:0,0:0:0:0:
209,254,68546,2,0,L|200:347,1,70,2|0,0:0|0:0,0:0:0:0:
220,365,68846,1,8,0:0:0:0:
319,339,69046,2,0,L|322:378,2,35,0|8|0,0:0|0:0|0:0,0:0:0:0:
341,299,69346,2,0,L|344:260,2,35,2|8|0,0:0|0:0|0:0,0:0:0:0:
384,312,69646,2,0,P|424:314|468:340,1,70,2|8,0:0|0:0,0:0:0:0:
487,298,69946,1,2,0:0:0:0:
491,252,70046,1,8,0:0:0:0:
492,206,70146,6,0,L|494:125,1,70,2|10,0:0|0:0,0:0:0:0:
460,51,70546,2,0,L|369:36,1,70,8|0,0:0|0:0,0:0:0:0:
299,48,70946,2,0,P|308:93|292:141,1,70,2|0,0:0|0:0,0:0:0:0:
232,172,71346,2,0,P|182:178|153:161,1,70,8|0,0:0|0:0,0:0:0:0:
133,138,71646,1,8,0:0:0:0:
133,138,71746,1,2,0:0:0:0:
48,104,71946,2,0,L|61:272,1,140,8|8,0:0|0:0,0:0:0:0:
45,333,72546,2,0,P|85:315|183:350,1,140,2|12,0:0|0:0,0:0:0:0:
247,285,73146,5,8,0:0:0:0:
328,325,73346,2,0,L|327:372,2,35,2|0|0,0:0|0:0|0:0,0:0:0:0:
366,299,73646,2,0,L|363:172,1,105,8|8,0:0|0:0,0:0:0:0:
347,104,74146,2,0,P|391:106|424:129,1,70,2|8,0:0|0:0,0:0:0:0:
456,131,74446,2,0,L|453:257,1,105,8|0,0:0|0:0,0:0:0:0:
395,313,74946,2,0,L|396:377,2,35,2|8|8,0:0|0:0|0:0,0:0:0:0:
365,277,75246,1,8,0:0:0:0:
335,242,75346,1,2,0:0:0:0:
305,208,75446,2,0,L|306:123,2,70,8|8|8,0:0|0:0|0:0,0:0:0:0:
217,237,76046,2,0,P|170:247|125:231,1,70,8|8,0:0|0:0,0:0:0:0:
107,223,76346,2,0,L|117:161,2,35,2|8|2,0:0|0:0|0:0,0:0:0:0:
42,287,76746,1,8,0:0:0:0:
98,359,76946,6,0,B|208:304|206:378|233:373|288:382|403:386|421:318|425:229|355:166|278:153|206:252,1,560,8|0,0:0|0:0,0:0:0:0:
256,192,80146,12,8,81746,0:0:0:0:
256,192,82061,5,0,0:0:0:0:
256,192,82377,1,0,0:0:0:0:
256,192,82693,2,0,L|256:278,1,70,10|10,0:0|0:0,0:0:0:0:
170,294,83009,6,0,P|148:247|183:160,1,140,8|2,0:0|0:0,0:0:0:0:
194,78,83482,2,0,P|245:66|284:80,1,70,8|0,0:0|0:0,0:0:0:0:
344,31,83798,2,0,P|379:69|387:109,1,70,8|2,0:0|0:0,0:0:0:0:
459,137,84114,2,0,P|443:187|412:213,1,70,8|0,0:0|0:0,0:0:0:0:
377,272,84430,6,0,L|380:331,2,35,8|0|2,0:0|0:0|0:0,0:0:0:0:
342,188,84746,1,8,0:0:0:0:
268,240,84903,2,0,L|265:299,2,35,12|2|8,0:0|0:0|0:0,0:0:0:0:
214,165,85219,2,0,L|122:175,1,70,2|2,0:0|0:0,0:0:0:0:
90,98,85535,2,0,P|149:61|227:90,1,140,8|2,0:0|0:0,0:0:0:0:
296,37,86009,2,0,P|314:80|302:117,1,70,8|0,0:0|0:0,0:0:0:0:
374,165,86324,2,0,P|345:202|307:210,1,70,8|2,0:0|0:0,0:0:0:0:
302,296,86640,2,0,P|255:290|229:261,1,70,8|0,0:0|0:0,0:0:0:0:
182,204,86956,6,0,L|132:206,1,35,8|0,0:0|0:0,0:0:0:0:
160,228,87114,2,0,L|79:232,1,70,2|2,0:0|0:0,0:0:0:0:
20,171,87430,2,0,L|15:117,3,35,8|2|8|8,0:0|0:0|0:0|0:0,0:0:0:0:
43,98,87746,2,0,P|83:92|116:104,1,70,2|10,0:0|0:0,0:0:0:0:
180,41,88061,2,0,P|230:68|315:52,1,140,8|2,0:0|0:0,0:0:0:0:
398,34,88535,2,0,P|416:59|411:104,1,70,8|0,0:0|0:0,0:0:0:0:
477,163,88851,2,0,P|464:191|422:209,1,70,8|2,0:0|0:0,0:0:0:0:
404,295,89167,2,0,P|373:298|336:271,1,70,8|0,0:0|0:0,0:0:0:0:
266,226,89482,6,0,L|253:312,1,70,8|2,0:0|0:0,0:0:0:0:
169,325,89798,2,0,L|156:239,1,70,8|6,0:0|0:0,0:0:0:0:
89,195,90114,2,0,L|94:160,2,35,8|8|2,0:0|0:0|0:0,0:0:0:0:
33,267,90430,6,0,L|40:318,1,35,8|8,0:0|0:0,0:0:0:0:
11,285,90588,2,0,L|21:354,2,70,8|2|2,0:0|0:0|0:0,0:0:0:0:
2,181,91061,2,0,P|6:141|32:109,1,70,8|8,0:0|0:0,0:0:0:0:
57,86,91298,1,2,0:0:0:0:
102,82,91377,2,0,P|148:89|199:75,1,70,8|2,0:0|0:0,0:0:0:0:
260,68,91693,2,0,P|306:61|357:75,1,70,8|0,0:0|0:0,0:0:0:0:
413,29,92009,5,8,0:0:0:0:
419,74,92088,1,0,0:0:0:0:
425,119,92167,2,0,L|439:222,1,70,2|2,0:0|0:0,0:0:0:0:
483,264,92482,1,8,0:0:0:0:
440,278,92560,1,2,0:0:0:0:
396,270,92639,1,2,0:0:0:0:
361,241,92718,1,8,0:0:0:0:
345,199,92798,6,0,L|331:96,1,70,2|8,0:0|0:0,0:0:0:0:
258,79,93114,2,0,P|216:125|234:225,1,140,8|2,0:0|0:0,0:0:0:0:
286,259,93588,2,0,P|255:288|211:291,1,70,8|0,0:0|0:0,0:0:0:0:
159,352,93903,2,0,P|118:339|93:303,1,70,8|2,0:0|0:0,0:0:0:0:
14,288,94219,2,0,P|4:246|23:207,1,70,8|0,0:0|0:0,0:0:0:0:
69,149,94535,6,0,L|62:92,2,35,0|0|2,0:0|0:0|0:0,0:0:0:0:
143,202,94851,1,0,0:0:0:0:
217,149,95009,2,0,L|224:92,2,35,12|0|0,0:0|0:0|0:0,0:0:0:0:
299,109,95324,2,0,L|287:12,1,70,6|0,0:0|0:0,0:0:0:0:
379,61,95640,2,0,P|453:72|476:137,1,140,8|2,0:0|0:0,0:0:0:0:
398,173,96114,2,0,P|395:215|419:248,1,70,8|0,0:0|0:0,0:0:0:0:
316,241,96430,2,0,P|350:264|391:260,1,70,8|2,0:0|0:0,0:0:0:0:
333,346,96746,2,0,P|370:327|387:290,1,70,8|0,0:0|0:0,0:0:0:0:
471,330,97061,6,0,L|457:268,1,35,0|0,0:0|0:0,0:0:0:0:
475,296,97219,2,0,L|461:215,1,70,2|0,0:0|0:0,0:0:0:0:
393,167,97535,2,0,L|401:118,3,35,8|0|4|0,0:0|0:0|0:0|0:0,0:0:0:0:
380,90,97851,2,0,P|339:68|297:70,1,70,6|4,0:0|0:0,0:0:0:0:
245,124,98167,2,0,P|189:140|106:103,1,140,8|2,0:0|0:0,0:0:0:0:
23,107,98640,2,0,P|43:155|36:194,1,70,8|0,0:0|0:0,0:0:0:0:
46,263,98956,2,0,P|97:269|127:295,1,70,8|2,0:0|0:0,0:0:0:0:
192,321,99272,2,0,P|223:279|260:266,1,70,8|0,0:0|0:0,0:0:0:0:
312,218,99588,6,0,L|368:213,2,35,0|0|2,0:0|0:0|0:0,0:0:0:0:
355,297,99903,2,0,L|299:292,2,35,0|0|12,0:0|0:0|0:0,0:0:0:0:
436,338,100219,1,0,0:0:0:0:
440,292,100298,1,0,0:0:0:0:
444,246,100377,2,0,L|455:155,1,70,0|0,0:0|0:0,0:0:0:0:
400,101,100693,2,0,P|427:64|475:55,2,70,8|2|2,0:0|0:0|0:0,0:0:0:0:
313,132,101167,2,0,L|218:138,1,70,8|8,0:0|0:0,0:0:0:0:
198,146,101403,1,2,0:0:0:0:
152,136,101482,2,0,L|83:132,1,70,8|2,0:0|0:0,0:0:0:0:
40,213,101798,2,0,P|92:216|102:308,1,140,8|8,0:0|0:0,0:0:0:0:
194,335,102272,6,0,L|278:331,1,70,2|2,0:0|0:0,0:0:0:0:
348,295,102588,2,0,L|354:261,3,35,8|2|2|8,0:0|0:0|0:0|0:0,0:0:0:0:
352,215,102903,2,0,L|346:181,4,35,2|0|8|0|8,0:0|0:0|0:0|0:0|0:0,0:0:0:0:
271,233,103377,1,4,0:0:0:0:
271,233,103535,6,0,L|258:164,1,70,2|12,0:0|0:0,0:0:0:0:
264,129,103772,1,0,0:0:0:0:
285,101,103851,1,0,0:0:0:0:
358,111,104009,6,0,L|345:182,1,70,12|2,0:0|0:0,0:0:0:0:
433,144,104324,1,12,0:0:0:0:
437,109,104403,2,0,P|424:64|389:35,1,70,0|0,0:0|0:0,0:0:0:0:
378,29,104640,5,8,0:0:0:0:
378,29,104798,2,0,P|335:17|283:37,1,70,2|8,0:0|0:0,0:0:0:0:
221,42,105114,2,0,L|224:0,2,35,8|2|8,0:0|0:0|0:0,0:0:0:0:
133,15,105430,2,0,L|139:110,1,70,2|0,0:0|0:0,0:0:0:0:
77,154,105746,5,8,0:0:0:0:
73,188,105824,1,0,0:0:0:0:
71,222,105903,2,0,L|81:275,1,35,4|0,0:0|0:0,0:0:0:0:
101,282,106061,6,0,P|143:288|185:277,1,70,2|12,0:0|0:0,0:0:0:0:
204,276,106298,2,0,P|246:270|288:281,1,70
303,292,106535,6,0,L|308:376,2,70,12|6|12,0:0|0:0|0:0,0:0:0:0:
329,267,106930,1,0,0:0:0:0:
339,233,107009,1,0,0:0:0:0:
330,198,107088,1,0,0:0:0:0:
313,166,107167,6,0,L|308:82,2,70,8|2|2,0:0|0:0|0:0,0:0:0:0:
236,115,107640,2,0,L|233:73,4,35,8|2|2|8|2,0:0|0:0|0:0|0:0|0:0,0:0:0:0:
285,25,108114,2,0,L|373:16,1,70,8|8,0:0|0:0,0:0:0:0:
430,69,108430,1,4,0:0:0:0:
430,69,108588,6,0,P|447:112|437:154,1,70,2|12,0:0|0:0,0:0:0:0:
393,238,108982,1,0,0:0:0:0:
375,268,109061,6,0,P|358:311|368:353,2,70,12|2|12,0:0|0:0|0:0,0:0:0:0:
364,167,109535,1,0,0:0:0:0:
364,167,109693,6,0,P|405:160|443:177,1,70,8|2,0:0|0:0,0:0:0:0:
465,256,110009,1,8,0:0:0:0:
393,317,110167,1,2,0:0:0:0:
313,264,110324,2,0,L|281:276,2,35,0|8|2,0:0|0:0|0:0,0:0:0:0:
364,167,110640,5,8,0:0:0:0:
364,167,110719,1,8,0:0:0:0:
364,167,110798,2,0,P|374:105|368:74,1,70,8|2,0:0|0:0,0:0:0:0:
283,80,111114,2,0,P|273:142|279:173,1,70,2|8,0:0|0:0,0:0:0:0:
207,211,111430,2,0,L|161:235,2,35,8|2|8,0:0|0:0|0:0,0:0:0:0:
196,302,111746,1,2,0:0:0:0:
105,295,111903,6,0,P|78:219|110:155,1,140,8|8,0:0|0:0,0:0:0:0:
156,95,112377,2,0,P|177:67|179:15,1,70,2|2,0:0|0:0,0:0:0:0:
169,0,112614,1,2,0:0:0:0:
169,0,112693,1,8,0:0:0:0:
175,227,113009,5,4,0:0:0:0:
