osu file format v14

[General]
AudioFilename: audio.mp3
AudioLeadIn: 2000
PreviewTime: 81546
Countdown: 0
SampleSet: Normal
StackLeniency: 0.7
Mode: 0
LetterboxInBreaks: 0
WidescreenStoryboard: 0

[Editor]
Bookmarks: 18346,19346,25746,32146,46346,51346,57746,64146,70546,93114,93272,93588,93903,94219,94535,94851,95798,96114,96430,96746,97061,97377,98324,98640,98956,99114,99272
DistanceSpacing: 1.6
BeatDivisor: 4
GridSize: 32
TimelineZoom: 6.399996

[Metadata]
Title:QLWA
TitleUnicode:QLWA
Artist:t+pazolite
ArtistUnicode:t+pazolite
Creator:Yugu
Version:Gyro's Insane
Source:GROOVE COASTER 2
Tags:ORIGINAL SOUNDTRACK BOOST Gyro Zeppeli Suzuki_1112 1112deng Koiyuki liaoxingyao ExNeko Good Evening, HOLLOWood ayyri eiri- unpredictable Gyro_Zeppeli
BeatmapID:1450380
BeatmapSetID:685008

[Difficulty]
HPDrainRate:5.5
CircleSize:3.8
OverallDifficulty:8
ApproachRate:8.7
SliderMultiplier:1.5
SliderTickRate:1

[Events]
//Background and Video events
0,0,"623.jpg",0,0
//Break Periods
2,77146,79442
//Storyboard Layer 0 (Background)
//Storyboard Layer 1 (Fail)
//Storyboard Layer 2 (Pass)
//Storyboard Layer 3 (Foreground)
//Storyboard Sound Samples

[TimingPoints]
146,400,4,1,1,70,1,0
1146,-100,4,1,98,70,0,0
1346,-100,4,1,1,70,0,0
3346,-100,4,1,3,70,0,0
4346,-100,4,1,98,70,0,0
4546,-100,4,1,1,70,0,0
7546,-100,4,1,98,70,0,0
7746,-100,4,1,1,70,0,0
9746,-100,4,1,3,70,0,0
10746,-100,4,1,98,70,0,0
10946,-100,4,1,1,70,0,0
12946,-100,4,2,1,50,0,0
18546,-100,4,2,1,50,0,0
18946,-100,4,1,97,10,0,0
18979,-100,4,1,97,15,0,0
19012,-100,4,1,97,20,0,0
19046,-100,4,1,97,25,0,0
19079,-100,4,1,97,30,0,0
19112,-100,4,1,97,35,0,0
19146,-100,4,1,97,40,0,0
19179,-100,4,1,97,45,0,0
19346,-100,4,1,3,70,0,0
19546,-100,4,1,1,70,0,0
25746,-100,4,1,3,70,0,0
26046,-100,4,1,1,70,0,0
32146,-100,4,1,3,70,0,0
32446,-100,4,1,1,70,0,0
38546,-100,4,1,1,70,0,0
38946,-100,4,1,3,70,0,0
44946,-66.6666666666667,4,1,3,70,0,0
48146,-100,4,1,1,70,0,0
48346,-100,4,1,1,70,0,0
48546,-100,4,1,1,80,0,0
48746,-100,4,1,1,80,0,0
48946,-100,4,1,1,90,0,0
49146,-100,4,1,1,90,0,0
49346,-100,4,1,1,100,0,0
49546,-100,4,1,1,100,0,0
49746,-100,4,1,1,30,0,0
50746,-100,4,1,3,30,0,0
50946,-83.3333333333333,4,1,1,70,0,0
51346,-66.6666666666667,4,1,1,90,0,1
53346,-100,4,1,1,90,0,1
53746,-100,4,1,3,90,0,0
53946,-100,4,1,1,90,0,0
57346,-100,4,1,1,70,0,0
57746,-100,4,1,1,90,0,1
57946,-66.6666666666667,4,1,1,90,0,1
60146,-100,4,1,3,90,0,0
60346,-100,4,1,1,90,0,0
62546,-100,4,1,1,90,0,0
63746,-100,4,1,1,70,0,0
64146,-100,4,1,1,90,0,1
66546,-100,4,1,3,90,0,0
66746,-100,4,1,1,90,0,0
68046,-66.6666666666667,4,1,1,90,0,0
68546,-100,4,1,1,90,0,0
70546,-100,4,1,1,90,0,1
72946,-100,4,1,3,90,0,0
73146,-100,4,1,1,90,0,0
81746,315.789473684211,4,1,3,70,1,0
81746,-100,4,1,3,70,0,0
82061,-100,4,1,3,70,0,0
82377,-100,4,1,3,70,0,0
82535,-100,4,1,2,70,0,0
82693,-100,4,1,3,80,0,0
83009,-76.9230769230769,4,1,2,100,0,1
92798,-76.9230769230769,4,1,2,100,0,1
92956,-76.9230769230769,4,1,2,100,0,1
93114,-76.9230769230769,4,1,33,100,0,1
102903,-76.9230769230769,4,1,99,90,0,1
102982,-76.9230769230769,4,1,99,80,0,1
103022,-76.9230769230769,4,1,99,70,0,1
103061,-76.9230769230769,4,1,99,60,0,1
103101,-76.9230769230769,4,1,99,50,0,1
103140,-76.9230769230769,4,1,99,40,0,1
103180,-76.9230769230769,4,1,99,30,0,1
103219,-76.9230769230769,4,1,1,70,0,0
113009,-76.9230769230769,4,1,3,70,0,0

[Colours]
Combo1 : 248,24,41
Combo2 : 241,182,116
Combo3 : 145,237,129
Combo4 : 72,84,132

[HitObjects]
62,131,146,6,0,P|99:139|144:126,1,75,8|0,0:0|0:0,0:0:0:0:
204,64,546,2,0,P|241:56|286:69,1,75,2|0,0:0|0:0,0:0:0:0:
241,136,946,1,8,0:0:0:0:
347,26,1146,1,2,0:0:0:0:
347,26,1246,1,10,0:0:0:0:
347,26,1346,2,0,P|356:67|338:114,1,75,2|0,0:0|0:0,0:0:0:0:
312,170,1746,5,8,0:0:0:0:
268,309,1946,1,0,0:0:0:0:
268,309,2046,1,0,0:0:0:0:
268,309,2146,2,0,P|259:268|277:221,1,75,2|8,0:0|0:0,0:0:0:0:
415,268,2546,2,0,P|380:279|344:272,1,75
323,183,2846,1,8,0:0:0:0:
312,170,2946,2,0,P|276:159|240:166,1,75,2|8,0:0|0:0,0:0:0:0:
106,83,3346,6,0,P|71:97|47:129,1,75,8|0,0:0|0:0,0:0:0:0:
124,162,3746,2,0,P|159:148|183:116,1,75,2|0,0:0|0:0,0:0:0:0:
181,45,4146,1,8,0:0:0:0:
258,165,4346,1,2,0:0:0:0:
258,165,4446,1,10,0:0:0:0:
258,165,4546,2,0,L|251:239,1,75,2|0,0:0|0:0,0:0:0:0:
299,351,4946,6,0,P|341:351|385:331,1,75,8|0,0:0|0:0,0:0:0:0:
397,243,5346,2,0,P|355:243|311:263,1,75,2|8,0:0|0:0,0:0:0:0:
257,172,5746,2,0,L|261:217,1,37.5,0|8,0:0|0:0,0:0:0:0:
337,161,5946,2,0,L|341:116,1,37.5,8|0,0:0|0:0,0:0:0:0:
271,23,6146,2,0,P|259:71|269:105,1,75,2|8,0:0|0:0,0:0:0:0:
189,193,6546,6,0,P|223:209|262:208,1,75,8|0,0:0|0:0,0:0:0:0:
151,120,6946,2,0,P|111:170|109:206,1,75,2|0,0:0|0:0,0:0:0:0:
126,260,7346,1,8,0:0:0:0:
31,225,7546,1,2,0:0:0:0:
31,225,7646,1,10,0:0:0:0:
31,225,7746,2,0,L|46:309,1,75,2|0,0:0|0:0,0:0:0:0:
130,347,8146,6,0,L|214:332,1,75,8|0,0:0|0:0,0:0:0:0:
252,248,8546,2,0,L|237:164,1,75,2|8,0:0|0:0,0:0:0:0:
338,259,8946,2,0,P|323:299|292:329,1,75
174,216,9246,1,8,0:0:0:0:
179,201,9346,2,0,P|209:177|270:174,1,75,2|8,0:0|0:0,0:0:0:0:
371,174,9746,6,0,P|403:191|459:190,1,75,8|0,0:0|0:0,0:0:0:0:
455,44,10146,2,0,P|432:73|428:110,1,75,2|0,0:0|0:0,0:0:0:0:
508,102,10546,1,8,0:0:0:0:
459,235,10746,1,2,0:0:0:0:
459,235,10846,1,10,0:0:0:0:
459,235,10946,2,0,L|471:309,1,75,2|0,0:0|0:0,0:0:0:0:
345,130,11346,6,0,P|308:123|269:137,1,75,8|0,0:0|0:0,0:0:0:0:
205,178,11746,2,0,P|168:185|129:171,1,75,2|8,0:0|0:0,0:0:0:0:
0,81,12046,2,0,L|5:32,1,37.5,8|0,0:0|0:0,0:0:0:0:
56,176,12246,2,0,L|53:139,1,37.5,8|0,0:0|0:0,0:0:0:0:
20,253,12446,1,8,0:0:0:0:
20,253,12546,2,0,P|53:262|102:246,1,75,2|8,0:0|0:0,0:0:0:0:
229,279,12946,6,0,P|236:318|223:362,2,75,10|0|0,0:0|0:0|0:0,0:0:0:0:
263,170,13546,1,0,0:0:0:0:
263,170,13646,2,0,P|322:167|369:208,1,112.5,2|0,0:0|0:0,0:0:0:0:
296,240,14146,1,0,0:0:0:0:
445,272,14346,2,0,P|473:191|445:119,1,150,2|2,0:0|0:0,0:0:0:0:
392,36,14946,2,0,P|377:75|388:125,1,75
365,146,15246,2,0,P|274:154|180:112,1,187.5
243,326,16146,5,0,0:0:0:0:
281,333,16346,2,0,L|335:345,1,37.5
390,370,16546,2,0,P|399:325|381:290,1,75,0|2,0:0|0:0,0:0:0:0:
194,260,16846,1,0,0:0:0:0:
194,260,16946,2,0,P|168:296|166:339,2,75
243,326,17546,1,2,0:0:0:0:
277,251,17746,2,0,L|269:166,1,75
323,117,18146,2,0,P|267:96|237:105,1,75
169,144,18546,2,0,P|113:165|83:156,1,75,2|0,0:0|0:0,0:0:0:0:
118,88,18946,2,0,L|115:75,10,12.5,2|2|2|2|2|2|2|2|2|2|2,0:2|0:2|0:2|0:2|0:2|0:2|0:2|0:2|0:2|0:2|0:2,0:0:0:0:
111,53,19346,5,12,0:0:0:0:
104,244,19546,1,0,0:0:0:0:
104,244,19646,1,8,0:0:0:0:
104,244,19746,1,2,0:0:0:0:
197,190,19946,2,0,P|264:174|349:216,1,150,8|8,0:0|0:0,0:0:0:0:
260,267,20546,1,2,0:0:0:0:
265,77,20746,2,0,B|278:36|278:36|280:159,1,150,8|8,0:0|0:0,0:0:0:0:
289,345,21346,5,2,0:0:0:0:
289,345,21446,2,0,P|326:317|346:272,1,75,8|0,0:0|0:0,0:0:0:0:
340,292,21746,2,0,P|369:267|416:259,1,75,8|0,0:0|0:0,0:0:0:0:
497,133,22146,1,2,0:0:0:0:
497,133,22246,2,0,P|464:124|417:133,1,75,8|8,0:0|0:0,0:0:0:0:
424,129,22546,6,0,P|391:138|344:129,1,75,8|0,0:0|0:0,0:0:0:0:
259,223,22946,2,0,L|266:148,1,75,2|8,0:0|0:0,0:0:0:0:
178,54,23246,1,0,0:0:0:0:
178,54,23346,2,0,L|185:129,1,75,0|8,0:0|0:0,0:0:0:0:
259,223,23746,1,2,0:0:0:0:
300,299,23946,2,0,P|251:310|168:236,1,150,8|8,0:0|0:0,0:0:0:0:
259,223,24546,5,2,0:0:0:0:
259,223,24646,2,0,P|304:212|346:220,1,75,8|0,0:0|0:0,0:0:0:0:
332,215,24946,2,0,P|409:215|451:146,1,150,8|2,0:0|0:0,0:0:0:0:
361,34,25746,6,0,L|370:146,1,112.5,12|8,0:0|0:0,0:0:0:0:
370,146,26146,1,2,0:0:0:0:
177,123,26346,1,8,0:0:0:0:
177,123,26446,2,0,B|217:115|217:115|289:123,1,112.5,0|8,0:0|0:0,0:0:0:0:
170,213,26946,1,2,0:0:0:0:
78,102,27146,2,0,B|98:69|98:69|82:208,1,150,8|8,0:0|0:0,0:0:0:0:
118,281,27746,5,2,0:0:0:0:
118,281,27846,2,0,P|162:298|217:288,1,75,8|0,0:0|0:0,0:0:0:0:
189,297,28146,2,0,P|247:287|308:301,1,112.5,8|0,0:0|0:0,0:0:0:0:
299,297,28546,2,0,L|295:344,1,37.5,2|10,0:0|0:0,0:0:0:0:
378,310,28746,2,0,L|374:357,1,37.5,0|8,0:0|0:0,0:0:0:0:
449,275,28946,6,0,P|416:241|388:232,1,75,8|0,0:0|0:0,0:0:0:0:
299,297,29346,1,2,0:0:0:0:
357,156,29546,1,8,0:0:0:0:
357,156,29646,1,0,0:0:0:0:
357,156,29746,2,0,L|368:60,2,75,0|8|2,0:0|0:0|0:0,0:0:0:0:
278,188,30346,2,0,P|203:197|141:149,1,150,8|8,0:0|0:0,0:0:0:0:
155,64,30946,5,2,0:0:0:0:
155,64,31046,2,0,B|114:57|82:87,1,75,8|0,0:0|0:0,0:0:0:0:
85,83,31346,2,0,P|52:151|96:234,1,150,8|2,0:0|0:0,0:0:0:0:
220,349,32146,6,0,L|211:234,1,112.5,12|8,0:0|0:0,0:0:0:0:
211,236,32546,1,2,0:0:0:0:
307,174,32746,1,8,0:0:0:0:
307,174,32846,2,0,L|298:289,1,112.5,0|8,0:0|0:0,0:0:0:0:
430,248,33346,1,2,0:0:0:0:
380,132,33546,2,0,P|321:91|238:124,1,150,8|8,0:0|0:0,0:0:0:0:
157,210,34146,5,2,0:0:0:0:
157,210,34246,2,0,B|172:177|172:177|168:96,1,112.5,8|8,0:0|0:0,0:0:0:0:
94,260,34746,1,0,0:0:0:0:
94,260,34846,1,0,0:0:0:0:
94,260,34946,2,0,P|138:289|214:264,1,112.5,2|8,0:0|0:0,0:0:0:0:
218,274,35346,5,8,0:0:0:0:
309,215,35546,1,0,0:0:0:0:
309,215,35646,1,8,0:0:0:0:
309,215,35746,2,0,P|346:198|389:199,1,75,2|8,0:0|0:0,0:0:0:0:
454,260,36046,1,0,0:0:0:0:
454,260,36146,2,0,P|417:277|374:276,1,75,0|8,0:0|0:0,0:0:0:0:
269,135,36546,1,2,0:0:0:0:
459,62,36746,2,0,B|390:45|390:83|301:53,1,150,8|8,0:0|0:0,0:0:0:0:
235,0,37346,6,0,P|216:34|223:88,1,75,2|0,0:0|0:0,0:0:0:0:
245,154,37646,1,0,0:0:0:0:
245,154,37746,2,0,P|264:227|240:314,1,150,8|2,0:0|0:0,0:0:0:0:
248,298,38246,1,8,0:0:0:0:
154,228,38446,1,8,0:0:0:0:
154,228,38546,6,0,L|158:174,1,37.5,2|0,0:0|0:0,0:0:0:0:
71,241,38746,2,0,L|75:295,1,37.5,2|0,0:0|0:0,0:0:0:0:
160,339,38946,1,0,0:0:0:0:
160,339,39046,1,0,0:0:0:0:
160,339,39146,1,0,0:0:0:0:
160,339,39246,1,0,0:0:0:0:
160,339,39346,2,0,B|214:298|286:335,1,112.5
419,301,39946,5,2,0:0:0:0:
419,301,40346,1,2,0:0:0:0:
488,214,40546,2,0,L|481:157,1,37.5
405,142,40746,2,0,L|398:199,1,37.5
474,71,40946,2,0,B|442:43|396:50,1,75
328,44,41246,1,0,0:0:0:0:
317,55,41345,2,0,B|276:81|233:67,1,75
186,131,41746,6,0,L|191:168,1,37.5,2|0,0:0|0:0,0:0:0:0:
130,70,41946,2,0,L|135:32,1,37.5,2|0,0:0|0:0,0:0:0:0:
76,142,42146,1,0,0:0:0:0:
76,142,42246,1,0,0:0:0:0:
76,142,42346,1,0,0:0:0:0:
76,142,42446,1,0,0:0:0:0:
76,142,42546,2,0,P|58:192|74:248,1,112.5
286,259,43146,5,2,0:0:0:0:
286,259,43546,1,2,0:0:0:0:
395,231,43746,2,0,L|444:221,1,37.5
456,151,43946,2,0,L|407:141,1,37.5
455,298,44146,1,0,0:0:0:0:
336,350,44346,1,0,0:0:0:0:
336,350,44446,1,0,0:0:0:0:
336,350,44546,2,0,L|287:340,1,37.5
238,284,44746,2,0,L|189:294,1,37.5
123,325,44946,6,0,L|58:311,1,56.2500021457673,2|0,0:0|0:0,0:0:0:0:
117,242,45146,2,0,L|52:228,1,56.2500021457673,2|0,0:0|0:0,0:0:0:0:
111,159,45346,2,0,L|46:145,3,56.2500021457673
200,52,45746,6,0,L|156:93,1,56.2500021457673,2|0,0:0|0:0,0:0:0:0:
281,85,45946,2,0,L|241:124,1,56.2500021457673,2|0,0:0|0:0,0:0:0:0:
362,118,46146,2,0,L|322:157,3,56.2500021457673
384,224,46546,6,0,P|382:257|407:301,1,56.2500021457673,2|0,0:0|0:0,0:0:0:0:
473,271,46746,2,0,P|475:238|450:194,1,56.2500021457673,2|0,0:0|0:0,0:0:0:0:
337,330,46946,6,0,P|364:348|415:348,1,56.2500021457673
256,352,47146,1,2,0:0:0:0:
176,264,47346,2,0,P|148:282|97:282,1,56.2500021457673
256,224,47546,1,2,0:0:0:0:
107,154,47746,2,0,P|109:181|123:207,3,56.2500021457673
181,100,48146,6,0,L|186:63,1,37.5,8|0,0:0|0:0,0:0:0:0:
335,90,48346,2,0,L|340:53,1,37.5,8|0,0:0|0:0,0:0:0:0:
258,95,48546,6,0,L|263:58,1,37.5,8|0,0:0|0:0,0:0:0:0:
412,85,48746,2,0,L|417:48,1,37.5,8|0,0:0|0:0,0:0:0:0:
299,165,48946,6,0,L|295:203,1,37.5,8|0,0:0|0:0,0:0:0:0:
453,155,49146,2,0,L|448:192,1,37.5,8|0,0:0|0:0,0:0:0:0:
222,170,49346,6,0,L|218:208,1,37.5,8|0,0:0|0:0,0:0:0:0:
376,160,49546,2,0,L|371:197,1,37.5,8|0,0:0|0:0,0:0:0:0:
358,281,49746,5,0,0:0:0:0:
358,281,50046,1,0,0:0:0:0:
358,281,50346,1,0,0:0:0:0:
371,197,50546,5,0,0:0:0:0:
338,358,50746,2,8,L|333:390,2,25
260,309,50946,2,0,P|217:295|156:309,1,89.9999972534181,2|2,0:0|0:0,0:0:0:0:
63,235,51346,5,8,0:0:0:0:
161,296,51546,1,0,0:0:0:0:
161,296,51646,1,0,0:0:0:0:
161,296,51746,2,0,P|149:239|175:168,1,112.500004291535,2|0,0:0|0:0,0:0:0:0:
263,58,52146,2,0,P|275:115|249:186,1,112.500004291535,8|0,0:0|0:0,0:0:0:0:
139,114,52446,1,8,0:0:0:0:
139,114,52546,6,0,L|195:114,1,56.2500021457673,2|0,0:0|0:0,0:0:0:0:
261,166,52746,2,0,P|333:190|389:171,1,112.500004291535,8|0,0:0|0:0,0:0:0:0:
325,97,53146,1,8,0:0:0:0:
342,332,53346,2,0,B|320:372|320:372|311:250,1,150,2|12,0:0|0:0,0:0:0:0:
414,264,53946,1,8,0:0:0:0:
311,267,54146,2,0,L|328:234,1,37.5,2|0,0:0|0:0,0:0:0:0:
210,295,54446,6,0,P|229:243|221:205,1,75,8|0,0:0|0:0,0:0:0:0:
217,192,54746,1,8,0:0:0:0:
186,53,54946,2,0,P|167:108|182:155,1,75,2|8,0:0|0:0,0:0:0:0:
308,163,55246,1,8,0:0:0:0:
307,162,55346,2,0,P|287:132|255:112,1,75
143,237,55646,1,0,0:0:0:0:
143,237,55746,2,0,L|84:247,2,37.5,2|0|0,0:0|0:0|0:0,0:0:0:0:
260,242,56046,2,0,P|316:253|385:220,1,112.5,8|8,0:0|0:0,0:0:0:0:
480,114,56546,6,0,L|487:50,1,37.5,2|8,0:0|0:0,0:0:0:0:
385,38,56746,1,0,0:0:0:0:
385,38,56846,2,0,L|396:139,1,75,2|8,0:0|0:0,0:0:0:0:
290,141,57146,1,2,0:0:0:0:
290,141,57246,1,8,0:0:0:0:
290,141,57346,2,0,L|301:39,1,75,2|8,0:0|0:0,0:0:0:0:
393,112,57746,5,8,0:0:0:0:
201,66,57946,1,0,0:0:0:0:
201,66,58046,1,0,0:0:0:0:
201,66,58146,2,0,P|129:71|96:154,1,168.750006437302,2|0,0:0|0:0,0:0:0:0:
81,254,58546,2,0,P|131:248|181:203,1,112.500004291535,8|0,0:0|0:0,0:0:0:0:
177,209,58846,1,8,0:0:0:0:
177,209,58946,1,2,0:0:0:0:
226,349,59146,6,0,P|242:296|336:368,1,225.000008583069,8|8,0:0|0:0,0:0:0:0:
288,201,59746,2,0,P|388:246|422:362,1,225.000008583069,2|12,0:0|0:0,0:0:0:0:
492,212,60346,1,8,0:0:0:0:
461,121,60546,2,0,L|460:79,1,37.5,2|8,0:0|0:0,0:0:0:0:
361,33,60846,6,0,L|363:127,1,75,8|0,0:0|0:0,0:0:0:0:
372,199,61146,1,8,0:0:0:0:
372,199,61246,1,0,0:0:0:0:
373,200,61346,2,0,B|327:198|302:174,1,75,2|8,0:0|0:0,0:0:0:0:
229,227,61646,2,0,B|207:186|216:152,1,75,8|8,0:0|0:0,0:0:0:0:
215,154,61946,1,0,0:0:0:0:
135,43,62146,1,2,0:0:0:0:
135,43,62246,1,8,0:0:0:0:
135,43,62346,1,8,0:0:0:0:
135,43,62446,1,8,0:0:0:0:
135,43,62546,6,0,L|131:93,1,37.5,2|8,0:0|0:0,0:0:0:0:
116,247,62846,1,8,0:0:0:0:
215,154,63046,1,8,0:0:0:0:
37,96,63246,1,8,0:0:0:0:
66,311,63446,1,8,0:0:0:0:
66,311,63546,1,8,0:0:0:0:
66,311,63646,1,0,0:0:0:0:
66,311,63746,2,0,B|100:332|138:325,1,75,2|2,0:0|0:0,0:0:0:0:
215,154,64146,5,8,0:0:0:0:
296,251,64346,1,0,0:0:0:0:
296,251,64446,1,0,0:0:0:0:
296,251,64546,2,0,L|289:335,1,75,2|0,0:0|0:0,0:0:0:0:
445,289,64946,2,0,L|438:214,1,75,8|0,0:0|0:0,0:0:0:0:
397,142,65246,1,8,0:0:0:0:
397,142,65346,2,0,L|401:82,1,37.5,2|0,0:0|0:0,0:0:0:0:
361,31,65546,2,0,P|303:6|203:32,1,150,8|8,0:0|0:0,0:0:0:0:
237,167,66146,6,0,B|267:200|267:200|297:156|286:99,1,150,2|12,0:0|0:0,0:0:0:0:
159,103,66746,1,8,0:0:0:0:
215,258,66946,2,0,P|229:273|261:280,1,37.5,2|0,0:0|0:0,0:0:0:0:
377,188,67246,1,0,0:0:0:0:
162,196,67546,5,8,0:0:0:0:
162,196,67646,1,0,0:0:0:0:
162,196,67746,2,0,P|139:232|134:269,1,75,2|8,0:0|0:0,0:0:0:0:
59,312,68046,2,0,P|128:347|211:305,1,168.750006437302,8|8,0:0|0:0,0:0:0:0:
267,201,68546,1,2,0:0:0:0:
74,131,68746,1,0,0:0:0:0:
63,141,68846,2,0,L|10:139,2,37.5,8|0|0,0:0|0:0|0:0,0:0:0:0:
146,213,69146,5,8,0:0:0:0:
146,213,69246,1,0,0:0:0:0:
146,213,69346,1,2,0:0:0:0:
146,213,69446,1,8,0:0:0:0:
146,213,69546,2,0,L|199:214,1,37.5,0|2,0:0|0:0,0:0:0:0:
42,278,69746,2,0,L|100:278,1,37.5,0|8,0:0|0:0,0:0:0:0:
163,309,69946,2,0,L|203:309,1,37.5,2|8,0:0|0:0,0:0:0:0:
254,371,70146,2,0,P|278:339|276:272,1,75,2|10,0:0|0:0,0:0:0:0:
217,137,70546,5,8,0:0:0:0:
306,223,70746,1,0,0:0:0:0:
306,223,70846,1,0,0:0:0:0:
306,223,70946,2,0,P|343:240|381:237,1,75,2|0,0:0|0:0,0:0:0:0:
364,87,71346,2,0,L|354:168,1,75,8|0,0:0|0:0,0:0:0:0:
354,161,71646,1,8,0:0:0:0:
354,161,71746,1,2,0:0:0:0:
428,298,71946,6,0,P|453:251|452:216,1,75,8|0,0:0|0:0,0:0:0:0:
278,147,72346,1,8,0:0:0:0:
438,82,72546,2,0,L|350:87,1,75,2|0,0:0|0:0,0:0:0:0:
249,47,72946,1,12,0:0:0:0:
178,131,73146,1,8,0:0:0:0:
86,27,73346,1,2,0:0:0:0:
99,56,73446,2,0,L|106:105,1,37.5,0|8,0:0|0:0,0:0:0:0:
108,179,73646,6,0,L|96:266,1,75,8|0,0:0|0:0,0:0:0:0:
80,330,73946,1,8,0:0:0:0:
80,330,74046,1,0,0:0:0:0:
80,330,74146,2,0,P|119:330|163:297,1,75,2|8,0:0|0:0,0:0:0:0:
209,261,74446,2,0,P|248:261|292:294,1,75,8|8,0:0|0:0,0:0:0:0:
278,278,74746,1,0,0:0:0:0:
426,245,74946,1,2,0:0:0:0:
426,245,75046,1,8,0:0:0:0:
426,245,75146,2,0,P|438:212|432:160,1,75,8|2,0:0|0:0,0:0:0:0:
458,101,75446,6,0,P|422:97|375:126,2,75,8|8|8,0:0|0:0|0:0,0:0:0:0:
313,138,76046,2,0,P|277:142|230:113,1,75,8|0,0:0|0:0,0:0:0:0:
174,204,76346,1,2,0:0:0:0:
174,204,76446,1,8,0:0:0:0:
174,204,76546,2,0,L|174:156,1,37.5,2|0,0:0|0:0,0:0:0:0:
109,52,76746,2,0,L|109:100,1,37.5,8|0,0:0|0:0,0:0:0:0:
97,253,76946,1,8,0:0:0:0:
256,192,80146,12,0,81646,0:0:0:0:
174,141,81746,6,0,L|190:307,2,150,8|0|0,0:0|0:0|0:0,0:0:0:0:
296,42,82535,1,0,0:0:0:0:
296,42,82614,1,0,0:0:0:0:
296,42,82693,1,6,0:0:0:0:
296,42,82772,1,0,0:0:0:0:
296,42,82851,1,2,0:0:0:0:
296,42,82930,1,0,0:0:0:0:
296,42,83009,6,0,P|320:106|312:146,1,97.4999955368044,8|0,0:0|0:0,0:0:0:0:
283,243,83324,1,2,0:0:0:0:
482,212,83482,2,0,P|436:195|367:220,1,97.4999955368044,8|0,0:0|0:0,0:0:0:0:
232,309,83798,2,0,P|278:326|347:301,1,97.4999955368044,8|2,0:0|0:0,0:0:0:0:
291,149,84114,2,0,P|275:194|282:242,1,97.4999955368044,8|0,0:0|0:0,0:0:0:0:
144,321,84430,6,0,L|125:374,2,48.7499977684022,8|0|2,0:0|0:0|0:0,0:0:0:0:
192,79,84746,1,8,0:0:0:0:
192,221,84903,1,8,0:0:0:0:
192,221,84982,1,2,0:0:0:0:
192,221,85061,2,0,L|188:162,1,48.7499977684022,8|0,0:0|0:0,0:0:0:0:
113,126,85219,2,0,L|104:249,1,97.4999955368044,2|0,0:0|0:0,0:0:0:0:
282,242,85535,6,0,L|273:118,1,97.4999955368044,8|0,0:0|0:0,0:0:0:0:
269,24,85851,1,2,0:0:0:0:
451,85,86009,2,0,P|401:99|334:75,1,97.4999955368044,8|0,0:0|0:0,0:0:0:0:
232,228,86324,2,0,P|244:177|299:131,1,97.4999955368044,8|0,0:0|0:0,0:0:0:0:
418,216,86640,2,0,P|405:266|350:312,1,97.4999955368044,8|0,0:0|0:0,0:0:0:0:
166,275,86956,6,0,P|151:227|158:193,2,48.7499977684022,8|0|2,0:0|0:0|0:0,0:0:0:0:
325,222,87272,1,8,0:0:0:0:
325,222,87350,1,0,0:0:0:0:
325,222,87429,1,8,0:0:0:0:
325,222,87508,1,2,0:0:0:0:
325,222,87588,2,0,P|319:256|302:296,1,48.7499977684022,8|0,0:0|0:0,0:0:0:0:
232,228,87746,2,0,P|244:177|299:131,1,97.4999955368044,2|8,0:0|0:0,0:0:0:0:
123,39,88061,6,0,P|160:75|172:145,1,97.4999955368044,8|0,0:0|0:0,0:0:0:0:
78,123,88377,1,2,0:0:0:0:
37,229,88535,2,0,P|97:210|157:244,1,97.4999955368044,8|0,0:0|0:0,0:0:0:0:
314,269,88851,2,0,P|295:316|245:334,1,97.4999955368044,8|0,0:0|0:0,0:0:0:0:
235,162,89167,2,0,L|239:280,1,97.4999955368044,8|0,0:0|0:0,0:0:0:0:
389,331,89482,6,0,L|393:213,1,97.4999955368044,8|2,0:0|0:0,0:0:0:0:
490,167,89798,1,8,0:0:0:0:
388,85,89956,1,2,0:0:0:0:
388,85,90035,1,0,0:0:0:0:
388,85,90114,1,8,0:0:0:0:
388,85,90193,1,8,0:0:0:0:
388,85,90272,2,0,P|364:80|339:85,1,48.7499977684022,2|0,0:0|0:0,0:0:0:0:
311,160,90430,2,0,P|335:165|360:160,1,48.7499977684022,8|0,0:0|0:0,0:0:0:0:
256,98,90588,6,0,P|234:132|246:210,2,97.4999955368044,8|2|8,0:0|0:0|0:0,0:0:0:0:
129,127,91061,1,2,0:0:0:0:
177,243,91219,1,8,0:0:0:0:
177,243,91298,1,2,0:0:0:0:
177,243,91377,2,0,P|224:265|272:257,1,97.4999955368044,2|8,0:0|0:0,0:0:0:0:
472,262,91693,2,0,B|422:231|376:249|376:249|390:202|356:158,1,194.999991073609,10|8,0:0|0:0,0:0:0:0:
413,324,92167,6,0,P|361:346|312:337,1,97.4999955368044,2|2,0:0|0:0,0:0:0:0:
176,275,92482,1,8,0:0:0:0:
176,275,92561,1,2,0:0:0:0:
176,275,92640,1,2,0:0:0:0:
176,275,92719,1,8,0:0:0:0:
176,275,92798,2,0,P|228:253|277:262,1,97.4999955368044,10|10,0:0|0:0,0:0:0:0:
250,86,93114,6,0,P|297:83|334:52,1,97.4999955368044,8|0,0:0|0:0,0:0:0:0:
414,56,93430,2,0,P|431:99|472:125,1,97.4999955368044,2|0,0:0|0:0,0:0:0:0:
493,202,93746,2,0,P|456:232|445:278,1,97.4999955368044,8|0,0:0|0:0,0:0:0:0:
378,322,94061,6,0,P|338:296|290:300,1,97.4999955368044,2|0,0:0|0:0,0:0:0:0:
228,249,94377,2,0,P|239:203|221:158,1,97.4999955368044,8|0,0:0|0:0,0:0:0:0:
378,322,94693,2,0,P|338:296|290:300,1,97.4999955368044,2|0,0:0|0:0,0:0:0:0:
170,299,95009,6,0,P|120:301|57:272,1,97.4999955368044,6|0,0:0|0:0,0:0:0:0:
56,102,95324,2,0,P|106:100|169:129,1,97.4999955368044,6|0,0:0|0:0,0:0:0:0:
101,204,95640,6,0,B|99:174|99:174|134:190|131:227,1,97.4999955368044,8|0,0:0|0:0,0:0:0:0:
226,124,95956,2,0,B|254:111|254:111|249:150|213:158,1,97.4999955368044,2|0,0:0|0:0,0:0:0:0:
341,217,96272,2,0,B|361:240|361:240|323:247|304:216,1,97.4999955368044,8|0,0:0|0:0,0:0:0:0:
288,355,96588,6,0,B|272:381|272:381|253:347|277:319,1,97.4999955368044,2|0,0:0|0:0,0:0:0:0:
140,347,96903,2,0,B|109:340|109:340|135:311|170:326,1,97.4999955368044,8|0,0:0|0:0,0:0:0:0:
288,355,97219,2,0,B|272:381|272:381|253:347|277:319,1,97.4999955368044,2|0,0:0|0:0,0:0:0:0:
341,217,97535,1,8,0:0:0:0:
226,124,97693,2,0,B|210:200|210:200|249:175,2,97.4999955368044,4|6|4,0:0|0:0|0:0,0:0:0:0:
326,40,98167,6,0,L|305:138,1,97.4999955368044,8|0,0:0|0:0,0:0:0:0:
433,187,98482,2,0,L|337:218,1,97.4999955368044,2|0,0:0|0:0,0:0:0:0:
248,206,98798,1,0,0:0:0:0:
359,353,98956,2,0,L|283:285,2,97.4999955368044,0|2|0,0:0|0:0|0:0,0:0:0:0:
197,310,99430,1,0,0:0:0:0:
422,287,99588,6,0,L|470:299,2,48.7499977684022,4|4|2,0:0|0:0|0:0,0:0:0:0:
385,199,99903,2,0,L|432:185,2,48.7499977684022,4|4|8,0:0|0:0|0:0,0:0:0:0:
308,141,100219,1,0,0:0:0:0:
308,141,100298,1,0,0:0:0:0:
308,141,100377,1,0,0:0:0:0:
308,141,100456,1,0,0:0:0:0:
308,141,100535,2,0,L|342:105,1,48.7499977684022,8|8,0:0|0:0,0:0:0:0:
302,238,100693,6,0,P|249:236|203:206,1,97.4999955368044,8|2,0:0|0:0,0:0:0:0:
90,333,101009,2,0,P|118:290|122:229,1,97.4999955368044,2|8,0:0|0:0,0:0:0:0:
141,162,101324,2,0,L|125:114,2,48.7499977684022,8|2|8,0:0|0:0|0:0,0:0:0:0:
36,265,101640,1,2,0:0:0:0:
185,340,101798,2,0,L|301:330,1,97.4999955368044,8|0,0:0|0:0,0:0:0:0:
374,213,102114,5,8,0:0:0:0:
349,127,102272,2,0,P|301:159|285:199,1,97.4999955368044,2|2,0:0|0:0,0:0:0:0:
366,323,102588,1,2,0:0:0:0:
366,323,102667,1,8,0:0:0:0:
366,323,102746,1,2,0:0:0:0:
366,323,102824,1,8,0:0:0:0:
366,323,102903,2,2,L|369:282,6,24.3749988842011,0|0|0|0|2|2|2,0:0|0:0|0:0|0:0|0:0|0:0|0:0,0:0:0:0:
452,268,103219,6,0,P|418:227|358:215,1,97.4999955368044,8|4,0:0|0:0,0:0:0:0:
206,197,103535,1,0,0:0:0:0:
281,113,103693,2,0,P|282:88|277:64,2,48.7499977684022,12|0|0,0:0|0:0|0:0,0:0:0:0:
158,262,104009,2,0,P|199:278|254:262,1,97.4999955368044,12|2,0:0|0:0,0:0:0:0:
166,61,104324,1,12,0:0:0:0:
87,102,104482,6,0,L|95:221,1,97.4999955368044,0|8,0:0|0:0,0:0:0:0:
158,262,104798,2,0,L|260:315,1,97.4999955368044,2|8,0:0|0:0,0:0:0:0:
328,265,105114,2,0,P|353:262|391:272,2,48.7499977684022,8|2|8,0:0|0:0|0:0,0:0:0:0:
432,327,105430,2,0,P|454:282|439:204,1,97.4999955368044,2|0,0:0|0:0,0:0:0:0:
357,113,105746,6,0,L|363:161,2,48.7499977684022,8|0|4,0:0|0:0|0:0,0:0:0:0:
449,105,106062,1,2,0:0:0:0:
265,121,106219,2,0,L|271:169,2,48.7499977684022,12|0|0,0:0|0:0|0:0,0:0:0:0:
313,47,106535,1,12,0:0:0:0:
313,47,106614,1,0,0:0:0:0:
313,47,106693,1,6,0:0:0:0:
313,47,106772,1,0,0:0:0:0:
313,47,106851,1,12,0:0:0:0:
173,129,107009,6,0,L|186:234,1,97.4999955368044,8|8,0:0|0:0,0:0:0:0:
202,334,107324,1,2,0:0:0:0:
202,334,107403,1,0,0:0:0:0:
202,334,107482,1,2,0:0:0:0:
98,289,107641,2,0,L|38:297,2,48.7499977684022,8|2|2,0:0|0:0|0:0,0:0:0:0:
275,267,107956,2,0,L|371:254,1,97.4999955368044,2|8,0:0|0:0,0:0:0:0:
185,225,108272,5,8,0:0:0:0:
435,201,108430,2,0,P|452:246|442:296,1,97.4999955368044,4|2,0:0|0:0,0:0:0:0:
334,175,108746,2,0,P|316:129|327:80,1,97.4999955368044,12|0,0:0|0:0,0:0:0:0:
400,121,109061,1,12,0:0:0:0:
240,142,109219,2,0,P|187:144|135:110,1,97.4999955368044,2|12,0:0|0:0,0:0:0:0:
258,16,109535,6,0,P|300:40|325:82,1,97.4999955368044,0|8,0:0|0:0,0:0:0:0:
125,214,109772,1,0,0:0:0:0:
125,214,109851,2,0,P|124:165|148:123,1,97.4999955368044,2|8,0:0|0:0,0:0:0:0:
240,142,110167,1,2,0:0:0:0:
149,299,110324,1,8,0:0:0:0:
149,299,110403,1,8,0:0:0:0:
149,299,110482,2,0,P|95:297|56:268,1,97.4999955368044,2|8,0:0|0:0,0:0:0:0:
45,183,110798,6,10,L|53:135,1,48.7499977684022,10|10,0:0|0:0,0:0:0:0:
126,35,110956,2,10,L|133:84,1,48.7499977684022
154,214,111114,6,10,L|161:165,1,48.7499977684022
235,48,111272,2,10,L|242:97,1,48.7499977684022
265,229,111430,6,10,L|272:180,1,48.7499977684022
337,63,111588,2,10,L|344:112,1,48.7499977684022
373,248,111746,6,10,L|380:199,1,48.7499977684022
444,87,111904,2,10,L|451:136,1,48.7499977684022
414,337,112061,2,0,P|365:347|315:321,1,97.4999955368044,2|8,0:0|0:0,0:0:0:0:
373,248,112377,1,2,0:0:0:0:
92,316,112535,1,2,0:0:0:0:
92,316,112614,1,2,0:0:0:0:
92,316,112693,2,0,P|141:326|191:300,1,97.4999955368044,10|0,0:0|0:0,0:0:0:0:
254,190,113009,5,4,0:0:0:0:
