osu file format v14

[General]
AudioFilename: audio.mp3
AudioLeadIn: 2000
PreviewTime: 81546
Countdown: 0
SampleSet: Soft
StackLeniency: 0.2
Mode: 3
LetterboxInBreaks: 0
SpecialStyle: 0
WidescreenStoryboard: 0

[Editor]
DistanceSpacing: 2.8
BeatDivisor: 4
GridSize: 32
TimelineZoom: 2.1

[Metadata]
Title:QLWA
TitleUnicode:QLWA
Artist:t+pazolite
ArtistUnicode:t+pazolite
Creator:Yugu
Version:ExNeko's Normal
Source:GROOVE COASTER 2
Tags:ORIGINAL SOUNDTRACK BOOST Gyro Zeppeli Suzuki_1112 1112deng Koiyuki liaoxingyao ExNeko Good Evening, HOLLOWood ayyri eiri- unpredictable Gyro_Zeppeli
BeatmapID:1557982
BeatmapSetID:685008

[Difficulty]
HPDrainRate:7
CircleSize:4
OverallDifficulty:7
ApproachRate:9.5
SliderMultiplier:2
SliderTickRate:1

[Events]
//Background and Video events
0,0,"623.jpg",0,0
//Break Periods
//Storyboard Layer 0 (Background)
//Storyboard Layer 1 (Fail)
//Storyboard Layer 2 (Pass)
//Storyboard Layer 3 (Foreground)
//Storyboard Sound Samples

[TimingPoints]
146,400,4,2,13,70,1,0
51346,-100,4,2,13,70,0,1
62546,-100,4,2,13,70,0,0
64146,-100,4,2,13,70,0,1
76946,-100,4,2,13,70,0,0
81746,315.789473684211,4,2,13,70,1,0
81746,-126.582278481013,4,2,13,70,0,0
83009,-126.582278481013,4,2,13,70,0,1
103219,-126.582278481013,4,2,13,70,0,0

[Colours]
Combo1 : 254,223,225
Combo2 : 241,182,116
Combo3 : 145,237,129
Combo4 : 41,48,75

[HitObjects]
320,192,146,128,2,346:0:0:0:0:
64,192,346,1,0,0:0:0:0:
192,192,546,1,8,0:0:0:0:
448,192,546,1,0,0:0:0:0:
320,192,746,1,0,0:0:0:0:
64,192,946,1,2,0:0:0:0:
192,192,1046,1,0,0:0:0:0:
320,192,1146,1,0,0:0:0:0:
448,192,1246,1,2,0:0:0:0:
64,192,1346,1,8,0:0:0:0:
192,192,1346,1,0,0:0:0:0:
320,192,1546,1,0,0:0:0:0:
448,192,1746,1,2,0:0:0:0:
192,192,1946,1,0,0:0:0:0:
320,192,2146,1,8,0:0:0:0:
64,192,2146,1,0,0:0:0:0:
448,192,2346,1,2,0:0:0:0:
192,192,2646,1,2,0:0:0:0:
448,192,2846,1,2,0:0:0:0:
64,192,2946,1,0,0:0:0:0:
320,192,2946,1,8,0:0:0:0:
192,192,3146,1,2,0:0:0:0:
320,192,3346,1,2,0:0:0:0:
448,192,3546,1,0,0:0:0:0:
192,192,3746,1,8,0:0:0:0:
64,192,3746,1,0,0:0:0:0:
320,192,3946,1,0,0:0:0:0:
448,192,4146,1,2,0:0:0:0:
64,192,4246,1,0,0:0:0:0:
192,192,4346,1,0,0:0:0:0:
320,192,4446,1,2,0:0:0:0:
448,192,4546,1,8,0:0:0:0:
64,192,4546,1,0,0:0:0:0:
192,192,4746,1,0,0:0:0:0:
320,192,4946,1,2,0:0:0:0:
192,192,5146,1,0,0:0:0:0:
64,192,5346,1,0,0:0:0:0:
448,192,5346,1,8,0:0:0:0:
320,192,5546,1,2,0:0:0:0:
192,192,5746,1,0,0:0:0:0:
448,192,5846,1,2,0:0:0:0:
64,192,5946,1,2,0:0:0:0:
448,192,6146,1,0,0:0:0:0:
192,192,6146,1,8,0:0:0:0:
320,192,6346,1,2,0:0:0:0:
192,192,6546,128,2,6746:0:0:0:0:
448,192,6746,1,0,0:0:0:0:
64,192,6946,1,0,0:0:0:0:
320,192,6946,1,8,0:0:0:0:
192,192,7146,1,0,0:0:0:0:
448,192,7346,1,2,0:0:0:0:
320,192,7446,1,0,0:0:0:0:
192,192,7546,1,0,0:0:0:0:
64,192,7646,1,2,0:0:0:0:
320,192,7746,1,8,0:0:0:0:
448,192,7746,1,0,0:0:0:0:
192,192,7946,1,0,0:0:0:0:
64,192,8146,1,2,0:0:0:0:
320,192,8346,1,0,0:0:0:0:
448,192,8546,1,0,0:0:0:0:
192,192,8546,1,8,0:0:0:0:
64,192,8746,1,2,0:0:0:0:
320,192,9046,1,2,0:0:0:0:
64,192,9246,1,2,0:0:0:0:
192,192,9346,1,8,0:0:0:0:
448,192,9346,1,0,0:0:0:0:
320,192,9546,1,2,0:0:0:0:
192,192,9746,1,2,0:0:0:0:
64,192,9946,1,0,0:0:0:0:
448,192,10146,1,0,0:0:0:0:
320,192,10146,1,8,0:0:0:0:
192,192,10346,1,0,0:0:0:0:
64,192,10546,1,2,0:0:0:0:
448,192,10646,1,0,0:0:0:0:
320,192,10746,1,0,0:0:0:0:
192,192,10846,1,2,0:0:0:0:
64,192,10946,1,8,0:0:0:0:
448,192,10946,1,0,0:0:0:0:
320,192,11146,1,0,0:0:0:0:
192,192,11346,1,2,0:0:0:0:
320,192,11546,1,0,0:0:0:0:
64,192,11746,1,0,0:0:0:0:
448,192,11746,1,8,0:0:0:0:
192,192,11946,1,2,0:0:0:0:
448,192,12046,1,6,0:0:0:0:
64,192,12246,1,6,0:0:0:0:
448,192,12446,1,6,0:0:0:0:
64,192,12546,1,8,0:0:0:0:
192,192,12546,1,0,0:0:0:0:
320,192,12746,1,0,0:0:0:0:
192,192,12946,1,2,0:0:0:0:
192,192,13146,1,0,0:0:0:0:
448,192,13346,1,0,0:0:0:0:
192,192,13546,1,0,0:0:0:0:
448,192,13646,1,0,0:0:0:0:
64,192,13946,1,0,0:0:0:0:
192,192,14146,1,0,0:0:0:0:
320,192,14346,1,0,0:0:0:0:
192,192,14746,1,0,0:0:0:0:
448,192,14946,1,0,0:0:0:0:
192,192,15246,128,0,15746:0:0:0:0:
320,192,16346,1,0,0:0:0:0:
192,192,16546,1,0,0:0:0:0:
192,192,16846,1,0,0:0:0:0:
448,192,16946,1,0,0:0:0:0:
320,192,17146,1,0,0:0:0:0:
192,192,17346,1,0,0:0:0:0:
64,192,17546,128,0,18346:0:0:0:0:
448,192,18946,128,0,19346:0:0:0:0:
192,192,19346,1,2,0:0:0:0:
64,192,19346,1,0,0:0:0:0:
320,192,19546,1,0,0:0:0:0:
192,192,19646,1,2,0:0:0:0:
64,192,19746,1,8,0:0:0:0:
448,192,19746,1,0,0:0:0:0:
320,192,19946,128,2,20346:0:0:0:0:
64,192,20346,1,2,0:0:0:0:
192,192,20546,1,8,0:0:0:0:
448,192,20546,1,0,0:0:0:0:
64,192,20746,128,2,21146:0:0:0:0:
192,192,21146,1,2,0:0:0:0:
320,192,21346,1,8,0:0:0:0:
448,192,21346,1,0,0:0:0:0:
64,192,21446,1,2,0:0:0:0:
192,192,21646,128,2,22146:0:0:0:0:
448,192,22146,1,0,0:0:0:0:
320,192,22146,1,8,0:0:0:0:
64,192,22246,1,2,0:0:0:0:
448,192,22446,1,2,0:0:0:0:
64,192,22546,1,2,0:0:0:0:
320,192,22746,1,0,0:0:0:0:
192,192,22846,1,2,0:0:0:0:
64,192,22946,1,8,0:0:0:0:
448,192,22946,1,0,0:0:0:0:
192,192,23146,1,2,0:0:0:0:
320,192,23246,1,0,0:0:0:0:
448,192,23346,128,0,23546:0:0:0:0:
192,192,23546,128,2,23746:0:0:0:0:
448,192,23746,1,0,0:0:0:0:
320,192,23746,128,8,23946:0:0:0:0:
64,192,23946,128,2,24746:0:0:0:0:
320,192,24346,1,2,0:0:0:0:
192,192,24546,1,0,0:0:0:0:
448,192,24546,1,8,0:0:0:0:
320,192,24646,1,2,0:0:0:0:
192,192,24946,1,2,0:0:0:0:
64,192,25346,1,8,0:0:0:0:
192,192,25346,1,0,0:0:0:0:
320,192,25446,1,2,0:0:0:0:
64,192,25646,1,2,0:0:0:0:
448,192,25746,1,4,0:0:0:0:
320,192,25746,1,2,0:0:0:0:
192,192,25946,1,0,0:0:0:0:
320,192,26046,1,2,0:0:0:0:
448,192,26146,1,8,0:0:0:0:
64,192,26146,1,0,0:0:0:0:
192,192,26346,128,2,26746:0:0:0:0:
448,192,26746,1,2,0:0:0:0:
320,192,26946,1,8,0:0:0:0:
64,192,26946,1,0,0:0:0:0:
448,192,27146,128,2,27546:0:0:0:0:
320,192,27546,1,2,0:0:0:0:
192,192,27746,1,8,0:0:0:0:
64,192,27746,1,0,0:0:0:0:
448,192,27846,1,2,0:0:0:0:
320,192,28046,128,2,28546:0:0:0:0:
64,192,28546,1,0,0:0:0:0:
192,192,28546,1,8,0:0:0:0:
448,192,28646,1,2,0:0:0:0:
64,192,28846,1,2,0:0:0:0:
448,192,28946,1,2,0:0:0:0:
192,192,29146,1,0,0:0:0:0:
320,192,29246,1,2,0:0:0:0:
448,192,29346,1,8,0:0:0:0:
64,192,29346,1,0,0:0:0:0:
320,192,29546,1,2,0:0:0:0:
192,192,29646,1,0,0:0:0:0:
64,192,29746,128,0,29946:0:0:0:0:
320,192,29946,128,2,30146:0:0:0:0:
64,192,30146,1,0,0:0:0:0:
192,192,30146,128,8,30346:0:0:0:0:
448,192,30346,128,2,31146:0:0:0:0:
192,192,30746,1,2,0:0:0:0:
320,192,30946,1,8,0:0:0:0:
64,192,30946,1,0,0:0:0:0:
192,192,31046,1,2,0:0:0:0:
320,192,31346,1,2,0:0:0:0:
64,192,31746,1,8,0:0:0:0:
192,192,31746,1,0,0:0:0:0:
320,192,31846,1,2,0:0:0:0:
192,192,32046,1,2,0:0:0:0:
64,192,32146,1,2,0:0:0:0:
448,192,32146,1,4,0:0:0:0:
320,192,32346,1,0,0:0:0:0:
192,192,32446,1,2,0:0:0:0:
64,192,32546,1,8,0:0:0:0:
448,192,32546,1,0,0:0:0:0:
320,192,32746,128,2,33146:0:0:0:0:
64,192,33146,1,2,0:0:0:0:
192,192,33346,1,8,0:0:0:0:
448,192,33346,1,0,0:0:0:0:
64,192,33546,128,2,33946:0:0:0:0:
192,192,33946,1,2,0:0:0:0:
320,192,34146,1,8,0:0:0:0:
448,192,34146,1,0,0:0:0:0:
64,192,34246,1,2,0:0:0:0:
192,192,34446,128,2,34946:0:0:0:0:
448,192,34946,1,8,0:0:0:0:
320,192,34946,1,0,0:0:0:0:
64,192,35046,1,2,0:0:0:0:
448,192,35246,1,2,0:0:0:0:
64,192,35346,1,2,0:0:0:0:
320,192,35546,1,0,0:0:0:0:
192,192,35646,1,2,0:0:0:0:
64,192,35746,1,0,0:0:0:0:
448,192,35746,1,8,0:0:0:0:
320,192,35946,1,2,0:0:0:0:
64,192,36046,1,0,0:0:0:0:
448,192,36146,128,0,36346:0:0:0:0:
192,192,36346,128,2,36546:0:0:0:0:
448,192,36546,1,0,0:0:0:0:
320,192,36546,128,8,36746:0:0:0:0:
64,192,36746,128,2,38146:0:0:0:0:
320,192,37146,1,2,0:0:0:0:
192,192,37346,1,8,0:0:0:0:
448,192,37346,1,0,0:0:0:0:
320,192,37446,1,2,0:0:0:0:
192,192,37746,1,2,0:0:0:0:
448,192,38146,1,8,0:0:0:0:
192,192,38246,1,2,0:0:0:0:
448,192,38446,1,2,0:0:0:0:
64,192,38546,1,4,0:0:0:0:
192,192,38546,1,2,0:0:0:0:
320,192,38746,1,6,0:0:0:0:
64,192,38946,1,0,0:0:0:0:
192,192,39046,1,0,0:0:0:0:
320,192,39146,1,0,0:0:0:0:
448,192,39246,1,0,0:0:0:0:
64,192,39346,1,0,0:0:0:0:
192,192,39646,1,0,0:0:0:0:
448,192,39946,128,4,40146:0:0:0:0:
320,192,39946,128,2,40146:0:0:0:0:
192,192,40346,128,4,40546:0:0:0:0:
64,192,40346,128,2,40546:0:0:0:0:
448,192,40546,1,0,0:0:0:0:
320,192,40646,1,0,0:0:0:0:
192,192,40746,1,0,0:0:0:0:
64,192,40846,1,0,0:0:0:0:
448,192,40946,1,0,0:0:0:0:
192,192,41246,1,0,0:0:0:0:
320,192,41346,1,0,0:0:0:0:
64,192,41746,1,2,0:0:0:0:
448,192,41746,1,4,0:0:0:0:
192,192,41946,1,6,0:0:0:0:
320,192,42146,1,0,0:0:0:0:
192,192,42246,1,0,0:0:0:0:
64,192,42346,1,0,0:0:0:0:
448,192,42446,1,0,0:0:0:0:
320,192,42546,1,0,0:0:0:0:
192,192,42846,1,0,0:0:0:0:
448,192,43146,128,4,43346:0:0:0:0:
320,192,43146,128,2,43346:0:0:0:0:
192,192,43546,128,4,43746:0:0:0:0:
64,192,43546,128,2,43746:0:0:0:0:
448,192,43746,1,0,0:0:0:0:
320,192,43846,1,0,0:0:0:0:
64,192,43946,1,0,0:0:0:0:
192,192,44046,1,0,0:0:0:0:
320,192,44146,1,0,0:0:0:0:
64,192,44346,128,0,44546:0:0:0:0:
320,192,44546,1,0,0:0:0:0:
64,192,44746,128,0,44946:0:0:0:0:
320,192,44946,1,6,0:0:0:0:
320,192,45146,1,6,0:0:0:0:
64,192,45346,1,0,0:0:0:0:
448,192,45446,1,0,0:0:0:0:
64,192,45546,1,0,0:0:0:0:
448,192,45646,1,0,0:0:0:0:
192,192,45746,1,6,0:0:0:0:
192,192,45946,1,6,0:0:0:0:
448,192,46146,1,0,0:0:0:0:
64,192,46246,1,0,0:0:0:0:
448,192,46346,1,0,0:0:0:0:
64,192,46446,1,0,0:0:0:0:
320,192,46546,1,6,0:0:0:0:
320,192,46746,1,6,0:0:0:0:
64,192,46946,1,0,0:0:0:0:
448,192,47046,1,0,0:0:0:0:
192,192,47146,1,6,0:0:0:0:
64,192,47346,1,0,0:0:0:0:
448,192,47446,1,0,0:0:0:0:
192,192,47546,1,6,0:0:0:0:
320,192,47746,128,8,47946:0:0:0:0:
448,192,47946,128,0,48146:0:0:0:0:
64,192,48146,128,6,48346:0:0:0:0:
192,192,48346,128,6,48546:0:0:0:0:
320,192,48546,128,6,48746:0:0:0:0:
448,192,48746,128,6,48946:0:0:0:0:
64,192,48946,128,6,49146:0:0:0:0:
320,192,49146,128,6,49346:0:0:0:0:
192,192,49346,128,6,49546:0:0:0:0:
448,192,49546,128,6,49746:0:0:0:0:
64,192,49746,1,0,0:0:0:0:
320,192,50046,1,0,0:0:0:0:
192,192,50346,1,0,0:0:0:0:
448,192,50546,1,0,0:0:0:0:
64,192,50746,1,0,0:0:0:0:
192,192,50812,1,0,0:0:0:0:
320,192,50879,1,0,0:0:0:0:
64,192,50946,1,0,0:0:0:0:
448,192,50946,1,0,0:0:0:0:
192,192,51146,1,0,0:0:0:0:
448,192,51346,128,4,51546:0:0:0:0:
320,192,51346,1,2,0:0:0:0:
320,192,51746,128,8,51946:0:0:0:0:
64,192,51746,1,0,0:0:0:0:
192,192,52146,128,6,52346:0:0:0:0:
320,192,52446,128,2,52646:0:0:0:0:
64,192,52546,1,8,0:0:0:0:
448,192,52746,128,6,53746:0:0:0:0:
64,192,53146,1,2,0:0:0:0:
320,192,53346,1,8,0:0:0:0:
64,192,53746,1,2,0:0:0:0:
192,192,53946,1,2,0:0:0:0:
448,192,54146,1,8,0:0:0:0:
320,192,54246,1,0,0:0:0:0:
192,192,54346,1,0,0:0:0:0:
64,192,54446,1,2,0:0:0:0:
448,192,54546,1,0,0:0:0:0:
192,192,54746,1,2,0:0:0:0:
320,192,54946,1,8,0:0:0:0:
64,192,54946,1,0,0:0:0:0:
448,192,55146,1,2,0:0:0:0:
192,192,55246,1,2,0:0:0:0:
320,192,55546,1,2,0:0:0:0:
192,192,55746,1,8,0:0:0:0:
448,192,55746,1,0,0:0:0:0:
64,192,55946,1,0,0:0:0:0:
320,192,56046,1,2,0:0:0:0:
192,192,56346,1,2,0:0:0:0:
64,192,56546,1,0,0:0:0:0:
320,192,56546,1,8,0:0:0:0:
448,192,56646,1,2,0:0:0:0:
192,192,56746,1,0,0:0:0:0:
64,192,56846,128,8,57346:0:0:0:0:
320,192,57346,1,8,0:0:0:0:
448,192,57346,1,0,0:0:0:0:
64,192,57546,1,2,0:0:0:0:
192,192,57746,128,2,57946:0:0:0:0:
320,192,57746,1,4,0:0:0:0:
448,192,58146,128,8,58346:0:0:0:0:
64,192,58146,1,0,0:0:0:0:
320,192,58346,128,0,58546:0:0:0:0:
192,192,58546,128,6,58746:0:0:0:0:
320,192,58846,128,2,59046:0:0:0:0:
64,192,58946,1,8,0:0:0:0:
448,192,59146,128,6,60146:0:0:0:0:
64,192,59546,1,2,0:0:0:0:
320,192,59746,1,8,0:0:0:0:
192,192,60146,1,2,0:0:0:0:
320,192,60346,1,2,0:0:0:0:
64,192,60546,1,8,0:0:0:0:
192,192,60646,1,0,0:0:0:0:
320,192,60746,1,0,0:0:0:0:
448,192,60846,1,2,0:0:0:0:
64,192,60946,1,0,0:0:0:0:
320,192,61146,1,2,0:0:0:0:
192,192,61346,1,8,0:0:0:0:
448,192,61346,1,0,0:0:0:0:
64,192,61546,1,2,0:0:0:0:
320,192,61646,1,2,0:0:0:0:
192,192,61946,1,0,0:0:0:0:
64,192,62146,1,8,0:0:0:0:
448,192,62146,1,0,0:0:0:0:
320,192,62246,1,2,0:0:0:0:
192,192,62346,1,2,0:0:0:0:
64,192,62446,1,2,0:0:0:0:
448,192,62546,1,8,0:0:0:0:
192,192,62646,1,6,0:0:0:0:
448,192,62846,1,6,0:0:0:0:
192,192,63046,1,6,0:0:0:0:
448,192,63246,128,6,63746:0:0:0:0:
64,192,63746,1,0,0:0:0:0:
192,192,63746,1,0,0:0:0:0:
320,192,63946,1,0,0:0:0:0:
64,192,64146,128,2,64346:0:0:0:0:
448,192,64146,1,4,0:0:0:0:
320,192,64546,1,8,0:0:0:0:
192,192,64546,128,0,64746:0:0:0:0:
320,192,64946,128,6,65146:0:0:0:0:
448,192,65246,128,2,65446:0:0:0:0:
192,192,65346,1,8,0:0:0:0:
64,192,65546,128,6,66546:0:0:0:0:
448,192,65946,1,2,0:0:0:0:
192,192,66146,1,8,0:0:0:0:
448,192,66546,1,2,0:0:0:0:
320,192,66746,1,2,0:0:0:0:
64,192,66946,1,8,0:0:0:0:
192,192,67046,1,0,0:0:0:0:
320,192,67146,1,0,0:0:0:0:
448,192,67246,1,2,0:0:0:0:
64,192,67346,1,0,0:0:0:0:
320,192,67546,1,2,0:0:0:0:
192,192,67746,1,8,0:0:0:0:
448,192,67746,1,0,0:0:0:0:
64,192,67946,1,2,0:0:0:0:
320,192,68046,1,2,0:0:0:0:
192,192,68346,1,2,0:0:0:0:
320,192,68546,1,8,0:0:0:0:
64,192,68546,1,0,0:0:0:0:
448,192,68746,1,0,0:0:0:0:
192,192,68846,1,2,0:0:0:0:
320,192,69146,1,2,0:0:0:0:
64,192,69246,1,0,0:0:0:0:
448,192,69346,1,0,0:0:0:0:
192,192,69346,1,8,0:0:0:0:
320,192,69446,1,0,0:0:0:0:
64,192,69546,1,0,0:0:0:0:
448,192,69646,128,8,70146:0:0:0:0:
192,192,70146,1,8,0:0:0:0:
64,192,70146,1,0,0:0:0:0:
448,192,70346,1,2,0:0:0:0:
320,192,70546,128,2,70746:0:0:0:0:
192,192,70546,1,4,0:0:0:0:
64,192,70946,128,0,71146:0:0:0:0:
448,192,70946,1,8,0:0:0:0:
192,192,71146,128,0,71346:0:0:0:0:
320,192,71346,128,6,71546:0:0:0:0:
64,192,71646,128,2,71846:0:0:0:0:
320,192,71746,1,8,0:0:0:0:
192,192,71946,128,6,72946:0:0:0:0:
64,192,72346,1,2,0:0:0:0:
320,192,72546,1,8,0:0:0:0:
448,192,72946,1,2,0:0:0:0:
192,192,73146,1,0,0:0:0:0:
448,192,73346,1,8,0:0:0:0:
320,192,73446,1,0,0:0:0:0:
192,192,73546,1,0,0:0:0:0:
64,192,73646,1,2,0:0:0:0:
448,192,73746,1,0,0:0:0:0:
192,192,73946,1,2,0:0:0:0:
320,192,74146,1,8,0:0:0:0:
64,192,74146,1,0,0:0:0:0:
448,192,74346,1,2,0:0:0:0:
192,192,74446,1,2,0:0:0:0:
320,192,74746,1,0,0:0:0:0:
448,192,74946,1,8,0:0:0:0:
64,192,74946,1,0,0:0:0:0:
192,192,75046,1,2,0:0:0:0:
320,192,75146,1,2,0:0:0:0:
448,192,75246,1,2,0:0:0:0:
64,192,75346,1,8,0:0:0:0:
320,192,75446,1,2,0:0:0:0:
448,192,75446,1,4,0:0:0:0:
64,192,75646,1,2,0:0:0:0:
192,192,75646,1,4,0:0:0:0:
320,192,75846,1,2,0:0:0:0:
448,192,75846,1,4,0:0:0:0:
64,192,76046,1,6,0:0:0:0:
64,192,76246,1,2,0:0:0:0:
448,192,76346,1,8,0:0:0:0:
320,192,76346,1,2,0:0:0:0:
192,192,76446,1,2,0:0:0:0:
320,192,76546,1,8,0:0:0:0:
448,192,76546,1,2,0:0:0:0:
192,192,76746,1,2,0:0:0:0:
448,192,76946,1,0,0:0:0:0:
64,192,76946,128,2,78546:0:0:0:0:
320,192,77346,1,0,0:0:0:0:
192,192,77746,1,0,0:0:0:0:
320,192,78146,1,0,0:0:0:0:
448,192,78546,1,0,0:0:0:0:
64,192,78946,1,0,0:0:0:0:
192,192,79346,1,0,0:0:0:0:
320,192,79746,1,0,0:0:0:0:
448,192,80146,128,0,81746:0:0:0:0:
64,192,80546,1,0,0:0:0:0:
192,192,80946,1,0,0:0:0:0:
320,192,81346,1,0,0:0:0:0:
64,192,81746,1,6,0:0:0:0:
192,192,82061,1,0,0:0:0:0:
320,192,82377,1,0,0:0:0:0:
448,192,82693,1,0,0:0:0:0:
320,192,82851,1,0,0:0:0:0:
192,192,83009,1,4,0:0:0:0:
64,192,83009,1,2,0:0:0:0:
320,192,83324,1,0,0:0:0:0:
448,192,83324,1,8,0:0:0:0:
192,192,83482,1,2,0:0:0:0:
64,192,83482,1,0,0:0:0:0:
320,192,83798,1,2,0:0:0:0:
64,192,83798,1,0,0:0:0:0:
192,192,84114,1,0,0:0:0:0:
448,192,84114,128,2,84430:0:0:0:0:
64,192,84430,1,2,0:0:0:0:
192,192,84588,1,8,0:0:0:0:
320,192,84746,1,2,0:0:0:0:
64,192,84903,1,2,0:0:0:0:
192,192,85061,1,2,0:0:0:0:
320,192,85219,1,8,0:0:0:0:
192,192,85377,1,0,0:0:0:0:
64,192,85535,1,2,0:0:0:0:
448,192,85535,1,4,0:0:0:0:
192,192,85851,1,0,0:0:0:0:
320,192,85851,1,8,0:0:0:0:
448,192,86009,1,2,0:0:0:0:
64,192,86009,1,0,0:0:0:0:
320,192,86324,1,2,0:0:0:0:
448,192,86324,1,0,0:0:0:0:
192,192,86640,1,2,0:0:0:0:
64,192,86640,128,0,86956:0:0:0:0:
448,192,86956,1,2,0:0:0:0:
320,192,87114,1,8,0:0:0:0:
192,192,87272,1,8,0:0:0:0:
64,192,87430,1,2,0:0:0:0:
320,192,87588,1,8,0:0:0:0:
192,192,87746,1,8,0:0:0:0:
64,192,87903,1,2,0:0:0:0:
448,192,88061,1,4,0:0:0:0:
320,192,88061,1,2,0:0:0:0:
192,192,88377,1,2,0:0:0:0:
64,192,88377,1,0,0:0:0:0:
320,192,88535,1,8,0:0:0:0:
448,192,88535,1,0,0:0:0:0:
192,192,88851,1,2,0:0:0:0:
320,192,88851,1,0,0:0:0:0:
64,192,89167,1,2,0:0:0:0:
448,192,89167,128,0,89482:0:0:0:0:
192,192,89482,1,2,0:0:0:0:
320,192,89640,1,8,0:0:0:0:
448,192,89798,1,2,0:0:0:0:
64,192,89956,1,8,0:0:0:0:
192,192,90114,1,2,0:0:0:0:
320,192,90272,1,8,0:0:0:0:
448,192,90430,1,2,0:0:0:0:
64,192,90588,1,6,0:0:0:0:
448,192,90746,1,8,0:0:0:0:
64,192,90903,1,2,0:0:0:0:
448,192,91061,1,2,0:0:0:0:
192,192,91377,1,2,0:0:0:0:
64,192,91377,1,0,0:0:0:0:
320,192,91693,1,2,0:0:0:0:
448,192,91693,128,0,92009:0:0:0:0:
64,192,92009,1,2,0:0:0:0:
192,192,92167,1,8,0:0:0:0:
320,192,92324,1,8,0:0:0:0:
448,192,92482,1,2,0:0:0:0:
320,192,92640,1,8,0:0:0:0:
192,192,92798,1,8,0:0:0:0:
64,192,92956,1,2,0:0:0:0:
320,192,93114,1,2,0:0:0:0:
448,192,93114,1,4,0:0:0:0:
192,192,93272,1,0,0:0:0:0:
64,192,93430,1,10,0:0:0:0:
320,192,93588,1,0,0:0:0:0:
192,192,93746,1,2,0:0:0:0:
448,192,93903,1,0,0:0:0:0:
320,192,94061,1,10,0:0:0:0:
64,192,94219,1,0,0:0:0:0:
192,192,94377,1,2,0:0:0:0:
320,192,94535,1,0,0:0:0:0:
448,192,94693,1,10,0:0:0:0:
192,192,94851,1,0,0:0:0:0:
320,192,95009,128,2,95167:0:0:0:0:
64,192,95167,1,0,0:0:0:0:
192,192,95324,128,10,95482:0:0:0:0:
448,192,95482,1,0,0:0:0:0:
320,192,95640,1,2,0:0:0:0:
192,192,95798,1,0,0:0:0:0:
64,192,95956,1,10,0:0:0:0:
320,192,96114,1,0,0:0:0:0:
448,192,96272,1,10,0:0:0:0:
64,192,96430,1,0,0:0:0:0:
192,192,96588,1,10,0:0:0:0:
320,192,96746,1,0,0:0:0:0:
448,192,96903,1,2,0:0:0:0:
192,192,97061,1,0,0:0:0:0:
64,192,97219,1,10,0:0:0:0:
448,192,97377,1,0,0:0:0:0:
320,192,97535,1,2,0:0:0:0:
64,192,97693,128,0,97851:0:0:0:0:
448,192,97851,128,10,98009:0:0:0:0:
192,192,98009,128,0,98167:0:0:0:0:
448,192,98167,1,4,0:0:0:0:
64,192,98167,1,2,0:0:0:0:
320,192,98324,1,0,0:0:0:0:
192,192,98482,1,10,0:0:0:0:
64,192,98640,1,0,0:0:0:0:
192,192,98798,1,2,0:0:0:0:
320,192,98956,1,0,0:0:0:0:
448,192,99114,1,10,0:0:0:0:
64,192,99272,1,0,0:0:0:0:
192,192,99430,1,6,0:0:0:0:
320,192,99588,1,0,0:0:0:0:
448,192,99746,1,14,0:0:0:0:
320,192,99903,1,0,0:0:0:0:
192,192,100061,1,6,0:0:0:0:
64,192,100219,1,0,0:0:0:0:
448,192,100377,1,10,0:0:0:0:
320,192,100535,1,0,0:0:0:0:
192,192,100693,1,6,0:0:0:0:
448,192,100851,1,8,0:0:0:0:
192,192,101009,1,8,0:0:0:0:
448,192,101167,1,6,0:0:0:0:
64,192,101324,1,2,0:0:0:0:
320,192,101482,1,2,0:0:0:0:
64,192,101640,1,8,0:0:0:0:
320,192,101798,128,6,102903:0:0:0:0:
448,192,102114,1,2,0:0:0:0:
64,192,102272,1,8,0:0:0:0:
192,192,102588,1,2,0:0:0:0:
64,192,102903,1,8,0:0:0:0:
448,192,102903,128,0,103219:0:0:0:0:
192,192,103219,1,2,0:0:0:0:
320,192,103219,1,4,0:0:0:0:
64,192,103377,1,0,0:0:0:0:
320,192,103693,1,2,0:0:0:0:
64,192,103851,1,0,0:0:0:0:
192,192,104009,1,2,0:0:0:0:
320,192,104167,1,8,0:0:0:0:
448,192,104324,128,2,104640:0:0:0:0:
192,192,104640,1,2,0:0:0:0:
320,192,104798,1,8,0:0:0:0:
64,192,104956,1,2,0:0:0:0:
192,192,105114,1,2,0:0:0:0:
448,192,105272,1,2,0:0:0:0:
320,192,105430,1,8,0:0:0:0:
192,192,105588,1,0,0:0:0:0:
64,192,105746,1,6,0:0:0:0:
320,192,105903,1,0,0:0:0:0:
64,192,106061,1,8,0:0:0:0:
448,192,106219,1,2,0:0:0:0:
320,192,106535,1,2,0:0:0:0:
192,192,106693,1,8,0:0:0:0:
64,192,106851,1,2,0:0:0:0:
320,192,107009,1,0,0:0:0:0:
192,192,107167,1,2,0:0:0:0:
448,192,107324,1,8,0:0:0:0:
320,192,107482,1,8,0:0:0:0:
64,192,107640,1,2,0:0:0:0:
192,192,107719,1,8,0:0:0:0:
320,192,107798,1,8,0:0:0:0:
448,192,107877,1,2,0:0:0:0:
64,192,107956,1,8,0:0:0:0:
320,192,108114,1,2,0:0:0:0:
192,192,108272,1,6,0:0:0:0:
64,192,108430,1,0,0:0:0:0:
320,192,108588,1,8,0:0:0:0:
448,192,108746,1,2,0:0:0:0:
192,192,108903,1,0,0:0:0:0:
64,192,109061,1,2,0:0:0:0:
320,192,109219,1,8,0:0:0:0:
192,192,109377,1,2,0:0:0:0:
448,192,109535,1,0,0:0:0:0:
320,192,109693,1,2,0:0:0:0:
64,192,109851,1,8,0:0:0:0:
192,192,110009,1,2,0:0:0:0:
448,192,110167,1,8,0:0:0:0:
320,192,110324,1,2,0:0:0:0:
64,192,110482,1,8,0:0:0:0:
192,192,110640,1,2,0:0:0:0:
448,192,110798,1,6,0:0:0:0:
64,192,110956,1,8,0:0:0:0:
448,192,111114,1,8,0:0:0:0:
64,192,111272,1,6,0:0:0:0:
320,192,111430,1,2,0:0:0:0:
192,192,111588,1,2,0:0:0:0:
320,192,111746,1,8,0:0:0:0:
192,192,111903,128,2,112693:0:0:0:0:
448,192,112219,1,2,0:0:0:0:
320,192,112377,1,8,0:0:0:0:
64,192,112535,1,8,0:0:0:0:
448,192,112693,1,6,0:0:0:0:
320,192,113009,1,0,0:0:0:0:
64,192,113009,1,0,0:0:0:0:
