osu file format v14

[General]
AudioFilename: audio.mp3
AudioLeadIn: 2000
PreviewTime: 81546
Countdown: 0
SampleSet: Normal
StackLeniency: 0.2
Mode: 0
LetterboxInBreaks: 0
WidescreenStoryboard: 0

[Editor]
DistanceSpacing: 1.1
BeatDivisor: 4
GridSize: 32
TimelineZoom: 4.599997

[Metadata]
Title:QLWA
TitleUnicode:QLWA
Artist:t+pazolite
ArtistUnicode:t+pazolite
Creator:Yugu
Version:1112's Extra
Source:GROOVE COASTER 2
Tags:ORIGINAL SOUNDTRACK BOOST Gyro Zeppeli Suzuki_1112 1112deng Koiyuki liaoxingyao ExNeko Good Evening, HOLLOWood ayyri eiri- unpredictable Gyro_Zeppeli
BeatmapID:1670005
BeatmapSetID:685008

[Difficulty]
HPDrainRate:5.5
CircleSize:4
OverallDifficulty:8.8
ApproachRate:9.4
SliderMultiplier:2
SliderTickRate:1

[Events]
//Background and Video events
0,0,"623.jpg",0,0
//Break Periods
2,78746,79592
//Storyboard Layer 0 (Background)
//Storyboard Layer 1 (Fail)
//Storyboard Layer 2 (Pass)
//Storyboard Layer 3 (Foreground)
//Storyboard Sound Samples

[TimingPoints]
146,400,4,1,1,70,1,0
1046,-100,4,1,98,70,0,0
1346,-66.6666666666667,4,1,1,70,0,0
1746,-100,4,1,1,70,0,0
4246,-100,4,1,98,70,0,0
4546,-66.6666666666667,4,1,1,70,0,0
4946,-100,4,1,1,70,0,0
6546,-66.6666666666667,4,1,1,70,0,0
6946,-100,4,1,1,70,0,0
7446,-100,4,1,98,70,0,0
7746,-66.6666666666667,4,1,1,70,0,0
8146,-100,4,1,1,70,0,0
10646,-100,4,1,98,70,0,0
10946,-66.6666666666667,4,1,1,70,0,0
11346,-100,4,1,1,70,0,0
12046,-58.8235294117647,4,1,1,70,0,0
12946,-100,4,2,1,50,0,0
13146,-100,4,2,1,50,0,0
13346,-100,4,2,1,50,0,0
13946,-100,4,2,1,50,0,0
14146,-100,4,2,1,50,0,0
14346,-100,4,2,1,50,0,0
14746,-100,4,2,1,50,0,0
14946,-100,4,2,1,50,0,0
16546,-100,4,2,1,50,0,0
17146,-100,4,2,1,50,0,0
17346,-100,4,2,1,50,0,0
17546,-100,4,2,1,50,0,0
18946,-133.333333333333,4,1,97,10,0,0
18996,-133.333333333333,4,1,97,15,0,0
19046,-133.333333333333,4,1,97,20,0,0
19096,-133.333333333333,4,1,97,25,0,0
19146,-133.333333333333,4,1,97,30,0,0
19196,-133.333333333333,4,1,97,35,0,0
19246,-133.333333333333,4,1,97,40,0,0
19296,-133.333333333333,4,1,97,45,0,0
19346,-100,4,1,3,70,0,0
19446,-100,4,1,1,70,0,0
25746,-100,4,1,3,70,0,0
25846,-100,4,1,1,70,0,0
32146,-100,4,1,3,70,0,0
32246,-100,4,1,1,70,0,0
38546,-55.5555555555556,4,1,1,70,0,0
38946,-133.333333333333,4,1,93,70,0,0
39346,-133.333333333333,4,1,95,70,0,0
39946,-55.5555555555556,4,1,1,70,0,0
40346,-50,4,1,1,70,0,0
40546,-133.333333333333,4,1,93,70,0,0
41746,-55.5555555555556,4,1,1,70,0,0
42146,-133.333333333333,4,1,93,70,0,0
42546,-133.333333333333,4,1,95,70,0,0
43146,-55.5555555555556,4,1,1,70,0,0
43546,-50,4,1,1,70,0,0
43746,-133.333333333333,4,1,93,70,0,0
44146,-66.6666666666667,4,1,95,70,0,0
44946,-55.5555555555556,4,1,1,70,0,0
45346,-55.5555555555556,4,1,93,70,0,0
45746,-55.5555555555556,4,1,1,70,0,0
46146,-55.5555555555556,4,1,93,70,0,0
46546,-55.5555555555556,4,1,1,70,0,0
46946,-55.5555555555556,4,1,93,70,0,0
47146,-55.5555555555556,4,1,1,70,0,0
47346,-55.5555555555556,4,1,93,70,0,0
47546,-55.5555555555556,4,1,1,70,0,0
47746,-55.5555555555556,4,1,93,70,0,0
48146,-55.5555555555556,4,1,1,70,0,0
48196,-55.5555555555556,4,1,1,70,0,0
48346,-55.5555555555556,4,1,1,70,0,0
48396,-55.5555555555556,4,1,1,70,0,0
48546,-55.5555555555556,4,1,1,80,0,0
48596,-55.5555555555556,4,1,1,80,0,0
48746,-55.5555555555556,4,1,1,80,0,0
48796,-55.5555555555556,4,1,1,80,0,0
48946,-55.5555555555556,4,1,1,90,0,0
48996,-55.5555555555556,4,1,1,90,0,0
49146,-55.5555555555556,4,1,1,90,0,0
49196,-55.5555555555556,4,1,1,90,0,0
49346,-55.5555555555556,4,1,1,100,0,0
49396,-55.5555555555556,4,1,1,100,0,0
49546,-55.5555555555556,4,1,1,100,0,0
49596,-55.5555555555556,4,1,1,100,0,0
49746,-133.333333333333,4,2,50,40,0,0
50046,-133.333333333333,4,2,51,40,0,0
50346,-133.333333333333,4,2,52,40,0,0
50546,-133.333333333333,4,2,53,40,0,0
50946,-50,4,1,1,70,0,0
51346,-66.6666666666667,4,1,1,90,0,1
52146,-58.8235294117647,4,1,1,90,0,1
53346,-66.6666666666667,4,1,1,90,0,1
53746,-66.6666666666667,4,1,3,90,0,1
57246,-66.6666666666667,4,1,1,90,0,1
57346,-66.6666666666667,4,1,1,70,0,1
57746,-66.6666666666667,4,1,1,90,0,1
58546,-58.8235294117647,4,1,1,90,0,1
60146,-58.8235294117647,4,1,3,90,0,1
60346,-58.8235294117647,4,1,1,90,0,1
62346,-58.8235294117647,4,1,1,90,0,1
62446,-58.8235294117647,4,1,1,90,0,1
62546,-100,4,1,1,90,0,1
62846,-133.333333333333,4,1,1,90,0,1
63746,-50,4,1,1,70,0,1
64146,-66.6666666666667,4,1,1,90,0,1
64946,-58.8235294117647,4,1,1,90,0,1
66146,-66.6666666666667,4,1,1,90,0,1
66546,-66.6666666666667,4,1,3,90,0,1
66746,-66.6666666666667,4,1,1,90,0,1
69146,-66.6666666666667,4,1,1,90,0,1
69246,-66.6666666666667,4,1,1,90,0,1
69346,-66.6666666666667,4,1,1,90,0,1
70046,-66.6666666666667,4,1,1,90,0,1
70146,-66.6666666666667,4,1,1,90,0,1
71346,-58.8235294117647,4,1,1,90,0,1
72946,-58.8235294117647,4,1,3,90,0,1
73146,-58.8235294117647,4,1,1,90,0,1
74746,-58.8235294117647,4,1,1,90,0,1
75046,-58.8235294117647,4,1,1,90,0,1
75146,-58.8235294117647,4,1,1,90,0,1
75246,-58.8235294117647,4,1,1,90,0,1
75346,-58.8235294117647,4,1,1,90,0,1
75446,-100,4,1,1,90,0,1
76446,-100,4,1,1,90,0,1
76546,-83.3333333333333,4,1,1,90,0,1
76746,-83.3333333333333,4,1,1,90,0,1
76946,-1000,4,1,1,90,0,0
81746,315.789473684211,4,1,3,70,1,0
82061,-100,4,1,3,70,0,0
82377,-100,4,1,3,70,0,0
82535,-100,4,1,2,50,0,0
82693,-50,4,1,3,50,0,0
83009,-71.4285714285714,4,1,2,100,0,1
92798,-71.4285714285714,4,1,3,100,0,1
92956,-71.4285714285714,4,1,33,100,0,1
93114,-66.6666666666667,4,1,3,100,0,1
100377,-50,4,1,3,100,0,1
100693,-66.6666666666667,4,1,3,100,0,1
102903,-50,4,1,99,90,0,1
102982,-50,4,1,99,80,0,1
103022,-50,4,1,99,70,0,1
103061,-50,4,1,99,60,0,1
103101,-50,4,1,99,50,0,1
103140,-50,4,1,99,40,0,1
103180,-50,4,1,99,30,0,1
103219,-83.3333333333333,4,1,1,70,0,0
113009,-83.3333333333333,4,1,3,70,0,0

[Colours]
Combo1 : 248,24,41
Combo2 : 241,182,116
Combo3 : 145,237,129
Combo4 : 72,84,132

[HitObjects]
171,72,146,6,0,P|118:79|87:141,1,100,8|0,0:0|0:0,0:0:0:0:
163,194,446,1,0,0:0:0:0:
163,194,546,2,0,L|155:120,1,50,2|0,0:0|0:0,0:0:0:0:
85,228,746,2,0,L|76:314,1,50,0|0,0:0|0:0,0:0:0:0:
168,348,946,5,8,0:0:0:0:
189,346,1046,1,2,0:0:0:0:
208,343,1146,1,2,0:0:0:0:
224,339,1246,1,10,0:0:0:0:
364,263,1346,6,0,B|309:250|309:250|280:266|280:266|194:248,1,150.000005722046,2|0,0:0|0:0,0:0:0:0:
134,17,1746,6,0,P|123:63|136:152,1,100,8|0,0:0|0:0,0:0:0:0:
194,165,2046,1,0,0:0:0:0:
269,152,2146,5,2,0:0:0:0:
298,153,2246,1,0,0:0:0:0:
325,147,2346,1,8,0:0:0:0:
347,136,2446,1,0,0:0:0:0:
366,117,2546,5,0,0:0:0:0:
463,140,2646,2,0,L|472:54,1,50,8|0,0:0|0:0,0:0:0:0:
505,221,2846,1,8,0:0:0:0:
409,244,2946,2,0,L|400:158,1,50,2|0,0:0|0:0,0:0:0:0:
334,269,3146,2,0,L|328:318,1,50,8|0,0:0|0:0,0:0:0:0:
246,250,3346,6,0,P|277:197|351:188,1,100,8|0,0:0|0:0,0:0:0:0:
327,318,3646,1,0,0:0:0:0:
240,348,3746,5,2,0:0:0:0:
212,354,3846,1,0,0:0:0:0:
182,350,3946,1,0,0:0:0:0:
153,339,4046,1,0,0:0:0:0:
165,243,4146,5,8,0:0:0:0:
193,237,4246,1,2,0:0:0:0:
223,241,4346,1,2,0:0:0:0:
252,252,4446,1,10,0:0:0:0:
85,281,4546,6,0,P|78:225|155:154,1,150.000005722046,2|0,0:0|0:0,0:0:0:0:
252,252,4946,6,0,L|244:170,1,50,8|0,0:0|0:0,0:0:0:0:
291,121,5146,1,0,0:0:0:0:
345,198,5246,2,0,P|292:207|224:194,1,100,0|0,0:0|0:0,0:0:0:0:
221,82,5546,1,8,0:0:0:0:
217,56,5646,1,0,0:0:0:0:
122,12,5746,5,0,0:0:0:0:
131,53,5846,1,8,0:0:0:0:
140,94,5946,2,0,L|136:166,1,50,8|0,0:0|0:0,0:0:0:0:
88,247,6146,2,0,L|85:297,1,50,2|0,0:0|0:0,0:0:0:0:
189,353,6346,1,8,0:0:0:0:
262,358,6446,1,0,0:0:0:0:
337,362,6546,6,0,B|326:254|326:254|364:299,1,150.000005722046,8|0,0:0|0:0,0:0:0:0:
352,285,6846,1,0,0:0:0:0:
358,293,6946,2,0,P|292:293|267:286,1,50,2|0,0:0|0:0,0:0:0:0:
346,168,7146,2,0,P|400:165|423:173,1,50,0|0,0:0|0:0,0:0:0:0:
266,222,7346,5,8,0:0:0:0:
234,223,7446,1,2,0:0:0:0:
205,224,7546,1,2,0:0:0:0:
177,224,7646,1,10,0:0:0:0:
81,255,7746,6,0,P|157:217|116:111,1,150.000005722046,2|0,0:0|0:0,0:0:0:0:
83,69,8146,6,0,B|133:84|133:84|201:69,1,100,8|0,0:0|0:0,0:0:0:0:
240,15,8446,1,0,0:0:0:0:
269,87,8546,5,2,0:0:0:0:
264,126,8646,1,0,0:0:0:0:
304,130,8746,1,8,0:0:0:0:
309,91,8846,1,0,0:0:0:0:
264,126,8946,5,0,0:0:0:0:
189,184,9046,2,0,L|200:272,1,50,8|0,0:0|0:0,0:0:0:0:
265,282,9246,1,8,0:0:0:0:
181,250,9346,2,0,L|175:201,1,50,2|0,0:0|0:0,0:0:0:0:
107,310,9546,2,0,L|100:260,1,50,8|0,0:0|0:0,0:0:0:0:
133,130,9746,6,0,P|183:107|235:125,1,100,8|0,0:0|0:0,0:0:0:0:
290,198,10046,1,0,0:0:0:0:
313,110,10146,5,2,0:0:0:0:
314,154,10246,1,0,0:0:0:0:
333,189,10346,1,0,0:0:0:0:
372,213,10446,1,0,0:0:0:0:
454,168,10546,5,8,0:0:0:0:
453,124,10646,1,2,0:0:0:0:
434,89,10746,1,2,0:0:0:0:
395,65,10846,1,10,0:0:0:0:
322,24,10946,6,0,B|212:14|212:14|171:46,1,150.000005722046,2|0,0:0|0:0,0:0:0:0:
46,133,11346,6,0,L|164:145,1,100,8|0,0:0|0:0,0:0:0:0:
221,151,11646,1,0,0:0:0:0:
221,151,11746,5,2,0:0:0:0:
223,225,11846,1,0,0:0:0:0:
227,302,11946,1,8,0:0:0:0:
232,383,12046,6,0,L|187:373,1,42.5000008106232,8|0,0:0|0:0,0:0:0:0:
335,267,12246,2,0,L|290:257,1,42.5000008106232,8|0,0:0|0:0,0:0:0:0:
412,149,12446,2,0,L|367:139,1,42.5000008106232,8|0,0:0|0:0,0:0:0:0:
104,63,12546,5,2,0:0:0:0:
82,105,12646,1,0,0:0:0:0:
85,152,12746,1,8,0:0:0:0:
117,188,12846,1,0,0:0:0:0:
163,198,12946,6,0,P|224:181|245:160,1,50,10|0,0:0|0:0,0:0:0:0:
261,114,13146,2,0,P|276:78|277:49,1,50,0|0,0:0|0:0,0:0:0:0:
192,51,13346,2,0,P|230:103|295:114,1,100,0|0,0:0|0:0,0:0:0:0:
293,184,13646,2,0,B|278:133|299:107|299:107|346:111|379:149,1,150,2|0,0:0|0:0,0:0:0:0:
444,225,14146,1,0,0:0:0:0:
385,309,14346,2,0,B|274:333|306:230|171:268,1,200,2|2,0:0|0:0,0:0:0:0:
93,305,14946,2,0,B|114:260|114:260|84:179,1,100,0|0,0:0|0:0,0:0:0:0:
40,152,15246,2,0,B|70:201|142:183|142:183|122:129|135:83|202:66,1,250,0|0,0:0|0:0,0:0:0:0:
183,71,16146,5,2,0:0:0:0:
362,132,16346,1,0,0:0:0:0:
197,56,16546,2,0,B|223:150|146:115|185:216,1,150
141,260,16946,2,0,P|201:232|246:236,2,100,0|0|0,0:0|0:0|0:0,0:0:0:0:
84,355,17546,6,0,B|137:372|178:333|178:333|220:288|292:322,1,200,2|0,0:0|0:0,0:0:0:0:
269,313,18546,1,2,0:0:0:0:
423,89,18946,6,0,L|425:109,10,12.5000004768372,2|2|2|2|2|2|2|2|2|2|2,0:2|0:2|0:2|0:2|0:2|0:2|0:2|0:2|0:2|0:2|0:2,0:0:0:0:
359,183,19346,6,0,P|330:142|331:73,1,100,12|0,0:0|0:0,0:0:0:0:
325,93,19646,1,8,0:0:0:0:
248,46,19746,2,0,P|204:47|161:35,1,50,2|0,0:0|0:0,0:0:0:0:
125,15,19946,1,8,0:0:0:0:
67,80,20046,6,0,P|119:38|213:56,1,150,0|8,0:0|0:0,0:0:0:0:
276,115,20546,1,2,0:0:0:0:
235,187,20746,6,0,P|176:230|103:221,1,150,8|0,0:0|0:0,0:0:0:0:
103,221,21146,1,8,0:0:0:0:
107,329,21346,1,2,0:0:0:0:
15,343,21446,2,0,P|61:319|127:346,1,100,8|0,0:0|0:0,0:0:0:0:
187,368,21746,6,0,L|333:357,1,100,8|0,0:0|0:0,0:0:0:0:
381,246,22146,1,2,0:0:0:0:
310,292,22246,2,0,B|296:243|296:243|316:186,1,100,8|8,0:0|0:0,0:0:0:0:
365,129,22546,6,0,B|322:152|293:137|293:137|267:101|207:107,1,150,8|8,0:0|0:0,0:0:0:0:
139,100,22946,2,0,P|195:65|184:1,1,100,2|8,0:0|0:0,0:0:0:0:
199,35,23246,1,0,0:0:0:0:
41,151,23546,1,8,0:0:0:0:
111,208,23746,2,0,L|104:331,1,100,2|8,0:0|0:0,0:0:0:0:
105,307,24346,5,8,0:0:0:0:
236,369,24546,1,2,0:0:0:0:
241,269,24646,2,0,L|234:392,1,100,8|0,0:0|0:0,0:0:0:0:
340,289,24946,6,0,P|332:232|304:170,1,100,8|0,0:0|0:0,0:0:0:0:
235,154,25246,1,0,0:0:0:0:
240,124,25346,1,2,0:0:0:0:
259,101,25446,2,0,P|193:133|172:136,1,50,8|0,0:0|0:0,0:0:0:0:
125,106,25646,1,8,0:0:0:0:
56,198,25746,6,0,B|107:173|159:203|159:203|133:209|97:257,1,150,12|8,0:0|0:0,0:0:0:0:
157,307,26146,2,0,P|195:269|259:288,1,100,2|8,0:0|0:0,0:0:0:0:
294,322,26446,6,0,B|282:207|282:207|324:257,1,150,0|8,0:0|0:0,0:0:0:0:
394,211,26946,2,0,L|390:291,1,50,2|0,0:0|0:0,0:0:0:0:
384,124,27146,6,0,B|406:97|406:97|394:212,1,150,8|0,0:0|0:0,0:0:0:0:
394,211,27546,1,8,0:0:0:0:
464,50,27746,1,2,0:0:0:0:
372,31,27846,2,0,P|397:25|479:71,1,100,8|0,0:0|0:0,0:0:0:0:
384,124,28146,6,0,B|327:115|327:115|304:95|304:95|227:84,1,150,8|0,0:0|0:0,0:0:0:0:
242,86,28546,1,2,0:0:0:0:
176,135,28646,2,0,P|163:80|209:20,1,100,8|8,0:0|0:0,0:0:0:0:
248,183,28946,6,0,L|90:164,1,150,8|8,0:0|0:0,0:0:0:0:
53,265,29346,2,0,B|63:251|74:246|74:246|95:263|136:255,1,50,2|0,0:0|0:0,0:0:0:0:
212,240,29546,2,0,B|197:211|170:211|170:211|146:271|61:250,1,150,8|0,0:0|0:0,0:0:0:0:
92,255,29946,1,8,0:0:0:0:
164,359,30146,2,0,L|243:354,1,50,2|0,0:0|0:0,0:0:0:0:
364,349,30346,6,0,L|211:356,1,150,8|0,0:0|0:0,0:0:0:0:
214,355,30746,1,8,0:0:0:0:
360,270,30946,1,2,0:0:0:0:
260,274,31046,2,0,L|379:269,1,100,8|0,0:0|0:0,0:0:0:0:
449,283,31346,2,0,B|455:231|411:194|411:194|441:189|470:237,1,150,8|0,0:0|0:0,0:0:0:0:
360,270,31746,1,2,0:0:0:0:
324,180,31846,2,0,P|330:227|383:284,1,100,8|8,0:0|0:0,0:0:0:0:
239,214,32146,6,0,P|302:154|299:61,1,150,12|8,0:0|0:0,0:0:0:0:
225,73,32546,2,0,B|228:103|228:103|225:134|171:153,1,100,2|8,0:0|0:0,0:0:0:0:
65,192,32846,6,0,B|98:157|88:112|88:112|100:81|145:82,1,150,0|8,0:0|0:0,0:0:0:0:
146,228,33346,2,0,P|121:265|76:283,1,50,2|0,0:0|0:0,0:0:0:0:
48,340,33546,6,0,B|116:318|158:339|158:339|114:349,1,150,8|0,0:0|0:0,0:0:0:0:
121,347,33946,1,8,0:0:0:0:
268,358,34146,1,2,0:0:0:0:
273,260,34246,2,0,B|266:296|266:296|274:324|274:324|263:377,1,100,8|0,0:0|0:0,0:0:0:0:
365,280,34546,2,0,P|354:212|264:165,1,150,8|0,0:0|0:0,0:0:0:0:
191,171,34946,1,2,0:0:0:0:
291,166,35046,2,0,L|156:173,1,100,8|8,0:0|0:0,0:0:0:0:
77,290,35346,6,0,B|62:228|105:192|105:192|127:233,1,150,8|8,0:0|0:0,0:0:0:0:
36,143,35746,2,0,P|78:113|142:117,1,100,2|8,0:0|0:0,0:0:0:0:
191,171,36046,1,0,0:0:0:0:
211,261,36146,6,0,P|191:295|159:310,1,50,0|0,0:0|0:0,0:0:0:0:
285,203,36346,2,0,P|319:205|350:222,1,50,8|0,0:0|0:0,0:0:0:0:
191,171,36546,2,0,P|175:122|199:70,1,100,2|8,0:0|0:0,0:0:0:0:
191,78,37146,6,0,L|261:70,1,50,8|0,0:0|0:0,0:0:0:0:
147,5,37346,1,2,0:0:0:0:
96,68,37446,2,0,B|131:87|131:87|208:75,1,100,8|0,0:0|0:0,0:0:0:0:
97,180,37746,2,0,B|43:143|43:143|56:247,1,150,8|0,0:0|0:0,0:0:0:0:
76,313,38146,5,2,0:0:0:0:
168,305,38246,2,0,L|161:255,1,50,8|0,0:0|0:0,0:0:0:0:
125,375,38446,1,0,0:0:0:0:
292,333,38546,6,0,P|317:296|318:251,1,89.9999972534181,2|0,0:0|0:0,0:0:0:0:
219,50,38746,2,0,P|194:87|193:132,1,89.9999972534181,2|0,0:0|0:0,0:0:0:0:
240,209,38946,5,0,0:0:0:0:
259,219,39046,1,0,0:0:0:0:
279,230,39146,1,0,0:0:0:0:
299,241,39246,1,0,0:0:0:0:
318,251,39346,6,0,L|437:232,1,112.500004291535,0|0,0:0|0:0,0:0:0:0:
429,233,39946,6,0,B|392:122|463:187|411:38,1,179.999994506836,2|0,0:0|0:0,0:0:0:0:
417,57,40346,2,0,B|440:63|440:63|401:89|348:67,1,100,2|0,0:0|0:0,0:0:0:0:
208,69,40546,5,0,0:0:0:0:
203,98,40646,1,0,0:0:0:0:
200,123,40746,1,0,0:0:0:0:
197,148,40846,1,0,0:0:0:0:
194,173,40946,6,0,P|247:173|322:140,1,112.500004291535,0|0,0:0|0:0,0:0:0:0:
302,153,41746,6,0,B|333:186|333:186|319:310,1,89.9999972534181,2|0,0:0|0:0,0:0:0:0:
258,384,41946,2,0,B|227:351|227:351|241:227,1,89.9999972534181,2|0,0:0|0:0,0:0:0:0:
281,52,42146,5,0,0:0:0:0:
302,61,42246,1,0,0:0:0:0:
322,70,42346,1,0,0:0:0:0:
345,79,42446,1,0,0:0:0:0:
366,88,42546,6,0,L|247:104,1,112.500004291535,0|0,0:0|0:0,0:0:0:0:
45,167,43146,6,0,B|62:223|62:223|42:282|42:282|64:351,1,179.999994506836,2|0,0:0|0:0,0:0:0:0:
59,338,43546,2,0,B|82:314|82:314|206:294,1,100,2|0,0:0|0:0,0:0:0:0:
297,353,43746,5,0,0:0:0:0:
294,317,43846,1,0,0:0:0:0:
254,320,43946,1,0,0:0:0:0:
255,355,44046,1,0,0:0:0:0:
387,340,44146,6,0,B|412:298|412:298|378:152,1,150.000005722046
370,56,44546,2,0,B|345:98|345:98|379:244,1,150.000005722046,0|0,0:0|0:0,0:0:0:0:
459,62,44946,6,0,L|360:55,1,89.9999972534181,2|0,0:0|0:0,0:0:0:0:
278,190,45146,2,0,L|367:196,1,89.9999972534181,2|0,0:0|0:0,0:0:0:0:
263,103,45346,5,0,0:0:0:0:
200,158,45446,1,0,0:0:0:0:
278,190,45546,1,0,0:0:0:0:
263,103,45646,1,0,0:0:0:0:
131,115,45746,6,0,P|122:191|164:242,1,89.9999972534181,2|0,0:0|0:0,0:0:0:0:
188,296,45946,2,0,P|197:372|155:423,1,89.9999972534181,2|0,0:0|0:0,0:0:0:0:
121,342,46146,1,0,0:0:0:0:
188,296,46246,1,0,0:0:0:0:
273,348,46346,1,0,0:0:0:0:
341,297,46446,1,0,0:0:0:0:
428,341,46546,6,0,B|437:275|437:275|407:233,1,89.9999972534181,2|0,0:0|0:0,0:0:0:0:
422,78,46746,2,0,B|410:98|410:98|419:164,1,89.9999972534181,2|0,0:0|0:0,0:0:0:0:
307,227,46946,5,0,0:0:0:0:
311,193,47046,1,0,0:0:0:0:
315,157,47146,2,0,B|288:172|288:172|163:163,1,89.9999972534181,2|0,0:0|0:0,0:0:0:0:
42,277,47346,5,0,0:0:0:0:
38,243,47446,1,0,0:0:0:0:
34,207,47546,2,0,B|61:222|61:222|186:213,1,89.9999972534181,2|0,0:0|0:0,0:0:0:0:
230,168,47746,1,0,0:0:0:0:
247,74,47846,1,0,0:0:0:0:
169,121,47946,1,0,0:0:0:0:
181,31,48046,1,0,0:0:0:0:
230,168,48146,5,8,0:0:0:0:
252,202,48246,1,0,0:0:0:0:
270,163,48346,1,8,0:0:0:0:
291,196,48446,1,0,0:0:0:0:
307,153,48546,1,8,0:0:0:0:
328,187,48646,1,0,0:0:0:0:
346,148,48746,1,8,0:0:0:0:
368,181,48846,1,0,0:0:0:0:
390,141,48946,5,8,0:0:0:0:
430,214,49046,1,0,0:0:0:0:
395,281,49146,2,0,L|416:382,1,89.9999972534181,8|0,0:0|0:0,0:0:0:0:
290,336,49346,5,8,0:0:0:0:
226,254,49446,1,0,0:0:0:0:
274,156,49546,2,0,L|259:63,1,89.9999972534181,8|0,0:0|0:0,0:0:0:0:
172,20,49746,6,0,L|161:106,1,75.0000028610231,2|0,0:0|0:0,0:0:0:0:
131,112,50046,2,0,L|140:37,1,75.0000028610231,2|0,0:0|0:0,0:0:0:0:
140,37,50346,1,2,0:0:0:0:
119,189,50546,1,2,0:0:0:0:
247,348,50746,5,8,0:0:0:0:
228,343,50812,1,8,0:0:0:0:
213,342,50879,1,8,0:0:0:0:
198,347,50946,6,0,P|287:374|341:180,1,300,2|0,0:0|0:0,0:0:0:0:
343,152,51346,6,0,P|402:237|481:224,1,150.000005722046,8|0,0:0|0:0,0:0:0:0:
414,66,51746,2,0,P|483:88|512:155,1,150.000005722046,2|0,0:0|0:0,0:0:0:0:
429,153,52046,1,0,0:0:0:0:
343,152,52146,6,0,B|239:124|286:218|132:157,1,170.000003242493,8|0,0:0|0:0,0:0:0:0:
158,189,52446,2,0,P|208:199|253:189,1,85.0000016212464,8|2,0:0|0:0,0:0:0:0:
111,75,52746,6,0,B|42:130|42:130|71:342,1,255.000004863739,8|0,0:0|0:0,0:0:0:0:
64,295,53146,1,8,0:0:0:0:
258,375,53346,1,2,0:0:0:0:
199,317,53446,1,0,0:0:0:0:
257,259,53546,1,0,0:0:0:0:
320,313,53646,1,0,0:0:0:0:
390,354,53746,5,12,0:0:0:0:
410,365,53946,2,0,L|416:268,1,75.0000028610231,8|0,0:0|0:0,0:0:0:0:
333,148,54146,1,2,0:0:0:0:
334,221,54246,1,0,0:0:0:0:
273,261,54346,1,0,0:0:0:0:
273,261,54446,6,0,B|382:244|322:330|475:272,1,150.000005722046,8|0,0:0|0:0,0:0:0:0:
414,290,54746,1,8,0:0:0:0:
252,174,54946,1,2,0:0:0:0:
243,101,55046,1,0,0:0:0:0:
307,63,55146,1,8,0:0:0:0:
307,63,55246,6,0,B|198:80|258:-6|105:52,1,150.000005722046,8|0,0:0|0:0,0:0:0:0:
165,33,55546,1,8,0:0:0:0:
111,268,55746,1,2,0:0:0:0:
70,201,55846,1,0,0:0:0:0:
79,131,55946,1,0,0:0:0:0:
79,131,56046,6,0,P|56:220|-31:249,1,150.000005722046,8|0,0:0|0:0,0:0:0:0:
10,247,56346,1,8,0:0:0:0:
208,356,56546,1,2,0:0:0:0:
296,329,56646,1,8,0:0:0:0:
227,269,56746,1,0,0:0:0:0:
379,358,56846,6,0,B|386:313|368:283|368:283|381:245|350:191,1,150.000005722046,2|8,0:0|0:0,0:0:0:0:
360,212,57146,1,2,0:0:0:0:
476,46,57346,2,0,B|431:87|368:55|368:55|403:60|437:38,1,150.000005722046,2|10,0:0|0:0,0:0:0:0:
483,133,57646,1,0,0:0:0:0:
483,133,57746,6,0,P|376:139|294:85,1,150.000005722046,8|0,0:0|0:0,0:0:0:0:
240,213,58146,2,0,P|133:207|51:261,1,150.000005722046,2|0,0:0|0:0,0:0:0:0:
289,336,58546,6,0,B|349:318|364:235|364:235|306:176|352:89,1,255.000004863739,8|8,0:0|0:0,0:0:0:0:
374,138,58946,2,0,P|368:173|400:220,1,85.0000016212464,2|0,0:0|0:0,0:0:0:0:
289,336,59146,6,0,B|94:322|94:322|169:364,1,255.000004863739,8|0,0:0|0:0,0:0:0:0:
145,351,59546,1,8,0:0:0:0:
200,180,59746,1,2,0:0:0:0:
194,117,59846,1,0,0:0:0:0:
186,168,59946,1,0,0:0:0:0:
206,132,60046,1,0,0:0:0:0:
173,280,60146,5,12,0:0:0:0:
189,263,60346,2,0,P|147:254|91:273,1,85.0000016212464,8|0,0:0|0:0,0:0:0:0:
94,142,60546,1,2,0:0:0:0:
46,168,60646,1,0,0:0:0:0:
46,168,60746,1,0,0:0:0:0:
61,82,60846,6,0,B|76:29|76:29|105:209,1,170.000003242493,8|0,0:0|0:0,0:0:0:0:
94,142,61146,1,8,0:0:0:0:
282,225,61346,1,2,0:0:0:0:
284,171,61446,1,0,0:0:0:0:
284,171,61546,1,8,0:0:0:0:
340,203,61646,6,0,B|231:262|231:262|271:348,1,170.000003242493,8|8,0:0|0:0,0:0:0:0:
250,303,61946,1,0,0:0:0:0:
460,367,62146,1,2,0:0:0:0:
482,286,62246,2,0,P|459:255|403:338,1,170.000003242493,8|8,0:0|0:0,0:0:0:0:
157,356,62546,5,2,0:0:0:0:
109,239,62646,2,0,L|119:143,1,75,8|0,0:0|0:0,0:0:0:0:
96,171,62846,2,0,L|61:175,1,18.7500007152558,8|0,0:0|0:0,0:0:0:0:
282,118,63046,2,0,L|247:122,1,18.7500007152558,8|0,0:0|0:0,0:0:0:0:
482,46,63246,2,0,L|396:51,1,75.0000028610231,8|8,0:0|0:0,0:0:0:0:
407,50,63546,1,8,0:0:0:0:
512,299,63746,6,0,P|437:182|307:231,1,300,2|0,0:0|0:0,0:0:0:0:
298,214,64146,6,0,L|298:371,1,150.000005722046,8|0,0:0|0:0,0:0:0:0:
180,372,64546,2,0,L|180:222,1,150.000005722046,2|0,0:0|0:0,0:0:0:0:
235,160,64846,1,0,0:0:0:0:
298,214,64946,6,0,B|371:229|404:176|404:176|477:196,1,170.000003242493,8|0,0:0|0:0,0:0:0:0:
481,123,65246,2,0,L|385:94,1,85.0000016212464,8|2,0:0|0:0,0:0:0:0:
153,81,65546,6,0,B|202:35|202:35|173:274,1,255.000004863739,8|0,0:0|0:0,0:0:0:0:
179,221,65946,1,8,0:0:0:0:
100,278,66146,1,2,0:0:0:0:
94,238,66246,1,0,0:0:0:0:
89,204,66346,1,0,0:0:0:0:
100,278,66446,1,0,0:0:0:0:
111,357,66546,5,12,0:0:0:0:
95,346,66746,2,0,L|217:357,1,75.0000028610231,8|0,0:0|0:0,0:0:0:0:
359,274,66946,5,2,0:0:0:0:
303,290,67046,1,0,0:0:0:0:
303,290,67146,1,0,0:0:0:0:
406,322,67246,6,0,B|380:232|451:274|388:112,1,150.000005722046,8|0,0:0|0:0,0:0:0:0:
408,175,67546,1,8,0:0:0:0:
282,43,67746,5,2,0:0:0:0:
221,16,67846,1,0,0:0:0:0:
221,16,67946,1,8,0:0:0:0:
181,93,68046,6,0,B|238:100|238:100|275:79|275:79|345:86,1,150.000005722046,8|0,0:0|0:0,0:0:0:0:
324,83,68346,1,8,0:0:0:0:
169,269,68546,5,2,0:0:0:0:
161,210,68646,1,0,0:0:0:0:
161,210,68746,1,0,0:0:0:0:
219,322,68846,6,0,P|138:292|63:345,1,150.000005722046,8|0,0:0|0:0,0:0:0:0:
153,374,69146,1,8,0:0:0:0:
152,373,69246,1,0,0:0:0:0:
219,322,69346,5,2,0:0:0:0:
325,261,69446,1,8,0:0:0:0:
303,348,69546,1,0,0:0:0:0:
242,231,69646,2,0,P|275:187|405:212,1,150.000005722046,2|8,0:0|0:0,0:0:0:0:
421,252,69946,5,2,0:0:0:0:
386,333,70046,1,8,0:0:0:0:
493,154,70146,2,0,P|417:198|349:160,1,150.000005722046,2|10,0:0|0:0,0:0:0:0:
348,79,70546,6,0,P|424:35|492:73,1,150.000005722046,8|0,0:0|0:0,0:0:0:0:
493,154,70946,2,0,P|417:198|349:160,1,150.000005722046,2|0,0:0|0:0,0:0:0:0:
285,140,71246,1,0,0:0:0:0:
364,177,71346,6,0,B|437:220|437:220|506:139,1,170.000003242493,8|0,0:0|0:0,0:0:0:0:
476,55,71646,2,0,B|403:13|403:13|334:93,1,170.000003242493,8|0,0:0|0:0,0:0:0:0:
166,165,71946,6,0,L|417:118,1,255.000004863739,8|0,0:0|0:0,0:0:0:0:
417,118,72346,1,8,0:0:0:0:
324,223,72546,1,2,0:0:0:0:
361,227,72646,1,0,0:0:0:0:
400,230,72746,1,0,0:0:0:0:
441,233,72846,1,0,0:0:0:0:
479,237,72946,5,12,0:0:0:0:
495,224,73146,2,0,L|480:325,1,85.0000016212464,8|0,0:0|0:0,0:0:0:0:
266,354,73346,5,2,0:0:0:0:
249,281,73446,1,0,0:0:0:0:
249,281,73546,1,0,0:0:0:0:
188,340,73646,6,0,B|273:354|273:354|286:347|286:347|400:362,1,170.000003242493,8|0,0:0|0:0,0:0:0:0:
354,356,73946,1,8,0:0:0:0:
281,92,74146,1,2,0:0:0:0:
289,173,74246,1,0,0:0:0:0:
289,173,74346,1,8,0:0:0:0:
354,121,74446,6,0,B|343:76|343:76|346:66|346:66|331:4|331:4|316:30|316:30|325:85,1,170.000003242493,8|8,0:0|0:0,0:0:0:0:
319,49,74746,1,0,0:0:0:0:
139,187,74946,1,2,0:0:0:0:
128,100,75046,1,8,0:0:0:0:
128,100,75146,1,8,0:0:0:0:
213,132,75246,1,8,0:0:0:0:
139,187,75346,5,2,0:0:0:0:
122,199,75446,2,0,L|127:164,1,25,8|0,0:0|0:0,0:0:0:0:
225,335,75646,2,0,L|222:311,1,25,8|0,0:0|0:0,0:0:0:0:
44,241,75846,2,0,L|49:206,1,25,8|0,0:0|0:0,0:0:0:0:
305,371,76046,2,0,L|302:347,1,25,8|0,0:0|0:0,0:0:0:0:
213,132,76146,5,0,0:0:0:0:
254,146,76246,1,8,0:0:0:0:
302,133,76346,1,2,0:0:0:0:
319,88,76446,1,8,0:0:0:0:
294,186,76546,6,0,P|319:230|354:249,1,59.9999981689454,2|0,0:0|0:0,0:0:0:0:
301,43,76746,2,0,P|276:23|208:38,1,59.9999981689454,8|0,0:0|0:0,0:0:0:0:
426,111,76946,6,0,P|467:111|502:94,1,80,8|0,0:0|0:0,0:0:0:0:
256,192,80146,12,0,81646,0:0:0:0:
52,25,81746,5,10,0:0:0:0:
56,35,82061,1,2,0:0:0:0:
60,44,82377,1,2,0:0:0:0:
0,130,82535,5,0,0:0:0:0:
4,113,82614,1,0,0:0:0:0:
8,96,82693,2,0,P|143:76|275:226,1,300,6|0,0:0|0:0,0:0:0:0:
326,246,83009,6,0,B|350:196|352:104|352:104|350:165|412:209,1,209.999993591309,8|0,0:0|0:0,0:0:0:0:
368,165,83324,1,2,0:0:0:0:
452,257,83482,6,0,B|424:258|389:250|389:250|343:295|343:295|297:285|223:301,1,209.999993591309,8|0,0:0|0:0,0:0:0:0:
251,318,83798,2,0,P|298:314|341:325,1,69.9999978637696,8|0,0:0|0:0,0:0:0:0:
511,175,83956,2,0,P|464:179|421:168,1,69.9999978637696,2|0,0:0|0:0,0:0:0:0:
323,62,84114,6,0,B|262:11|182:53|182:53|236:63|265:121,1,209.999993591309,8|0,0:0|0:0,0:0:0:0:
283,172,84430,1,8,0:0:0:0:
283,172,84509,1,0,0:0:0:0:
283,172,84588,2,0,L|168:164,1,69.9999978637696,2|0,0:0|0:0,0:0:0:0:
77,233,84746,5,8,0:0:0:0:
77,233,84904,2,0,L|192:225,1,69.9999978637696,8|2,0:0|0:0,0:0:0:0:
308,262,85061,1,8,0:0:0:0:
311,214,85140,1,0,0:0:0:0:
283,172,85219,2,0,B|220:206|220:206|247:380,1,209.999993591309,2|0,0:0|0:0,0:0:0:0:
314,368,85535,6,0,B|367:356|391:315|391:315|439:362|496:350,1,209.999993591309,8|0,0:0|0:0,0:0:0:0:
494,350,85851,1,2,0:0:0:0:
469,247,86009,6,0,B|456:102|456:102|449:129|409:160,1,209.999993591309,8|0,0:0|0:0,0:0:0:0:
403,163,86324,2,0,P|453:163|493:184,1,69.9999978637696,8|0,0:0|0:0,0:0:0:0:
334,37,86482,2,0,P|300:46|265:43,1,69.9999978637696,2|0,0:0|0:0,0:0:0:0:
219,142,86640,6,0,P|241:102|122:56,1,209.999993591309,8|0,0:0|0:0,0:0:0:0:
62,143,86956,2,0,P|88:145|146:134,1,69.9999978637696,8|0,0:0|0:0,0:0:0:0:
232,244,87114,5,2,0:0:0:0:
232,244,87193,1,0,0:0:0:0:
232,244,87272,2,0,P|258:246|316:235,1,69.9999978637696,2|0,0:0|0:0,0:0:0:0:
426,349,87430,2,0,P|400:351|342:340,1,69.9999978637696,8|2,0:0|0:0,0:0:0:0:
232,244,87588,2,0,P|258:246|316:235,1,69.9999978637696,2|8,0:0|0:0,0:0:0:0:
427,157,87746,2,0,B|357:129|357:129|278:174|304:252,1,209.999993591309,2|0,0:0|0:0,0:0:0:0:
173,342,88061,6,0,B|125:251|125:251|181:131,1,209.999993591309,8|0,0:0|0:0,0:0:0:0:
208,82,88377,1,2,0:0:0:0:
90,57,88535,6,0,B|51:18|51:18|83:211,1,209.999993591309,8|0,0:0|0:0,0:0:0:0:
76,170,88851,2,0,B|50:164|50:164|35:169|35:169|-28:158,1,69.9999978637696,8|0,0:0|0:0,0:0:0:0:
232,244,89009,2,0,B|258:237|258:237|273:242|273:242|336:231,1,69.9999978637696,2|0,0:0|0:0,0:0:0:0:
452,151,89167,6,0,B|393:152|310:142|310:142|371:162|391:204,1,209.999993591309,8|0,0:0|0:0,0:0:0:0:
481,226,89482,2,0,B|471:193|471:193|480:163|480:163|470:129|470:129|495:38,1,139.999995727539,8|2,0:0|0:0,0:0:0:0:
488,78,89798,2,0,P|452:77|386:71,1,69.9999978637696,8|0,0:0|0:0,0:0:0:0:
229,233,89956,6,0,P|265:234|331:240,1,69.9999978637696,2|0,0:0|0:0,0:0:0:0:
343,378,90114,1,8,0:0:0:0:
328,310,90193,1,8,0:0:0:0:
379,261,90272,2,0,B|429:289|429:289|412:400,1,139.999995727539,2|8,0:0|0:0,0:0:0:0:
143,354,90509,1,8,0:0:0:0:
143,354,90588,6,0,P|142:309|129:260,1,69.9999978637696,8|0,0:0|0:0,0:0:0:0:
94,122,90746,1,2,0:0:0:0:
229,233,90903,6,0,P|231:193|244:136,1,69.9999978637696,2|0,0:0|0:0,0:0:0:0:
229,28,91061,2,0,B|188:4|188:4|203:134,1,139.999995727539,8|8,0:0|0:0,0:0:0:0:
310,105,91298,1,2,0:0:0:0:
310,105,91377,2,0,L|414:93,1,69.9999978637696,8|0,0:0|0:0,0:0:0:0:
441,88,91535,2,0,L|333:69,1,69.9999978637696,2|0,0:0|0:0,0:0:0:0:
91,19,91693,6,0,B|91:58|112:93|112:93|79:148|79:148|103:203|91:271,1,209.999993591309,8|0,0:0|0:0,0:0:0:0:
108,307,92009,5,8,0:0:0:0:
179,296,92088,1,0,0:0:0:0:
252,285,92167,2,0,L|339:272,1,69.9999978637696,2|0,0:0|0:0,0:0:0:0:
492,173,92324,5,2,0:0:0:0:
421,184,92403,1,0,0:0:0:0:
348,195,92482,2,0,L|278:205,1,69.9999978637696,8|2,0:0|0:0,0:0:0:0:
158,87,92640,5,2,0:0:0:0:
158,87,92719,1,8,0:0:0:0:
158,87,92798,2,0,P|178:138|174:188,1,69.9999978637696,10|0,0:0|0:0,0:0:0:0:
300,340,92956,2,0,P|305:305|321:274,1,69.9999978637696,10|0,0:0|0:0,0:0:0:0:
377,109,93114,5,8,0:0:0:0:
377,109,93272,2,0,B|338:99|338:99|284:124,1,75.0000028610231,0|0,0:0|0:0,0:0:0:0:
135,275,93430,5,2,0:0:0:0:
135,275,93588,2,0,B|174:285|174:285|228:260,1,75.0000028610231,0|0,0:0|0:0,0:0:0:0:
320,274,93746,5,8,0:0:0:0:
306,113,93903,2,0,B|233:100|233:100|162:134|162:134|43:111,1,225.000008583069
91,120,94219,2,0,B|99:151|99:151|94:171|94:171|108:229,1,75.0000028610231,0|0,0:0|0:0,0:0:0:0:
78,356,94377,5,8,0:0:0:0:
197,197,94535,2,0,B|204:227|204:227|199:247|199:247|205:269,1,75.0000028610231,0|0,0:0|0:0,0:0:0:0:
214,384,94693,5,2,0:0:0:0:
353,351,94851,1,0,0:0:0:0:
190,372,95009,5,4,0:0:0:0:
379,334,95167,2,0,P|346:293|307:280,1,75.0000028610231,0|0,0:0|0:0,0:0:0:0:
378,198,95324,2,0,P|325:192|288:210,1,75.0000028610231,6|0,0:0|0:0,0:0:0:0:
315,79,95482,2,0,P|273:112|261:151,1,75.0000028610231,0|0,0:0|0:0,0:0:0:0:
197,197,95640,5,8,0:0:0:0:
197,197,95798,2,0,P|147:192|97:209,1,75.0000028610231,0|0,0:0|0:0,0:0:0:0:
35,350,95956,5,2,0:0:0:0:
35,350,96114,2,0,P|85:355|135:338,1,75.0000028610231,0|0,0:0|0:0,0:0:0:0:
302,340,96272,1,8,0:0:0:0:
207,291,96430,2,0,B|236:218|226:137|226:137|237:175|291:223,1,225.000008583069
302,340,96746,6,0,B|248:328|203:291|203:291|158:349|63:357,1,225.000008583069,0|0,0:0|0:0,0:0:0:0:
39,245,97061,5,0,0:0:0:0:
39,245,97140,1,0,0:0:0:0:
39,245,97219,2,0,L|29:153,1,75.0000028610231,2|0,0:0|0:0,0:0:0:0:
65,107,97377,5,0,0:0:0:0:
65,107,97456,1,0,0:0:0:0:
65,107,97535,2,0,L|56:181,1,75.0000028610231,8|0,0:0|0:0,0:0:0:0:
133,282,97693,6,0,P|161:289|233:285,1,75.0000028610231,4|0,0:0|0:0,0:0:0:0:
409,338,97851,2,0,P|372:346|335:346,1,75.0000028610231,6|0,0:0|0:0,0:0:0:0:
179,191,98009,2,0,P|207:198|279:194,1,75.0000028610231,4|0,0:0|0:0,0:0:0:0:
336,132,98167,5,8,0:0:0:0:
336,132,98324,2,0,B|319:177|346:170|331:208,1,75.0000028610231,0|0,0:0|0:0,0:0:0:0:
441,349,98482,5,2,0:0:0:0:
441,349,98640,2,0,B|457:303|430:310|446:263,1,75.0000028610231,0|0,0:0|0:0,0:0:0:0:
332,205,98798,5,8,0:0:0:0:
441,112,98956,2,0,B|368:54|285:107|285:107|339:119|370:173,1,225.000008583069,0|0,0:0|0:0,0:0:0:0:
194,157,99272,6,0,B|253:197|253:197|224:1,1,225.000008583069,0|0,0:0|0:0,0:0:0:0:
107,87,99588,5,4,0:0:0:0:
119,67,99667,1,4,0:0:0:0:
116,42,99746,1,2,0:0:0:0:
92,216,99903,5,4,0:0:0:0:
80,196,99982,1,4,0:0:0:0:
83,171,100061,1,8,0:0:0:0:
5,307,100219,5,4,0:0:0:0:
74,295,100298,1,4,0:0:0:0:
136,333,100377,2,0,B|240:315|240:315|331:338|331:338|457:319,1,300,2|0,0:0|0:0,0:0:0:0:
416,308,100693,6,0,P|421:266|439:211,1,75.0000028610231,8|0,0:0|0:0,0:0:0:0:
343,62,100851,2,0,P|352:98|356:135,1,75.0000028610231,2|0,0:0|0:0,0:0:0:0:
416,308,101009,1,2,0:0:0:0:
485,60,101167,6,0,B|384:49|384:49|423:74|438:111,1,150.000005722046,8|8,0:0|0:0,0:0:0:0:
255,146,101403,1,2,0:0:0:0:
255,146,101482,2,0,B|356:135|356:135|317:160|302:197,1,150.000005722046,8|2,0:0|0:0,0:0:0:0:
207,226,101798,6,0,B|272:220|315:184|315:184|347:235|424:263,1,225.000008583069,8|0,0:0|0:0,0:0:0:0:
419,242,102114,6,0,P|407:292|412:342,1,75.0000028610231,8|0,0:0|0:0,0:0:0:0:
331,370,102272,1,2,0:0:0:0:
218,299,102430,6,0,P|206:249|211:199,1,75.0000028610231,2|0,0:0|0:0,0:0:0:0:
130,171,102588,1,8,0:0:0:0:
114,130,102667,1,2,0:0:0:0:
129,87,102746,1,2,0:0:0:0:
170,67,102824,1,8,0:0:0:0:
212,81,102903,6,2,P|195:59|193:31,10,33.3333333333333
286,117,103219,6,0,L|358:112,1,59.9999981689454,8|0,0:0|0:0,0:0:0:0:
403,163,103377,2,0,P|380:105|421:32,1,119.999996337891,4|0,0:0|0:0,0:0:0:0:
502,238,103693,1,12,0:0:0:0:
502,238,103772,1,0,0:0:0:0:
502,238,103851,6,0,P|453:239|405:230,1,59.9999981689454,0|0,0:0|0:0,0:0:0:0:
315,303,104009,2,0,P|364:304|412:295,1,59.9999981689454,12|0,0:0|0:0,0:0:0:0:
403,163,104167,2,0,P|338:152|242:180,1,119.999996337891,2|12,0:0|0:0,0:0:0:0:
150,238,104482,5,0,0:0:0:0:
186,38,104640,1,8,0:0:0:0:
285,160,104798,5,2,0:0:0:0:
48,109,104956,1,8,0:0:0:0:
48,109,105035,1,0,0:0:0:0:
48,109,105114,5,8,0:0:0:0:
70,137,105193,1,2,0:0:0:0:
73,172,105272,1,8,0:0:0:0:
62,206,105351,1,0,0:0:0:0:
36,231,105430,2,0,P|98:220|160:245,1,119.999996337891,2|0,0:0|0:0,0:0:0:0:
293,348,105746,5,8,0:0:0:0:
291,325,105824,1,0,0:0:0:0:
313,277,105903,1,4,0:0:0:0:
315,254,105981,1,0,0:0:0:0:
301,215,106061,2,0,L|214:220,1,59.9999981689454,2|0,0:0|0:0,0:0:0:0:
181,50,106219,1,12,0:0:0:0:
181,50,106298,1,0,0:0:0:0:
212,77,106377,5,0,0:0:0:0:
262,80,106456,1,0,0:0:0:0:
302,58,106535,2,0,L|282:144,1,59.9999981689454,12|0,0:0|0:0,0:0:0:0:
150,238,106693,1,6,0:0:0:0:
149,237,106772,2,0,L|143:174,1,59.9999981689454,0|12,0:0|0:0,0:0:0:0:
66,77,106930,1,0,0:0:0:0:
66,77,107009,5,0,0:0:0:0:
58,133,107088,1,0,0:0:0:0:
51,190,107167,1,8,0:0:0:0:
46,247,107246,1,0,0:0:0:0:
36,305,107324,2,0,B|114:291|73:346|197:320,1,119.999996337891,2|2,0:0|0:0,0:0:0:0:
247,305,107561,1,0,0:0:0:0:
247,305,107640,6,0,B|307:321|307:321|378:300,1,119.999996337891,8|2,0:0|0:0,0:0:0:0:
417,278,107877,1,8,0:0:0:0:
417,278,107956,2,0,P|410:228|426:185,1,59.9999981689454,2|0,0:0|0:0,0:0:0:0:
385,82,108114,1,8,0:0:0:0:
502,92,108272,5,8,0:0:0:0:
382,23,108430,2,0,L|388:128,1,59.9999981689454,4|0,0:0|0:0,0:0:0:0:
492,208,108588,2,0,B|509:167|509:167|498:61,1,119.999996337891,2|4,0:0|0:0,0:0:0:0:
266,188,108903,5,0,0:0:0:0:
266,188,108982,1,0,0:0:0:0:
266,188,109061,2,0,L|177:178,1,59.9999981689454,12|0,0:0|0:0,0:0:0:0:
99,235,109219,2,0,B|83:178|83:178|110:107,1,119.999996337891,2|12,0:0|0:0,0:0:0:0:
219,237,109535,6,0,P|205:210|206:180,1,59.9999981689454
293,40,109693,2,0,P|273:63|245:73,1,59.9999981689454,8|0,0:0|0:0,0:0:0:0:
346,165,109851,2,0,L|520:175,1,119.999996337891,2|8,0:0|0:0,0:0:0:0:
465,171,110088,1,0,0:0:0:0:
482,224,110167,5,2,0:0:0:0:
505,249,110246,1,0,0:0:0:0:
496,275,110324,1,8,0:0:0:0:
506,301,110403,1,8,0:0:0:0:
500,355,110482,5,2,0:0:0:0:
481,361,110535,1,0,0:0:0:0:
461,364,110588,1,0,0:0:0:0:
442,368,110640,2,0,L|336:353,1,59.9999981689454,8|8,0:0|0:0,0:0:0:0:
177,366,110798,5,8,0:0:0:0:
163,308,110877,1,0,0:0:0:0:
150,250,110956,1,2,0:0:0:0:
155,224,111035,1,0,0:0:0:0:
112,260,111114,5,2,0:0:0:0:
117,234,111193,1,0,0:0:0:0:
125,211,111272,1,8,0:0:0:0:
130,192,111351,1,0,0:0:0:0:
136,167,111430,5,8,0:0:0:0:
126,132,111509,1,2,0:0:0:0:
140,99,111588,1,8,0:0:0:0:
171,82,111667,1,0,0:0:0:0:
218,90,111746,1,2,0:0:0:0:
264,98,111824,1,0,0:0:0:0:
310,111,111903,1,8,0:0:0:0:
356,124,111982,1,0,0:0:0:0:
397,147,112061,6,0,P|384:204|351:220,1,59.9999981689454,0|0,0:0|0:0,0:0:0:0:
264,98,112219,2,0,L|289:13,1,59.9999981689454,8|0,0:0|0:0,0:0:0:0:
397,258,112377,6,0,P|384:201|351:185,1,59.9999981689454,2|0,0:0|0:0,0:0:0:0:
264,307,112535,2,0,L|289:392,1,59.9999981689454,2|2,0:0|0:0,0:0:0:0:
256,192,112693,2,0,L|52:192,1,179.999994506836,8|0,0:0|0:0,0:0:0:0:
76,192,113009,5,4,0:0:0:0:
