osu file format v14

[General]
AudioFilename: audio.mp3
AudioLeadIn: 0
PreviewTime: 50847
Countdown: 0
SampleSet: None
StackLeniency: 0.7
Mode: 3
LetterboxInBreaks: 0
SpecialStyle: 0
WidescreenStoryboard: 0

[Editor]
DistanceSpacing: 0.8
BeatDivisor: 4
GridSize: 16
TimelineZoom: 2.799999

[Metadata]
Title:QLWA
TitleUnicode:QLWA
Artist:t+pazolite
ArtistUnicode:t+pazolite
Creator:PiraTom
Version:EXTRA
Source:GROOVE COASTER 2 HEAVENLY FESTIVAL
Tags:groove coaster crossbeats taito t+pazolite
BeatmapID:1152058
BeatmapSetID:543543

[Difficulty]
HPDrainRate:8
CircleSize:4
OverallDifficulty:8
ApproachRate:5
SliderMultiplier:1.4
SliderTickRate:1

[Events]
//Background and Video events
0,0,"qlwa.jpg",0,0
//Break Periods
//Storyboard Layer 0 (Background)
//Storyboard Layer 1 (Fail)
//Storyboard Layer 2 (Pass)
//Storyboard Layer 3 (Foreground)
//Storyboard Sound Samples

[TimingPoints]
47,400,4,1,0,0,1,0
81647,315.789473684211,4,1,0,0,1,0
81650,-126.582278481013,4,1,0,0,0,0

[HitObjects]
64,192,47,5,0,0:0:0:0:
448,192,47,1,0,0:0:0:0:
192,192,47,1,0,0:0:0:0:
320,192,247,1,0,0:0:0:0:
448,192,347,1,0,0:0:0:0:
64,192,447,1,0,0:0:0:0:
192,192,447,1,0,0:0:0:0:
320,192,547,1,0,0:0:0:0:
320,192,747,1,0,0:0:0:0:
192,192,847,1,0,0:0:0:0:
448,192,847,1,0,0:0:0:0:
64,192,947,1,0,0:0:0:0:
320,192,1047,1,0,0:0:0:0:
192,192,1147,1,0,0:0:0:0:
64,192,1147,1,0,0:0:0:0:
320,192,1247,1,0,0:0:0:0:
448,192,1247,1,0,0:0:0:0:
192,192,1447,1,0,0:0:0:0:
64,192,1647,1,0,0:0:0:0:
448,192,1647,1,0,0:0:0:0:
320,192,1647,1,0,0:0:0:0:
192,192,1847,1,0,0:0:0:0:
64,192,1947,1,0,0:0:0:0:
320,192,2047,1,0,0:0:0:0:
448,192,2047,1,0,0:0:0:0:
192,192,2147,1,0,0:0:0:0:
448,192,2247,1,0,0:0:0:0:
320,192,2247,1,0,0:0:0:0:
64,192,2347,1,0,0:0:0:0:
192,192,2447,1,0,0:0:0:0:
320,192,2547,1,0,0:0:0:0:
64,192,2547,1,0,0:0:0:0:
448,192,2647,1,0,0:0:0:0:
64,192,2747,1,0,0:0:0:0:
192,192,2747,1,0,0:0:0:0:
320,192,2847,1,0,0:0:0:0:
448,192,2847,1,0,0:0:0:0:
64,192,3047,1,0,0:0:0:0:
192,192,3047,1,0,0:0:0:0:
320,192,3247,1,0,0:0:0:0:
448,192,3247,1,0,0:0:0:0:
192,192,3247,1,0,0:0:0:0:
64,192,3447,1,0,0:0:0:0:
192,192,3547,1,0,0:0:0:0:
64,192,3647,1,0,0:0:0:0:
448,192,3647,1,0,0:0:0:0:
320,192,3747,1,0,0:0:0:0:
320,192,3947,1,0,0:0:0:0:
64,192,4047,1,0,0:0:0:0:
192,192,4047,1,0,0:0:0:0:
448,192,4147,1,0,0:0:0:0:
192,192,4247,1,0,0:0:0:0:
64,192,4347,1,0,0:0:0:0:
320,192,4347,1,0,0:0:0:0:
192,192,4447,1,0,0:0:0:0:
448,192,4447,1,0,0:0:0:0:
320,192,4647,1,0,0:0:0:0:
192,192,4847,1,0,0:0:0:0:
64,192,4847,1,0,0:0:0:0:
320,192,4847,1,0,0:0:0:0:
448,192,5047,1,0,0:0:0:0:
320,192,5147,1,0,0:0:0:0:
64,192,5247,1,0,0:0:0:0:
448,192,5247,1,0,0:0:0:0:
192,192,5347,1,0,0:0:0:0:
320,192,5447,1,0,0:0:0:0:
448,192,5447,1,0,0:0:0:0:
192,192,5547,1,0,0:0:0:0:
448,192,5647,128,0,5747:0:0:0:0:
192,192,5747,1,0,0:0:0:0:
64,192,5747,128,0,5847:0:0:0:0:
320,192,5847,1,0,0:0:0:0:
448,192,5847,128,0,5947:0:0:0:0:
64,192,5947,128,0,6047:0:0:0:0:
192,192,6047,1,0,0:0:0:0:
448,192,6047,1,0,0:0:0:0:
320,192,6147,1,0,0:0:0:0:
192,192,6247,1,0,0:0:0:0:
64,192,6247,1,0,0:0:0:0:
64,192,6447,1,0,0:0:0:0:
320,192,6447,1,0,0:0:0:0:
448,192,6447,1,0,0:0:0:0:
192,192,6647,1,0,0:0:0:0:
320,192,6747,1,0,0:0:0:0:
64,192,6847,1,0,0:0:0:0:
448,192,6847,1,0,0:0:0:0:
320,192,6947,1,0,0:0:0:0:
320,192,7147,1,0,0:0:0:0:
192,192,7247,1,0,0:0:0:0:
64,192,7247,1,0,0:0:0:0:
448,192,7347,1,0,0:0:0:0:
192,192,7447,1,0,0:0:0:0:
320,192,7547,1,0,0:0:0:0:
448,192,7547,1,0,0:0:0:0:
64,192,7647,1,0,0:0:0:0:
192,192,7647,1,0,0:0:0:0:
320,192,7847,1,0,0:0:0:0:
64,192,8047,1,0,0:0:0:0:
448,192,8047,1,0,0:0:0:0:
192,192,8047,1,0,0:0:0:0:
320,192,8247,1,0,0:0:0:0:
192,192,8347,1,0,0:0:0:0:
64,192,8447,1,0,0:0:0:0:
448,192,8447,1,0,0:0:0:0:
192,192,8547,1,0,0:0:0:0:
320,192,8647,1,0,0:0:0:0:
448,192,8647,1,0,0:0:0:0:
192,192,8747,1,0,0:0:0:0:
448,192,8847,1,0,0:0:0:0:
64,192,8947,1,0,0:0:0:0:
320,192,8947,1,0,0:0:0:0:
192,192,9047,1,0,0:0:0:0:
320,192,9147,1,0,0:0:0:0:
448,192,9147,1,0,0:0:0:0:
64,192,9247,1,0,0:0:0:0:
192,192,9247,1,0,0:0:0:0:
192,192,9447,1,0,0:0:0:0:
320,192,9447,1,0,0:0:0:0:
64,192,9647,1,0,0:0:0:0:
320,192,9647,1,0,0:0:0:0:
448,192,9647,1,0,0:0:0:0:
192,192,9847,1,0,0:0:0:0:
320,192,9947,1,0,0:0:0:0:
192,192,10047,1,0,0:0:0:0:
448,192,10047,1,0,0:0:0:0:
64,192,10147,1,0,0:0:0:0:
64,192,10347,1,0,0:0:0:0:
448,192,10447,1,0,0:0:0:0:
320,192,10447,1,0,0:0:0:0:
192,192,10547,1,0,0:0:0:0:
320,192,10647,1,0,0:0:0:0:
64,192,10747,1,0,0:0:0:0:
448,192,10747,1,0,0:0:0:0:
192,192,10847,1,0,0:0:0:0:
320,192,10847,1,0,0:0:0:0:
320,192,11047,1,0,0:0:0:0:
64,192,11247,1,0,0:0:0:0:
192,192,11247,1,0,0:0:0:0:
448,192,11247,1,0,0:0:0:0:
320,192,11447,1,0,0:0:0:0:
192,192,11547,1,0,0:0:0:0:
64,192,11647,1,0,0:0:0:0:
320,192,11647,1,0,0:0:0:0:
448,192,11747,1,0,0:0:0:0:
64,192,11847,1,0,0:0:0:0:
192,192,11847,1,0,0:0:0:0:
320,192,11947,1,0,0:0:0:0:
192,192,11947,1,0,0:0:0:0:
448,192,11947,1,0,0:0:0:0:
192,192,12147,1,0,0:0:0:0:
320,192,12147,1,0,0:0:0:0:
64,192,12147,1,0,0:0:0:0:
320,192,12347,1,0,0:0:0:0:
448,192,12347,1,0,0:0:0:0:
192,192,12347,1,0,0:0:0:0:
64,192,12447,1,0,0:0:0:0:
448,192,12447,1,0,0:0:0:0:
192,192,12647,1,0,0:0:0:0:
320,192,12647,1,0,0:0:0:0:
192,192,12847,1,0,0:0:0:0:
64,192,12847,128,0,15647:0:0:0:0:
448,192,12847,128,0,12947:0:0:0:0:
448,192,13047,128,0,13247:0:0:0:0:
320,192,13247,128,0,13447:0:0:0:0:
192,192,13447,128,0,13547:0:0:0:0:
448,192,13447,1,0,0:0:0:0:
320,192,13547,128,0,13847:0:0:0:0:
448,192,13847,128,0,14047:0:0:0:0:
320,192,14047,128,0,14247:0:0:0:0:
192,192,14247,128,0,14647:0:0:0:0:
448,192,14247,1,0,0:0:0:0:
448,192,14647,128,0,14847:0:0:0:0:
320,192,14647,1,0,0:0:0:0:
320,192,14847,128,0,15047:0:0:0:0:
448,192,15147,128,0,15647:0:0:0:0:
192,192,15247,1,0,0:0:0:0:
192,192,15647,128,0,16047:0:0:0:0:
320,192,16047,128,0,16647:0:0:0:0:
448,192,16047,1,0,0:0:0:0:
64,192,16247,128,0,16447:0:0:0:0:
448,192,16447,128,0,16647:0:0:0:0:
192,192,16647,128,0,17447:0:0:0:0:
64,192,16647,1,0,0:0:0:0:
448,192,16747,128,0,16847:0:0:0:0:
320,192,16847,128,0,17047:0:0:0:0:
64,192,17047,128,0,17247:0:0:0:0:
320,192,17247,128,0,17447:0:0:0:0:
448,192,17447,128,0,18847:0:0:0:0:
64,192,17447,128,0,18247:0:0:0:0:
320,192,17847,1,0,0:0:0:0:
192,192,18047,1,0,0:0:0:0:
320,192,18447,5,0,0:0:0:0:
64,192,18847,1,0,0:0:0:0:
192,192,18897,1,0,0:0:0:0:
320,192,18947,1,0,0:0:0:0:
448,192,18997,1,0,0:0:0:0:
64,192,19047,1,0,0:0:0:0:
192,192,19097,1,0,0:0:0:0:
320,192,19147,1,0,0:0:0:0:
448,192,19197,1,0,0:0:0:0:
192,192,19247,1,0,0:0:0:0:
64,192,19247,128,0,19347:0:0:0:0:
64,192,19447,128,0,19647:0:0:0:0:
320,192,19547,1,0,0:0:0:0:
192,192,19647,128,0,19847:0:0:0:0:
448,192,19647,1,0,0:0:0:0:
448,192,19847,1,0,0:0:0:0:
320,192,19847,128,0,19947:0:0:0:0:
64,192,19947,128,0,20247:0:0:0:0:
192,192,20247,1,0,0:0:0:0:
448,192,20247,128,0,20447:0:0:0:0:
64,192,20447,1,0,0:0:0:0:
192,192,20447,1,0,0:0:0:0:
320,192,20447,128,0,20647:0:0:0:0:
448,192,20647,1,0,0:0:0:0:
192,192,20647,128,0,21047:0:0:0:0:
448,192,21047,128,0,21247:0:0:0:0:
64,192,21047,1,0,0:0:0:0:
192,192,21247,1,0,0:0:0:0:
64,192,21247,128,0,21447:0:0:0:0:
320,192,21347,1,0,0:0:0:0:
448,192,21347,1,0,0:0:0:0:
320,192,21547,128,0,22047:0:0:0:0:
192,192,21647,1,0,0:0:0:0:
64,192,21647,1,0,0:0:0:0:
64,192,22047,1,0,0:0:0:0:
448,192,22047,1,0,0:0:0:0:
320,192,22147,1,0,0:0:0:0:
192,192,22147,1,0,0:0:0:0:
320,192,22347,1,0,0:0:0:0:
192,192,22347,1,0,0:0:0:0:
64,192,22447,1,0,0:0:0:0:
448,192,22447,1,0,0:0:0:0:
192,192,22647,128,0,22847:0:0:0:0:
320,192,22747,1,0,0:0:0:0:
448,192,22847,128,0,23047:0:0:0:0:
64,192,22847,1,0,0:0:0:0:
192,192,23047,1,0,0:0:0:0:
64,192,23047,1,0,0:0:0:0:
448,192,23147,128,0,23247:0:0:0:0:
320,192,23247,128,0,23447:0:0:0:0:
192,192,23447,1,0,0:0:0:0:
64,192,23447,128,0,23647:0:0:0:0:
192,192,23647,128,0,23847:0:0:0:0:
448,192,23647,1,0,0:0:0:0:
320,192,23847,128,0,24647:0:0:0:0:
64,192,23847,1,0,0:0:0:0:
192,192,24247,1,0,0:0:0:0:
64,192,24247,1,0,0:0:0:0:
192,192,24447,1,0,0:0:0:0:
64,192,24547,1,0,0:0:0:0:
448,192,24547,1,0,0:0:0:0:
448,192,24847,1,0,0:0:0:0:
320,192,24847,1,0,0:0:0:0:
64,192,25247,1,0,0:0:0:0:
320,192,25247,1,0,0:0:0:0:
192,192,25347,1,0,0:0:0:0:
448,192,25347,1,0,0:0:0:0:
192,192,25547,1,0,0:0:0:0:
448,192,25547,1,0,0:0:0:0:
64,192,25647,1,0,0:0:0:0:
320,192,25647,1,0,0:0:0:0:
192,192,25747,1,0,0:0:0:0:
448,192,25847,1,0,0:0:0:0:
192,192,25947,1,0,0:0:0:0:
320,192,25947,1,0,0:0:0:0:
64,192,26047,1,0,0:0:0:0:
448,192,26047,1,0,0:0:0:0:
192,192,26147,1,0,0:0:0:0:
320,192,26247,1,0,0:0:0:0:
448,192,26247,1,0,0:0:0:0:
192,192,26347,1,0,0:0:0:0:
192,192,26547,1,0,0:0:0:0:
320,192,26647,1,0,0:0:0:0:
64,192,26647,1,0,0:0:0:0:
448,192,26747,1,0,0:0:0:0:
64,192,26847,1,0,0:0:0:0:
192,192,26847,1,0,0:0:0:0:
320,192,26947,1,0,0:0:0:0:
64,192,27047,1,0,0:0:0:0:
448,192,27047,1,0,0:0:0:0:
192,192,27147,1,0,0:0:0:0:
448,192,27247,1,0,0:0:0:0:
320,192,27247,1,0,0:0:0:0:
192,192,27347,1,0,0:0:0:0:
64,192,27447,1,0,0:0:0:0:
320,192,27447,1,0,0:0:0:0:
448,192,27547,1,0,0:0:0:0:
64,192,27647,1,0,0:0:0:0:
192,192,27647,1,0,0:0:0:0:
448,192,27747,1,0,0:0:0:0:
320,192,27747,1,0,0:0:0:0:
320,192,27947,1,0,0:0:0:0:
64,192,28047,1,0,0:0:0:0:
448,192,28047,1,0,0:0:0:0:
320,192,28147,1,0,0:0:0:0:
64,192,28247,1,0,0:0:0:0:
320,192,28347,1,0,0:0:0:0:
192,192,28447,1,0,0:0:0:0:
448,192,28447,1,0,0:0:0:0:
320,192,28547,1,0,0:0:0:0:
64,192,28547,1,0,0:0:0:0:
192,192,28647,1,0,0:0:0:0:
320,192,28747,1,0,0:0:0:0:
448,192,28747,1,0,0:0:0:0:
64,192,28847,1,0,0:0:0:0:
192,192,28847,1,0,0:0:0:0:
320,192,28947,1,0,0:0:0:0:
64,192,29047,1,0,0:0:0:0:
320,192,29147,1,0,0:0:0:0:
192,192,29147,1,0,0:0:0:0:
448,192,29247,1,0,0:0:0:0:
64,192,29247,1,0,0:0:0:0:
320,192,29347,1,0,0:0:0:0:
320,192,29547,1,0,0:0:0:0:
192,192,29647,1,0,0:0:0:0:
448,192,29647,1,0,0:0:0:0:
64,192,29747,1,0,0:0:0:0:
320,192,29847,1,0,0:0:0:0:
448,192,29847,1,0,0:0:0:0:
192,192,29947,1,0,0:0:0:0:
64,192,30047,1,0,0:0:0:0:
320,192,30047,1,0,0:0:0:0:
448,192,30147,1,0,0:0:0:0:
320,192,30247,1,0,0:0:0:0:
192,192,30247,1,0,0:0:0:0:
64,192,30347,1,0,0:0:0:0:
320,192,30447,1,0,0:0:0:0:
192,192,30547,1,0,0:0:0:0:
448,192,30647,1,0,0:0:0:0:
320,192,30647,1,0,0:0:0:0:
64,192,30747,1,0,0:0:0:0:
320,192,30847,1,0,0:0:0:0:
448,192,30847,1,0,0:0:0:0:
64,192,30947,1,0,0:0:0:0:
192,192,30947,1,0,0:0:0:0:
64,192,31147,1,0,0:0:0:0:
192,192,31247,1,0,0:0:0:0:
448,192,31247,1,0,0:0:0:0:
320,192,31347,1,0,0:0:0:0:
64,192,31447,1,0,0:0:0:0:
192,192,31547,1,0,0:0:0:0:
448,192,31647,1,0,0:0:0:0:
320,192,31647,1,0,0:0:0:0:
192,192,31747,1,0,0:0:0:0:
64,192,31747,1,0,0:0:0:0:
448,192,31847,1,0,0:0:0:0:
192,192,31947,1,0,0:0:0:0:
64,192,31947,1,0,0:0:0:0:
448,192,32047,1,0,0:0:0:0:
320,192,32047,1,0,0:0:0:0:
192,192,32147,1,0,0:0:0:0:
320,192,32247,1,0,0:0:0:0:
64,192,32347,1,0,0:0:0:0:
448,192,32347,1,0,0:0:0:0:
320,192,32447,1,0,0:0:0:0:
192,192,32447,1,0,0:0:0:0:
64,192,32547,1,0,0:0:0:0:
448,192,32647,1,0,0:0:0:0:
320,192,32647,1,0,0:0:0:0:
192,192,32747,1,0,0:0:0:0:
320,192,32847,1,0,0:0:0:0:
64,192,32947,1,0,0:0:0:0:
192,192,33047,1,0,0:0:0:0:
448,192,33047,1,0,0:0:0:0:
320,192,33147,1,0,0:0:0:0:
192,192,33247,1,0,0:0:0:0:
64,192,33247,1,0,0:0:0:0:
320,192,33347,1,0,0:0:0:0:
64,192,33447,1,0,0:0:0:0:
448,192,33447,1,0,0:0:0:0:
320,192,33547,1,0,0:0:0:0:
192,192,33647,1,0,0:0:0:0:
448,192,33747,1,0,0:0:0:0:
64,192,33847,1,0,0:0:0:0:
192,192,33847,1,0,0:0:0:0:
320,192,33947,1,0,0:0:0:0:
448,192,34047,1,0,0:0:0:0:
192,192,34047,1,0,0:0:0:0:
64,192,34147,1,0,0:0:0:0:
320,192,34147,1,0,0:0:0:0:
448,192,34247,1,0,0:0:0:0:
320,192,34347,1,0,0:0:0:0:
64,192,34447,1,0,0:0:0:0:
192,192,34447,1,0,0:0:0:0:
448,192,34547,1,0,0:0:0:0:
192,192,34647,1,0,0:0:0:0:
448,192,34747,1,0,0:0:0:0:
192,192,34847,1,0,0:0:0:0:
64,192,34847,1,0,0:0:0:0:
320,192,34947,1,0,0:0:0:0:
448,192,34947,1,0,0:0:0:0:
64,192,35047,1,0,0:0:0:0:
448,192,35147,1,0,0:0:0:0:
320,192,35147,1,0,0:0:0:0:
192,192,35247,1,0,0:0:0:0:
64,192,35247,1,0,0:0:0:0:
448,192,35347,1,0,0:0:0:0:
320,192,35447,1,0,0:0:0:0:
64,192,35547,1,0,0:0:0:0:
448,192,35547,1,0,0:0:0:0:
320,192,35647,1,0,0:0:0:0:
192,192,35647,1,0,0:0:0:0:
64,192,35747,1,0,0:0:0:0:
320,192,35847,1,0,0:0:0:0:
448,192,35847,1,0,0:0:0:0:
192,192,35947,1,0,0:0:0:0:
448,192,36047,1,0,0:0:0:0:
320,192,36147,1,0,0:0:0:0:
64,192,36247,1,0,0:0:0:0:
192,192,36247,1,0,0:0:0:0:
320,192,36347,1,0,0:0:0:0:
64,192,36447,1,0,0:0:0:0:
448,192,36447,1,0,0:0:0:0:
192,192,36547,1,0,0:0:0:0:
320,192,36647,1,0,0:0:0:0:
64,192,36647,1,0,0:0:0:0:
448,192,36747,1,0,0:0:0:0:
192,192,36847,1,0,0:0:0:0:
320,192,36947,1,0,0:0:0:0:
64,192,37047,1,0,0:0:0:0:
448,192,37047,1,0,0:0:0:0:
192,192,37147,1,0,0:0:0:0:
64,192,37247,1,0,0:0:0:0:
320,192,37247,1,0,0:0:0:0:
192,192,37347,1,0,0:0:0:0:
448,192,37347,1,0,0:0:0:0:
320,192,37447,1,0,0:0:0:0:
448,192,37547,1,0,0:0:0:0:
192,192,37647,1,0,0:0:0:0:
64,192,37647,1,0,0:0:0:0:
320,192,37747,1,0,0:0:0:0:
192,192,37847,1,0,0:0:0:0:
320,192,37947,1,0,0:0:0:0:
64,192,38047,1,0,0:0:0:0:
448,192,38047,1,0,0:0:0:0:
192,192,38147,1,0,0:0:0:0:
320,192,38147,1,0,0:0:0:0:
64,192,38247,1,0,0:0:0:0:
192,192,38347,1,0,0:0:0:0:
320,192,38347,1,0,0:0:0:0:
448,192,38447,1,0,0:0:0:0:
64,192,38447,1,0,0:0:0:0:
320,192,38447,1,0,0:0:0:0:
64,192,38647,1,0,0:0:0:0:
320,192,38647,1,0,0:0:0:0:
448,192,38647,1,0,0:0:0:0:
448,192,38847,128,0,38947:0:0:0:0:
320,192,38947,128,0,39047:0:0:0:0:
448,192,39047,128,0,39147:0:0:0:0:
320,192,39147,128,0,39247:0:0:0:0:
192,192,39247,128,0,39547:0:0:0:0:
320,192,39547,128,0,39847:0:0:0:0:
64,192,39847,1,0,0:0:0:0:
192,192,39847,1,0,0:0:0:0:
448,192,39847,1,0,0:0:0:0:
448,192,40247,1,0,0:0:0:0:
64,192,40247,1,0,0:0:0:0:
320,192,40247,1,0,0:0:0:0:
64,192,40447,128,0,40547:0:0:0:0:
192,192,40547,128,0,40647:0:0:0:0:
64,192,40647,128,0,40747:0:0:0:0:
192,192,40747,128,0,40847:0:0:0:0:
320,192,40847,128,0,41147:0:0:0:0:
64,192,41147,128,0,41447:0:0:0:0:
448,192,41247,1,0,0:0:0:0:
192,192,41647,1,0,0:0:0:0:
320,192,41647,1,0,0:0:0:0:
448,192,41647,1,0,0:0:0:0:
192,192,41847,1,0,0:0:0:0:
320,192,41847,1,0,0:0:0:0:
64,192,41847,1,0,0:0:0:0:
448,192,42047,128,0,42147:0:0:0:0:
320,192,42147,128,0,42247:0:0:0:0:
448,192,42247,128,0,42347:0:0:0:0:
320,192,42347,128,0,42447:0:0:0:0:
192,192,42447,128,0,42747:0:0:0:0:
320,192,42747,128,0,43047:0:0:0:0:
64,192,43047,1,0,0:0:0:0:
192,192,43047,1,0,0:0:0:0:
448,192,43047,1,0,0:0:0:0:
320,192,43447,1,0,0:0:0:0:
448,192,43447,1,0,0:0:0:0:
64,192,43447,1,0,0:0:0:0:
64,192,43647,128,0,43747:0:0:0:0:
192,192,43747,128,0,43847:0:0:0:0:
64,192,43847,128,0,43947:0:0:0:0:
192,192,43947,128,0,44047:0:0:0:0:
448,192,44047,1,0,0:0:0:0:
320,192,44047,128,0,44247:0:0:0:0:
64,192,44247,128,0,44447:0:0:0:0:
192,192,44247,1,0,0:0:0:0:
448,192,44347,1,0,0:0:0:0:
320,192,44447,128,0,44647:0:0:0:0:
192,192,44447,1,0,0:0:0:0:
64,192,44647,1,0,0:0:0:0:
192,192,44713,1,0,0:0:0:0:
320,192,44780,1,0,0:0:0:0:
64,192,44847,1,0,0:0:0:0:
192,192,44847,1,0,0:0:0:0:
448,192,44847,1,0,0:0:0:0:
64,192,45047,1,0,0:0:0:0:
320,192,45047,1,0,0:0:0:0:
448,192,45047,1,0,0:0:0:0:
192,192,45247,128,0,45347:0:0:0:0:
320,192,45347,128,0,45447:0:0:0:0:
192,192,45447,128,0,45547:0:0:0:0:
320,192,45547,128,0,45647:0:0:0:0:
64,192,45647,1,0,0:0:0:0:
192,192,45647,1,0,0:0:0:0:
448,192,45647,1,0,0:0:0:0:
64,192,45847,1,0,0:0:0:0:
320,192,45847,1,0,0:0:0:0:
448,192,45847,1,0,0:0:0:0:
192,192,46047,128,0,46147:0:0:0:0:
320,192,46147,128,0,46247:0:0:0:0:
192,192,46247,128,0,46347:0:0:0:0:
320,192,46347,128,0,46447:0:0:0:0:
64,192,46447,1,0,0:0:0:0:
192,192,46447,1,0,0:0:0:0:
448,192,46447,1,0,0:0:0:0:
192,192,46647,1,0,0:0:0:0:
320,192,46647,1,0,0:0:0:0:
448,192,46647,1,0,0:0:0:0:
64,192,46847,128,0,46947:0:0:0:0:
192,192,46947,128,0,47047:0:0:0:0:
64,192,47047,1,0,0:0:0:0:
448,192,47047,1,0,0:0:0:0:
320,192,47047,1,0,0:0:0:0:
192,192,47247,128,0,47347:0:0:0:0:
320,192,47347,128,0,47447:0:0:0:0:
192,192,47447,1,0,0:0:0:0:
448,192,47447,1,0,0:0:0:0:
64,192,47447,1,0,0:0:0:0:
320,192,47647,128,0,47747:0:0:0:0:
192,192,47647,1,0,0:0:0:0:
448,192,47747,128,0,47847:0:0:0:0:
64,192,47847,1,0,0:0:0:0:
320,192,47847,1,0,0:0:0:0:
192,192,47913,1,0,0:0:0:0:
320,192,47980,1,0,0:0:0:0:
448,192,48047,1,0,0:0:0:0:
64,192,48047,1,0,0:0:0:0:
192,192,48047,1,0,0:0:0:0:
320,192,48147,1,0,0:0:0:0:
192,192,48247,1,0,0:0:0:0:
64,192,48247,1,0,0:0:0:0:
320,192,48347,1,0,0:0:0:0:
192,192,48447,1,0,0:0:0:0:
448,192,48447,1,0,0:0:0:0:
64,192,48447,1,0,0:0:0:0:
320,192,48547,1,0,0:0:0:0:
192,192,48647,1,0,0:0:0:0:
448,192,48647,1,0,0:0:0:0:
64,192,48747,1,0,0:0:0:0:
320,192,48847,1,0,0:0:0:0:
448,192,48847,1,0,0:0:0:0:
192,192,48847,1,0,0:0:0:0:
64,192,48947,1,0,0:0:0:0:
320,192,49047,1,0,0:0:0:0:
448,192,49047,1,0,0:0:0:0:
192,192,49147,1,0,0:0:0:0:
320,192,49247,1,0,0:0:0:0:
64,192,49247,1,0,0:0:0:0:
448,192,49247,1,0,0:0:0:0:
192,192,49347,1,0,0:0:0:0:
64,192,49447,1,0,0:0:0:0:
448,192,49447,1,0,0:0:0:0:
320,192,49547,1,0,0:0:0:0:
192,192,49647,1,0,0:0:0:0:
64,192,49947,1,0,0:0:0:0:
448,192,50247,5,0,0:0:0:0:
192,192,50447,1,0,0:0:0:0:
448,192,50647,1,0,0:0:0:0:
320,192,50713,1,0,0:0:0:0:
192,192,50780,1,0,0:0:0:0:
448,192,50847,1,0,0:0:0:0:
64,192,50847,128,0,51047:0:0:0:0:
320,192,51047,128,0,51247:0:0:0:0:
64,192,51247,5,0,0:0:0:0:
192,192,51247,1,0,0:0:0:0:
448,192,51247,128,0,51447:0:0:0:0:
192,192,51447,1,0,0:0:0:0:
64,192,51647,1,0,0:0:0:0:
192,192,51647,128,0,51847:0:0:0:0:
320,192,51647,1,0,0:0:0:0:
448,192,51847,1,0,0:0:0:0:
64,192,52047,1,0,0:0:0:0:
192,192,52047,1,0,0:0:0:0:
320,192,52047,128,0,52247:0:0:0:0:
448,192,52247,1,0,0:0:0:0:
64,192,52347,128,0,52547:0:0:0:0:
192,192,52347,1,0,0:0:0:0:
320,192,52447,1,0,0:0:0:0:
448,192,52447,1,0,0:0:0:0:
64,192,52647,128,0,53647:0:0:0:0:
320,192,52647,1,0,0:0:0:0:
192,192,52647,1,0,0:0:0:0:
192,192,53047,1,0,0:0:0:0:
448,192,53047,1,0,0:0:0:0:
192,192,53247,1,0,0:0:0:0:
320,192,53247,1,0,0:0:0:0:
448,192,53247,1,0,0:0:0:0:
320,192,53647,1,0,0:0:0:0:
448,192,53647,1,0,0:0:0:0:
320,192,53847,1,0,0:0:0:0:
64,192,53847,1,0,0:0:0:0:
64,192,54047,1,0,0:0:0:0:
192,192,54047,1,0,0:0:0:0:
448,192,54047,1,0,0:0:0:0:
320,192,54147,128,0,54347:0:0:0:0:
448,192,54347,1,0,0:0:0:0:
64,192,54347,1,0,0:0:0:0:
192,192,54447,1,0,0:0:0:0:
64,192,54647,1,0,0:0:0:0:
320,192,54647,1,0,0:0:0:0:
448,192,54847,1,0,0:0:0:0:
192,192,54847,1,0,0:0:0:0:
64,192,54847,1,0,0:0:0:0:
320,192,55047,1,0,0:0:0:0:
448,192,55047,1,0,0:0:0:0:
192,192,55147,1,0,0:0:0:0:
64,192,55147,128,0,55447:0:0:0:0:
448,192,55447,1,0,0:0:0:0:
320,192,55447,1,0,0:0:0:0:
64,192,55647,1,0,0:0:0:0:
320,192,55647,1,0,0:0:0:0:
192,192,55647,1,0,0:0:0:0:
192,192,55847,1,0,0:0:0:0:
64,192,55947,1,0,0:0:0:0:
320,192,55947,128,0,56247:0:0:0:0:
192,192,56247,1,0,0:0:0:0:
448,192,56247,1,0,0:0:0:0:
64,192,56447,1,0,0:0:0:0:
192,192,56447,1,0,0:0:0:0:
320,192,56547,1,0,0:0:0:0:
448,192,56547,1,0,0:0:0:0:
192,192,56647,1,0,0:0:0:0:
64,192,56747,1,0,0:0:0:0:
448,192,56747,1,0,0:0:0:0:
192,192,56947,1,0,0:0:0:0:
448,192,56947,1,0,0:0:0:0:
64,192,57047,1,0,0:0:0:0:
320,192,57047,1,0,0:0:0:0:
192,192,57147,1,0,0:0:0:0:
448,192,57147,1,0,0:0:0:0:
64,192,57247,1,0,0:0:0:0:
320,192,57247,128,0,57447:0:0:0:0:
192,192,57447,128,0,57647:0:0:0:0:
448,192,57447,1,0,0:0:0:0:
448,192,57647,1,0,0:0:0:0:
64,192,57647,128,0,57847:0:0:0:0:
320,192,57647,1,0,0:0:0:0:
320,192,57847,1,0,0:0:0:0:
448,192,58047,1,0,0:0:0:0:
320,192,58047,128,0,58247:0:0:0:0:
64,192,58047,1,0,0:0:0:0:
192,192,58247,128,0,58447:0:0:0:0:
64,192,58447,128,0,58647:0:0:0:0:
320,192,58447,1,0,0:0:0:0:
192,192,58647,1,0,0:0:0:0:
448,192,58747,128,0,58947:0:0:0:0:
320,192,58747,1,0,0:0:0:0:
192,192,58847,1,0,0:0:0:0:
64,192,58847,1,0,0:0:0:0:
448,192,59047,1,0,0:0:0:0:
320,192,59047,128,0,60047:0:0:0:0:
192,192,59047,1,0,0:0:0:0:
64,192,59447,1,0,0:0:0:0:
448,192,59447,1,0,0:0:0:0:
192,192,59647,1,0,0:0:0:0:
64,192,59647,1,0,0:0:0:0:
448,192,59647,1,0,0:0:0:0:
64,192,60047,1,0,0:0:0:0:
448,192,60047,1,0,0:0:0:0:
320,192,60247,1,0,0:0:0:0:
192,192,60247,1,0,0:0:0:0:
64,192,60447,1,0,0:0:0:0:
448,192,60447,1,0,0:0:0:0:
320,192,60447,1,0,0:0:0:0:
192,192,60547,128,0,60747:0:0:0:0:
320,192,60747,1,0,0:0:0:0:
448,192,60747,1,0,0:0:0:0:
64,192,60847,1,0,0:0:0:0:
192,192,61047,1,0,0:0:0:0:
448,192,61047,1,0,0:0:0:0:
192,192,61247,1,0,0:0:0:0:
320,192,61247,1,0,0:0:0:0:
64,192,61247,1,0,0:0:0:0:
448,192,61447,1,0,0:0:0:0:
64,192,61447,1,0,0:0:0:0:
192,192,61547,1,0,0:0:0:0:
320,192,61547,128,0,61747:0:0:0:0:
448,192,61747,1,0,0:0:0:0:
64,192,61847,1,0,0:0:0:0:
320,192,61847,1,0,0:0:0:0:
192,192,62047,1,0,0:0:0:0:
64,192,62047,1,0,0:0:0:0:
320,192,62147,1,0,0:0:0:0:
448,192,62147,1,0,0:0:0:0:
320,192,62247,1,0,0:0:0:0:
448,192,62247,1,0,0:0:0:0:
64,192,62347,1,0,0:0:0:0:
192,192,62347,1,0,0:0:0:0:
64,192,62447,1,0,0:0:0:0:
320,192,62447,1,0,0:0:0:0:
448,192,62447,1,0,0:0:0:0:
192,192,62547,1,0,0:0:0:0:
320,192,62547,1,0,0:0:0:0:
64,192,62747,1,0,0:0:0:0:
448,192,62747,1,0,0:0:0:0:
192,192,62747,1,0,0:0:0:0:
192,192,62947,1,0,0:0:0:0:
320,192,62947,1,0,0:0:0:0:
448,192,62947,1,0,0:0:0:0:
192,192,63147,1,0,0:0:0:0:
320,192,63147,1,0,0:0:0:0:
64,192,63147,128,0,63547:0:0:0:0:
448,192,63347,1,0,0:0:0:0:
192,192,63447,1,0,0:0:0:0:
448,192,63513,1,0,0:0:0:0:
320,192,63580,1,0,0:0:0:0:
64,192,63647,1,0,0:0:0:0:
192,192,63647,128,0,63847:0:0:0:0:
320,192,63847,128,0,64047:0:0:0:0:
192,192,64047,1,0,0:0:0:0:
64,192,64047,1,0,0:0:0:0:
448,192,64047,128,0,64247:0:0:0:0:
192,192,64247,1,0,0:0:0:0:
192,192,64447,128,0,64647:0:0:0:0:
320,192,64447,1,0,0:0:0:0:
64,192,64447,1,0,0:0:0:0:
448,192,64647,1,0,0:0:0:0:
448,192,64847,128,0,65047:0:0:0:0:
192,192,64847,1,0,0:0:0:0:
64,192,64847,1,0,0:0:0:0:
320,192,65047,1,0,0:0:0:0:
64,192,65147,128,0,65347:0:0:0:0:
192,192,65147,1,0,0:0:0:0:
320,192,65247,1,0,0:0:0:0:
448,192,65247,1,0,0:0:0:0:
320,192,65447,1,0,0:0:0:0:
64,192,65447,128,0,66447:0:0:0:0:
192,192,65447,1,0,0:0:0:0:
192,192,65847,1,0,0:0:0:0:
448,192,65847,1,0,0:0:0:0:
192,192,66047,1,0,0:0:0:0:
320,192,66047,1,0,0:0:0:0:
448,192,66047,1,0,0:0:0:0:
320,192,66447,1,0,0:0:0:0:
448,192,66447,1,0,0:0:0:0:
192,192,66647,1,0,0:0:0:0:
320,192,66647,1,0,0:0:0:0:
192,192,66847,1,0,0:0:0:0:
64,192,66847,1,0,0:0:0:0:
448,192,66847,1,0,0:0:0:0:
320,192,66947,128,0,67147:0:0:0:0:
448,192,67147,1,0,0:0:0:0:
64,192,67147,1,0,0:0:0:0:
192,192,67247,1,0,0:0:0:0:
320,192,67447,1,0,0:0:0:0:
448,192,67447,1,0,0:0:0:0:
448,192,67647,1,0,0:0:0:0:
192,192,67647,1,0,0:0:0:0:
64,192,67647,1,0,0:0:0:0:
192,192,67847,1,0,0:0:0:0:
320,192,67847,1,0,0:0:0:0:
64,192,67947,128,0,68247:0:0:0:0:
448,192,67947,1,0,0:0:0:0:
320,192,68247,1,0,0:0:0:0:
448,192,68247,1,0,0:0:0:0:
64,192,68447,1,0,0:0:0:0:
192,192,68447,1,0,0:0:0:0:
320,192,68447,1,0,0:0:0:0:
64,192,68647,1,0,0:0:0:0:
448,192,68747,128,0,68947:0:0:0:0:
192,192,68747,1,0,0:0:0:0:
320,192,68947,1,0,0:0:0:0:
64,192,69047,1,0,0:0:0:0:
192,192,69047,1,0,0:0:0:0:
192,192,69147,1,0,0:0:0:0:
320,192,69247,1,0,0:0:0:0:
448,192,69247,1,0,0:0:0:0:
192,192,69347,1,0,0:0:0:0:
320,192,69347,1,0,0:0:0:0:
64,192,69447,1,0,0:0:0:0:
192,192,69547,1,0,0:0:0:0:
448,192,69547,1,0,0:0:0:0:
192,192,69747,1,0,0:0:0:0:
320,192,69747,1,0,0:0:0:0:
448,192,69847,1,0,0:0:0:0:
64,192,69847,1,0,0:0:0:0:
192,192,69947,1,0,0:0:0:0:
320,192,69947,1,0,0:0:0:0:
448,192,70047,128,0,70247:0:0:0:0:
64,192,70047,1,0,0:0:0:0:
192,192,70247,128,0,70447:0:0:0:0:
320,192,70247,1,0,0:0:0:0:
320,192,70447,1,0,0:0:0:0:
64,192,70447,128,0,70647:0:0:0:0:
448,192,70447,1,0,0:0:0:0:
448,192,70647,1,0,0:0:0:0:
192,192,70847,1,0,0:0:0:0:
64,192,70847,1,0,0:0:0:0:
320,192,70847,128,0,71047:0:0:0:0:
192,192,71047,128,0,71247:0:0:0:0:
64,192,71247,1,0,0:0:0:0:
448,192,71247,128,0,71447:0:0:0:0:
320,192,71247,1,0,0:0:0:0:
320,192,71447,1,0,0:0:0:0:
192,192,71547,128,0,71747:0:0:0:0:
64,192,71547,1,0,0:0:0:0:
320,192,71647,1,0,0:0:0:0:
448,192,71647,1,0,0:0:0:0:
64,192,71847,1,0,0:0:0:0:
320,192,71847,128,0,72847:0:0:0:0:
192,192,71847,1,0,0:0:0:0:
192,192,72247,1,0,0:0:0:0:
448,192,72247,1,0,0:0:0:0:
192,192,72447,1,0,0:0:0:0:
64,192,72447,1,0,0:0:0:0:
448,192,72447,1,0,0:0:0:0:
448,192,72847,1,0,0:0:0:0:
64,192,72847,1,0,0:0:0:0:
320,192,73047,1,0,0:0:0:0:
192,192,73047,1,0,0:0:0:0:
64,192,73247,1,0,0:0:0:0:
448,192,73247,1,0,0:0:0:0:
320,192,73247,1,0,0:0:0:0:
192,192,73347,128,0,73547:0:0:0:0:
448,192,73547,1,0,0:0:0:0:
320,192,73547,1,0,0:0:0:0:
192,192,73647,1,0,0:0:0:0:
64,192,73847,1,0,0:0:0:0:
320,192,73847,1,0,0:0:0:0:
192,192,74047,1,0,0:0:0:0:
64,192,74047,1,0,0:0:0:0:
448,192,74047,1,0,0:0:0:0:
320,192,74247,1,0,0:0:0:0:
448,192,74247,1,0,0:0:0:0:
192,192,74347,1,0,0:0:0:0:
64,192,74347,128,0,74547:0:0:0:0:
320,192,74547,1,0,0:0:0:0:
448,192,74647,1,0,0:0:0:0:
192,192,74647,1,0,0:0:0:0:
320,192,74847,1,0,0:0:0:0:
448,192,74847,1,0,0:0:0:0:
64,192,74947,1,0,0:0:0:0:
192,192,74947,1,0,0:0:0:0:
64,192,75047,1,0,0:0:0:0:
192,192,75047,1,0,0:0:0:0:
320,192,75147,1,0,0:0:0:0:
448,192,75147,1,0,0:0:0:0:
64,192,75247,1,0,0:0:0:0:
192,192,75247,1,0,0:0:0:0:
320,192,75347,1,0,0:0:0:0:
448,192,75347,1,0,0:0:0:0:
192,192,75347,1,0,0:0:0:0:
192,192,75547,1,0,0:0:0:0:
320,192,75547,1,0,0:0:0:0:
64,192,75547,1,0,0:0:0:0:
192,192,75747,1,0,0:0:0:0:
64,192,75747,1,0,0:0:0:0:
448,192,75747,1,0,0:0:0:0:
320,192,75947,1,0,0:0:0:0:
192,192,75947,1,0,0:0:0:0:
192,192,76147,1,0,0:0:0:0:
64,192,76247,1,0,0:0:0:0:
320,192,76247,1,0,0:0:0:0:
448,192,76247,1,0,0:0:0:0:
192,192,76347,1,0,0:0:0:0:
320,192,76447,1,0,0:0:0:0:
64,192,76447,1,0,0:0:0:0:
448,192,76447,1,0,0:0:0:0:
192,192,76647,1,0,0:0:0:0:
448,192,76647,1,0,0:0:0:0:
64,192,76847,1,0,0:0:0:0:
192,192,76847,1,0,0:0:0:0:
320,192,76947,1,0,0:0:0:0:
64,192,77047,1,0,0:0:0:0:
448,192,77147,1,0,0:0:0:0:
64,192,77247,1,0,0:0:0:0:
320,192,77347,1,0,0:0:0:0:
192,192,77447,1,0,0:0:0:0:
448,192,77547,1,0,0:0:0:0:
64,192,77647,1,0,0:0:0:0:
320,192,77747,1,0,0:0:0:0:
64,192,77847,1,0,0:0:0:0:
448,192,77947,1,0,0:0:0:0:
64,192,78047,1,0,0:0:0:0:
320,192,78147,1,0,0:0:0:0:
192,192,78247,1,0,0:0:0:0:
448,192,78347,1,0,0:0:0:0:
64,192,78447,1,0,0:0:0:0:
320,192,78547,1,0,0:0:0:0:
64,192,78647,1,0,0:0:0:0:
448,192,78747,1,0,0:0:0:0:
64,192,78847,1,0,0:0:0:0:
320,192,78947,1,0,0:0:0:0:
192,192,79047,1,0,0:0:0:0:
448,192,79147,1,0,0:0:0:0:
64,192,79247,1,0,0:0:0:0:
320,192,79347,1,0,0:0:0:0:
64,192,79447,1,0,0:0:0:0:
448,192,79547,1,0,0:0:0:0:
64,192,79647,1,0,0:0:0:0:
320,192,79747,1,0,0:0:0:0:
192,192,79847,1,0,0:0:0:0:
448,192,79947,1,0,0:0:0:0:
64,192,80047,128,0,81547:0:0:0:0:
192,192,80147,1,0,0:0:0:0:
320,192,80247,1,0,0:0:0:0:
448,192,80347,1,0,0:0:0:0:
192,192,80447,1,0,0:0:0:0:
448,192,80547,1,0,0:0:0:0:
320,192,80647,1,0,0:0:0:0:
192,192,80747,1,0,0:0:0:0:
448,192,80847,1,0,0:0:0:0:
192,192,80947,1,0,0:0:0:0:
320,192,81047,1,0,0:0:0:0:
448,192,81147,1,0,0:0:0:0:
192,192,81247,1,0,0:0:0:0:
448,192,81347,1,0,0:0:0:0:
320,192,81447,1,0,0:0:0:0:
192,192,81547,1,0,0:0:0:0:
64,192,81647,128,0,81699:0:0:0:0:
320,192,81647,128,0,81699:0:0:0:0:
448,192,81647,128,0,81699:0:0:0:0:
192,192,81804,5,0,0:0:0:0:
448,192,81962,128,0,82015:0:0:0:0:
320,192,81962,128,0,82015:0:0:0:0:
64,192,82120,1,0,0:0:0:0:
448,192,82278,128,0,82331:0:0:0:0:
192,192,82436,1,0,0:0:0:0:
320,192,82515,1,0,0:0:0:0:
448,192,82594,1,0,0:0:0:0:
64,192,82594,1,0,0:0:0:0:
192,192,82752,1,0,0:0:0:0:
64,192,82910,5,0,0:0:0:0:
448,192,82910,1,0,0:0:0:0:
320,192,82910,1,0,0:0:0:0:
192,192,83068,1,0,0:0:0:0:
64,192,83225,1,0,0:0:0:0:
320,192,83225,1,0,0:0:0:0:
64,192,83383,1,0,0:0:0:0:
192,192,83383,1,0,0:0:0:0:
448,192,83383,1,0,0:0:0:0:
320,192,83699,1,0,0:0:0:0:
448,192,83699,1,0,0:0:0:0:
192,192,83699,1,0,0:0:0:0:
320,192,83857,1,0,0:0:0:0:
64,192,83857,1,0,0:0:0:0:
64,192,84015,1,0,0:0:0:0:
448,192,84015,1,0,0:0:0:0:
192,192,84015,128,0,84331:0:0:0:0:
320,192,84331,1,0,0:0:0:0:
448,192,84331,1,0,0:0:0:0:
192,192,84410,1,0,0:0:0:0:
64,192,84489,1,0,0:0:0:0:
448,192,84489,1,0,0:0:0:0:
320,192,84647,1,0,0:0:0:0:
192,192,84647,1,0,0:0:0:0:
64,192,84647,1,0,0:0:0:0:
192,192,84804,1,0,0:0:0:0:
448,192,84804,1,0,0:0:0:0:
320,192,84883,1,0,0:0:0:0:
64,192,84883,1,0,0:0:0:0:
192,192,84962,1,0,0:0:0:0:
448,192,84962,1,0,0:0:0:0:
320,192,85120,1,0,0:0:0:0:
448,192,85120,1,0,0:0:0:0:
64,192,85278,1,0,0:0:0:0:
192,192,85436,1,0,0:0:0:0:
320,192,85436,1,0,0:0:0:0:
448,192,85436,1,0,0:0:0:0:
320,192,85594,1,0,0:0:0:0:
64,192,85752,1,0,0:0:0:0:
192,192,85752,1,0,0:0:0:0:
320,192,85910,1,0,0:0:0:0:
448,192,85910,1,0,0:0:0:0:
64,192,85910,1,0,0:0:0:0:
64,192,86225,1,0,0:0:0:0:
192,192,86225,1,0,0:0:0:0:
320,192,86225,1,0,0:0:0:0:
448,192,86383,1,0,0:0:0:0:
192,192,86383,1,0,0:0:0:0:
64,192,86541,1,0,0:0:0:0:
448,192,86541,1,0,0:0:0:0:
320,192,86541,128,0,86857:0:0:0:0:
448,192,86857,1,0,0:0:0:0:
192,192,86857,1,0,0:0:0:0:
320,192,86936,1,0,0:0:0:0:
192,192,87015,1,0,0:0:0:0:
64,192,87015,1,0,0:0:0:0:
448,192,87173,1,0,0:0:0:0:
320,192,87173,1,0,0:0:0:0:
192,192,87252,1,0,0:0:0:0:
320,192,87331,1,0,0:0:0:0:
64,192,87331,1,0,0:0:0:0:
192,192,87410,1,0,0:0:0:0:
320,192,87489,1,0,0:0:0:0:
448,192,87489,1,0,0:0:0:0:
64,192,87568,1,0,0:0:0:0:
192,192,87568,1,0,0:0:0:0:
320,192,87647,1,0,0:0:0:0:
448,192,87647,1,0,0:0:0:0:
192,192,87804,1,0,0:0:0:0:
320,192,87804,1,0,0:0:0:0:
192,192,87962,1,0,0:0:0:0:
64,192,87962,1,0,0:0:0:0:
448,192,87962,1,0,0:0:0:0:
64,192,88120,1,0,0:0:0:0:
320,192,88278,1,0,0:0:0:0:
448,192,88278,1,0,0:0:0:0:
192,192,88436,1,0,0:0:0:0:
64,192,88436,1,0,0:0:0:0:
320,192,88436,1,0,0:0:0:0:
64,192,88752,1,0,0:0:0:0:
448,192,88752,1,0,0:0:0:0:
320,192,88752,1,0,0:0:0:0:
192,192,88910,1,0,0:0:0:0:
320,192,88910,1,0,0:0:0:0:
64,192,89068,1,0,0:0:0:0:
448,192,89068,1,0,0:0:0:0:
192,192,89068,128,0,89383:0:0:0:0:
64,192,89383,1,0,0:0:0:0:
320,192,89383,1,0,0:0:0:0:
192,192,89541,1,0,0:0:0:0:
448,192,89541,1,0,0:0:0:0:
320,192,89699,1,0,0:0:0:0:
192,192,89699,1,0,0:0:0:0:
64,192,89857,1,0,0:0:0:0:
448,192,89857,1,0,0:0:0:0:
320,192,89857,1,0,0:0:0:0:
64,192,90015,1,0,0:0:0:0:
192,192,90015,1,0,0:0:0:0:
320,192,90094,1,0,0:0:0:0:
448,192,90094,1,0,0:0:0:0:
64,192,90173,1,0,0:0:0:0:
192,192,90173,1,0,0:0:0:0:
64,192,90331,1,0,0:0:0:0:
448,192,90331,1,0,0:0:0:0:
320,192,90410,1,0,0:0:0:0:
192,192,90410,1,0,0:0:0:0:
64,192,90489,1,0,0:0:0:0:
448,192,90489,1,0,0:0:0:0:
320,192,90647,1,0,0:0:0:0:
448,192,90647,1,0,0:0:0:0:
192,192,90647,1,0,0:0:0:0:
320,192,90804,1,0,0:0:0:0:
64,192,90804,1,0,0:0:0:0:
192,192,90804,1,0,0:0:0:0:
64,192,90962,1,0,0:0:0:0:
192,192,90962,1,0,0:0:0:0:
448,192,90962,1,0,0:0:0:0:
320,192,91120,1,0,0:0:0:0:
448,192,91120,1,0,0:0:0:0:
64,192,91199,1,0,0:0:0:0:
448,192,91278,1,0,0:0:0:0:
192,192,91278,1,0,0:0:0:0:
320,192,91278,1,0,0:0:0:0:
64,192,91436,1,0,0:0:0:0:
320,192,91436,1,0,0:0:0:0:
192,192,91594,1,0,0:0:0:0:
64,192,91594,1,0,0:0:0:0:
448,192,91594,128,0,91910:0:0:0:0:
320,192,91910,1,0,0:0:0:0:
192,192,91910,1,0,0:0:0:0:
64,192,91989,1,0,0:0:0:0:
320,192,92068,1,0,0:0:0:0:
448,192,92068,1,0,0:0:0:0:
320,192,92225,1,0,0:0:0:0:
192,192,92225,1,0,0:0:0:0:
192,192,92383,1,0,0:0:0:0:
64,192,92383,1,0,0:0:0:0:
448,192,92462,1,0,0:0:0:0:
320,192,92462,1,0,0:0:0:0:
192,192,92541,1,0,0:0:0:0:
448,192,92620,1,0,0:0:0:0:
320,192,92620,1,0,0:0:0:0:
192,192,92699,1,0,0:0:0:0:
64,192,92699,1,0,0:0:0:0:
64,192,92857,1,0,0:0:0:0:
448,192,92857,1,0,0:0:0:0:
192,192,93015,1,0,0:0:0:0:
320,192,93015,1,0,0:0:0:0:
448,192,93015,1,0,0:0:0:0:
64,192,93173,128,0,93331:0:0:0:0:
320,192,93173,1,0,0:0:0:0:
192,192,93331,1,0,0:0:0:0:
320,192,93331,1,0,0:0:0:0:
448,192,93331,1,0,0:0:0:0:
64,192,93489,128,0,93647:0:0:0:0:
192,192,93489,1,0,0:0:0:0:
320,192,93647,1,0,0:0:0:0:
448,192,93647,1,0,0:0:0:0:
64,192,93804,128,0,93962:0:0:0:0:
448,192,93804,1,0,0:0:0:0:
320,192,93962,1,0,0:0:0:0:
192,192,93962,1,0,0:0:0:0:
448,192,93962,1,0,0:0:0:0:
64,192,94120,128,0,94278:0:0:0:0:
192,192,94120,1,0,0:0:0:0:
320,192,94278,1,0,0:0:0:0:
448,192,94278,1,0,0:0:0:0:
64,192,94436,128,0,94594:0:0:0:0:
320,192,94436,1,0,0:0:0:0:
448,192,94515,1,0,0:0:0:0:
192,192,94594,1,0,0:0:0:0:
320,192,94594,1,0,0:0:0:0:
64,192,94752,128,0,94910:0:0:0:0:
448,192,94752,1,0,0:0:0:0:
192,192,94910,128,0,95068:0:0:0:0:
320,192,94910,128,0,95068:0:0:0:0:
448,192,95068,1,0,0:0:0:0:
320,192,95225,128,0,95383:0:0:0:0:
192,192,95225,128,0,95383:0:0:0:0:
64,192,95225,1,0,0:0:0:0:
448,192,95383,1,0,0:0:0:0:
64,192,95541,1,0,0:0:0:0:
320,192,95541,1,0,0:0:0:0:
448,192,95699,128,0,95857:0:0:0:0:
192,192,95699,1,0,0:0:0:0:
64,192,95857,1,0,0:0:0:0:
192,192,95857,1,0,0:0:0:0:
320,192,95857,1,0,0:0:0:0:
448,192,96015,128,0,96173:0:0:0:0:
320,192,96015,1,0,0:0:0:0:
192,192,96173,1,0,0:0:0:0:
64,192,96173,1,0,0:0:0:0:
448,192,96331,128,0,96489:0:0:0:0:
64,192,96331,1,0,0:0:0:0:
64,192,96489,1,0,0:0:0:0:
192,192,96489,1,0,0:0:0:0:
320,192,96489,1,0,0:0:0:0:
448,192,96647,128,0,96804:0:0:0:0:
320,192,96647,1,0,0:0:0:0:
64,192,96804,1,0,0:0:0:0:
192,192,96804,1,0,0:0:0:0:
448,192,96962,128,0,97120:0:0:0:0:
64,192,96962,1,0,0:0:0:0:
192,192,97041,1,0,0:0:0:0:
64,192,97120,1,0,0:0:0:0:
320,192,97120,1,0,0:0:0:0:
448,192,97278,128,0,97436:0:0:0:0:
192,192,97278,1,0,0:0:0:0:
64,192,97436,1,0,0:0:0:0:
192,192,97436,1,0,0:0:0:0:
320,192,97436,1,0,0:0:0:0:
192,192,97594,128,0,97673:0:0:0:0:
320,192,97594,128,0,97673:0:0:0:0:
192,192,97752,128,0,97831:0:0:0:0:
320,192,97752,128,0,97831:0:0:0:0:
448,192,97752,1,0,0:0:0:0:
192,192,97910,128,0,97989:0:0:0:0:
320,192,97910,128,0,97989:0:0:0:0:
192,192,98068,1,0,0:0:0:0:
448,192,98068,1,0,0:0:0:0:
64,192,98225,128,0,98383:0:0:0:0:
320,192,98225,1,0,0:0:0:0:
192,192,98383,1,0,0:0:0:0:
448,192,98383,1,0,0:0:0:0:
320,192,98383,1,0,0:0:0:0:
64,192,98541,128,0,98699:0:0:0:0:
192,192,98541,1,0,0:0:0:0:
320,192,98699,1,0,0:0:0:0:
448,192,98699,1,0,0:0:0:0:
64,192,98857,128,0,98936:0:0:0:0:
192,192,98857,1,0,0:0:0:0:
64,192,99015,128,0,99094:0:0:0:0:
448,192,99015,1,0,0:0:0:0:
64,192,99173,128,0,99331:0:0:0:0:
192,192,99173,1,0,0:0:0:0:
320,192,99173,128,0,99489:0:0:0:0:
448,192,99331,1,0,0:0:0:0:
192,192,99489,1,0,0:0:0:0:
320,192,99568,1,0,0:0:0:0:
448,192,99647,1,0,0:0:0:0:
192,192,99647,1,0,0:0:0:0:
64,192,99647,1,0,0:0:0:0:
320,192,99804,1,0,0:0:0:0:
192,192,99883,1,0,0:0:0:0:
320,192,99962,1,0,0:0:0:0:
64,192,99962,1,0,0:0:0:0:
192,192,100120,1,0,0:0:0:0:
320,192,100199,1,0,0:0:0:0:
192,192,100278,128,0,100594:0:0:0:0:
448,192,100278,1,0,0:0:0:0:
64,192,100594,1,0,0:0:0:0:
448,192,100594,1,0,0:0:0:0:
192,192,100752,1,0,0:0:0:0:
320,192,100752,1,0,0:0:0:0:
448,192,100752,1,0,0:0:0:0:
64,192,100910,1,0,0:0:0:0:
192,192,100910,1,0,0:0:0:0:
320,192,100910,1,0,0:0:0:0:
192,192,101068,1,0,0:0:0:0:
64,192,101068,1,0,0:0:0:0:
320,192,101068,1,0,0:0:0:0:
448,192,101068,1,0,0:0:0:0:
320,192,101225,1,0,0:0:0:0:
448,192,101225,1,0,0:0:0:0:
192,192,101304,1,0,0:0:0:0:
64,192,101304,1,0,0:0:0:0:
320,192,101383,1,0,0:0:0:0:
448,192,101383,1,0,0:0:0:0:
192,192,101541,1,0,0:0:0:0:
320,192,101541,1,0,0:0:0:0:
64,192,101699,1,0,0:0:0:0:
192,192,101699,1,0,0:0:0:0:
448,192,101699,1,0,0:0:0:0:
320,192,101699,128,0,102804:0:0:0:0:
192,192,102015,1,0,0:0:0:0:
64,192,102173,1,0,0:0:0:0:
448,192,102173,1,0,0:0:0:0:
64,192,102331,1,0,0:0:0:0:
448,192,102331,1,0,0:0:0:0:
192,192,102489,1,0,0:0:0:0:
64,192,102489,1,0,0:0:0:0:
448,192,102568,1,0,0:0:0:0:
64,192,102647,1,0,0:0:0:0:
192,192,102647,1,0,0:0:0:0:
448,192,102725,1,0,0:0:0:0:
64,192,102804,1,0,0:0:0:0:
192,192,102844,1,0,0:0:0:0:
320,192,102883,1,0,0:0:0:0:
448,192,102923,1,0,0:0:0:0:
64,192,102962,1,0,0:0:0:0:
192,192,103002,1,0,0:0:0:0:
320,192,103041,1,0,0:0:0:0:
448,192,103081,1,0,0:0:0:0:
64,192,103120,1,0,0:0:0:0:
192,192,103120,1,0,0:0:0:0:
320,192,103278,1,0,0:0:0:0:
192,192,103436,1,0,0:0:0:0:
320,192,103436,1,0,0:0:0:0:
448,192,103436,1,0,0:0:0:0:
192,192,103594,1,0,0:0:0:0:
64,192,103594,1,0,0:0:0:0:
320,192,103673,1,0,0:0:0:0:
448,192,103752,1,0,0:0:0:0:
64,192,103910,1,0,0:0:0:0:
320,192,103910,1,0,0:0:0:0:
192,192,104068,1,0,0:0:0:0:
448,192,104068,1,0,0:0:0:0:
64,192,104225,1,0,0:0:0:0:
320,192,104225,1,0,0:0:0:0:
448,192,104225,1,0,0:0:0:0:
192,192,104304,128,0,104541:0:0:0:0:
320,192,104541,1,0,0:0:0:0:
192,192,104699,1,0,0:0:0:0:
448,192,104699,1,0,0:0:0:0:
64,192,104699,1,0,0:0:0:0:
320,192,104857,1,0,0:0:0:0:
448,192,104857,1,0,0:0:0:0:
192,192,104936,1,0,0:0:0:0:
64,192,105015,1,0,0:0:0:0:
320,192,105015,1,0,0:0:0:0:
192,192,105094,1,0,0:0:0:0:
448,192,105094,1,0,0:0:0:0:
64,192,105173,1,0,0:0:0:0:
320,192,105173,1,0,0:0:0:0:
448,192,105252,1,0,0:0:0:0:
64,192,105331,1,0,0:0:0:0:
192,192,105331,1,0,0:0:0:0:
320,192,105331,1,0,0:0:0:0:
192,192,105489,1,0,0:0:0:0:
64,192,105647,1,0,0:0:0:0:
448,192,105647,1,0,0:0:0:0:
320,192,105725,1,0,0:0:0:0:
192,192,105804,1,0,0:0:0:0:
320,192,105883,1,0,0:0:0:0:
192,192,105962,1,0,0:0:0:0:
64,192,105962,1,0,0:0:0:0:
448,192,105962,1,0,0:0:0:0:
320,192,106120,1,0,0:0:0:0:
192,192,106120,1,0,0:0:0:0:
448,192,106199,128,0,106357:0:0:0:0:
64,192,106357,1,0,0:0:0:0:
320,192,106357,1,0,0:0:0:0:
192,192,106515,1,0,0:0:0:0:
320,192,106594,1,0,0:0:0:0:
448,192,106594,1,0,0:0:0:0:
64,192,106673,1,0,0:0:0:0:
192,192,106752,1,0,0:0:0:0:
448,192,106752,1,0,0:0:0:0:
320,192,106831,1,0,0:0:0:0:
192,192,106910,1,0,0:0:0:0:
64,192,106910,1,0,0:0:0:0:
448,192,106989,1,0,0:0:0:0:
320,192,107068,1,0,0:0:0:0:
192,192,107068,1,0,0:0:0:0:
448,192,107147,1,0,0:0:0:0:
320,192,107225,1,0,0:0:0:0:
64,192,107225,128,0,107383:0:0:0:0:
448,192,107383,1,0,0:0:0:0:
192,192,107383,1,0,0:0:0:0:
320,192,107462,1,0,0:0:0:0:
64,192,107541,1,0,0:0:0:0:
192,192,107541,1,0,0:0:0:0:
448,192,107541,1,0,0:0:0:0:
320,192,107620,1,0,0:0:0:0:
64,192,107699,1,0,0:0:0:0:
192,192,107699,1,0,0:0:0:0:
320,192,107778,1,0,0:0:0:0:
448,192,107778,1,0,0:0:0:0:
64,192,107857,1,0,0:0:0:0:
192,192,107857,1,0,0:0:0:0:
192,192,108015,1,0,0:0:0:0:
320,192,108015,1,0,0:0:0:0:
64,192,108173,1,0,0:0:0:0:
448,192,108173,1,0,0:0:0:0:
320,192,108173,128,0,108804:0:0:0:0:
192,192,108331,1,0,0:0:0:0:
64,192,108489,1,0,0:0:0:0:
448,192,108489,1,0,0:0:0:0:
192,192,108489,1,0,0:0:0:0:
64,192,108647,1,0,0:0:0:0:
448,192,108647,1,0,0:0:0:0:
192,192,108883,1,0,0:0:0:0:
64,192,108962,1,0,0:0:0:0:
320,192,108962,1,0,0:0:0:0:
448,192,109041,1,0,0:0:0:0:
64,192,109120,1,0,0:0:0:0:
320,192,109120,1,0,0:0:0:0:
192,192,109120,1,0,0:0:0:0:
448,192,109278,1,0,0:0:0:0:
192,192,109278,1,0,0:0:0:0:
64,192,109436,1,0,0:0:0:0:
448,192,109436,1,0,0:0:0:0:
64,192,109594,1,0,0:0:0:0:
192,192,109594,1,0,0:0:0:0:
192,192,109752,1,0,0:0:0:0:
320,192,109752,1,0,0:0:0:0:
448,192,109752,1,0,0:0:0:0:
64,192,109910,1,0,0:0:0:0:
320,192,109910,1,0,0:0:0:0:
192,192,109989,1,0,0:0:0:0:
64,192,110068,1,0,0:0:0:0:
320,192,110068,1,0,0:0:0:0:
448,192,110068,1,0,0:0:0:0:
192,192,110147,1,0,0:0:0:0:
64,192,110225,1,0,0:0:0:0:
448,192,110225,1,0,0:0:0:0:
192,192,110304,1,0,0:0:0:0:
320,192,110304,1,0,0:0:0:0:
64,192,110383,1,0,0:0:0:0:
448,192,110383,1,0,0:0:0:0:
320,192,110462,1,0,0:0:0:0:
192,192,110541,1,0,0:0:0:0:
64,192,110541,1,0,0:0:0:0:
320,192,110620,1,0,0:0:0:0:
448,192,110620,1,0,0:0:0:0:
64,192,110699,1,0,0:0:0:0:
192,192,110699,1,0,0:0:0:0:
448,192,110778,1,0,0:0:0:0:
64,192,110857,1,0,0:0:0:0:
320,192,110857,1,0,0:0:0:0:
192,192,110936,1,0,0:0:0:0:
64,192,111015,1,0,0:0:0:0:
448,192,111015,1,0,0:0:0:0:
320,192,111094,1,0,0:0:0:0:
192,192,111173,1,0,0:0:0:0:
448,192,111173,1,0,0:0:0:0:
64,192,111252,1,0,0:0:0:0:
320,192,111331,1,0,0:0:0:0:
448,192,111331,1,0,0:0:0:0:
192,192,111410,1,0,0:0:0:0:
64,192,111410,1,0,0:0:0:0:
320,192,111489,1,0,0:0:0:0:
448,192,111489,1,0,0:0:0:0:
192,192,111568,1,0,0:0:0:0:
64,192,111647,1,0,0:0:0:0:
448,192,111647,1,0,0:0:0:0:
192,192,111725,5,0,0:0:0:0:
64,192,111804,1,0,0:0:0:0:
320,192,111804,1,0,0:0:0:0:
448,192,111883,1,0,0:0:0:0:
192,192,111962,128,0,112515:0:0:0:0:
64,192,112120,1,0,0:0:0:0:
320,192,112120,1,0,0:0:0:0:
64,192,112278,1,0,0:0:0:0:
448,192,112278,1,0,0:0:0:0:
320,192,112436,1,0,0:0:0:0:
320,192,112515,1,0,0:0:0:0:
64,192,112594,128,0,112752:0:0:0:0:
192,192,112594,128,0,112752:0:0:0:0:
448,192,112594,128,0,112752:0:0:0:0:
320,192,112910,1,0,0:0:0:0:
