osu file format v14

[General]
AudioFilename: audio.mp3
AudioLeadIn: 0
PreviewTime: 250255
Countdown: 0
SampleSet: Normal
StackLeniency: 0.7
Mode: 1
LetterboxInBreaks: 0
WidescreenStoryboard: 0

[Editor]
Bookmarks: 1256,5256,15922,26589,37255,47922,58589,69255,79922,90589,101255,111922,122589,133255,143922,154589,164589,165255,174589,175922,186589,197255,207922,218589,229255,239922,250589,260589,261255,270589,271922,282589,293255,303922,314422
DistanceSpacing: 1
BeatDivisor: 4
GridSize: 32
TimelineZoom: 2.4

[Metadata]
Title:Pump up UR NRG
TitleUnicode:Pump up UR NRG
Artist:t+pazolite
ArtistUnicode:t+pazolite
Creator:eiri-
Version:Adrenaline Rush
Source:
Tags:Ayyri Electronic Instrumental Answer From X Girlz C.H.S CHS CHS-0011 tpz HARDCORE TANO*C M3-29 Your Energy
BeatmapID:2282158
BeatmapSetID:1091632

[Difficulty]
HPDrainRate:5
CircleSize:2
OverallDifficulty:6
ApproachRate:10
SliderMultiplier:1.4
SliderTickRate:1

[Events]
//Background and Video events
0,0,"Pump up UR NRG.jpg",0,0
//Break Periods
//Storyboard Layer 0 (Background)
//Storyboard Layer 1 (Fail)
//Storyboard Layer 2 (Pass)
//Storyboard Layer 3 (Foreground)
//Storyboard Layer 4 (Overlay)
//Storyboard Sound Samples

[TimingPoints]
1256,333.333333333333,4,1,0,25,1,0
2255,-100,4,1,0,30,0,0
2589,-100,4,1,0,35,0,0
2922,-100,4,1,0,40,0,0
3255,-100,4,1,0,45,0,0
3589,-100,4,1,0,50,0,0
3922,-100,4,1,0,55,0,0
4255,-100,4,1,0,60,0,0
4589,-100,4,1,0,70,0,0
5255,-100,4,1,0,75,0,0
71922,-125,4,1,0,75,0,0
74588,-120.481927710843,4,1,0,75,0,0
77255,-117.647058823529,4,1,0,75,0,0
78588,-114.942528735632,4,1,0,75,0,0
79922,-111.111111111111,4,1,0,75,0,0
90588,-105.263157894737,4,1,0,75,0,0
101255,-106.382978723404,4,1,0,75,0,0
101422,-107.52688172043,4,1,0,75,0,0
101588,-108.695652173913,4,1,0,75,0,0
101755,-109.89010989011,4,1,0,75,0,0
101922,-111.111111111111,4,1,0,75,0,0
111922,-105.263157894737,4,1,0,75,0,0
122255,-104.166666666667,4,1,0,75,0,0
122338,-103.092783505155,4,1,0,75,0,0
122422,-102.040816326531,4,1,0,75,0,0
122505,-101.010101010101,4,1,0,75,0,0
122588,-100,4,1,0,75,0,0
135922,-95.2380952380952,4,1,0,75,0,0
136088,-90.9090909090909,4,1,0,75,0,0
136172,-90.0900900900901,4,1,0,75,0,0
136255,-89.2857142857143,4,1,0,75,0,0
136422,-86.9565217391304,4,1,0,75,0,0
136505,-86.2068965517241,4,1,0,75,0,0
136589,-85.4700854700855,4,1,0,75,0,0
136755,-83.3333333333333,4,1,0,75,0,0
136839,-82.6446280991736,4,1,0,75,0,0
136922,-81.9672131147541,4,1,0,75,0,0
137088,-80,4,1,0,75,0,0
137172,-79.3650793650794,4,1,0,75,0,0
137255,-78.7401574803149,4,1,0,75,0,0
137422,-76.9230769230769,4,1,0,75,0,0
137505,-76.3358778625954,4,1,0,75,0,0
137589,-75.7575757575758,4,1,0,75,0,0
137755,-74.0740740740741,4,1,0,75,0,0
137839,-73.5294117647059,4,1,0,75,0,0
137922,-72.992700729927,4,1,0,75,0,0
138088,-71.4285714285714,4,1,0,75,0,0
138172,-70.9219858156028,4,1,0,75,0,0
138255,-70.4225352112676,4,1,0,75,0,0
138422,-76.9230769230769,4,1,0,75,0,0
138505,-77.5193798449612,4,1,0,75,0,0
138589,-78.125,4,1,0,75,0,0
138755,-83.3333333333333,4,1,0,75,0,0
138839,-84.0336134453781,4,1,0,75,0,0
138922,-84.7457627118644,4,1,0,75,0,0
139088,-86.9565217391304,4,1,0,75,0,0
139255,-90.9090909090909,4,1,0,75,0,0
139422,-95.2380952380952,4,1,0,75,0,0
139505,-97.0873786407767,4,1,0,75,0,0
139589,-100,4,1,0,75,0,0
141255,-95.2380952380952,4,1,0,75,0,0
141422,-90.9090909090909,4,1,0,75,0,0
141505,-90.0900900900901,4,1,0,75,0,0
141589,-89.2857142857143,4,1,0,75,0,0
141755,-86.9565217391304,4,1,0,75,0,0
141839,-86.2068965517241,4,1,0,75,0,0
141922,-85.4700854700855,4,1,0,75,0,0
142088,-83.3333333333333,4,1,0,75,0,0
142172,-82.6446280991736,4,1,0,75,0,0
142255,-81.9672131147541,4,1,0,75,0,0
142422,-86.9565217391304,4,1,0,75,0,0
142505,-87.719298245614,4,1,0,75,0,0
142589,-88.4955752212389,4,1,0,75,0,0
142672,-89.2857142857143,4,1,0,75,0,0
142755,-90.0900900900901,4,1,0,75,0,0
142922,-90.9090909090909,4,1,0,75,0,0
143005,-92.5925925925926,4,1,0,75,0,0
143172,-94.3396226415094,4,1,0,75,0,0
143255,-95.2380952380952,4,1,0,75,0,0
143311,-96.1538461538461,4,1,0,75,0,0
143366,-97.0873786407767,4,1,0,75,0,0
143422,-98.0392156862745,4,1,0,75,0,0
143588,-99.009900990099,4,1,0,75,0,0
143922,-100,4,1,0,75,0,0
146588,-95.2380952380952,4,1,0,75,0,0
146755,-90.9090909090909,4,1,0,75,0,0
146839,-90.0900900900901,4,1,0,75,0,0
146922,-89.2857142857143,4,1,0,75,0,0
147088,-86.9565217391304,4,1,0,75,0,0
147172,-86.2068965517241,4,1,0,75,0,0
147255,-85.4700854700855,4,1,0,75,0,0
147422,-83.3333333333333,4,1,0,75,0,0
147505,-82.6446280991736,4,1,0,75,0,0
147589,-81.9672131147541,4,1,0,75,0,0
147755,-80,4,1,0,75,0,0
147839,-79.3650793650794,4,1,0,75,0,0
147922,-78.7401574803149,4,1,0,75,0,0
148088,-76.9230769230769,4,1,0,75,0,0
148172,-76.3358778625954,4,1,0,75,0,0
148255,-75.7575757575758,4,1,0,75,0,0
148422,-74.0740740740741,4,1,0,75,0,0
148505,-73.5294117647059,4,1,0,75,0,0
148589,-72.992700729927,4,1,0,75,0,0
148755,-71.4285714285714,4,1,0,75,0,0
148839,-70.9219858156028,4,1,0,75,0,0
148922,-70.4225352112676,4,1,0,75,0,0
149088,-76.9230769230769,4,1,0,75,0,0
149172,-77.5193798449612,4,1,0,75,0,0
149255,-78.125,4,1,0,75,0,0
149422,-83.3333333333333,4,1,0,75,0,0
149505,-84.0336134453781,4,1,0,75,0,0
149589,-84.7457627118644,4,1,0,75,0,0
149755,-86.9565217391304,4,1,0,75,0,0
149922,-90.9090909090909,4,1,0,75,0,0
150089,-95.2380952380952,4,1,0,75,0,0
150172,-97.0873786407767,4,1,0,75,0,0
150255,-100,4,1,0,75,0,0
151922,-103.092783505155,4,1,0,75,0,0
152089,-105.263157894737,4,1,0,75,0,0
152172,-107.52688172043,4,1,0,75,0,0
152255,-111.111111111111,4,1,0,75,0,0
152422,-114.942528735632,4,1,0,75,0,0
152505,-117.647058823529,4,1,0,75,0,0
152672,-120.481927710843,4,1,0,75,0,0
152755,-117.647058823529,4,1,0,75,0,0
152839,-114.942528735632,4,1,0,75,0,0
152922,-111.111111111111,4,1,0,75,0,0
153005,-107.52688172043,4,1,0,75,0,0
153089,-105.263157894737,4,1,0,75,0,0
153172,-103.092783505155,4,1,0,75,0,0
153255,-100,4,1,0,75,0,0
154589,-100,4,1,0,75,0,1
164589,-100,4,1,0,75,0,0
165255,-100,4,1,0,75,0,1
174589,-100,4,1,0,75,0,0
174922,-105.263157894737,4,1,0,75,0,0
175255,-111.111111111111,4,1,0,75,0,0
175589,-117.647058823529,4,1,0,75,0,0
175922,-100,4,1,0,75,0,0
241172,-97.0873786407767,4,1,0,75,0,0
241255,-95.2380952380952,4,1,0,75,0,0
242505,-93.4579439252336,4,1,0,75,0,0
242588,-90.9090909090909,4,1,0,75,0,0
243838,-88.4955752212389,4,1,0,75,0,0
243922,-86.9565217391304,4,1,0,75,0,0
244922,-90.9090909090909,4,1,0,75,0,0
245005,-93.4579439252336,4,1,0,75,0,0
245172,-95.2380952380952,4,1,0,75,0,0
245255,-97.0873786407767,4,1,0,75,0,0
245422,-90.9090909090909,4,1,0,75,0,0
245505,-90.0900900900901,4,1,0,75,0,0
245589,-89.2857142857143,4,1,0,75,0,0
245755,-86.9565217391304,4,1,0,75,0,0
245839,-86.2068965517241,4,1,0,75,0,0
245922,-85.4700854700855,4,1,0,75,0,0
246088,-83.3333333333333,4,1,0,75,0,0
246172,-82.6446280991736,4,1,0,75,0,0
246255,-81.9672131147541,4,1,0,75,0,0
246422,-80,4,1,0,75,0,0
246505,-79.3650793650794,4,1,0,75,0,0
246589,-78.7401574803149,4,1,0,75,0,0
246755,-76.9230769230769,4,1,0,75,0,0
246839,-76.3358778625954,4,1,0,75,0,0
246922,-75.7575757575758,4,1,0,75,0,0
247088,-74.0740740740741,4,1,0,75,0,0
247172,-73.5294117647059,4,1,0,75,0,0
247255,-72.992700729927,4,1,0,75,0,0
247422,-71.4285714285714,4,1,0,75,0,0
247505,-70.9219858156028,4,1,0,75,0,0
247589,-70.4225352112676,4,1,0,75,0,0
247755,-68.9655172413793,4,1,0,75,0,0
247839,-68.0272108843537,4,1,0,75,0,0
247922,-66.6666666666667,4,1,0,75,0,0
249255,-62.5,4,1,0,75,0,0
250589,-80,4,1,0,75,0,1
250755,-86.9565217391304,4,1,0,75,0,1
250922,-88.4955752212389,4,1,0,75,0,1
251005,-89.2857142857143,4,1,0,75,0,1
251255,-90.9090909090909,4,1,0,75,0,1
251339,-91.743119266055,4,1,0,75,0,1
251505,-93.4579439252336,4,1,0,75,0,1
251589,-94.3396226415094,4,1,0,75,0,1
251755,-96.1538461538461,4,1,0,75,0,1
251839,-97.0873786407767,4,1,0,75,0,1
252005,-98.0392156862745,4,1,0,75,0,1
252089,-99.009900990099,4,1,0,75,0,1
252255,-100,4,1,0,75,0,1
260589,-100,4,1,0,75,0,0
261255,-100,4,1,0,75,0,1
270589,-100,4,1,0,75,0,0
274755,-95.2380952380952,4,1,0,75,0,0
274922,-90.9090909090909,4,1,0,75,0,0
275088,-86.9565217391304,4,1,0,75,0,0
275172,-85.4700854700855,4,1,0,75,0,0
275338,-83.3333333333333,4,1,0,75,0,0
275422,-81.3008130081301,4,1,0,75,0,0
275588,-80,4,1,0,75,0,0
275755,-76.9230769230769,4,1,0,75,0,0
275839,-75.7575757575758,4,1,0,75,0,0
275922,-75.187969924812,4,1,0,75,0,0
276005,-74.6268656716418,4,1,0,75,0,0
276089,-74.0740740740741,4,1,0,75,0,0
276255,-71.4285714285714,4,1,0,75,0,0
276422,-68.9655172413793,4,1,0,75,0,0
276505,-68.0272108843537,4,1,0,75,0,0
276672,-66.6666666666667,4,1,0,75,0,0
276755,-64.5161290322581,4,1,0,75,0,0
276922,-66.6666666666667,4,1,0,75,0,0
277005,-67.1140939597315,4,1,0,75,0,0
277089,-67.5675675675676,4,1,0,75,0,0
277172,-68.0272108843537,4,1,0,75,0,0
277255,-68.4931506849315,4,1,0,75,0,0
277422,-76.9230769230769,4,1,0,75,0,0
277505,-77.5193798449612,4,1,0,75,0,0
277589,-78.125,4,1,0,75,0,0
277755,-83.3333333333333,4,1,0,75,0,0
277922,-90.9090909090909,4,1,0,75,0,0
278088,-95.2380952380952,4,1,0,75,0,0
278172,-96.1538461538461,4,1,0,75,0,0
278255,-97.0873786407767,4,1,0,75,0,0
278422,-100,4,1,0,75,0,0
285422,-95.2380952380952,4,1,0,75,0,0
285588,-90.9090909090909,4,1,0,75,0,0
285755,-86.9565217391304,4,1,0,75,0,0
285839,-85.4700854700855,4,1,0,75,0,0
286005,-83.3333333333333,4,1,0,75,0,0
286089,-81.3008130081301,4,1,0,75,0,0
286255,-80,4,1,0,75,0,0
286422,-76.9230769230769,4,1,0,75,0,0
286505,-75.7575757575758,4,1,0,75,0,0
286589,-75.187969924812,4,1,0,75,0,0
286672,-74.6268656716418,4,1,0,75,0,0
286755,-74.0740740740741,4,1,0,75,0,0
286922,-71.4285714285714,4,1,0,75,0,0
287088,-68.9655172413793,4,1,0,75,0,0
287172,-68.0272108843537,4,1,0,75,0,0
287338,-66.6666666666667,4,1,0,75,0,0
287422,-64.5161290322581,4,1,0,75,0,0
287588,-66.6666666666667,4,1,0,75,0,0
287672,-67.1140939597315,4,1,0,75,0,0
287755,-67.5675675675676,4,1,0,75,0,0
287839,-68.0272108843537,4,1,0,75,0,0
287922,-68.4931506849315,4,1,0,75,0,0
288088,-76.9230769230769,4,1,0,75,0,0
288172,-77.5193798449612,4,1,0,75,0,0
288255,-78.125,4,1,0,75,0,0
288422,-83.3333333333333,4,1,0,75,0,0
288588,-90.9090909090909,4,1,0,75,0,0
288755,-95.2380952380952,4,1,0,75,0,0
288839,-96.1538461538461,4,1,0,75,0,0
288922,-97.0873786407767,4,1,0,75,0,0
289089,-100,4,1,0,75,0,0
291922,-100,4,1,0,75,0,0
292255,-105.263157894737,4,1,0,75,0,0
292589,-111.111111111111,4,1,0,75,0,0
292922,-117.647058823529,4,1,0,75,0,0
293255,-100,4,1,0,75,0,0
311922,-97.0873786407767,4,1,0,75,0,0
312089,-95.2380952380952,4,1,0,75,0,0
312172,-94.3396226415094,4,1,0,75,0,0
312339,-92.5925925925926,4,1,0,75,0,0
312422,-91.743119266055,4,1,0,75,0,0
312589,-90.0900900900901,4,1,0,75,0,0
312672,-89.2857142857143,4,1,0,75,0,0
312839,-87.719298245614,4,1,0,75,0,0
312922,-86.9565217391304,4,1,0,75,0,0
313089,-85.4700854700855,4,1,0,75,0,0
313172,-84.7457627118644,4,1,0,75,0,0
313255,-84.0336134453781,4,1,0,75,0,0
313422,-82.6446280991736,4,1,0,75,0,0
313589,-81.3008130081301,4,1,0,75,0,0
313672,-80.6451612903226,4,1,0,75,0,0
313839,-79.3650793650794,4,1,0,75,0,0
313922,-78.7401574803149,4,1,0,75,0,0
314089,-76.9230769230769,4,1,0,75,0,0
314172,-76.3358778625954,4,1,0,75,0,0
314255,-75.7575757575758,4,1,0,75,0,0
314339,-75.187969924812,4,1,0,75,0,0
314422,-74.0740740740741,4,1,0,75,0,0

[HitObjects]
256,192,2089,8,0,4422,0:0:0:0:
256,192,4589,5,0,0:0:0:0:
256,192,4755,1,8,0:0:0:0:
256,192,4922,1,0,0:0:0:0:
256,192,5089,1,8,0:0:0:0:
256,192,5255,1,0,0:0:0:0:
256,192,5339,1,0,0:0:0:0:
256,192,5422,1,8,0:0:0:0:
256,192,5589,1,0,0:0:0:0:
256,192,5672,1,8,0:0:0:0:
256,192,5839,1,0,0:0:0:0:
256,192,5922,1,8,0:0:0:0:
256,192,6089,1,0,0:0:0:0:
256,192,6172,1,8,0:0:0:0:
256,192,6255,1,8,0:0:0:0:
256,192,6422,1,8,0:0:0:0:
256,192,6589,1,0,0:0:0:0:
256,192,6672,1,0,0:0:0:0:
256,192,6755,1,8,0:0:0:0:
256,192,6922,1,0,0:0:0:0:
256,192,7005,1,8,0:0:0:0:
256,192,7172,1,0,0:0:0:0:
256,192,7255,1,8,0:0:0:0:
256,192,7422,1,8,0:0:0:0:
256,192,7505,1,8,0:0:0:0:
256,192,7589,1,0,0:0:0:0:
256,192,7755,1,8,0:0:0:0:
256,192,7922,1,0,0:0:0:0:
256,192,8005,1,0,0:0:0:0:
256,192,8089,1,8,0:0:0:0:
256,192,8255,1,0,0:0:0:0:
256,192,8339,1,8,0:0:0:0:
256,192,8505,1,0,0:0:0:0:
256,192,8589,1,8,0:0:0:0:
256,192,8755,1,0,0:0:0:0:
256,192,8839,1,8,0:0:0:0:
256,192,8922,1,8,0:0:0:0:
256,192,9089,1,8,0:0:0:0:
256,192,9255,1,8,0:0:0:0:
256,192,9339,1,0,0:0:0:0:
256,192,9422,1,8,0:0:0:0:
256,192,9589,1,8,0:0:0:0:
256,192,9672,1,8,0:0:0:0:
256,192,9839,1,0,0:0:0:0:
256,192,9922,1,8,0:0:0:0:
256,192,10005,1,0,0:0:0:0:
256,192,10089,1,8,0:0:0:0:
256,192,10255,1,8,0:0:0:0:
256,192,10339,1,8,0:0:0:0:
256,192,10422,1,8,0:0:0:0:
256,192,10505,1,0,0:0:0:0:
256,192,10589,1,8,0:0:0:0:
256,192,10755,1,8,0:0:0:0:
256,192,10922,1,0,0:0:0:0:
256,192,11005,1,8,0:0:0:0:
256,192,11172,1,0,0:0:0:0:
256,192,11255,1,8,0:0:0:0:
256,192,11422,1,0,0:0:0:0:
256,192,11505,1,8,0:0:0:0:
256,192,11589,1,8,0:0:0:0:
256,192,11755,1,8,0:0:0:0:
256,192,11922,1,0,0:0:0:0:
256,192,12005,1,0,0:0:0:0:
256,192,12089,1,8,0:0:0:0:
256,192,12255,1,0,0:0:0:0:
256,192,12339,1,8,0:0:0:0:
256,192,12505,1,0,0:0:0:0:
256,192,12589,1,8,0:0:0:0:
256,192,12755,1,8,0:0:0:0:
256,192,12839,1,8,0:0:0:0:
256,192,12922,1,0,0:0:0:0:
256,192,13089,1,8,0:0:0:0:
256,192,13255,1,8,0:0:0:0:
256,192,13339,1,0,0:0:0:0:
256,192,13422,1,8,0:0:0:0:
256,192,13589,1,8,0:0:0:0:
256,192,13672,1,8,0:0:0:0:
256,192,13755,1,0,0:0:0:0:
256,192,13922,1,8,0:0:0:0:
256,192,14005,1,0,0:0:0:0:
256,192,14089,1,8,0:0:0:0:
256,192,14255,1,0,0:0:0:0:
256,192,14339,1,8,0:0:0:0:
256,192,14422,1,8,0:0:0:0:
256,192,14589,1,8,0:0:0:0:
256,192,14672,1,0,0:0:0:0:
256,192,14755,1,8,0:0:0:0:
256,192,14839,1,0,0:0:0:0:
256,192,14922,1,8,0:0:0:0:
256,192,15005,1,8,0:0:0:0:
256,192,15089,1,8,0:0:0:0:
256,192,15255,1,8,0:0:0:0:
256,192,15339,1,0,0:0:0:0:
256,192,15422,1,8,0:0:0:0:
256,192,15505,1,0,0:0:0:0:
256,192,15589,1,8,0:0:0:0:
256,192,15672,1,8,0:0:0:0:
256,192,15755,1,0,0:0:0:0:
256,192,15839,1,0,0:0:0:0:
256,192,15922,1,12,0:0:0:0:
256,192,16089,1,0,0:0:0:0:
256,192,16255,1,8,0:0:0:0:
256,192,16339,1,8,0:0:0:0:
256,192,16422,1,0,0:0:0:0:
256,192,16589,1,8,0:0:0:0:
256,192,16672,1,0,0:0:0:0:
256,192,16839,1,8,0:0:0:0:
256,192,16922,1,0,0:0:0:0:
256,192,17005,1,0,0:0:0:0:
256,192,17089,1,8,0:0:0:0:
256,192,17255,1,8,0:0:0:0:
256,192,17339,1,0,0:0:0:0:
256,192,17422,1,8,0:0:0:0:
256,192,17589,1,8,0:0:0:0:
256,192,17672,1,8,0:0:0:0:
256,192,17755,1,0,0:0:0:0:
256,192,17922,1,0,0:0:0:0:
256,192,18005,1,8,0:0:0:0:
256,192,18089,1,0,0:0:0:0:
256,192,18172,1,0,0:0:0:0:
256,192,18255,1,8,0:0:0:0:
256,192,18422,1,0,0:0:0:0:
256,192,18589,1,8,0:0:0:0:
256,192,18755,1,0,0:0:0:0:
256,192,18922,1,8,0:0:0:0:
256,192,19005,1,8,0:0:0:0:
256,192,19089,1,0,0:0:0:0:
256,192,19255,1,8,0:0:0:0:
256,192,19339,1,0,0:0:0:0:
256,192,19505,1,8,0:0:0:0:
256,192,19589,1,0,0:0:0:0:
256,192,19672,1,0,0:0:0:0:
256,192,19755,1,8,0:0:0:0:
256,192,19922,1,8,0:0:0:0:
256,192,20005,1,8,0:0:0:0:
256,192,20089,1,0,0:0:0:0:
256,192,20255,1,8,0:0:0:0:
256,192,20422,1,0,0:0:0:0:
256,192,20589,1,8,0:0:0:0:
256,192,20672,1,8,0:0:0:0:
256,192,20755,1,0,0:0:0:0:
256,192,20922,1,0,0:0:0:0:
256,192,21005,1,0,0:0:0:0:
256,192,21089,1,0,0:0:0:0:
256,192,21172,1,0,0:0:0:0:
256,192,21255,1,8,0:0:0:0:
256,192,21422,1,0,0:0:0:0:
256,192,21589,1,8,0:0:0:0:
256,192,21672,1,8,0:0:0:0:
256,192,21755,1,0,0:0:0:0:
256,192,21922,1,0,0:0:0:0:
256,192,22005,1,8,0:0:0:0:
256,192,22089,1,0,0:0:0:0:
256,192,22255,1,8,0:0:0:0:
256,192,22339,1,8,0:0:0:0:
256,192,22422,1,8,0:0:0:0:
256,192,22505,1,8,0:0:0:0:
256,192,22589,1,0,0:0:0:0:
256,192,22755,1,8,0:0:0:0:
256,192,22922,1,0,0:0:0:0:
256,192,23005,1,8,0:0:0:0:
256,192,23089,1,8,0:0:0:0:
256,192,23255,1,0,0:0:0:0:
256,192,23339,1,8,0:0:0:0:
256,192,23422,1,0,0:0:0:0:
256,192,23589,1,8,0:0:0:0:
256,192,23672,1,8,0:0:0:0:
256,192,23755,1,0,0:0:0:0:
256,192,23839,1,8,0:0:0:0:
256,192,23922,1,0,0:0:0:0:
256,192,24089,1,8,0:0:0:0:
256,192,24255,1,8,0:0:0:0:
256,192,24339,1,0,0:0:0:0:
256,192,24422,1,8,0:0:0:0:
256,192,24589,1,0,0:0:0:0:
256,192,24755,1,8,0:0:0:0:
256,192,24839,1,8,0:0:0:0:
256,192,24922,1,0,0:0:0:0:
256,192,25089,1,0,0:0:0:0:
256,192,25172,1,0,0:0:0:0:
256,192,25255,1,8,0:0:0:0:
256,192,25339,1,0,0:0:0:0:
256,192,25422,1,8,0:0:0:0:
256,192,25505,1,0,0:0:0:0:
256,192,25589,1,8,0:0:0:0:
256,192,25672,1,8,0:0:0:0:
256,192,25755,1,0,0:0:0:0:
256,192,25811,1,0,0:0:0:0:
256,192,25867,1,0,0:0:0:0:
256,192,25922,1,8,0:0:0:0:
256,192,26089,1,0,0:0:0:0:
256,192,26255,1,8,0:0:0:0:
256,192,26422,1,0,0:0:0:0:
256,192,26589,1,12,0:0:0:0:
256,192,26755,1,0,0:0:0:0:
256,192,26839,1,8,0:0:0:0:
256,192,27005,1,0,0:0:0:0:
256,192,27089,1,8,0:0:0:0:
256,192,27255,1,8,0:0:0:0:
256,192,27339,1,8,0:0:0:0:
256,192,27505,1,0,0:0:0:0:
256,192,27589,1,8,0:0:0:0:
256,192,27755,1,0,0:0:0:0:
256,192,27839,1,8,0:0:0:0:
256,192,27922,1,0,0:0:0:0:
256,192,28089,1,0,0:0:0:0:
256,192,28255,1,8,0:0:0:0:
256,192,28339,1,0,0:0:0:0:
256,192,28422,1,8,0:0:0:0:
256,192,28589,1,8,0:0:0:0:
256,192,28672,1,0,0:0:0:0:
256,192,28839,1,8,0:0:0:0:
256,192,28922,1,0,0:0:0:0:
256,192,29005,1,0,0:0:0:0:
256,192,29089,1,8,0:0:0:0:
256,192,29255,1,8,0:0:0:0:
256,192,29422,1,0,0:0:0:0:
256,192,29505,1,8,0:0:0:0:
256,192,29672,1,0,0:0:0:0:
256,192,29755,1,8,0:0:0:0:
256,192,29922,1,8,0:0:0:0:
256,192,30005,1,8,0:0:0:0:
256,192,30172,1,0,0:0:0:0:
256,192,30255,1,8,0:0:0:0:
256,192,30422,1,0,0:0:0:0:
256,192,30505,1,8,0:0:0:0:
256,192,30589,1,0,0:0:0:0:
256,192,30755,1,0,0:0:0:0:
256,192,30922,1,8,0:0:0:0:
256,192,31005,1,0,0:0:0:0:
256,192,31089,1,8,0:0:0:0:
256,192,31255,1,8,0:0:0:0:
256,192,31367,1,0,0:0:0:0:
256,192,31478,1,0,0:0:0:0:
256,192,31589,1,8,0:0:0:0:
256,192,31672,1,0,0:0:0:0:
256,192,31755,1,8,0:0:0:0:
256,192,31839,1,0,0:0:0:0:
256,192,31922,1,8,0:0:0:0:
256,192,32089,1,0,0:0:0:0:
256,192,32172,1,8,0:0:0:0:
256,192,32339,1,0,0:0:0:0:
256,192,32422,1,8,0:0:0:0:
256,192,32589,1,8,0:0:0:0:
256,192,32672,1,8,0:0:0:0:
256,192,32839,1,0,0:0:0:0:
256,192,32922,1,8,0:0:0:0:
256,192,33089,1,0,0:0:0:0:
256,192,33172,1,8,0:0:0:0:
256,192,33255,1,0,0:0:0:0:
256,192,33422,1,0,0:0:0:0:
256,192,33589,1,8,0:0:0:0:
256,192,33672,1,0,0:0:0:0:
256,192,33755,1,8,0:0:0:0:
256,192,33922,1,8,0:0:0:0:
256,192,34005,1,0,0:0:0:0:
256,192,34172,1,8,0:0:0:0:
256,192,34255,1,0,0:0:0:0:
256,192,34339,1,0,0:0:0:0:
256,192,34422,1,8,0:0:0:0:
256,192,34589,1,8,0:0:0:0:
256,192,34755,1,0,0:0:0:0:
256,192,34839,1,8,0:0:0:0:
256,192,35005,1,0,0:0:0:0:
256,192,35089,1,8,0:0:0:0:
256,192,35255,1,8,0:0:0:0:
256,192,35339,1,8,0:0:0:0:
256,192,35505,1,0,0:0:0:0:
256,192,35589,1,8,0:0:0:0:
256,192,35755,1,0,0:0:0:0:
256,192,35839,1,8,0:0:0:0:
256,192,35922,1,0,0:0:0:0:
256,192,36089,1,0,0:0:0:0:
256,192,36255,1,8,0:0:0:0:
256,192,36339,1,0,0:0:0:0:
256,192,36422,1,8,0:0:0:0:
256,192,36589,1,8,0:0:0:0:
256,192,36700,1,0,0:0:0:0:
256,192,36811,1,0,0:0:0:0:
256,192,36922,1,8,0:0:0:0:
256,192,37005,1,0,0:0:0:0:
256,192,37089,1,8,0:0:0:0:
256,192,37172,1,0,0:0:0:0:
256,192,37255,1,12,0:0:0:0:
256,192,37422,1,0,0:0:0:0:
256,192,37505,1,8,0:0:0:0:
256,192,37672,1,8,0:0:0:0:
256,192,37755,1,0,0:0:0:0:
256,192,37922,1,8,0:0:0:0:
256,192,38005,1,8,0:0:0:0:
256,192,38089,1,0,0:0:0:0:
256,192,38172,1,0,0:0:0:0:
256,192,38255,1,8,0:0:0:0:
256,192,38422,1,8,0:0:0:0:
256,192,38505,1,0,0:0:0:0:
256,192,38672,1,0,0:0:0:0:
256,192,38755,1,8,0:0:0:0:
256,192,38922,1,8,0:0:0:0:
256,192,39005,1,0,0:0:0:0:
256,192,39172,1,0,0:0:0:0:
256,192,39255,1,8,0:0:0:0:
256,192,39422,1,0,0:0:0:0:
256,192,39505,1,8,0:0:0:0:
256,192,39589,1,8,0:0:0:0:
256,192,39755,1,8,0:0:0:0:
256,192,39922,1,0,0:0:0:0:
256,192,40089,1,0,0:0:0:0:
256,192,40172,1,8,0:0:0:0:
256,192,40339,1,8,0:0:0:0:
256,192,40422,1,0,0:0:0:0:
256,192,40589,1,8,0:0:0:0:
256,192,40672,1,8,0:0:0:0:
256,192,40755,1,0,0:0:0:0:
256,192,40839,1,0,0:0:0:0:
256,192,40922,1,8,0:0:0:0:
256,192,41089,1,8,0:0:0:0:
256,192,41172,1,0,0:0:0:0:
256,192,41339,1,0,0:0:0:0:
256,192,41422,1,8,0:0:0:0:
256,192,41589,1,8,0:0:0:0:
256,192,41672,1,0,0:0:0:0:
256,192,41839,1,0,0:0:0:0:
256,192,41922,1,8,0:0:0:0:
256,192,42005,1,0,0:0:0:0:
256,192,42089,1,8,0:0:0:0:
256,192,42172,1,8,0:0:0:0:
256,192,42255,1,0,0:0:0:0:
256,192,42422,1,8,0:0:0:0:
256,192,42589,1,0,0:0:0:0:
256,192,42755,1,0,0:0:0:0:
256,192,42839,1,8,0:0:0:0:
256,192,43005,1,8,0:0:0:0:
256,192,43089,1,0,0:0:0:0:
256,192,43255,1,8,0:0:0:0:
256,192,43339,1,8,0:0:0:0:
256,192,43422,1,0,0:0:0:0:
256,192,43505,1,0,0:0:0:0:
256,192,43589,1,8,0:0:0:0:
256,192,43755,1,8,0:0:0:0:
256,192,43839,1,0,0:0:0:0:
256,192,44005,1,0,0:0:0:0:
256,192,44089,1,8,0:0:0:0:
256,192,44255,1,8,0:0:0:0:
256,192,44339,1,0,0:0:0:0:
256,192,44505,1,0,0:0:0:0:
256,192,44589,1,8,0:0:0:0:
256,192,44755,1,8,0:0:0:0:
256,192,44839,1,8,0:0:0:0:
256,192,44922,1,0,0:0:0:0:
256,192,45089,1,8,0:0:0:0:
256,192,45255,1,0,0:0:0:0:
256,192,45422,1,0,0:0:0:0:
256,192,45505,1,8,0:0:0:0:
256,192,45589,1,0,0:0:0:0:
256,192,45672,1,8,0:0:0:0:
256,192,45755,1,8,0:0:0:0:
256,192,45922,1,8,0:0:0:0:
256,192,46005,1,8,0:0:0:0:
256,192,46089,1,0,0:0:0:0:
256,192,46172,1,0,0:0:0:0:
256,192,46255,1,8,0:0:0:0:
256,192,46422,1,8,0:0:0:0:
256,192,46505,1,0,0:0:0:0:
256,192,46589,1,8,0:0:0:0:
256,192,46672,1,0,0:0:0:0:
256,192,46755,1,8,0:0:0:0:
256,192,46839,1,8,0:0:0:0:
256,192,46922,1,0,0:0:0:0:
256,192,47005,1,0,0:0:0:0:
256,192,47089,1,8,0:0:0:0:
256,192,47144,1,0,0:0:0:0:
256,192,47200,1,0,0:0:0:0:
256,192,47255,1,8,0:0:0:0:
256,192,47422,1,0,0:0:0:0:
256,192,47505,1,8,0:0:0:0:
256,192,47589,1,8,0:0:0:0:
256,192,47755,1,0,0:0:0:0:
256,192,47922,1,12,0:0:0:0:
256,192,48089,1,0,0:0:0:0:
256,192,48172,1,8,0:0:0:0:
256,192,48339,1,8,0:0:0:0:
256,192,48422,1,0,0:0:0:0:
256,192,48589,1,0,0:0:0:0:
256,192,48672,1,8,0:0:0:0:
256,192,48755,1,0,0:0:0:0:
256,192,48839,1,0,0:0:0:0:
256,192,48922,1,8,0:0:0:0:
256,192,49089,1,8,0:0:0:0:
256,192,49172,1,0,0:0:0:0:
256,192,49339,1,0,0:0:0:0:
256,192,49422,1,8,0:0:0:0:
256,192,49589,1,8,0:0:0:0:
256,192,49672,1,0,0:0:0:0:
256,192,49839,1,0,0:0:0:0:
256,192,49922,1,8,0:0:0:0:
256,192,50089,1,8,0:0:0:0:
256,192,50172,1,8,0:0:0:0:
256,192,50339,1,0,0:0:0:0:
256,192,50422,1,8,0:0:0:0:
256,192,50589,1,0,0:0:0:0:
256,192,50755,1,0,0:0:0:0:
256,192,50839,1,8,0:0:0:0:
256,192,51005,1,8,0:0:0:0:
256,192,51089,1,0,0:0:0:0:
256,192,51255,1,0,0:0:0:0:
256,192,51339,1,8,0:0:0:0:
256,192,51422,1,0,0:0:0:0:
256,192,51505,1,8,0:0:0:0:
256,192,51589,1,8,0:0:0:0:
256,192,51755,1,8,0:0:0:0:
256,192,51839,1,0,0:0:0:0:
256,192,52005,1,0,0:0:0:0:
256,192,52089,1,8,0:0:0:0:
256,192,52255,1,8,0:0:0:0:
256,192,52339,1,0,0:0:0:0:
256,192,52505,1,0,0:0:0:0:
256,192,52589,1,8,0:0:0:0:
256,192,52755,1,8,0:0:0:0:
256,192,52839,1,8,0:0:0:0:
256,192,53005,1,0,0:0:0:0:
256,192,53089,1,8,0:0:0:0:
256,192,53255,1,0,0:0:0:0:
256,192,53422,1,0,0:0:0:0:
256,192,53505,1,8,0:0:0:0:
256,192,53672,1,8,0:0:0:0:
256,192,53755,1,0,0:0:0:0:
256,192,53922,1,0,0:0:0:0:
256,192,54005,1,8,0:0:0:0:
256,192,54089,1,0,0:0:0:0:
256,192,54172,1,0,0:0:0:0:
256,192,54255,1,8,0:0:0:0:
256,192,54422,1,8,0:0:0:0:
256,192,54505,1,0,0:0:0:0:
256,192,54672,1,0,0:0:0:0:
256,192,54755,1,8,0:0:0:0:
256,192,54922,1,8,0:0:0:0:
256,192,55005,1,0,0:0:0:0:
256,192,55172,1,0,0:0:0:0:
256,192,55255,1,8,0:0:0:0:
256,192,55422,1,8,0:0:0:0:
256,192,55505,1,8,0:0:0:0:
256,192,55672,1,0,0:0:0:0:
256,192,55755,1,8,0:0:0:0:
256,192,55922,1,0,0:0:0:0:
256,192,56089,1,0,0:0:0:0:
256,192,56172,1,8,0:0:0:0:
256,192,56339,1,8,0:0:0:0:
256,192,56422,1,0,0:0:0:0:
256,192,56589,1,0,0:0:0:0:
256,192,56672,1,8,0:0:0:0:
256,192,56755,1,0,0:0:0:0:
256,192,56839,1,8,0:0:0:0:
256,192,56922,1,8,0:0:0:0:
256,192,57089,1,8,0:0:0:0:
256,192,57172,1,0,0:0:0:0:
256,192,57339,1,0,0:0:0:0:
256,192,57422,1,8,0:0:0:0:
256,192,57589,1,8,0:0:0:0:
256,192,57672,1,0,0:0:0:0:
256,192,57839,1,0,0:0:0:0:
256,192,57922,1,8,0:0:0:0:
256,192,58089,1,8,0:0:0:0:
256,192,58172,1,8,0:0:0:0:
256,192,58339,1,0,0:0:0:0:
256,192,58422,1,8,0:0:0:0:
256,192,58589,1,12,0:0:0:0:
256,192,58755,1,0,0:0:0:0:
256,192,58839,1,8,0:0:0:0:
256,192,59005,1,8,0:0:0:0:
256,192,59089,1,0,0:0:0:0:
256,192,59255,1,0,0:0:0:0:
256,192,59339,1,8,0:0:0:0:
256,192,59422,1,0,0:0:0:0:
256,192,59505,1,0,0:0:0:0:
256,192,59589,1,8,0:0:0:0:
256,192,59755,1,8,0:0:0:0:
256,192,59839,1,0,0:0:0:0:
256,192,60005,1,0,0:0:0:0:
256,192,60089,1,8,0:0:0:0:
256,192,60255,1,8,0:0:0:0:
256,192,60339,1,0,0:0:0:0:
256,192,60505,1,0,0:0:0:0:
256,192,60589,1,8,0:0:0:0:
256,192,60755,1,8,0:0:0:0:
256,192,60839,1,8,0:0:0:0:
256,192,60922,1,0,0:0:0:0:
256,192,61005,1,0,0:0:0:0:
256,192,61089,1,8,0:0:0:0:
256,192,61255,1,0,0:0:0:0:
256,192,61422,1,0,0:0:0:0:
256,192,61505,1,8,0:0:0:0:
256,192,61672,1,8,0:0:0:0:
256,192,61755,1,0,0:0:0:0:
256,192,61922,1,0,0:0:0:0:
256,192,62005,1,8,0:0:0:0:
256,192,62089,1,0,0:0:0:0:
256,192,62172,1,8,0:0:0:0:
256,192,62255,1,8,0:0:0:0:
256,192,62422,1,8,0:0:0:0:
256,192,62505,1,0,0:0:0:0:
256,192,62672,1,0,0:0:0:0:
256,192,62755,1,8,0:0:0:0:
256,192,62922,1,8,0:0:0:0:
256,192,63005,1,0,0:0:0:0:
256,192,63172,1,0,0:0:0:0:
256,192,63255,1,8,0:0:0:0:
256,192,63422,1,0,0:0:0:0:
256,192,63505,1,8,0:0:0:0:
256,192,63589,1,0,0:0:0:0:
256,192,63672,1,0,0:0:0:0:
256,192,63755,1,8,0:0:0:0:
256,192,63839,1,8,0:0:0:0:
256,192,63922,1,0,0:0:0:0:
256,192,64089,1,0,0:0:0:0:
256,192,64172,1,8,0:0:0:0:
256,192,64339,1,8,0:0:0:0:
256,192,64422,1,0,0:0:0:0:
256,192,64589,1,8,0:0:0:0:
256,192,64672,1,8,0:0:0:0:
256,192,64755,1,0,0:0:0:0:
256,192,64839,1,8,0:0:0:0:
256,192,64922,1,8,0:0:0:0:
256,192,65089,1,8,0:0:0:0:
256,192,65172,1,0,0:0:0:0:
256,192,65255,1,0,0:0:0:0:
256,192,65339,1,8,0:0:0:0:
256,192,65422,1,8,0:0:0:0:
256,192,65589,1,8,0:0:0:0:
256,192,65672,1,0,0:0:0:0:
256,192,65839,1,0,0:0:0:0:
256,192,65922,1,8,0:0:0:0:
256,192,66089,1,8,0:0:0:0:
256,192,66172,1,8,0:0:0:0:
256,192,66255,1,0,0:0:0:0:
256,192,66339,1,0,0:0:0:0:
256,192,66422,1,8,0:0:0:0:
256,192,66589,1,0,0:0:0:0:
256,192,66755,1,0,0:0:0:0:
256,192,66839,1,8,0:0:0:0:
256,192,66922,1,0,0:0:0:0:
256,192,67005,1,8,0:0:0:0:
256,192,67089,1,0,0:0:0:0:
256,192,67255,1,8,0:0:0:0:
256,192,67339,1,8,0:0:0:0:
256,192,67422,1,0,0:0:0:0:
256,192,67505,1,0,0:0:0:0:
256,192,67589,1,8,0:0:0:0:
256,192,67755,1,0,0:0:0:0:
256,192,67839,1,8,0:0:0:0:
256,192,67922,1,8,0:0:0:0:
256,192,68089,1,8,0:0:0:0:
256,192,68172,1,8,0:0:0:0:
256,192,68255,1,0,0:0:0:0:
256,192,68339,1,8,0:0:0:0:
256,192,68422,1,8,0:0:0:0:
256,192,68505,1,0,0:0:0:0:
256,192,68589,1,8,0:0:0:0:
256,192,68755,1,0,0:0:0:0:
256,192,68839,1,8,0:0:0:0:
256,192,69005,1,8,0:0:0:0:
256,192,69089,1,8,0:0:0:0:
256,192,69255,1,4,0:0:0:0:
256,192,71922,1,0,0:0:0:0:
256,192,74589,1,0,0:0:0:0:
256,192,77255,1,0,0:0:0:0:
256,192,78589,1,0,0:0:0:0:
256,192,79922,1,0,0:0:0:0:
256,192,80089,1,8,0:0:0:0:
256,192,80255,1,8,0:0:0:0:
256,192,80422,1,0,0:0:0:0:
256,192,80589,1,8,0:0:0:0:
256,192,80922,1,0,0:0:0:0:
256,192,81255,1,8,0:0:0:0:
256,192,82589,1,0,0:0:0:0:
256,192,82755,1,8,0:0:0:0:
256,192,82922,1,8,0:0:0:0:
256,192,83089,1,0,0:0:0:0:
256,192,83255,1,8,0:0:0:0:
256,192,83589,1,0,0:0:0:0:
256,192,83922,1,8,0:0:0:0:
256,192,84255,1,0,0:0:0:0:
256,192,84589,1,0,0:0:0:0:
256,192,85255,1,0,0:0:0:0:
256,192,85422,1,8,0:0:0:0:
256,192,85589,1,8,0:0:0:0:
256,192,85755,1,0,0:0:0:0:
256,192,85922,1,8,0:0:0:0:
256,192,86255,1,0,0:0:0:0:
256,192,86589,1,8,0:0:0:0:
256,192,87922,1,0,0:0:0:0:
256,192,88089,1,8,0:0:0:0:
256,192,88255,1,8,0:0:0:0:
256,192,88422,1,0,0:0:0:0:
256,192,88589,1,8,0:0:0:0:
256,192,88922,1,0,0:0:0:0:
256,192,89255,1,8,0:0:0:0:
256,192,89589,1,8,0:0:0:0:
256,192,89922,1,0,0:0:0:0:
256,192,90255,1,8,0:0:0:0:
256,192,90589,1,0,0:0:0:0:
256,192,90755,1,0,0:0:0:0:
256,192,90839,1,0,0:0:0:0:
256,192,90922,1,8,0:0:0:0:
256,192,91089,1,0,0:0:0:0:
256,192,91172,1,0,0:0:0:0:
256,192,91339,1,8,0:0:0:0:
256,192,91422,1,0,0:0:0:0:
256,192,91589,1,8,0:0:0:0:
256,192,91755,1,0,0:0:0:0:
256,192,91839,1,0,0:0:0:0:
256,192,91922,1,8,0:0:0:0:
256,192,92172,1,0,0:0:0:0:
256,192,92255,1,8,0:0:0:0:
256,192,92422,1,0,0:0:0:0:
256,192,92505,1,0,0:0:0:0:
256,192,92672,1,8,0:0:0:0:
256,192,92755,1,0,0:0:0:0:
256,192,92922,1,8,0:0:0:0:
256,192,93005,1,8,0:0:0:0:
256,192,93089,1,0,0:0:0:0:
256,192,93255,1,0,0:0:0:0:
256,192,93422,1,0,0:0:0:0:
256,192,93505,1,0,0:0:0:0:
256,192,93589,1,8,0:0:0:0:
256,192,93755,1,0,0:0:0:0:
256,192,93839,1,0,0:0:0:0:
256,192,94005,1,8,0:0:0:0:
256,192,94089,1,0,0:0:0:0:
256,192,94255,1,8,0:0:0:0:
256,192,94422,1,0,0:0:0:0:
256,192,94505,1,0,0:0:0:0:
256,192,94589,1,8,0:0:0:0:
256,192,94839,1,0,0:0:0:0:
256,192,94922,1,8,0:0:0:0:
256,192,95089,1,0,0:0:0:0:
256,192,95172,1,0,0:0:0:0:
256,192,95339,1,8,0:0:0:0:
256,192,95422,1,0,0:0:0:0:
256,192,95589,1,8,0:0:0:0:
256,192,95644,1,8,0:0:0:0:
256,192,95700,1,8,0:0:0:0:
256,192,95755,1,0,0:0:0:0:
256,192,95922,1,0,0:0:0:0:
256,192,96089,1,0,0:0:0:0:
256,192,96172,1,0,0:0:0:0:
256,192,96255,1,8,0:0:0:0:
256,192,96422,1,0,0:0:0:0:
256,192,96505,1,0,0:0:0:0:
256,192,96672,1,8,0:0:0:0:
256,192,96755,1,0,0:0:0:0:
256,192,96922,1,8,0:0:0:0:
256,192,97089,1,0,0:0:0:0:
256,192,97172,1,0,0:0:0:0:
256,192,97255,1,8,0:0:0:0:
256,192,97505,1,0,0:0:0:0:
256,192,97589,1,8,0:0:0:0:
256,192,97755,1,0,0:0:0:0:
256,192,97839,1,0,0:0:0:0:
256,192,98005,1,8,0:0:0:0:
256,192,98089,1,0,0:0:0:0:
256,192,98255,1,8,0:0:0:0:
256,192,98339,1,8,0:0:0:0:
256,192,98422,1,0,0:0:0:0:
256,192,98589,1,0,0:0:0:0:
256,192,98755,1,0,0:0:0:0:
256,192,98839,1,0,0:0:0:0:
256,192,98922,1,8,0:0:0:0:
256,192,99089,1,0,0:0:0:0:
256,192,99172,1,0,0:0:0:0:
256,192,99339,1,8,0:0:0:0:
256,192,99422,1,0,0:0:0:0:
256,192,99589,1,8,0:0:0:0:
256,192,99755,1,0,0:0:0:0:
256,192,99839,1,0,0:0:0:0:
256,192,99922,1,8,0:0:0:0:
256,192,100172,1,0,0:0:0:0:
256,192,100255,1,8,0:0:0:0:
256,192,100422,1,0,0:0:0:0:
256,192,100505,1,8,0:0:0:0:
256,192,100589,1,0,0:0:0:0:
256,192,100755,1,0,0:0:0:0:
256,192,100839,1,0,0:0:0:0:
256,192,100922,1,8,0:0:0:0:
256,192,100978,1,8,0:0:0:0:
256,192,101033,1,8,0:0:0:0:
256,192,101089,1,0,0:0:0:0:
256,192,101255,1,0,0:0:0:0:
256,192,101422,1,8,0:0:0:0:
256,192,101589,1,8,0:0:0:0:
256,192,101755,1,0,0:0:0:0:
256,192,101922,1,8,0:0:0:0:
256,192,102255,1,0,0:0:0:0:
256,192,102589,1,8,0:0:0:0:
256,192,103922,1,0,0:0:0:0:
256,192,104089,1,8,0:0:0:0:
256,192,104255,1,8,0:0:0:0:
256,192,104422,1,0,0:0:0:0:
256,192,104589,1,8,0:0:0:0:
256,192,104922,1,0,0:0:0:0:
256,192,105255,1,8,0:0:0:0:
256,192,105589,1,0,0:0:0:0:
256,192,105922,1,0,0:0:0:0:
256,192,106589,1,0,0:0:0:0:
256,192,106755,1,8,0:0:0:0:
256,192,106922,1,8,0:0:0:0:
256,192,107089,1,0,0:0:0:0:
256,192,107255,1,8,0:0:0:0:
256,192,107589,1,0,0:0:0:0:
256,192,107922,1,8,0:0:0:0:
256,192,109255,1,0,0:0:0:0:
256,192,109422,1,8,0:0:0:0:
256,192,109589,1,8,0:0:0:0:
256,192,109755,1,0,0:0:0:0:
256,192,109922,1,8,0:0:0:0:
256,192,110255,1,0,0:0:0:0:
256,192,110589,1,8,0:0:0:0:
256,192,110922,1,8,0:0:0:0:
256,192,111922,1,4,0:0:0:0:
256,192,112089,1,0,0:0:0:0:
256,192,112255,1,8,0:0:0:0:
256,192,112339,1,0,0:0:0:0:
256,192,112505,1,0,0:0:0:0:
256,192,112672,1,8,0:0:0:0:
256,192,112755,1,0,0:0:0:0:
256,192,112922,1,8,0:0:0:0:
256,192,113089,1,0,0:0:0:0:
256,192,113172,1,8,0:0:0:0:
256,192,113255,1,0,0:0:0:0:
256,192,113422,1,0,0:0:0:0:
256,192,113589,1,8,0:0:0:0:
256,192,113672,1,0,0:0:0:0:
256,192,113839,1,0,0:0:0:0:
256,192,114005,1,8,0:0:0:0:
256,192,114089,1,0,0:0:0:0:
256,192,114255,1,8,0:0:0:0:
256,192,114339,1,8,0:0:0:0:
256,192,114422,1,0,0:0:0:0:
256,192,114589,1,8,0:0:0:0:
256,192,114755,1,0,0:0:0:0:
256,192,114839,1,0,0:0:0:0:
256,192,114922,1,8,0:0:0:0:
256,192,115005,1,0,0:0:0:0:
256,192,115172,1,0,0:0:0:0:
256,192,115339,1,8,0:0:0:0:
256,192,115422,1,0,0:0:0:0:
256,192,115589,1,8,0:0:0:0:
256,192,115755,1,0,0:0:0:0:
256,192,115839,1,8,0:0:0:0:
256,192,115922,1,0,0:0:0:0:
256,192,116089,1,0,0:0:0:0:
256,192,116255,1,8,0:0:0:0:
256,192,116339,1,0,0:0:0:0:
256,192,116422,1,0,0:0:0:0:
256,192,116505,1,8,0:0:0:0:
256,192,116672,1,8,0:0:0:0:
256,192,116755,1,0,0:0:0:0:
256,192,116922,1,8,0:0:0:0:
256,192,116978,1,8,0:0:0:0:
256,192,117033,1,8,0:0:0:0:
256,192,117089,1,0,0:0:0:0:
256,192,117255,1,8,0:0:0:0:
256,192,117422,1,0,0:0:0:0:
256,192,117505,1,0,0:0:0:0:
256,192,117589,1,8,0:0:0:0:
256,192,117672,1,0,0:0:0:0:
256,192,117839,1,0,0:0:0:0:
256,192,118005,1,8,0:0:0:0:
256,192,118089,1,0,0:0:0:0:
256,192,118255,1,8,0:0:0:0:
256,192,118422,1,0,0:0:0:0:
256,192,118505,1,8,0:0:0:0:
256,192,118589,1,0,0:0:0:0:
256,192,118755,1,0,0:0:0:0:
256,192,118922,1,8,0:0:0:0:
256,192,119005,1,0,0:0:0:0:
256,192,119089,1,0,0:0:0:0:
256,192,119172,1,8,0:0:0:0:
256,192,119339,1,8,0:0:0:0:
256,192,119422,1,0,0:0:0:0:
256,192,119589,1,8,0:0:0:0:
256,192,119672,1,8,0:0:0:0:
256,192,119755,1,0,0:0:0:0:
256,192,119922,1,8,0:0:0:0:
256,192,120089,1,0,0:0:0:0:
256,192,120172,1,0,0:0:0:0:
256,192,120255,1,8,0:0:0:0:
256,192,120339,1,0,0:0:0:0:
256,192,120505,1,0,0:0:0:0:
256,192,120672,1,8,0:0:0:0:
256,192,120755,1,0,0:0:0:0:
256,192,120922,1,8,0:0:0:0:
256,192,121089,1,0,0:0:0:0:
256,192,121172,1,0,0:0:0:0:
256,192,121255,1,8,0:0:0:0:
256,192,121339,1,8,0:0:0:0:
256,192,121422,1,0,0:0:0:0:
256,192,121505,1,0,0:0:0:0:
256,192,121589,1,8,0:0:0:0:
256,192,121755,1,8,0:0:0:0:
256,192,121811,1,8,0:0:0:0:
256,192,121867,1,8,0:0:0:0:
256,192,121922,1,0,0:0:0:0:
256,192,122005,1,8,0:0:0:0:
256,192,122089,1,0,0:0:0:0:
256,192,122172,1,0,0:0:0:0:
256,192,122255,1,8,0:0:0:0:
256,192,122339,1,8,0:0:0:0:
256,192,122422,1,8,0:0:0:0:
256,192,122505,1,8,0:0:0:0:
256,192,122589,1,4,0:0:0:0:
256,192,122755,1,8,0:0:0:0:
256,192,122922,1,0,0:0:0:0:
256,192,123005,1,8,0:0:0:0:
256,192,123089,1,8,0:0:0:0:
256,192,123255,1,0,0:0:0:0:
256,192,123339,1,8,0:0:0:0:
256,192,123505,1,8,0:0:0:0:
256,192,123589,1,0,0:0:0:0:
256,192,123755,1,0,0:0:0:0:
256,192,123839,1,8,0:0:0:0:
256,192,124005,1,0,0:0:0:0:
256,192,124089,1,8,0:0:0:0:
256,192,124255,1,0,0:0:0:0:
256,192,124339,1,8,0:0:0:0:
256,192,124505,1,0,0:0:0:0:
256,192,124589,1,8,0:0:0:0:
256,192,124755,1,0,0:0:0:0:
256,192,124839,1,8,0:0:0:0:
256,192,125005,1,0,0:0:0:0:
256,192,125089,1,8,0:0:0:0:
256,192,125172,1,8,0:0:0:0:
256,192,125255,1,0,0:0:0:0:
256,192,125422,1,8,0:0:0:0:
256,192,125589,1,0,0:0:0:0:
256,192,125672,1,8,0:0:0:0:
256,192,125755,1,0,0:0:0:0:
256,192,125922,1,0,0:0:0:0:
256,192,126005,1,8,0:0:0:0:
256,192,126172,1,8,0:0:0:0:
256,192,126255,1,0,0:0:0:0:
256,192,126422,1,0,0:0:0:0:
256,192,126505,1,8,0:0:0:0:
256,192,126672,1,0,0:0:0:0:
256,192,126755,1,8,0:0:0:0:
256,192,126922,1,0,0:0:0:0:
256,192,127005,1,8,0:0:0:0:
256,192,127172,1,0,0:0:0:0:
256,192,127255,1,8,0:0:0:0:
256,192,127422,1,8,0:0:0:0:
256,192,127505,1,0,0:0:0:0:
256,192,127672,1,8,0:0:0:0:
256,192,127755,1,8,0:0:0:0:
256,192,127839,1,0,0:0:0:0:
256,192,127922,1,8,0:0:0:0:
256,192,128089,1,8,0:0:0:0:
256,192,128255,1,0,0:0:0:0:
256,192,128339,1,8,0:0:0:0:
256,192,128422,1,8,0:0:0:0:
256,192,128589,1,0,0:0:0:0:
256,192,128672,1,8,0:0:0:0:
256,192,128839,1,8,0:0:0:0:
256,192,128922,1,0,0:0:0:0:
256,192,129089,1,0,0:0:0:0:
256,192,129172,1,8,0:0:0:0:
256,192,129339,1,0,0:0:0:0:
256,192,129422,1,8,0:0:0:0:
256,192,129589,1,0,0:0:0:0:
256,192,129672,1,8,0:0:0:0:
256,192,129839,1,0,0:0:0:0:
256,192,129922,1,8,0:0:0:0:
256,192,130089,1,0,0:0:0:0:
256,192,130172,1,8,0:0:0:0:
256,192,130339,1,0,0:0:0:0:
256,192,130422,1,8,0:0:0:0:
256,192,130505,1,0,0:0:0:0:
256,192,130589,1,8,0:0:0:0:
256,192,130755,1,8,0:0:0:0:
256,192,130922,1,0,0:0:0:0:
256,192,131005,1,8,0:0:0:0:
256,192,131089,1,0,0:0:0:0:
256,192,131255,1,0,0:0:0:0:
256,192,131339,1,8,0:0:0:0:
256,192,131505,1,8,0:0:0:0:
256,192,131589,1,8,0:0:0:0:
256,192,131672,1,0,0:0:0:0:
256,192,131755,1,0,0:0:0:0:
256,192,131839,1,0,0:0:0:0:
256,192,131922,1,8,0:0:0:0:
256,192,132089,1,8,0:0:0:0:
256,192,132255,1,8,0:0:0:0:
256,192,132311,1,0,0:0:0:0:
256,192,132367,1,0,0:0:0:0:
256,192,132422,1,8,0:0:0:0:
256,192,132505,1,8,0:0:0:0:
256,192,132589,1,0,0:0:0:0:
256,192,132672,1,0,0:0:0:0:
256,192,132755,1,8,0:0:0:0:
256,192,132839,1,0,0:0:0:0:
256,192,132922,1,8,0:0:0:0:
256,192,133089,1,0,0:0:0:0:
256,192,133255,1,12,0:0:0:0:
256,192,133422,1,0,0:0:0:0:
256,192,133505,1,8,0:0:0:0:
256,192,133589,1,0,0:0:0:0:
256,192,133755,1,0,0:0:0:0:
256,192,133922,1,8,0:0:0:0:
256,192,134089,1,0,0:0:0:0:
256,192,134172,1,8,0:0:0:0:
256,192,134255,1,0,0:0:0:0:
256,192,134422,1,0,0:0:0:0:
256,192,134589,1,8,0:0:0:0:
256,192,134755,1,0,0:0:0:0:
256,192,134839,1,8,0:0:0:0:
256,192,134922,1,0,0:0:0:0:
256,192,135089,1,0,0:0:0:0:
256,192,135255,1,8,0:0:0:0:
256,192,135422,1,0,0:0:0:0:
256,192,135505,1,8,0:0:0:0:
256,192,135589,1,0,0:0:0:0:
256,192,135755,1,0,0:0:0:0:
256,192,135922,1,8,0:0:0:0:
256,192,136089,1,0,0:0:0:0:
256,192,136172,1,0,0:0:0:0:
256,192,136255,1,8,0:0:0:0:
256,192,136422,1,0,0:0:0:0:
256,192,136505,1,0,0:0:0:0:
256,192,136589,1,8,0:0:0:0:
256,192,136755,1,0,0:0:0:0:
256,192,136839,1,0,0:0:0:0:
256,192,136922,1,8,0:0:0:0:
256,192,137089,1,0,0:0:0:0:
256,192,137172,1,0,0:0:0:0:
256,192,137255,1,8,0:0:0:0:
256,192,137422,1,0,0:0:0:0:
256,192,137505,1,0,0:0:0:0:
256,192,137589,1,8,0:0:0:0:
256,192,137755,1,0,0:0:0:0:
256,192,137839,1,0,0:0:0:0:
256,192,137922,1,8,0:0:0:0:
256,192,138089,1,0,0:0:0:0:
256,192,138172,1,0,0:0:0:0:
256,192,138255,1,8,0:0:0:0:
256,192,138422,1,8,0:0:0:0:
256,192,138505,1,0,0:0:0:0:
256,192,138589,1,8,0:0:0:0:
256,192,138755,1,0,0:0:0:0:
256,192,138839,1,8,0:0:0:0:
256,192,138922,1,0,0:0:0:0:
256,192,139089,1,0,0:0:0:0:
256,192,139255,1,8,0:0:0:0:
256,192,139422,1,0,0:0:0:0:
256,192,139505,1,8,0:0:0:0:
256,192,139589,1,0,0:0:0:0:
256,192,139755,1,0,0:0:0:0:
256,192,139922,1,8,0:0:0:0:
256,192,140089,1,0,0:0:0:0:
256,192,140172,1,8,0:0:0:0:
256,192,140255,1,0,0:0:0:0:
256,192,140422,1,0,0:0:0:0:
256,192,140589,1,8,0:0:0:0:
256,192,140755,1,0,0:0:0:0:
256,192,140839,1,8,0:0:0:0:
256,192,140922,1,0,0:0:0:0:
256,192,141089,1,0,0:0:0:0:
256,192,141255,1,8,0:0:0:0:
256,192,141422,1,0,0:0:0:0:
256,192,141505,1,0,0:0:0:0:
256,192,141589,1,8,0:0:0:0:
256,192,141755,1,0,0:0:0:0:
256,192,141839,1,0,0:0:0:0:
256,192,141922,1,8,0:0:0:0:
256,192,142089,1,0,0:0:0:0:
256,192,142172,1,0,0:0:0:0:
256,192,142255,1,8,0:0:0:0:
256,192,142422,1,8,0:0:0:0:
256,192,142505,1,8,0:0:0:0:
256,192,142589,1,0,0:0:0:0:
256,192,142672,1,0,0:0:0:0:
256,192,142755,1,8,0:0:0:0:
256,192,142922,1,0,0:0:0:0:
256,192,143005,1,8,0:0:0:0:
256,192,143172,1,0,0:0:0:0:
256,192,143255,1,8,0:0:0:0:
256,192,143311,1,8,0:0:0:0:
256,192,143367,1,8,0:0:0:0:
256,192,143422,1,0,0:0:0:0:
256,192,143589,1,8,0:0:0:0:
256,192,143644,1,8,0:0:0:0:
256,192,143700,1,8,0:0:0:0:
256,192,143755,1,0,0:0:0:0:
256,192,143922,1,12,0:0:0:0:
256,192,144089,1,0,0:0:0:0:
256,192,144172,1,8,0:0:0:0:
256,192,144255,1,0,0:0:0:0:
256,192,144422,1,0,0:0:0:0:
256,192,144589,1,8,0:0:0:0:
256,192,144755,1,0,0:0:0:0:
256,192,144839,1,8,0:0:0:0:
256,192,144922,1,0,0:0:0:0:
256,192,145089,1,0,0:0:0:0:
256,192,145255,1,8,0:0:0:0:
256,192,145422,1,0,0:0:0:0:
256,192,145505,1,8,0:0:0:0:
256,192,145589,1,0,0:0:0:0:
256,192,145755,1,0,0:0:0:0:
256,192,145922,1,8,0:0:0:0:
256,192,146089,1,0,0:0:0:0:
256,192,146172,1,8,0:0:0:0:
256,192,146255,1,0,0:0:0:0:
256,192,146422,1,0,0:0:0:0:
256,192,146589,1,8,0:0:0:0:
256,192,146755,1,0,0:0:0:0:
256,192,146839,1,0,0:0:0:0:
256,192,146922,1,8,0:0:0:0:
256,192,147089,1,0,0:0:0:0:
256,192,147172,1,0,0:0:0:0:
256,192,147255,1,8,0:0:0:0:
256,192,147422,1,0,0:0:0:0:
256,192,147505,1,0,0:0:0:0:
256,192,147589,1,8,0:0:0:0:
256,192,147755,1,0,0:0:0:0:
256,192,147839,1,0,0:0:0:0:
256,192,147922,1,8,0:0:0:0:
256,192,148089,1,0,0:0:0:0:
256,192,148172,1,0,0:0:0:0:
256,192,148255,1,8,0:0:0:0:
256,192,148422,1,0,0:0:0:0:
256,192,148505,1,0,0:0:0:0:
256,192,148589,1,8,0:0:0:0:
256,192,148755,1,0,0:0:0:0:
256,192,148839,1,0,0:0:0:0:
256,192,148922,1,8,0:0:0:0:
256,192,149089,1,8,0:0:0:0:
256,192,149172,1,0,0:0:0:0:
256,192,149255,1,8,0:0:0:0:
256,192,149422,1,0,0:0:0:0:
256,192,149505,1,8,0:0:0:0:
256,192,149589,1,0,0:0:0:0:
256,192,149755,1,0,0:0:0:0:
256,192,149922,1,8,0:0:0:0:
256,192,150089,1,0,0:0:0:0:
256,192,150172,1,8,0:0:0:0:
256,192,150255,1,0,0:0:0:0:
256,192,150422,1,0,0:0:0:0:
256,192,150589,1,8,0:0:0:0:
256,192,150755,1,0,0:0:0:0:
256,192,150839,1,8,0:0:0:0:
256,192,150922,1,0,0:0:0:0:
256,192,151089,1,0,0:0:0:0:
256,192,151255,1,8,0:0:0:0:
256,192,151422,1,0,0:0:0:0:
256,192,151505,1,8,0:0:0:0:
256,192,151589,1,0,0:0:0:0:
256,192,151755,1,0,0:0:0:0:
256,192,151922,1,8,0:0:0:0:
256,192,152089,1,0,0:0:0:0:
256,192,152172,1,0,0:0:0:0:
256,192,152255,1,8,0:0:0:0:
256,192,152422,1,8,0:0:0:0:
256,192,152505,1,0,0:0:0:0:
256,192,152672,1,8,0:0:0:0:
256,192,152755,1,8,0:0:0:0:
256,192,152839,1,0,0:0:0:0:
256,192,152922,1,8,0:0:0:0:
256,192,153005,1,8,0:0:0:0:
256,192,153089,1,8,0:0:0:0:
256,192,153172,1,8,0:0:0:0:
256,192,153255,1,0,0:0:0:0:
256,192,153422,1,8,0:0:0:0:
256,192,153505,1,8,0:0:0:0:
256,192,153672,1,8,0:0:0:0:
256,192,153755,1,0,0:0:0:0:
256,192,153922,1,8,0:0:0:0:
256,192,153978,1,8,0:0:0:0:
256,192,154033,1,8,0:0:0:0:
256,192,154089,1,0,0:0:0:0:
256,192,154255,1,8,0:0:0:0:
256,192,154311,1,8,0:0:0:0:
256,192,154367,1,8,0:0:0:0:
256,192,154422,1,0,0:0:0:0:
256,192,154589,1,12,0:0:0:0:
256,192,154755,1,8,0:0:0:0:
256,192,154922,1,0,0:0:0:0:
256,192,155005,1,8,0:0:0:0:
256,192,155172,1,8,0:0:0:0:
256,192,155255,1,0,0:0:0:0:
256,192,155339,1,8,0:0:0:0:
256,192,155505,1,8,0:0:0:0:
256,192,155589,1,0,0:0:0:0:
256,192,155755,1,0,0:0:0:0:
256,192,155839,1,8,0:0:0:0:
256,192,156005,1,0,0:0:0:0:
256,192,156089,1,8,0:0:0:0:
256,192,156255,1,0,0:0:0:0:
256,192,156339,1,8,0:0:0:0:
256,192,156505,1,0,0:0:0:0:
256,192,156589,1,8,0:0:0:0:
256,192,156755,1,8,0:0:0:0:
256,192,156839,1,0,0:0:0:0:
256,192,157005,1,0,0:0:0:0:
256,192,157089,1,8,0:0:0:0:
256,192,157255,1,8,0:0:0:0:
256,192,157339,1,0,0:0:0:0:
256,192,157422,1,8,0:0:0:0:
256,192,157589,1,8,0:0:0:0:
256,192,157672,1,0,0:0:0:0:
256,192,157839,1,0,0:0:0:0:
256,192,157922,1,8,0:0:0:0:
256,192,158005,1,8,0:0:0:0:
256,192,158172,1,8,0:0:0:0:
256,192,158255,1,0,0:0:0:0:
256,192,158422,1,0,0:0:0:0:
256,192,158505,1,8,0:0:0:0:
256,192,158672,1,0,0:0:0:0:
256,192,158755,1,8,0:0:0:0:
256,192,158922,1,0,0:0:0:0:
256,192,159005,1,8,0:0:0:0:
256,192,159172,1,8,0:0:0:0:
256,192,159255,1,8,0:0:0:0:
256,192,159422,1,8,0:0:0:0:
256,192,159505,1,0,0:0:0:0:
256,192,159672,1,0,0:0:0:0:
256,192,159755,1,8,0:0:0:0:
256,192,159922,1,0,0:0:0:0:
256,192,160005,1,0,0:0:0:0:
256,192,160089,1,8,0:0:0:0:
256,192,160255,1,8,0:0:0:0:
256,192,160339,1,0,0:0:0:0:
256,192,160505,1,8,0:0:0:0:
256,192,160589,1,0,0:0:0:0:
256,192,160672,1,8,0:0:0:0:
256,192,160839,1,8,0:0:0:0:
256,192,160922,1,0,0:0:0:0:
256,192,161089,1,0,0:0:0:0:
256,192,161172,1,8,0:0:0:0:
256,192,161339,1,0,0:0:0:0:
256,192,161422,1,8,0:0:0:0:
256,192,161589,1,0,0:0:0:0:
256,192,161672,1,8,0:0:0:0:
256,192,161839,1,0,0:0:0:0:
256,192,161922,1,8,0:0:0:0:
256,192,162089,1,8,0:0:0:0:
256,192,162172,1,0,0:0:0:0:
256,192,162339,1,0,0:0:0:0:
256,192,162422,1,8,0:0:0:0:
256,192,162589,1,8,0:0:0:0:
256,192,162672,1,0,0:0:0:0:
256,192,162755,1,8,0:0:0:0:
256,192,162922,1,0,0:0:0:0:
256,192,163005,1,8,0:0:0:0:
256,192,163172,1,8,0:0:0:0:
256,192,163255,1,0,0:0:0:0:
256,192,163339,1,8,0:0:0:0:
256,192,163505,1,8,0:0:0:0:
256,192,163589,1,0,0:0:0:0:
256,192,163755,1,0,0:0:0:0:
256,192,163839,1,8,0:0:0:0:
256,192,164005,1,0,0:0:0:0:
256,192,164089,1,8,0:0:0:0:
256,192,164255,1,0,0:0:0:0:
256,192,164339,1,8,0:0:0:0:
256,192,164505,1,0,0:0:0:0:
256,192,164589,1,8,0:0:0:0:
256,192,164644,1,8,0:0:0:0:
256,192,164700,1,8,0:0:0:0:
256,192,164755,1,0,0:0:0:0:
256,192,164922,1,8,0:0:0:0:
256,192,164978,1,8,0:0:0:0:
256,192,165033,1,8,0:0:0:0:
256,192,165089,1,0,0:0:0:0:
256,192,165255,1,12,0:0:0:0:
256,192,165422,1,8,0:0:0:0:
256,192,165589,1,0,0:0:0:0:
256,192,165672,1,8,0:0:0:0:
256,192,165839,1,0,0:0:0:0:
256,192,165922,1,8,0:0:0:0:
256,192,166005,1,8,0:0:0:0:
256,192,166172,1,8,0:0:0:0:
256,192,166255,1,0,0:0:0:0:
256,192,166422,1,0,0:0:0:0:
256,192,166505,1,8,0:0:0:0:
256,192,166672,1,0,0:0:0:0:
256,192,166755,1,8,0:0:0:0:
256,192,166922,1,0,0:0:0:0:
256,192,167005,1,8,0:0:0:0:
256,192,167172,1,0,0:0:0:0:
256,192,167255,1,8,0:0:0:0:
256,192,167422,1,8,0:0:0:0:
256,192,167505,1,0,0:0:0:0:
256,192,167672,1,0,0:0:0:0:
256,192,167755,1,8,0:0:0:0:
256,192,167922,1,8,0:0:0:0:
256,192,168005,1,0,0:0:0:0:
256,192,168089,1,8,0:0:0:0:
256,192,168255,1,8,0:0:0:0:
256,192,168339,1,0,0:0:0:0:
256,192,168505,1,0,0:0:0:0:
256,192,168589,1,0,0:0:0:0:
256,192,168672,1,8,0:0:0:0:
256,192,168839,1,8,0:0:0:0:
256,192,168922,1,0,0:0:0:0:
256,192,169089,1,0,0:0:0:0:
256,192,169172,1,8,0:0:0:0:
256,192,169339,1,0,0:0:0:0:
256,192,169422,1,8,0:0:0:0:
256,192,169589,1,0,0:0:0:0:
256,192,169672,1,8,0:0:0:0:
256,192,169839,1,8,0:0:0:0:
256,192,169922,1,8,0:0:0:0:
256,192,170089,1,8,0:0:0:0:
256,192,170172,1,0,0:0:0:0:
256,192,170339,1,0,0:0:0:0:
256,192,170422,1,8,0:0:0:0:
256,192,170589,1,8,0:0:0:0:
256,192,170672,1,0,0:0:0:0:
256,192,170755,1,8,0:0:0:0:
256,192,170922,1,8,0:0:0:0:
256,192,171005,1,0,0:0:0:0:
256,192,171172,1,8,0:0:0:0:
256,192,171255,1,0,0:0:0:0:
256,192,171339,1,8,0:0:0:0:
256,192,171505,1,8,0:0:0:0:
256,192,171589,1,0,0:0:0:0:
256,192,171755,1,0,0:0:0:0:
256,192,171839,1,8,0:0:0:0:
256,192,172005,1,0,0:0:0:0:
256,192,172089,1,8,0:0:0:0:
256,192,172255,1,0,0:0:0:0:
256,192,172339,1,8,0:0:0:0:
256,192,172505,1,0,0:0:0:0:
256,192,172589,1,8,0:0:0:0:
256,192,172755,1,8,0:0:0:0:
256,192,172839,1,0,0:0:0:0:
256,192,173005,1,0,0:0:0:0:
256,192,173089,1,8,0:0:0:0:
256,192,173255,1,8,0:0:0:0:
256,192,173339,1,0,0:0:0:0:
256,192,173422,1,8,0:0:0:0:
256,192,173589,1,0,0:0:0:0:
256,192,173672,1,8,0:0:0:0:
256,192,173839,1,0,0:0:0:0:
256,192,173922,1,8,0:0:0:0:
256,192,174005,1,8,0:0:0:0:
256,192,174172,1,8,0:0:0:0:
256,192,174255,1,0,0:0:0:0:
256,192,174422,1,0,0:0:0:0:
256,192,174505,1,8,0:0:0:0:
256,192,174589,1,0,0:0:0:0:
256,192,174922,1,8,0:0:0:0:
256,192,175255,1,0,0:0:0:0:
256,192,175589,1,8,0:0:0:0:
256,192,175922,1,4,0:0:0:0:
256,192,176089,1,0,0:0:0:0:
256,192,176172,1,0,0:0:0:0:
256,192,176255,1,8,0:0:0:0:
256,192,176422,1,0,0:0:0:0:
256,192,176589,1,8,0:0:0:0:
256,192,176755,1,8,0:0:0:0:
256,192,176839,1,8,0:0:0:0:
256,192,176922,1,8,0:0:0:0:
256,192,177089,1,8,0:0:0:0:
256,192,177255,1,8,0:0:0:0:
256,192,177422,1,0,0:0:0:0:
256,192,177589,1,0,0:0:0:0:
256,192,177672,1,8,0:0:0:0:
256,192,177755,1,8,0:0:0:0:
256,192,177922,1,8,0:0:0:0:
256,192,178033,1,0,0:0:0:0:
256,192,178144,1,0,0:0:0:0:
256,192,178255,1,8,0:0:0:0:
256,192,178339,1,0,0:0:0:0:
256,192,178422,1,8,0:0:0:0:
256,192,178589,1,8,0:0:0:0:
256,192,178672,1,8,0:0:0:0:
256,192,178755,1,0,0:0:0:0:
256,192,178922,1,8,0:0:0:0:
256,192,179089,1,0,0:0:0:0:
256,192,179255,1,8,0:0:0:0:
256,192,179422,1,8,0:0:0:0:
256,192,179505,1,8,0:0:0:0:
256,192,179589,1,8,0:0:0:0:
256,192,179755,1,8,0:0:0:0:
256,192,179922,1,8,0:0:0:0:
256,192,180005,1,8,0:0:0:0:
256,192,180089,1,0,0:0:0:0:
256,192,180255,1,8,0:0:0:0:
256,192,180422,1,0,0:0:0:0:
256,192,180589,1,8,0:0:0:0:
256,192,180700,1,0,0:0:0:0:
256,192,180811,1,0,0:0:0:0:
256,192,180922,1,8,0:0:0:0:
256,192,181005,1,0,0:0:0:0:
256,192,181089,1,8,0:0:0:0:
256,192,181172,1,0,0:0:0:0:
256,192,181255,1,8,0:0:0:0:
256,192,181422,1,0,0:0:0:0:
256,192,181589,1,8,0:0:0:0:
256,192,181755,1,0,0:0:0:0:
256,192,181922,1,8,0:0:0:0:
256,192,182089,1,8,0:0:0:0:
256,192,182172,1,8,0:0:0:0:
256,192,182255,1,8,0:0:0:0:
256,192,182422,1,8,0:0:0:0:
256,192,182589,1,8,0:0:0:0:
256,192,182755,1,0,0:0:0:0:
256,192,182922,1,0,0:0:0:0:
256,192,183005,1,8,0:0:0:0:
256,192,183089,1,8,0:0:0:0:
256,192,183255,1,8,0:0:0:0:
256,192,183367,1,0,0:0:0:0:
256,192,183478,1,0,0:0:0:0:
256,192,183589,1,8,0:0:0:0:
256,192,183672,1,0,0:0:0:0:
256,192,183755,1,8,0:0:0:0:
256,192,183922,1,8,0:0:0:0:
256,192,184005,1,8,0:0:0:0:
256,192,184089,1,0,0:0:0:0:
256,192,184255,1,8,0:0:0:0:
256,192,184422,1,0,0:0:0:0:
256,192,184589,1,8,0:0:0:0:
256,192,184755,1,8,0:0:0:0:
256,192,184839,1,8,0:0:0:0:
256,192,184922,1,8,0:0:0:0:
256,192,185089,1,8,0:0:0:0:
256,192,185255,1,8,0:0:0:0:
256,192,185422,1,0,0:0:0:0:
256,192,185589,1,0,0:0:0:0:
256,192,185672,1,8,0:0:0:0:
256,192,185755,1,0,0:0:0:0:
256,192,185922,1,8,0:0:0:0:
256,192,186033,1,0,0:0:0:0:
256,192,186144,1,0,0:0:0:0:
256,192,186255,1,8,0:0:0:0:
256,192,186339,1,0,0:0:0:0:
256,192,186422,1,8,0:0:0:0:
256,192,186505,1,0,0:0:0:0:
256,192,186589,1,12,0:0:0:0:
256,192,186755,1,0,0:0:0:0:
256,192,186839,1,0,0:0:0:0:
256,192,186922,1,8,0:0:0:0:
256,192,187089,1,8,0:0:0:0:
256,192,187172,1,0,0:0:0:0:
256,192,187255,1,8,0:0:0:0:
256,192,187422,1,8,0:0:0:0:
256,192,187505,1,8,0:0:0:0:
256,192,187589,1,8,0:0:0:0:
256,192,187755,1,8,0:0:0:0:
256,192,187922,1,8,0:0:0:0:
256,192,188005,1,8,0:0:0:0:
256,192,188089,1,0,0:0:0:0:
256,192,188255,1,0,0:0:0:0:
256,192,188339,1,8,0:0:0:0:
256,192,188422,1,8,0:0:0:0:
256,192,188505,1,0,0:0:0:0:
256,192,188589,1,8,0:0:0:0:
256,192,188700,1,0,0:0:0:0:
256,192,188811,1,0,0:0:0:0:
256,192,188922,1,8,0:0:0:0:
256,192,189005,1,0,0:0:0:0:
256,192,189089,1,8,0:0:0:0:
256,192,189172,1,0,0:0:0:0:
256,192,189255,1,8,0:0:0:0:
256,192,189422,1,0,0:0:0:0:
256,192,189505,1,0,0:0:0:0:
256,192,189589,1,8,0:0:0:0:
256,192,189672,1,0,0:0:0:0:
256,192,189755,1,8,0:0:0:0:
256,192,189839,1,8,0:0:0:0:
256,192,189922,1,8,0:0:0:0:
256,192,190089,1,8,0:0:0:0:
256,192,190172,1,8,0:0:0:0:
256,192,190255,1,8,0:0:0:0:
256,192,190422,1,8,0:0:0:0:
256,192,190589,1,8,0:0:0:0:
256,192,190672,1,8,0:0:0:0:
256,192,190755,1,0,0:0:0:0:
256,192,190922,1,8,0:0:0:0:
256,192,191005,1,8,0:0:0:0:
256,192,191089,1,8,0:0:0:0:
256,192,191172,1,0,0:0:0:0:
256,192,191255,1,8,0:0:0:0:
256,192,191367,1,0,0:0:0:0:
256,192,191478,1,0,0:0:0:0:
256,192,191589,1,8,0:0:0:0:
256,192,191672,1,0,0:0:0:0:
256,192,191755,1,8,0:0:0:0:
256,192,191839,1,0,0:0:0:0:
256,192,191922,1,8,0:0:0:0:
256,192,192089,1,0,0:0:0:0:
256,192,192172,1,0,0:0:0:0:
256,192,192255,1,8,0:0:0:0:
256,192,192339,1,8,0:0:0:0:
256,192,192422,1,0,0:0:0:0:
256,192,192589,1,8,0:0:0:0:
256,192,192755,1,8,0:0:0:0:
256,192,192839,1,8,0:0:0:0:
256,192,192922,1,8,0:0:0:0:
256,192,193089,1,8,0:0:0:0:
256,192,193172,1,0,0:0:0:0:
256,192,193255,1,8,0:0:0:0:
256,192,193339,1,8,0:0:0:0:
256,192,193422,1,0,0:0:0:0:
256,192,193589,1,0,0:0:0:0:
256,192,193672,1,8,0:0:0:0:
256,192,193755,1,8,0:0:0:0:
256,192,193839,1,0,0:0:0:0:
256,192,193922,1,8,0:0:0:0:
256,192,194033,1,0,0:0:0:0:
256,192,194144,1,0,0:0:0:0:
256,192,194255,1,8,0:0:0:0:
256,192,194339,1,0,0:0:0:0:
256,192,194422,1,8,0:0:0:0:
256,192,194505,1,0,0:0:0:0:
256,192,194589,1,8,0:0:0:0:
256,192,194755,1,0,0:0:0:0:
256,192,194839,1,0,0:0:0:0:
256,192,194922,1,8,0:0:0:0:
256,192,195089,1,8,0:0:0:0:
256,192,195172,1,0,0:0:0:0:
256,192,195255,1,8,0:0:0:0:
256,192,195422,1,8,0:0:0:0:
256,192,195505,1,8,0:0:0:0:
256,192,195589,1,8,0:0:0:0:
256,192,195672,1,0,0:0:0:0:
256,192,195755,1,8,0:0:0:0:
256,192,195922,1,8,0:0:0:0:
256,192,196005,1,0,0:0:0:0:
256,192,196089,1,8,0:0:0:0:
256,192,196172,1,0,0:0:0:0:
256,192,196255,1,8,0:0:0:0:
256,192,196339,1,0,0:0:0:0:
256,192,196422,1,8,0:0:0:0:
256,192,196478,1,0,0:0:0:0:
256,192,196533,1,0,0:0:0:0:
256,192,196589,1,8,0:0:0:0:
256,192,196755,1,0,0:0:0:0:
256,192,196922,1,8,0:0:0:0:
256,192,197089,1,0,0:0:0:0:
256,192,197255,1,12,0:0:0:0:
256,192,197422,1,0,0:0:0:0:
256,192,197505,1,0,0:0:0:0:
256,192,197589,1,8,0:0:0:0:
256,192,197755,1,8,0:0:0:0:
256,192,197839,1,0,0:0:0:0:
256,192,197922,1,8,0:0:0:0:
256,192,198089,1,8,0:0:0:0:
256,192,198172,1,8,0:0:0:0:
256,192,198255,1,8,0:0:0:0:
256,192,198422,1,8,0:0:0:0:
256,192,198505,1,0,0:0:0:0:
256,192,198589,1,8,0:0:0:0:
256,192,198672,1,8,0:0:0:0:
256,192,198755,1,8,0:0:0:0:
256,192,198922,1,0,0:0:0:0:
256,192,199005,1,8,0:0:0:0:
256,192,199089,1,8,0:0:0:0:
256,192,199172,1,0,0:0:0:0:
256,192,199255,1,8,0:0:0:0:
256,192,199367,1,0,0:0:0:0:
256,192,199478,1,0,0:0:0:0:
256,192,199589,1,8,0:0:0:0:
256,192,199672,1,0,0:0:0:0:
256,192,199755,1,8,0:0:0:0:
256,192,199839,1,0,0:0:0:0:
256,192,199922,1,8,0:0:0:0:
256,192,200089,1,0,0:0:0:0:
256,192,200255,1,8,0:0:0:0:
256,192,200339,1,8,0:0:0:0:
256,192,200422,1,0,0:0:0:0:
256,192,200505,1,0,0:0:0:0:
256,192,200589,1,8,0:0:0:0:
256,192,200755,1,8,0:0:0:0:
256,192,200839,1,8,0:0:0:0:
256,192,200922,1,8,0:0:0:0:
256,192,201089,1,8,0:0:0:0:
256,192,201255,1,8,0:0:0:0:
256,192,201339,1,8,0:0:0:0:
256,192,201422,1,0,0:0:0:0:
256,192,201589,1,0,0:0:0:0:
256,192,201672,1,8,0:0:0:0:
256,192,201755,1,0,0:0:0:0:
256,192,201839,1,8,0:0:0:0:
256,192,201922,1,8,0:0:0:0:
256,192,202033,1,0,0:0:0:0:
256,192,202144,1,0,0:0:0:0:
256,192,202255,1,8,0:0:0:0:
256,192,202339,1,0,0:0:0:0:
256,192,202422,1,8,0:0:0:0:
256,192,202505,1,0,0:0:0:0:
256,192,202589,1,8,0:0:0:0:
256,192,202755,1,0,0:0:0:0:
256,192,202839,1,0,0:0:0:0:
256,192,202922,1,8,0:0:0:0:
256,192,203005,1,8,0:0:0:0:
256,192,203089,1,0,0:0:0:0:
256,192,203255,1,8,0:0:0:0:
256,192,203422,1,8,0:0:0:0:
256,192,203505,1,8,0:0:0:0:
256,192,203589,1,8,0:0:0:0:
256,192,203755,1,8,0:0:0:0:
256,192,203839,1,0,0:0:0:0:
256,192,203922,1,8,0:0:0:0:
256,192,204005,1,8,0:0:0:0:
256,192,204089,1,8,0:0:0:0:
256,192,204255,1,0,0:0:0:0:
256,192,204339,1,8,0:0:0:0:
256,192,204422,1,8,0:0:0:0:
256,192,204505,1,0,0:0:0:0:
256,192,204589,1,8,0:0:0:0:
256,192,204700,1,0,0:0:0:0:
256,192,204811,1,0,0:0:0:0:
256,192,204922,1,8,0:0:0:0:
256,192,205005,1,0,0:0:0:0:
256,192,205089,1,8,0:0:0:0:
256,192,205172,1,0,0:0:0:0:
256,192,205255,1,8,0:0:0:0:
256,192,205422,1,0,0:0:0:0:
256,192,205505,1,0,0:0:0:0:
256,192,205589,1,8,0:0:0:0:
256,192,205755,1,8,0:0:0:0:
256,192,205839,1,0,0:0:0:0:
256,192,205922,1,8,0:0:0:0:
256,192,206089,1,8,0:0:0:0:
256,192,206172,1,8,0:0:0:0:
256,192,206255,1,8,0:0:0:0:
256,192,206422,1,8,0:0:0:0:
256,192,206589,1,8,0:0:0:0:
256,192,206672,1,8,0:0:0:0:
256,192,206755,1,0,0:0:0:0:
256,192,206922,1,0,0:0:0:0:
256,192,207005,1,8,0:0:0:0:
256,192,207089,1,0,0:0:0:0:
256,192,207172,1,8,0:0:0:0:
256,192,207255,1,8,0:0:0:0:
256,192,207367,1,0,0:0:0:0:
256,192,207478,1,0,0:0:0:0:
256,192,207589,1,8,0:0:0:0:
256,192,207672,1,0,0:0:0:0:
256,192,207755,1,8,0:0:0:0:
256,192,207839,1,0,0:0:0:0:
256,192,207922,1,12,0:0:0:0:
256,192,208089,1,0,0:0:0:0:
256,192,208172,1,0,0:0:0:0:
256,192,208255,1,8,0:0:0:0:
256,192,208339,1,0,0:0:0:0:
256,192,208422,1,8,0:0:0:0:
256,192,208505,1,8,0:0:0:0:
256,192,208589,1,8,0:0:0:0:
256,192,208755,1,8,0:0:0:0:
256,192,208839,1,8,0:0:0:0:
256,192,208922,1,8,0:0:0:0:
256,192,209089,1,8,0:0:0:0:
256,192,209172,1,0,0:0:0:0:
256,192,209255,1,8,0:0:0:0:
256,192,209422,1,8,0:0:0:0:
256,192,209589,1,0,0:0:0:0:
256,192,209672,1,8,0:0:0:0:
256,192,209755,1,8,0:0:0:0:
256,192,209839,1,0,0:0:0:0:
256,192,209922,1,8,0:0:0:0:
256,192,210033,1,0,0:0:0:0:
256,192,210144,1,0,0:0:0:0:
256,192,210255,1,8,0:0:0:0:
256,192,210339,1,0,0:0:0:0:
256,192,210422,1,8,0:0:0:0:
256,192,210505,1,0,0:0:0:0:
256,192,210589,1,8,0:0:0:0:
256,192,210755,1,0,0:0:0:0:
256,192,210922,1,8,0:0:0:0:
256,192,211005,1,8,0:0:0:0:
256,192,211089,1,0,0:0:0:0:
256,192,211172,1,0,0:0:0:0:
256,192,211255,1,8,0:0:0:0:
256,192,211422,1,8,0:0:0:0:
256,192,211505,1,8,0:0:0:0:
256,192,211589,1,8,0:0:0:0:
256,192,211755,1,8,0:0:0:0:
256,192,211922,1,8,0:0:0:0:
256,192,212005,1,8,0:0:0:0:
256,192,212089,1,0,0:0:0:0:
256,192,212255,1,0,0:0:0:0:
256,192,212339,1,8,0:0:0:0:
256,192,212422,1,0,0:0:0:0:
256,192,212505,1,8,0:0:0:0:
256,192,212589,1,8,0:0:0:0:
256,192,212700,1,0,0:0:0:0:
256,192,212811,1,0,0:0:0:0:
256,192,212922,1,8,0:0:0:0:
256,192,213005,1,0,0:0:0:0:
256,192,213089,1,8,0:0:0:0:
256,192,213172,1,0,0:0:0:0:
256,192,213255,1,8,0:0:0:0:
256,192,213422,1,0,0:0:0:0:
256,192,213505,1,0,0:0:0:0:
256,192,213589,1,8,0:0:0:0:
256,192,213672,1,8,0:0:0:0:
256,192,213755,1,0,0:0:0:0:
256,192,213922,1,8,0:0:0:0:
256,192,214089,1,8,0:0:0:0:
256,192,214172,1,8,0:0:0:0:
256,192,214255,1,8,0:0:0:0:
256,192,214422,1,8,0:0:0:0:
256,192,214505,1,0,0:0:0:0:
256,192,214589,1,8,0:0:0:0:
256,192,214672,1,8,0:0:0:0:
256,192,214755,1,0,0:0:0:0:
256,192,214922,1,0,0:0:0:0:
256,192,215005,1,8,0:0:0:0:
256,192,215089,1,8,0:0:0:0:
256,192,215172,1,0,0:0:0:0:
256,192,215255,1,8,0:0:0:0:
256,192,215367,1,0,0:0:0:0:
256,192,215478,1,0,0:0:0:0:
256,192,215589,1,8,0:0:0:0:
256,192,215672,1,0,0:0:0:0:
256,192,215755,1,8,0:0:0:0:
256,192,215839,1,0,0:0:0:0:
256,192,215922,1,8,0:0:0:0:
256,192,216089,1,0,0:0:0:0:
256,192,216172,1,0,0:0:0:0:
256,192,216255,1,8,0:0:0:0:
256,192,216422,1,0,0:0:0:0:
256,192,216589,1,8,0:0:0:0:
256,192,216755,1,8,0:0:0:0:
256,192,216839,1,0,0:0:0:0:
256,192,216922,1,8,0:0:0:0:
256,192,217005,1,8,0:0:0:0:
256,192,217089,1,0,0:0:0:0:
256,192,217255,1,8,0:0:0:0:
256,192,217339,1,0,0:0:0:0:
256,192,217422,1,8,0:0:0:0:
256,192,217505,1,0,0:0:0:0:
256,192,217589,1,8,0:0:0:0:
256,192,217672,1,0,0:0:0:0:
256,192,217755,1,8,0:0:0:0:
256,192,217839,1,0,0:0:0:0:
256,192,217922,1,8,0:0:0:0:
256,192,217978,1,8,0:0:0:0:
256,192,218033,1,8,0:0:0:0:
256,192,218089,1,0,0:0:0:0:
256,192,218172,1,0,0:0:0:0:
256,192,218255,1,8,0:0:0:0:
256,192,218311,1,8,0:0:0:0:
256,192,218367,1,8,0:0:0:0:
256,192,218422,1,0,0:0:0:0:
256,192,218589,1,4,0:0:0:0:
256,192,218755,1,8,0:0:0:0:
256,192,218922,1,0,0:0:0:0:
256,192,219005,1,8,0:0:0:0:
256,192,219089,1,0,0:0:0:0:
256,192,219255,1,0,0:0:0:0:
256,192,219339,1,8,0:0:0:0:
256,192,219505,1,8,0:0:0:0:
256,192,219589,1,0,0:0:0:0:
256,192,219755,1,0,0:0:0:0:
256,192,219839,1,8,0:0:0:0:
256,192,220005,1,0,0:0:0:0:
256,192,220089,1,8,0:0:0:0:
256,192,220255,1,0,0:0:0:0:
256,192,220339,1,8,0:0:0:0:
256,192,220505,1,0,0:0:0:0:
256,192,220589,1,8,0:0:0:0:
256,192,220755,1,0,0:0:0:0:
256,192,220839,1,8,0:0:0:0:
256,192,221005,1,0,0:0:0:0:
256,192,221089,1,8,0:0:0:0:
256,192,221172,1,8,0:0:0:0:
256,192,221255,1,0,0:0:0:0:
256,192,221422,1,8,0:0:0:0:
256,192,221589,1,0,0:0:0:0:
256,192,221672,1,8,0:0:0:0:
256,192,221755,1,0,0:0:0:0:
256,192,221922,1,0,0:0:0:0:
256,192,222005,1,8,0:0:0:0:
256,192,222172,1,8,0:0:0:0:
256,192,222255,1,0,0:0:0:0:
256,192,222422,1,0,0:0:0:0:
256,192,222505,1,8,0:0:0:0:
256,192,222672,1,0,0:0:0:0:
256,192,222755,1,8,0:0:0:0:
256,192,222922,1,0,0:0:0:0:
256,192,223005,1,8,0:0:0:0:
256,192,223172,1,0,0:0:0:0:
256,192,223255,1,8,0:0:0:0:
256,192,223422,1,8,0:0:0:0:
256,192,223505,1,0,0:0:0:0:
256,192,223672,1,8,0:0:0:0:
256,192,223755,1,8,0:0:0:0:
256,192,223839,1,0,0:0:0:0:
256,192,223922,1,8,0:0:0:0:
256,192,224089,1,8,0:0:0:0:
256,192,224255,1,0,0:0:0:0:
256,192,224339,1,8,0:0:0:0:
256,192,224422,1,0,0:0:0:0:
256,192,224589,1,0,0:0:0:0:
256,192,224672,1,8,0:0:0:0:
256,192,224839,1,8,0:0:0:0:
256,192,224922,1,0,0:0:0:0:
256,192,225089,1,0,0:0:0:0:
256,192,225172,1,8,0:0:0:0:
256,192,225339,1,0,0:0:0:0:
256,192,225422,1,8,0:0:0:0:
256,192,225589,1,0,0:0:0:0:
256,192,225672,1,8,0:0:0:0:
256,192,225839,1,0,0:0:0:0:
256,192,225922,1,8,0:0:0:0:
256,192,226089,1,0,0:0:0:0:
256,192,226172,1,8,0:0:0:0:
256,192,226339,1,0,0:0:0:0:
256,192,226422,1,8,0:0:0:0:
256,192,226505,1,0,0:0:0:0:
256,192,226589,1,8,0:0:0:0:
256,192,226755,1,8,0:0:0:0:
256,192,226922,1,0,0:0:0:0:
256,192,227005,1,8,0:0:0:0:
256,192,227089,1,0,0:0:0:0:
256,192,227255,1,0,0:0:0:0:
256,192,227339,1,8,0:0:0:0:
256,192,227505,1,8,0:0:0:0:
256,192,227589,1,0,0:0:0:0:
256,192,227755,1,0,0:0:0:0:
256,192,227839,1,8,0:0:0:0:
256,192,227922,1,0,0:0:0:0:
256,192,228005,1,8,0:0:0:0:
256,192,228172,1,8,0:0:0:0:
256,192,228255,1,0,0:0:0:0:
256,192,228422,1,8,0:0:0:0:
256,192,228589,1,0,0:0:0:0:
256,192,228672,1,0,0:0:0:0:
256,192,228755,1,8,0:0:0:0:
256,192,228839,1,0,0:0:0:0:
256,192,228922,1,8,0:0:0:0:
256,192,229005,1,8,0:0:0:0:
256,192,229089,1,0,0:0:0:0:
256,192,229172,1,0,0:0:0:0:
256,192,229255,1,12,0:0:0:0:
256,192,229422,1,8,0:0:0:0:
256,192,229589,1,0,0:0:0:0:
256,192,229672,1,8,0:0:0:0:
256,192,229755,1,0,0:0:0:0:
256,192,229922,1,0,0:0:0:0:
256,192,230005,1,8,0:0:0:0:
256,192,230172,1,8,0:0:0:0:
256,192,230255,1,0,0:0:0:0:
256,192,230422,1,0,0:0:0:0:
256,192,230505,1,8,0:0:0:0:
256,192,230672,1,0,0:0:0:0:
256,192,230755,1,8,0:0:0:0:
256,192,230922,1,0,0:0:0:0:
256,192,231005,1,8,0:0:0:0:
256,192,231172,1,0,0:0:0:0:
256,192,231255,1,8,0:0:0:0:
256,192,231422,1,0,0:0:0:0:
256,192,231505,1,8,0:0:0:0:
256,192,231672,1,0,0:0:0:0:
256,192,231755,1,8,0:0:0:0:
256,192,231839,1,8,0:0:0:0:
256,192,231922,1,0,0:0:0:0:
256,192,232089,1,8,0:0:0:0:
256,192,232255,1,0,0:0:0:0:
256,192,232339,1,8,0:0:0:0:
256,192,232422,1,0,0:0:0:0:
256,192,232589,1,0,0:0:0:0:
256,192,232672,1,8,0:0:0:0:
256,192,232839,1,8,0:0:0:0:
256,192,232922,1,0,0:0:0:0:
256,192,233089,1,0,0:0:0:0:
256,192,233172,1,8,0:0:0:0:
256,192,233339,1,0,0:0:0:0:
256,192,233422,1,8,0:0:0:0:
256,192,233589,1,0,0:0:0:0:
256,192,233672,1,8,0:0:0:0:
256,192,233839,1,0,0:0:0:0:
256,192,233922,1,8,0:0:0:0:
256,192,234089,1,8,0:0:0:0:
256,192,234172,1,8,0:0:0:0:
256,192,234339,1,8,0:0:0:0:
256,192,234422,1,8,0:0:0:0:
256,192,234505,1,0,0:0:0:0:
256,192,234589,1,8,0:0:0:0:
256,192,234755,1,8,0:0:0:0:
256,192,234922,1,0,0:0:0:0:
256,192,235005,1,8,0:0:0:0:
256,192,235089,1,0,0:0:0:0:
256,192,235255,1,0,0:0:0:0:
256,192,235339,1,8,0:0:0:0:
256,192,235505,1,8,0:0:0:0:
256,192,235589,1,0,0:0:0:0:
256,192,235755,1,0,0:0:0:0:
256,192,235839,1,8,0:0:0:0:
256,192,236005,1,0,0:0:0:0:
256,192,236089,1,8,0:0:0:0:
256,192,236255,1,0,0:0:0:0:
256,192,236339,1,8,0:0:0:0:
256,192,236505,1,0,0:0:0:0:
256,192,236589,1,8,0:0:0:0:
256,192,236755,1,0,0:0:0:0:
256,192,236839,1,8,0:0:0:0:
256,192,237005,1,0,0:0:0:0:
256,192,237089,1,8,0:0:0:0:
256,192,237172,1,0,0:0:0:0:
256,192,237255,1,8,0:0:0:0:
256,192,237422,1,8,0:0:0:0:
256,192,237505,1,8,0:0:0:0:
256,192,237589,1,0,0:0:0:0:
256,192,237672,1,8,0:0:0:0:
256,192,237755,1,0,0:0:0:0:
256,192,237922,1,8,0:0:0:0:
256,192,238005,1,8,0:0:0:0:
256,192,238089,1,0,0:0:0:0:
256,192,238172,1,0,0:0:0:0:
256,192,238255,1,8,0:0:0:0:
256,192,238339,1,0,0:0:0:0:
256,192,238422,1,8,0:0:0:0:
256,192,238505,1,8,0:0:0:0:
256,192,238589,1,0,0:0:0:0:
256,192,238672,1,0,0:0:0:0:
256,192,238755,1,8,0:0:0:0:
256,192,238839,1,8,0:0:0:0:
256,192,238922,1,0,0:0:0:0:
256,192,239005,1,8,0:0:0:0:
256,192,239089,1,0,0:0:0:0:
256,192,239172,1,0,0:0:0:0:
256,192,239255,1,8,0:0:0:0:
256,192,239339,1,8,0:0:0:0:
256,192,239422,1,0,0:0:0:0:
256,192,239505,1,8,0:0:0:0:
256,192,239589,1,0,0:0:0:0:
256,192,239672,1,0,0:0:0:0:
256,192,239755,1,8,0:0:0:0:
256,192,239839,1,8,0:0:0:0:
256,192,239922,1,4,0:0:0:0:
256,192,240089,1,8,0:0:0:0:
256,192,240255,1,0,0:0:0:0:
256,192,240339,1,8,0:0:0:0:
256,192,240505,1,8,0:0:0:0:
256,192,240589,1,0,0:0:0:0:
256,192,240755,1,8,0:0:0:0:
256,192,240922,1,0,0:0:0:0:
256,192,241005,1,8,0:0:0:0:
256,192,241172,1,8,0:0:0:0:
256,192,241255,1,0,0:0:0:0:
256,192,241422,1,8,0:0:0:0:
256,192,241589,1,0,0:0:0:0:
256,192,241672,1,8,0:0:0:0:
256,192,241839,1,8,0:0:0:0:
256,192,241922,1,0,0:0:0:0:
256,192,242089,1,8,0:0:0:0:
256,192,242255,1,0,0:0:0:0:
256,192,242339,1,8,0:0:0:0:
256,192,242505,1,8,0:0:0:0:
256,192,242589,1,0,0:0:0:0:
256,192,242755,1,8,0:0:0:0:
256,192,242922,1,0,0:0:0:0:
256,192,243005,1,8,0:0:0:0:
256,192,243172,1,8,0:0:0:0:
256,192,243255,1,0,0:0:0:0:
256,192,243422,1,8,0:0:0:0:
256,192,243589,1,0,0:0:0:0:
256,192,243672,1,8,0:0:0:0:
256,192,243839,1,8,0:0:0:0:
256,192,243922,1,0,0:0:0:0:
256,192,244089,1,8,0:0:0:0:
256,192,244255,1,0,0:0:0:0:
256,192,244339,1,8,0:0:0:0:
256,192,244505,1,8,0:0:0:0:
256,192,244589,1,0,0:0:0:0:
256,192,244755,1,8,0:0:0:0:
256,192,244922,1,0,0:0:0:0:
256,192,245005,1,8,0:0:0:0:
256,192,245172,1,8,0:0:0:0:
256,192,245255,1,0,0:0:0:0:
256,192,245422,1,8,0:0:0:0:
256,192,245505,1,8,0:0:0:0:
256,192,245589,1,0,0:0:0:0:
256,192,245755,1,8,0:0:0:0:
256,192,245839,1,8,0:0:0:0:
256,192,245922,1,0,0:0:0:0:
256,192,246089,1,8,0:0:0:0:
256,192,246172,1,8,0:0:0:0:
256,192,246255,1,0,0:0:0:0:
256,192,246422,1,8,0:0:0:0:
256,192,246505,1,8,0:0:0:0:
256,192,246589,1,0,0:0:0:0:
256,192,246755,1,8,0:0:0:0:
256,192,246839,1,8,0:0:0:0:
256,192,246922,1,0,0:0:0:0:
256,192,247089,1,8,0:0:0:0:
256,192,247172,1,8,0:0:0:0:
256,192,247255,1,0,0:0:0:0:
256,192,247422,1,8,0:0:0:0:
256,192,247505,1,8,0:0:0:0:
256,192,247589,1,0,0:0:0:0:
256,192,247755,1,8,0:0:0:0:
256,192,247839,1,8,0:0:0:0:
256,192,247922,1,8,0:0:0:0:
256,192,248005,1,0,0:0:0:0:
256,192,248089,1,8,0:0:0:0:
256,192,248172,1,0,0:0:0:0:
256,192,248255,1,8,0:0:0:0:
256,192,248339,1,0,0:0:0:0:
256,192,248422,1,8,0:0:0:0:
256,192,248505,1,0,0:0:0:0:
256,192,248589,1,8,0:0:0:0:
256,192,248672,1,8,0:0:0:0:
256,192,248755,1,8,0:0:0:0:
256,192,248839,1,8,0:0:0:0:
256,192,248922,1,0,0:0:0:0:
256,192,249005,1,8,0:0:0:0:
256,192,249089,1,8,0:0:0:0:
256,192,249255,1,8,0:0:0:0:
256,192,249339,1,0,0:0:0:0:
256,192,249422,1,8,0:0:0:0:
256,192,249505,1,0,0:0:0:0:
256,192,249589,1,8,0:0:0:0:
256,192,249644,1,8,0:0:0:0:
256,192,249700,1,8,0:0:0:0:
256,192,249755,1,0,0:0:0:0:
256,192,249839,1,0,0:0:0:0:
256,192,249922,1,8,0:0:0:0:
256,192,250005,1,8,0:0:0:0:
256,192,250089,1,0,0:0:0:0:
256,192,250172,1,0,0:0:0:0:
256,192,250255,1,12,0:0:0:0:
256,192,250589,1,12,0:0:0:0:
256,192,250755,1,8,0:0:0:0:
256,192,250922,1,0,0:0:0:0:
256,192,251005,1,8,0:0:0:0:
256,192,251172,1,8,0:0:0:0:
256,192,251255,1,0,0:0:0:0:
256,192,251339,1,8,0:0:0:0:
256,192,251505,1,8,0:0:0:0:
256,192,251589,1,0,0:0:0:0:
256,192,251755,1,0,0:0:0:0:
256,192,251839,1,8,0:0:0:0:
256,192,252005,1,0,0:0:0:0:
256,192,252089,1,8,0:0:0:0:
256,192,252255,1,0,0:0:0:0:
256,192,252339,1,8,0:0:0:0:
256,192,252505,1,0,0:0:0:0:
256,192,252589,1,8,0:0:0:0:
256,192,252755,1,8,0:0:0:0:
256,192,252839,1,0,0:0:0:0:
256,192,253005,1,0,0:0:0:0:
256,192,253089,1,8,0:0:0:0:
256,192,253255,1,8,0:0:0:0:
256,192,253339,1,0,0:0:0:0:
256,192,253422,1,8,0:0:0:0:
256,192,253589,1,8,0:0:0:0:
256,192,253672,1,0,0:0:0:0:
256,192,253839,1,0,0:0:0:0:
256,192,253922,1,8,0:0:0:0:
256,192,254005,1,8,0:0:0:0:
256,192,254172,1,8,0:0:0:0:
256,192,254255,1,0,0:0:0:0:
256,192,254422,1,0,0:0:0:0:
256,192,254505,1,8,0:0:0:0:
256,192,254672,1,0,0:0:0:0:
256,192,254755,1,8,0:0:0:0:
256,192,254922,1,0,0:0:0:0:
256,192,255005,1,8,0:0:0:0:
256,192,255172,1,8,0:0:0:0:
256,192,255255,1,8,0:0:0:0:
256,192,255422,1,8,0:0:0:0:
256,192,255505,1,0,0:0:0:0:
256,192,255672,1,0,0:0:0:0:
256,192,255755,1,8,0:0:0:0:
256,192,255922,1,8,0:0:0:0:
256,192,256005,1,0,0:0:0:0:
256,192,256089,1,8,0:0:0:0:
256,192,256255,1,8,0:0:0:0:
256,192,256339,1,0,0:0:0:0:
256,192,256505,1,0,0:0:0:0:
256,192,256589,1,0,0:0:0:0:
256,192,256672,1,8,0:0:0:0:
256,192,256839,1,8,0:0:0:0:
256,192,256922,1,0,0:0:0:0:
256,192,257089,1,0,0:0:0:0:
256,192,257172,1,8,0:0:0:0:
256,192,257339,1,0,0:0:0:0:
256,192,257422,1,8,0:0:0:0:
256,192,257589,1,0,0:0:0:0:
256,192,257672,1,8,0:0:0:0:
256,192,257839,1,0,0:0:0:0:
256,192,257922,1,8,0:0:0:0:
256,192,258089,1,8,0:0:0:0:
256,192,258172,1,0,0:0:0:0:
256,192,258339,1,0,0:0:0:0:
256,192,258422,1,8,0:0:0:0:
256,192,258589,1,8,0:0:0:0:
256,192,258672,1,0,0:0:0:0:
256,192,258755,1,8,0:0:0:0:
256,192,258922,1,0,0:0:0:0:
256,192,259005,1,8,0:0:0:0:
256,192,259172,1,8,0:0:0:0:
256,192,259255,1,0,0:0:0:0:
256,192,259339,1,8,0:0:0:0:
256,192,259505,1,8,0:0:0:0:
256,192,259589,1,0,0:0:0:0:
256,192,259755,1,0,0:0:0:0:
256,192,259839,1,8,0:0:0:0:
256,192,260005,1,0,0:0:0:0:
256,192,260089,1,8,0:0:0:0:
256,192,260255,1,0,0:0:0:0:
256,192,260339,1,8,0:0:0:0:
256,192,260505,1,0,0:0:0:0:
256,192,260589,1,8,0:0:0:0:
256,192,260644,1,8,0:0:0:0:
256,192,260700,1,8,0:0:0:0:
256,192,260755,1,0,0:0:0:0:
256,192,260922,1,8,0:0:0:0:
256,192,260978,1,8,0:0:0:0:
256,192,261033,1,8,0:0:0:0:
256,192,261089,1,0,0:0:0:0:
256,192,261255,1,12,0:0:0:0:
256,192,261422,1,8,0:0:0:0:
256,192,261589,1,0,0:0:0:0:
256,192,261672,1,8,0:0:0:0:
256,192,261839,1,0,0:0:0:0:
256,192,261922,1,8,0:0:0:0:
256,192,262005,1,8,0:0:0:0:
256,192,262172,1,8,0:0:0:0:
256,192,262255,1,0,0:0:0:0:
256,192,262422,1,0,0:0:0:0:
256,192,262505,1,8,0:0:0:0:
256,192,262672,1,0,0:0:0:0:
256,192,262755,1,8,0:0:0:0:
256,192,262922,1,0,0:0:0:0:
256,192,263005,1,8,0:0:0:0:
256,192,263172,1,0,0:0:0:0:
256,192,263255,1,8,0:0:0:0:
256,192,263422,1,8,0:0:0:0:
256,192,263505,1,0,0:0:0:0:
256,192,263672,1,0,0:0:0:0:
256,192,263755,1,8,0:0:0:0:
256,192,263922,1,8,0:0:0:0:
256,192,264005,1,0,0:0:0:0:
256,192,264089,1,8,0:0:0:0:
256,192,264255,1,8,0:0:0:0:
256,192,264339,1,0,0:0:0:0:
256,192,264505,1,0,0:0:0:0:
256,192,264589,1,0,0:0:0:0:
256,192,264672,1,8,0:0:0:0:
256,192,264839,1,8,0:0:0:0:
256,192,264922,1,0,0:0:0:0:
256,192,265089,1,0,0:0:0:0:
256,192,265172,1,8,0:0:0:0:
256,192,265339,1,0,0:0:0:0:
256,192,265422,1,8,0:0:0:0:
256,192,265589,1,0,0:0:0:0:
256,192,265672,1,8,0:0:0:0:
256,192,265839,1,8,0:0:0:0:
256,192,265922,1,8,0:0:0:0:
256,192,266089,1,8,0:0:0:0:
256,192,266172,1,0,0:0:0:0:
256,192,266339,1,0,0:0:0:0:
256,192,266422,1,8,0:0:0:0:
256,192,266589,1,8,0:0:0:0:
256,192,266672,1,0,0:0:0:0:
256,192,266755,1,8,0:0:0:0:
256,192,266922,1,8,0:0:0:0:
256,192,267005,1,0,0:0:0:0:
256,192,267172,1,8,0:0:0:0:
256,192,267255,1,0,0:0:0:0:
256,192,267339,1,8,0:0:0:0:
256,192,267505,1,8,0:0:0:0:
256,192,267589,1,0,0:0:0:0:
256,192,267755,1,0,0:0:0:0:
256,192,267839,1,8,0:0:0:0:
256,192,268005,1,0,0:0:0:0:
256,192,268089,1,8,0:0:0:0:
256,192,268255,1,0,0:0:0:0:
256,192,268339,1,8,0:0:0:0:
256,192,268505,1,0,0:0:0:0:
256,192,268589,1,8,0:0:0:0:
256,192,268755,1,8,0:0:0:0:
256,192,268839,1,0,0:0:0:0:
256,192,269005,1,0,0:0:0:0:
256,192,269089,1,8,0:0:0:0:
256,192,269255,1,8,0:0:0:0:
256,192,269339,1,0,0:0:0:0:
256,192,269422,1,8,0:0:0:0:
256,192,269589,1,0,0:0:0:0:
256,192,269672,1,8,0:0:0:0:
256,192,269839,1,8,0:0:0:0:
256,192,270005,1,0,0:0:0:0:
256,192,270089,1,8,0:0:0:0:
256,192,270172,1,0,0:0:0:0:
256,192,270255,1,8,0:0:0:0:
256,192,270339,1,8,0:0:0:0:
256,192,270422,1,0,0:0:0:0:
256,192,270505,1,8,0:0:0:0:
256,192,270589,1,0,0:0:0:0:
256,192,270922,1,8,0:0:0:0:
256,192,271089,1,0,0:0:0:0:
256,192,271255,1,8,0:0:0:0:
256,192,271339,1,8,0:0:0:0:
256,192,271422,1,0,0:0:0:0:
256,192,271505,1,8,0:0:0:0:
256,192,271589,1,0,0:0:0:0:
256,192,271672,1,0,0:0:0:0:
256,192,271755,1,8,0:0:0:0:
256,192,271839,1,0,0:0:0:0:
256,192,271922,1,12,0:0:0:0:
256,192,272089,1,8,0:0:0:0:
256,192,272172,1,8,0:0:0:0:
256,192,272255,1,0,0:0:0:0:
256,192,272422,1,8,0:0:0:0:
256,192,272589,1,0,0:0:0:0:
256,192,272755,1,8,0:0:0:0:
256,192,272839,1,8,0:0:0:0:
256,192,272922,1,0,0:0:0:0:
256,192,273089,1,8,0:0:0:0:
256,192,273255,1,0,0:0:0:0:
256,192,273422,1,8,0:0:0:0:
256,192,273505,1,8,0:0:0:0:
256,192,273589,1,0,0:0:0:0:
256,192,273755,1,8,0:0:0:0:
256,192,273922,1,0,0:0:0:0:
256,192,274089,1,8,0:0:0:0:
256,192,274172,1,8,0:0:0:0:
256,192,274255,1,0,0:0:0:0:
256,192,274422,1,0,0:0:0:0:
256,192,274505,1,0,0:0:0:0:
256,192,274589,1,8,0:0:0:0:
256,192,274755,1,8,0:0:0:0:
256,192,274922,1,8,0:0:0:0:
256,192,275089,1,0,0:0:0:0:
256,192,275172,1,8,0:0:0:0:
256,192,275339,1,0,0:0:0:0:
256,192,275422,1,8,0:0:0:0:
256,192,275589,1,8,0:0:0:0:
256,192,275755,1,8,0:0:0:0:
256,192,275839,1,0,0:0:0:0:
256,192,275922,1,8,0:0:0:0:
256,192,276005,1,8,0:0:0:0:
256,192,276089,1,8,0:0:0:0:
256,192,276255,1,8,0:0:0:0:
256,192,276422,1,0,0:0:0:0:
256,192,276505,1,8,0:0:0:0:
256,192,276672,1,0,0:0:0:0:
256,192,276755,1,8,0:0:0:0:
256,192,276922,1,8,0:0:0:0:
256,192,277005,1,8,0:0:0:0:
256,192,277089,1,0,0:0:0:0:
256,192,277172,1,0,0:0:0:0:
256,192,277255,1,8,0:0:0:0:
256,192,277422,1,0,0:0:0:0:
256,192,277505,1,0,0:0:0:0:
256,192,277589,1,8,0:0:0:0:
256,192,277755,1,0,0:0:0:0:
256,192,277922,1,8,0:0:0:0:
256,192,278089,1,8,0:0:0:0:
256,192,278172,1,8,0:0:0:0:
256,192,278255,1,0,0:0:0:0:
256,192,278422,1,8,0:0:0:0:
256,192,278589,1,8,0:0:0:0:
256,192,278755,1,0,0:0:0:0:
256,192,278839,1,0,0:0:0:0:
256,192,278922,1,8,0:0:0:0:
256,192,279089,1,0,0:0:0:0:
256,192,279255,1,8,0:0:0:0:
256,192,279422,1,0,0:0:0:0:
256,192,279505,1,0,0:0:0:0:
256,192,279589,1,8,0:0:0:0:
256,192,279755,1,0,0:0:0:0:
256,192,279922,1,8,0:0:0:0:
256,192,280089,1,0,0:0:0:0:
256,192,280172,1,0,0:0:0:0:
256,192,280255,1,8,0:0:0:0:
256,192,280422,1,0,0:0:0:0:
256,192,280589,1,8,0:0:0:0:
256,192,280755,1,8,0:0:0:0:
256,192,280839,1,8,0:0:0:0:
256,192,280922,1,0,0:0:0:0:
256,192,281089,1,8,0:0:0:0:
256,192,281255,1,0,0:0:0:0:
256,192,281339,1,0,0:0:0:0:
256,192,281422,1,8,0:0:0:0:
256,192,281589,1,0,0:0:0:0:
256,192,281672,1,8,0:0:0:0:
256,192,281839,1,0,0:0:0:0:
256,192,281922,1,8,0:0:0:0:
256,192,281978,1,8,0:0:0:0:
256,192,282033,1,8,0:0:0:0:
256,192,282089,1,0,0:0:0:0:
256,192,282255,1,8,0:0:0:0:
256,192,282311,1,8,0:0:0:0:
256,192,282367,1,8,0:0:0:0:
256,192,282422,1,0,0:0:0:0:
256,192,282589,1,12,0:0:0:0:
256,192,282755,1,8,0:0:0:0:
256,192,282839,1,8,0:0:0:0:
256,192,282922,1,0,0:0:0:0:
256,192,283089,1,8,0:0:0:0:
256,192,283255,1,0,0:0:0:0:
256,192,283422,1,8,0:0:0:0:
256,192,283505,1,8,0:0:0:0:
256,192,283589,1,0,0:0:0:0:
256,192,283755,1,8,0:0:0:0:
256,192,283922,1,0,0:0:0:0:
256,192,284089,1,8,0:0:0:0:
256,192,284172,1,8,0:0:0:0:
256,192,284255,1,0,0:0:0:0:
256,192,284422,1,8,0:0:0:0:
256,192,284589,1,0,0:0:0:0:
256,192,284755,1,8,0:0:0:0:
256,192,284839,1,8,0:0:0:0:
256,192,284922,1,0,0:0:0:0:
256,192,285089,1,0,0:0:0:0:
256,192,285172,1,0,0:0:0:0:
256,192,285255,1,8,0:0:0:0:
256,192,285422,1,8,0:0:0:0:
256,192,285589,1,8,0:0:0:0:
256,192,285755,1,0,0:0:0:0:
256,192,285839,1,8,0:0:0:0:
256,192,286005,1,0,0:0:0:0:
256,192,286089,1,8,0:0:0:0:
256,192,286255,1,8,0:0:0:0:
256,192,286422,1,8,0:0:0:0:
256,192,286505,1,0,0:0:0:0:
256,192,286589,1,8,0:0:0:0:
256,192,286672,1,8,0:0:0:0:
256,192,286755,1,8,0:0:0:0:
256,192,286922,1,8,0:0:0:0:
256,192,287089,1,0,0:0:0:0:
256,192,287172,1,8,0:0:0:0:
256,192,287339,1,0,0:0:0:0:
256,192,287422,1,8,0:0:0:0:
256,192,287589,1,8,0:0:0:0:
256,192,287672,1,8,0:0:0:0:
256,192,287755,1,0,0:0:0:0:
256,192,287839,1,0,0:0:0:0:
256,192,287922,1,8,0:0:0:0:
256,192,288089,1,0,0:0:0:0:
256,192,288172,1,0,0:0:0:0:
256,192,288255,1,8,0:0:0:0:
256,192,288422,1,0,0:0:0:0:
256,192,288589,1,8,0:0:0:0:
256,192,288755,1,8,0:0:0:0:
256,192,288839,1,8,0:0:0:0:
256,192,288922,1,0,0:0:0:0:
256,192,289089,1,8,0:0:0:0:
256,192,289255,1,8,0:0:0:0:
256,192,289422,1,0,0:0:0:0:
256,192,289505,1,0,0:0:0:0:
256,192,289589,1,8,0:0:0:0:
256,192,289755,1,0,0:0:0:0:
256,192,289922,1,8,0:0:0:0:
256,192,290089,1,0,0:0:0:0:
256,192,290172,1,0,0:0:0:0:
256,192,290255,1,8,0:0:0:0:
256,192,290422,1,0,0:0:0:0:
256,192,290589,1,8,0:0:0:0:
256,192,290755,1,0,0:0:0:0:
256,192,290839,1,0,0:0:0:0:
256,192,290922,1,8,0:0:0:0:
256,192,291089,1,0,0:0:0:0:
256,192,291255,1,8,0:0:0:0:
256,192,291422,1,8,0:0:0:0:
256,192,291505,1,8,0:0:0:0:
256,192,291589,1,0,0:0:0:0:
256,192,291755,1,8,0:0:0:0:
256,192,291922,1,0,0:0:0:0:
256,192,292255,1,8,0:0:0:0:
256,192,292589,1,8,0:0:0:0:
256,192,292922,1,0,0:0:0:0:
256,192,293255,1,12,0:0:0:0:
256,192,293422,1,0,0:0:0:0:
256,192,293505,1,8,0:0:0:0:
256,192,293672,1,0,0:0:0:0:
256,192,293755,1,8,0:0:0:0:
256,192,293922,1,8,0:0:0:0:
256,192,294005,1,8,0:0:0:0:
256,192,294172,1,0,0:0:0:0:
256,192,294255,1,8,0:0:0:0:
256,192,294422,1,0,0:0:0:0:
256,192,294505,1,8,0:0:0:0:
256,192,294589,1,0,0:0:0:0:
256,192,294755,1,0,0:0:0:0:
256,192,294922,1,8,0:0:0:0:
256,192,295005,1,0,0:0:0:0:
256,192,295089,1,8,0:0:0:0:
256,192,295255,1,8,0:0:0:0:
256,192,295339,1,0,0:0:0:0:
256,192,295505,1,8,0:0:0:0:
256,192,295589,1,0,0:0:0:0:
256,192,295672,1,0,0:0:0:0:
256,192,295755,1,8,0:0:0:0:
256,192,295922,1,8,0:0:0:0:
256,192,296089,1,0,0:0:0:0:
256,192,296172,1,8,0:0:0:0:
256,192,296339,1,0,0:0:0:0:
256,192,296422,1,8,0:0:0:0:
256,192,296589,1,8,0:0:0:0:
256,192,296672,1,8,0:0:0:0:
256,192,296839,1,0,0:0:0:0:
256,192,296922,1,8,0:0:0:0:
256,192,297089,1,0,0:0:0:0:
256,192,297172,1,8,0:0:0:0:
256,192,297255,1,0,0:0:0:0:
256,192,297422,1,0,0:0:0:0:
256,192,297589,1,8,0:0:0:0:
256,192,297672,1,0,0:0:0:0:
256,192,297755,1,8,0:0:0:0:
256,192,297922,1,8,0:0:0:0:
256,192,298033,1,0,0:0:0:0:
256,192,298144,1,0,0:0:0:0:
256,192,298255,1,8,0:0:0:0:
256,192,298339,1,0,0:0:0:0:
256,192,298422,1,8,0:0:0:0:
256,192,298505,1,0,0:0:0:0:
256,192,298589,1,8,0:0:0:0:
256,192,298755,1,0,0:0:0:0:
256,192,298839,1,8,0:0:0:0:
256,192,299005,1,0,0:0:0:0:
256,192,299089,1,8,0:0:0:0:
256,192,299255,1,8,0:0:0:0:
256,192,299339,1,8,0:0:0:0:
256,192,299505,1,0,0:0:0:0:
256,192,299589,1,8,0:0:0:0:
256,192,299755,1,0,0:0:0:0:
256,192,299839,1,8,0:0:0:0:
256,192,299922,1,0,0:0:0:0:
256,192,300089,1,0,0:0:0:0:
256,192,300255,1,8,0:0:0:0:
256,192,300339,1,0,0:0:0:0:
256,192,300422,1,8,0:0:0:0:
256,192,300589,1,8,0:0:0:0:
256,192,300672,1,0,0:0:0:0:
256,192,300839,1,8,0:0:0:0:
256,192,300922,1,0,0:0:0:0:
256,192,301005,1,0,0:0:0:0:
256,192,301089,1,8,0:0:0:0:
256,192,301255,1,8,0:0:0:0:
256,192,301422,1,0,0:0:0:0:
256,192,301505,1,8,0:0:0:0:
256,192,301672,1,0,0:0:0:0:
256,192,301755,1,8,0:0:0:0:
256,192,301922,1,8,0:0:0:0:
256,192,302005,1,8,0:0:0:0:
256,192,302172,1,0,0:0:0:0:
256,192,302255,1,8,0:0:0:0:
256,192,302422,1,0,0:0:0:0:
256,192,302505,1,8,0:0:0:0:
256,192,302589,1,0,0:0:0:0:
256,192,302755,1,0,0:0:0:0:
256,192,302922,1,8,0:0:0:0:
256,192,303005,1,0,0:0:0:0:
256,192,303089,1,8,0:0:0:0:
256,192,303255,1,8,0:0:0:0:
256,192,303367,1,0,0:0:0:0:
256,192,303478,1,0,0:0:0:0:
256,192,303589,1,8,0:0:0:0:
256,192,303672,1,0,0:0:0:0:
256,192,303755,1,8,0:0:0:0:
256,192,303839,1,0,0:0:0:0:
256,192,303922,1,12,0:0:0:0:
256,192,304089,1,0,0:0:0:0:
256,192,304172,1,8,0:0:0:0:
256,192,304339,1,0,0:0:0:0:
256,192,304422,1,8,0:0:0:0:
256,192,304589,1,8,0:0:0:0:
256,192,304672,1,8,0:0:0:0:
256,192,304839,1,0,0:0:0:0:
256,192,304922,1,8,0:0:0:0:
256,192,305089,1,0,0:0:0:0:
256,192,305172,1,8,0:0:0:0:
256,192,305255,1,0,0:0:0:0:
256,192,305422,1,0,0:0:0:0:
256,192,305589,1,8,0:0:0:0:
256,192,305672,1,0,0:0:0:0:
256,192,305755,1,8,0:0:0:0:
256,192,305922,1,8,0:0:0:0:
256,192,306005,1,0,0:0:0:0:
256,192,306172,1,8,0:0:0:0:
256,192,306255,1,0,0:0:0:0:
256,192,306339,1,0,0:0:0:0:
256,192,306422,1,8,0:0:0:0:
256,192,306589,1,8,0:0:0:0:
256,192,306755,1,0,0:0:0:0:
256,192,306839,1,8,0:0:0:0:
256,192,307005,1,0,0:0:0:0:
256,192,307089,1,8,0:0:0:0:
256,192,307255,1,8,0:0:0:0:
256,192,307339,1,8,0:0:0:0:
256,192,307505,1,0,0:0:0:0:
256,192,307589,1,8,0:0:0:0:
256,192,307755,1,0,0:0:0:0:
256,192,307839,1,8,0:0:0:0:
256,192,307922,1,0,0:0:0:0:
256,192,308089,1,0,0:0:0:0:
256,192,308255,1,8,0:0:0:0:
256,192,308339,1,0,0:0:0:0:
256,192,308422,1,8,0:0:0:0:
256,192,308589,1,8,0:0:0:0:
256,192,308700,1,0,0:0:0:0:
256,192,308811,1,0,0:0:0:0:
256,192,308922,1,8,0:0:0:0:
256,192,309005,1,0,0:0:0:0:
256,192,309089,1,8,0:0:0:0:
256,192,309172,1,0,0:0:0:0:
256,192,309255,1,8,0:0:0:0:
256,192,309422,1,0,0:0:0:0:
256,192,309505,1,8,0:0:0:0:
256,192,309672,1,0,0:0:0:0:
256,192,309755,1,8,0:0:0:0:
256,192,309922,1,8,0:0:0:0:
256,192,310005,1,8,0:0:0:0:
256,192,310172,1,0,0:0:0:0:
256,192,310255,1,8,0:0:0:0:
256,192,310422,1,0,0:0:0:0:
256,192,310505,1,8,0:0:0:0:
256,192,310589,1,0,0:0:0:0:
256,192,310755,1,0,0:0:0:0:
256,192,310922,1,8,0:0:0:0:
256,192,311005,1,0,0:0:0:0:
256,192,311089,1,8,0:0:0:0:
256,192,311255,1,8,0:0:0:0:
256,192,311339,1,0,0:0:0:0:
256,192,311505,1,8,0:0:0:0:
256,192,311589,1,0,0:0:0:0:
256,192,311672,1,0,0:0:0:0:
256,192,311755,1,8,0:0:0:0:
256,192,311922,1,8,0:0:0:0:
256,192,312089,1,0,0:0:0:0:
256,192,312172,1,8,0:0:0:0:
256,192,312339,1,0,0:0:0:0:
256,192,312422,1,8,0:0:0:0:
256,192,312589,1,8,0:0:0:0:
256,192,312672,1,8,0:0:0:0:
256,192,312839,1,0,0:0:0:0:
256,192,312922,1,8,0:0:0:0:
256,192,313089,1,0,0:0:0:0:
256,192,313172,1,8,0:0:0:0:
256,192,313255,1,0,0:0:0:0:
256,192,313422,1,8,0:0:0:0:
256,192,313589,1,0,0:0:0:0:
256,192,313672,1,8,0:0:0:0:
256,192,313839,1,0,0:0:0:0:
256,192,313922,1,8,0:0:0:0:
256,192,314089,1,8,0:0:0:0:
256,192,314172,1,8,0:0:0:0:
256,192,314255,1,0,0:0:0:0:
256,192,314339,1,0,0:0:0:0:
256,192,314422,1,12,0:0:0:0:
