osu file format v14

[General]
AudioFilename: audio.mp3
AudioLeadIn: 0
PreviewTime: 106105
Countdown: 0
SampleSet: Normal
StackLeniency: 0.7
Mode: 1
LetterboxInBreaks: 0
WidescreenStoryboard: 0

[Editor]
Bookmarks: 10780,15580,20380,39580,49180,58780,68380,77980,87580,135580,145180,202780,212380
DistanceSpacing: 1.5
BeatDivisor: 4
GridSize: 32
TimelineZoom: 2.3

[Metadata]
Title:Ponko2 Girlish (feat. Nanahira)
TitleUnicode:Ponko2 Girlish (feat. ななひら)
Artist:t+pazolite
ArtistUnicode:t+pazolite
Creator:Tyistiana
Version:Cutie Oni
Source:
Tags:ポンコツガーリッシュ C.H.S cutie & headshaking sounds pop japanese
BeatmapID:1874562
BeatmapSetID:897266

[Difficulty]
HPDrainRate:5
CircleSize:5
OverallDifficulty:6.5
ApproachRate:8
SliderMultiplier:1.4
SliderTickRate:1

[Events]
//Background and Video events
0,0,"ponko2.jpg",0,65
//Break Periods
2,39780,47980
//Storyboard Layer 0 (Background)
//Storyboard Layer 1 (Fail)
//Storyboard Layer 2 (Pass)
//Storyboard Layer 3 (Foreground)
//Storyboard Layer 4 (Overlay)
//Storyboard Sound Samples

[TimingPoints]
1180,300,4,1,0,60,1,0
1180,-125,4,1,0,60,0,0
10630,-117.647058823529,4,1,0,60,0,0
10780,-111.111111111111,4,1,0,80,0,0
15055,-109.58904109589,4,1,0,80,0,0
15130,-108.108108108108,4,1,0,80,0,0
15205,-106.666666666667,4,1,0,80,0,0
15280,-105.263157894737,4,1,0,80,0,0
15430,-102.564102564103,4,1,0,80,0,0
15580,-100,4,1,0,90,0,0
20380,-100,4,1,0,100,0,0
28930,-100,4,1,0,100,0,0
29980,-100,4,1,0,100,0,0
39730,-100,4,1,0,60,0,0
47980,-125,4,1,0,70,0,0
58530,-117.647058823529,4,1,0,70,0,0
58580,-111.111111111111,4,1,0,70,0,0
58630,-105.263157894737,4,1,0,70,0,0
58780,-100,4,1,0,80,0,0
67930,-105.263157894737,4,1,0,80,0,0
68005,-108.108108108108,4,1,0,80,0,0
68080,-111.111111111111,4,1,0,80,0,0
68230,-117.647058823529,4,1,0,80,0,0
68380,-125,4,1,0,90,0,0
77680,-117.647058823529,4,1,0,90,0,0
77730,-111.111111111111,4,1,0,90,0,0
77780,-105.263157894737,4,1,0,90,0,0
77830,-100,4,1,0,90,0,0
85330,-98.0392156862745,4,1,0,90,0,0
85405,-97.0873786407767,4,1,0,90,0,0
85480,-96.1538461538461,4,1,0,90,0,0
85630,-94.3396226415094,4,1,0,90,0,0
85780,-92.5925925925926,4,1,0,90,0,0
85855,-91.743119266055,4,1,0,90,0,0
85930,-90.9090909090909,4,1,0,90,0,0
86005,-90.0900900900901,4,1,0,90,0,0
86080,-89.2857142857143,4,1,0,90,0,0
86230,-87.719298245614,4,1,0,90,0,0
86380,-86.2068965517241,4,1,0,90,0,0
86455,-85.4700854700855,4,1,0,90,0,0
86530,-84.7457627118644,4,1,0,90,0,0
86605,-84.0336134453781,4,1,0,90,0,0
86680,-83.3333333333333,4,1,0,90,0,0
86755,-82.6446280991736,4,1,0,90,0,0
86830,-81.9672131147541,4,1,0,90,0,0
86905,-81.3008130081301,4,1,0,90,0,0
86980,-80.6451612903226,4,1,0,90,0,0
87580,-86.9565217391304,4,1,0,100,0,1
95830,-86.9565217391304,4,1,0,100,0,0
97180,-86.9565217391304,4,1,0,100,0,1
104455,-86.5800865800866,4,1,0,100,0,1
104530,-86.2068965517241,4,1,0,100,0,1
104605,-85.8369098712446,4,1,0,100,0,1
104680,-85.4700854700855,4,1,0,100,0,1
104755,-85.1063829787234,4,1,0,100,0,1
104830,-84.7457627118644,4,1,0,100,0,1
104905,-84.3881856540084,4,1,0,100,0,1
104980,-84.0336134453781,4,1,0,100,0,1
105055,-83.6820083682008,4,1,0,100,0,1
105130,-83.3333333333333,4,1,0,100,0,1
105205,-82.9875518672199,4,1,0,100,0,1
105280,-82.6446280991736,4,1,0,100,0,1
105355,-82.3045267489712,4,1,0,100,0,1
105430,-81.9672131147541,4,1,0,100,0,0
106180,-73.5294117647059,4,1,0,100,0,0
106480,-66.6666666666667,4,1,0,100,0,0
106780,-60.9756097560976,4,1,0,100,0,1
106855,-83.3333333333333,4,1,0,100,0,1
115030,-83.3333333333333,4,1,0,100,0,0
116380,-83.3333333333333,4,1,0,100,0,1
123655,-82.9875518672199,4,1,0,100,0,1
123730,-82.6446280991736,4,1,0,100,0,1
123805,-82.3045267489712,4,1,0,100,0,1
123880,-81.9672131147541,4,1,0,100,0,1
123955,-81.6326530612245,4,1,0,100,0,1
124030,-81.3008130081301,4,1,0,100,0,1
124105,-80.9716599190283,4,1,0,100,0,1
124180,-80.6451612903226,4,1,0,100,0,1
124255,-80.3212851405623,4,1,0,100,0,1
124330,-80,4,1,0,100,0,1
124405,-79.6812749003984,4,1,0,100,0,1
124480,-79.3650793650794,4,1,0,100,0,1
124555,-79.0513833992095,4,1,0,100,0,1
124630,-78.7401574803149,4,1,0,100,0,1
125980,-100,4,1,0,80,0,0
126130,-100,4,1,0,50,0,0
128680,-100,4,1,0,40,0,0
130780,-100,4,1,0,30,0,0
130930,-100,4,1,0,35,0,0
131080,-100,4,1,0,40,0,0
131230,-100,4,1,0,45,0,0
131380,-100,4,1,0,50,0,0
131530,-100,4,1,0,55,0,0
131680,-100,4,1,0,60,0,0
131830,-100,4,1,0,65,0,0
131980,-100,4,1,0,70,0,0
132430,-100,4,1,0,85,0,0
132580,-100,4,1,0,100,0,0
133180,-100,4,1,0,80,0,0
134380,-100,4,1,0,80,0,0
136630,-86.9565217391304,4,1,0,80,0,0
137080,-74.0740740740741,4,1,0,80,0,0
137680,-100,4,1,0,80,0,0
139030,-86.9565217391304,4,1,0,80,0,0
139480,-74.0740740740741,4,1,0,80,0,0
140080,-100,4,1,0,80,0,0
145180,-125,4,1,0,90,0,0
149980,-100,4,1,0,90,0,0
154780,-86.9565217391304,4,1,0,100,0,1
163030,-86.9565217391304,4,1,0,100,0,0
164380,-86.9565217391304,4,1,0,100,0,1
171655,-86.5800865800866,4,1,0,100,0,1
171730,-86.2068965517241,4,1,0,100,0,1
171805,-85.8369098712446,4,1,0,100,0,1
171880,-85.4700854700855,4,1,0,100,0,1
171955,-85.1063829787234,4,1,0,100,0,1
172030,-84.7457627118644,4,1,0,100,0,1
172105,-84.3881856540084,4,1,0,100,0,1
172180,-84.0336134453781,4,1,0,100,0,1
172255,-83.6820083682008,4,1,0,100,0,1
172330,-83.3333333333333,4,1,0,100,0,1
172405,-82.9875518672199,4,1,0,100,0,1
172480,-82.6446280991736,4,1,0,100,0,1
172555,-82.3045267489712,4,1,0,100,0,1
172630,-81.9672131147541,4,1,0,100,0,0
173380,-73.5294117647059,4,1,0,100,0,0
173680,-66.6666666666667,4,1,0,100,0,0
173980,-60.9756097560976,4,1,0,100,0,1
174055,-83.3333333333333,4,1,0,100,0,1
182230,-83.3333333333333,4,1,0,100,0,0
183580,-83.3333333333333,4,1,0,100,0,1
190855,-82.6446280991736,4,1,0,100,0,1
190930,-81.9672131147541,4,1,0,100,0,1
191005,-81.3008130081301,4,1,0,100,0,1
191080,-80.6451612903226,4,1,0,100,0,1
191155,-80,4,1,0,100,0,1
191230,-79.3650793650794,4,1,0,100,0,1
191305,-78.7401574803149,4,1,0,100,0,1
191380,-78.125,4,1,0,100,0,1
191455,-77.5193798449612,4,1,0,100,0,1
191530,-76.9230769230769,4,1,0,100,0,1
191605,-76.3358778625954,4,1,0,100,0,1
191680,-75.7575757575758,4,1,0,100,0,1
191755,-75.187969924812,4,1,0,100,0,1
191830,-74.6268656716418,4,1,0,100,0,1
191980,-100,4,1,0,100,0,1
193180,-100,4,1,0,100,0,0
201430,-83.3333333333333,4,1,0,100,0,0
201580,-80,4,1,0,100,0,0
201655,-78.4313725490196,4,1,0,100,0,0
201730,-76.9230769230769,4,1,0,100,0,0
201880,-74.0740740740741,4,1,0,100,0,0
202030,-71.4285714285714,4,1,0,100,0,0
202105,-70.1754385964912,4,1,0,100,0,0
202330,-68.9655172413793,4,1,0,100,0,0
202480,-66.6666666666667,4,1,0,100,0,0
202630,-90.9090909090909,4,1,0,100,0,0
212380,-90.9090909090909,4,1,0,100,0,0
222130,-125,4,1,0,70,0,0

[HitObjects]
256,192,1180,5,0,0:0:0:0:
256,192,2380,1,8,0:0:0:0:
256,192,2980,1,0,0:0:0:0:
256,192,3580,1,8,0:0:0:0:
256,192,4780,1,0,0:0:0:0:
256,192,5980,1,0,0:0:0:0:
256,192,7180,1,0,0:0:0:0:
256,192,7780,1,8,0:0:0:0:
256,192,8380,1,0,0:0:0:0:
256,192,9580,5,8,0:0:0:0:
256,192,9730,1,0,0:0:0:0:
256,192,9805,1,0,0:0:0:0:
256,192,9880,1,8,0:0:0:0:
256,192,10030,1,0,0:0:0:0:
256,192,10105,1,0,0:0:0:0:
256,192,10180,1,8,0:0:0:0:
256,192,10330,1,0,0:0:0:0:
256,192,10405,1,0,0:0:0:0:
256,192,10480,1,8,0:0:0:0:
256,192,10630,1,8,0:0:0:0:
256,192,10780,5,0,0:0:0:0:
256,192,11080,1,8,0:0:0:0:
256,192,11230,1,8,0:0:0:0:
256,192,11380,1,0,0:0:0:0:
256,192,11530,1,0,0:0:0:0:
256,192,11680,1,8,0:0:0:0:
256,192,11830,1,0,0:0:0:0:
256,192,12130,1,0,0:0:0:0:
256,192,12280,1,8,0:0:0:0:
256,192,12580,1,0,0:0:0:0:
256,192,12730,1,8,0:0:0:0:
256,192,12880,1,8,0:0:0:0:
256,192,13180,1,0,0:0:0:0:
256,192,13480,1,8,0:0:0:0:
256,192,13630,1,8,0:0:0:0:
256,192,13780,1,0,0:0:0:0:
256,192,13930,1,0,0:0:0:0:
256,192,14080,1,8,0:0:0:0:
256,192,14230,1,0,0:0:0:0:
256,192,14530,1,0,0:0:0:0:
256,192,14680,1,8,0:0:0:0:
256,192,14830,1,0,0:0:0:0:
256,192,14980,1,0,0:0:0:0:
256,192,15055,1,8,0:0:0:0:
256,192,15130,1,8,0:0:0:0:
256,192,15205,1,8,0:0:0:0:
256,192,15280,1,0,0:0:0:0:
256,192,15430,1,8,0:0:0:0:
256,192,15580,5,4,0:0:0:0:
256,192,15730,1,0,0:0:0:0:
256,192,15880,1,8,0:0:0:0:
256,192,16030,1,8,0:0:0:0:
256,192,16180,1,0,0:0:0:0:
256,192,16330,1,0,0:0:0:0:
256,192,16480,1,8,0:0:0:0:
256,192,16630,1,0,0:0:0:0:
256,192,16930,1,0,0:0:0:0:
256,192,17080,1,8,0:0:0:0:
256,192,17230,1,8,0:0:0:0:
256,192,17380,1,0,0:0:0:0:
256,192,17530,1,0,0:0:0:0:
256,192,17605,1,0,0:0:0:0:
256,192,17680,1,8,0:0:0:0:
256,192,17980,1,8,0:0:0:0:
256,192,18130,1,0,0:0:0:0:
256,192,18280,1,8,0:0:0:0:
256,192,18430,1,8,0:0:0:0:
256,192,18580,1,0,0:0:0:0:
256,192,18730,1,0,0:0:0:0:
256,192,18880,1,8,0:0:0:0:
256,192,19030,1,0,0:0:0:0:
256,192,19330,1,0,0:0:0:0:
256,192,19480,1,8,0:0:0:0:
256,192,19630,1,0,0:0:0:0:
256,192,19780,1,0,0:0:0:0:
256,192,19930,1,0,0:0:0:0:
256,192,20005,1,0,0:0:0:0:
256,192,20080,1,8,0:0:0:0:
256,192,20130,1,8,0:0:0:0:
256,192,20180,1,8,0:0:0:0:
256,192,20230,1,0,0:0:0:0:
256,192,20380,5,4,0:0:0:0:
256,192,20530,1,0,0:0:0:0:
256,192,20605,1,0,0:0:0:0:
256,192,20680,1,8,0:0:0:0:
256,192,20755,1,0,0:0:0:0:
256,192,20830,1,8,0:0:0:0:
256,192,20905,1,8,0:0:0:0:
256,192,20980,1,0,0:0:0:0:
256,192,21130,1,0,0:0:0:0:
256,192,21280,1,8,0:0:0:0:
256,192,21355,1,0,0:0:0:0:
256,192,21430,1,8,0:0:0:0:
256,192,21505,1,8,0:0:0:0:
256,192,21580,1,0,0:0:0:0:
256,192,21730,1,0,0:0:0:0:
256,192,21805,1,0,0:0:0:0:
256,192,21880,1,8,0:0:0:0:
256,192,22030,1,0,0:0:0:0:
256,192,22180,1,0,0:0:0:0:
256,192,22255,1,8,0:0:0:0:
256,192,22330,1,0,0:0:0:0:
256,192,22405,1,0,0:0:0:0:
256,192,22480,1,8,0:0:0:0:
256,192,22555,1,8,0:0:0:0:
256,192,22630,1,0,0:0:0:0:
256,192,22705,1,0,0:0:0:0:
256,192,22780,1,8,0:0:0:0:
256,192,22855,1,0,0:0:0:0:
256,192,22930,1,0,0:0:0:0:
256,192,23005,1,8,0:0:0:0:
256,192,23080,1,0,0:0:0:0:
256,192,23230,1,8,0:0:0:0:
256,192,23380,1,0,0:0:0:0:
256,192,23455,1,0,0:0:0:0:
256,192,23530,1,8,0:0:0:0:
256,192,23605,1,8,0:0:0:0:
256,192,23680,1,0,0:0:0:0:
256,192,23830,1,8,0:0:0:0:
256,192,23905,1,8,0:0:0:0:
256,192,23980,1,0,0:0:0:0:
256,192,24130,1,0,0:0:0:0:
256,192,24205,1,0,0:0:0:0:
256,192,24280,1,8,0:0:0:0:
256,192,24355,1,0,0:0:0:0:
256,192,24430,1,8,0:0:0:0:
256,192,24580,1,8,0:0:0:0:
256,192,24730,1,8,0:0:0:0:
256,192,24805,1,8,0:0:0:0:
256,192,24880,1,0,0:0:0:0:
256,192,24955,1,0,0:0:0:0:
256,192,25030,1,8,0:0:0:0:
256,192,25180,5,8,0:0:0:0:
256,192,25330,1,0,0:0:0:0:
256,192,25405,1,0,0:0:0:0:
256,192,25480,1,8,0:0:0:0:
256,192,25555,1,0,0:0:0:0:
256,192,25630,1,8,0:0:0:0:
256,192,25705,1,8,0:0:0:0:
256,192,25780,1,0,0:0:0:0:
256,192,25930,1,0,0:0:0:0:
256,192,26080,1,8,0:0:0:0:
256,192,26155,1,0,0:0:0:0:
256,192,26230,1,8,0:0:0:0:
256,192,26305,1,8,0:0:0:0:
256,192,26380,1,0,0:0:0:0:
256,192,26530,1,0,0:0:0:0:
256,192,26605,1,0,0:0:0:0:
256,192,26680,1,8,0:0:0:0:
256,192,26830,1,0,0:0:0:0:
256,192,26980,1,0,0:0:0:0:
256,192,27055,1,8,0:0:0:0:
256,192,27130,1,8,0:0:0:0:
256,192,27205,1,0,0:0:0:0:
256,192,27280,1,8,0:0:0:0:
256,192,27355,1,8,0:0:0:0:
256,192,27430,1,0,0:0:0:0:
256,192,27505,1,0,0:0:0:0:
256,192,27580,1,8,0:0:0:0:
256,192,27655,1,0,0:0:0:0:
256,192,27730,1,0,0:0:0:0:
256,192,27805,1,8,0:0:0:0:
256,192,27880,1,0,0:0:0:0:
256,192,28030,1,8,0:0:0:0:
256,192,28180,1,0,0:0:0:0:
256,192,28255,1,0,0:0:0:0:
256,192,28330,1,8,0:0:0:0:
256,192,28405,1,8,0:0:0:0:
256,192,28480,1,0,0:0:0:0:
256,192,28555,1,0,0:0:0:0:
256,192,28630,1,8,0:0:0:0:
256,192,28705,1,0,0:0:0:0:
256,192,28780,1,0,0:0:0:0:
256,192,28930,1,8,0:0:0:0:
256,192,29080,1,0,0:0:0:0:
256,192,29230,1,8,0:0:0:0:
256,192,29380,1,0,0:0:0:0:
256,192,29530,1,8,0:0:0:0:
256,192,29680,1,0,0:0:0:0:
256,192,29830,1,8,0:0:0:0:
256,192,29980,5,4,0:0:0:0:
256,192,30130,1,0,0:0:0:0:
256,192,30205,1,0,0:0:0:0:
256,192,30280,1,8,0:0:0:0:
256,192,30430,1,0,0:0:0:0:
256,192,30580,1,0,0:0:0:0:
256,192,30655,1,8,0:0:0:0:
256,192,30730,1,0,0:0:0:0:
256,192,30805,1,0,0:0:0:0:
256,192,30880,1,8,0:0:0:0:
256,192,31030,1,8,0:0:0:0:
256,192,31180,1,0,0:0:0:0:
256,192,31330,1,8,0:0:0:0:
256,192,31405,1,0,0:0:0:0:
256,192,31480,1,8,0:0:0:0:
256,192,31630,1,8,0:0:0:0:
256,192,31780,1,0,0:0:0:0:
256,192,31855,1,8,0:0:0:0:
256,192,31930,1,8,0:0:0:0:
256,192,32005,1,0,0:0:0:0:
256,192,32080,1,8,0:0:0:0:
256,192,32155,1,8,0:0:0:0:
256,192,32230,1,0,0:0:0:0:
256,192,32305,1,0,0:0:0:0:
256,192,32380,1,8,0:0:0:0:
256,192,32530,1,0,0:0:0:0:
256,192,32605,1,0,0:0:0:0:
256,192,32680,1,8,0:0:0:0:
256,192,32830,1,8,0:0:0:0:
256,192,32980,1,0,0:0:0:0:
256,192,33055,1,0,0:0:0:0:
256,192,33130,1,8,0:0:0:0:
256,192,33205,1,8,0:0:0:0:
256,192,33280,1,0,0:0:0:0:
256,192,33430,1,8,0:0:0:0:
256,192,33505,1,8,0:0:0:0:
256,192,33580,1,0,0:0:0:0:
256,192,33730,1,0,0:0:0:0:
256,192,33805,1,0,0:0:0:0:
256,192,33880,1,8,0:0:0:0:
256,192,33955,1,0,0:0:0:0:
256,192,34030,1,8,0:0:0:0:
256,192,34180,1,8,0:0:0:0:
256,192,34330,1,8,0:0:0:0:
256,192,34405,1,8,0:0:0:0:
256,192,34480,1,0,0:0:0:0:
256,192,34555,1,0,0:0:0:0:
256,192,34630,1,8,0:0:0:0:
256,192,34780,1,0,0:0:0:0:
256,192,34930,1,0,0:0:0:0:
256,192,35005,1,0,0:0:0:0:
256,192,35080,1,8,0:0:0:0:
256,192,35230,1,8,0:0:0:0:
256,192,35380,1,0,0:0:0:0:
256,192,35455,1,8,0:0:0:0:
256,192,35530,1,0,0:0:0:0:
256,192,35605,1,0,0:0:0:0:
256,192,35680,1,8,0:0:0:0:
256,192,35830,1,8,0:0:0:0:
256,192,35980,1,0,0:0:0:0:
256,192,36130,1,8,0:0:0:0:
256,192,36205,1,0,0:0:0:0:
256,192,36280,1,8,0:0:0:0:
256,192,36430,1,8,0:0:0:0:
256,192,36580,1,0,0:0:0:0:
256,192,36655,1,8,0:0:0:0:
256,192,36730,1,0,0:0:0:0:
256,192,36805,1,0,0:0:0:0:
256,192,36880,1,8,0:0:0:0:
256,192,36955,1,8,0:0:0:0:
256,192,37030,1,0,0:0:0:0:
256,192,37105,1,0,0:0:0:0:
256,192,37180,1,8,0:0:0:0:
256,192,37330,1,0,0:0:0:0:
256,192,37405,1,0,0:0:0:0:
256,192,37480,1,8,0:0:0:0:
256,192,37630,1,8,0:0:0:0:
256,192,37780,1,0,0:0:0:0:
256,192,37855,1,0,0:0:0:0:
256,192,37930,1,8,0:0:0:0:
256,192,38005,1,8,0:0:0:0:
256,192,38080,1,0,0:0:0:0:
256,192,38230,1,8,0:0:0:0:
256,192,38305,1,8,0:0:0:0:
256,192,38380,1,0,0:0:0:0:
256,192,38530,1,8,0:0:0:0:
256,192,38605,1,0,0:0:0:0:
256,192,38680,1,0,0:0:0:0:
256,192,38755,1,0,0:0:0:0:
256,192,38830,1,8,0:0:0:0:
256,192,38980,1,8,0:0:0:0:
256,192,39030,1,8,0:0:0:0:
256,192,39080,1,8,0:0:0:0:
256,192,39130,1,0,0:0:0:0:
256,192,39280,1,0,0:0:0:0:
256,192,39330,1,0,0:0:0:0:
256,192,39380,1,0,0:0:0:0:
256,192,39430,1,8,0:0:0:0:
256,192,39580,1,4,0:0:0:0:
256,192,49180,5,0,0:0:0:0:
256,192,49480,1,8,0:0:0:0:
256,192,49780,1,0,0:0:0:0:
256,192,49930,1,0,0:0:0:0:
256,192,50080,1,8,0:0:0:0:
256,192,50230,1,0,0:0:0:0:
256,192,50680,1,0,0:0:0:0:
256,192,50980,1,8,0:0:0:0:
256,192,51130,1,0,0:0:0:0:
256,192,51280,1,8,0:0:0:0:
256,192,51430,1,8,0:0:0:0:
256,192,51580,1,0,0:0:0:0:
256,192,51880,1,0,0:0:0:0:
256,192,52180,1,8,0:0:0:0:
256,192,52330,1,0,0:0:0:0:
256,192,52480,1,8,0:0:0:0:
256,192,52630,1,0,0:0:0:0:
256,192,53080,1,0,0:0:0:0:
256,192,53380,1,8,0:0:0:0:
256,192,53530,1,0,0:0:0:0:
256,192,53680,1,8,0:0:0:0:
256,192,53830,1,8,0:0:0:0:
256,192,53980,1,0,0:0:0:0:
256,192,54280,1,0,0:0:0:0:
256,192,54580,1,8,0:0:0:0:
256,192,54730,1,0,0:0:0:0:
256,192,54880,1,8,0:0:0:0:
256,192,55030,1,0,0:0:0:0:
256,192,55180,1,0,0:0:0:0:
256,192,55480,1,0,0:0:0:0:
256,192,55780,1,8,0:0:0:0:
256,192,55930,1,0,0:0:0:0:
256,192,56080,1,8,0:0:0:0:
256,192,56230,1,8,0:0:0:0:
256,192,56380,1,0,0:0:0:0:
256,192,56680,1,0,0:0:0:0:
256,192,56980,1,8,0:0:0:0:
256,192,57130,1,0,0:0:0:0:
256,192,57280,1,8,0:0:0:0:
256,192,57430,1,0,0:0:0:0:
256,192,57730,1,0,0:0:0:0:
256,192,57880,1,8,0:0:0:0:
256,192,58030,1,0,0:0:0:0:
256,192,58330,1,0,0:0:0:0:
256,192,58480,1,8,0:0:0:0:
256,192,58530,1,8,0:0:0:0:
256,192,58580,1,8,0:0:0:0:
256,192,58630,1,0,0:0:0:0:
256,192,58780,5,4,0:0:0:0:
256,192,58930,1,0,0:0:0:0:
256,192,59005,1,0,0:0:0:0:
256,192,59080,1,8,0:0:0:0:
256,192,59230,1,8,0:0:0:0:
256,192,59530,1,0,0:0:0:0:
256,192,59680,1,8,0:0:0:0:
256,192,59830,1,0,0:0:0:0:
256,192,60130,1,0,0:0:0:0:
256,192,60280,1,8,0:0:0:0:
256,192,60430,1,8,0:0:0:0:
256,192,60580,1,0,0:0:0:0:
256,192,60730,1,8,0:0:0:0:
256,192,60805,1,0,0:0:0:0:
256,192,60880,1,0,0:0:0:0:
256,192,61030,1,8,0:0:0:0:
256,192,61180,1,0,0:0:0:0:
256,192,61480,1,8,0:0:0:0:
256,192,61630,1,8,0:0:0:0:
256,192,61930,1,0,0:0:0:0:
256,192,62080,1,8,0:0:0:0:
256,192,62230,1,0,0:0:0:0:
256,192,62530,1,0,0:0:0:0:
256,192,62680,1,8,0:0:0:0:
256,192,62830,1,8,0:0:0:0:
256,192,62980,1,0,0:0:0:0:
256,192,63130,1,0,0:0:0:0:
256,192,63205,1,0,0:0:0:0:
256,192,63280,1,8,0:0:0:0:
256,192,63430,1,8,0:0:0:0:
256,192,63580,1,0,0:0:0:0:
256,192,63880,1,8,0:0:0:0:
256,192,64030,1,8,0:0:0:0:
256,192,64330,1,0,0:0:0:0:
256,192,64480,1,8,0:0:0:0:
256,192,64630,1,0,0:0:0:0:
256,192,64930,1,0,0:0:0:0:
256,192,65080,1,8,0:0:0:0:
256,192,65230,1,8,0:0:0:0:
256,192,65380,1,0,0:0:0:0:
256,192,65530,1,8,0:0:0:0:
256,192,65605,1,0,0:0:0:0:
256,192,65680,1,8,0:0:0:0:
256,192,65830,1,0,0:0:0:0:
256,192,65980,1,8,0:0:0:0:
256,192,66280,1,8,0:0:0:0:
256,192,66430,1,8,0:0:0:0:
256,192,66730,1,0,0:0:0:0:
256,192,66880,1,8,0:0:0:0:
256,192,67030,1,0,0:0:0:0:
256,192,67330,1,0,0:0:0:0:
256,192,67480,1,8,0:0:0:0:
256,192,67630,1,0,0:0:0:0:
256,192,67780,1,8,0:0:0:0:
256,192,67930,1,8,0:0:0:0:
256,192,68005,1,8,0:0:0:0:
256,192,68080,1,8,0:0:0:0:
256,192,68230,1,8,0:0:0:0:
256,192,68380,5,4,0:0:0:0:
256,192,68530,1,0,0:0:0:0:
256,192,68680,1,8,0:0:0:0:
256,192,68980,1,0,0:0:0:0:
256,192,69130,1,8,0:0:0:0:
256,192,69430,1,8,0:0:0:0:
256,192,69580,1,0,0:0:0:0:
256,192,69730,1,0,0:0:0:0:
256,192,69880,1,8,0:0:0:0:
256,192,70180,1,0,0:0:0:0:
256,192,70330,1,8,0:0:0:0:
256,192,70630,1,8,0:0:0:0:
256,192,70780,1,0,0:0:0:0:
256,192,70930,1,0,0:0:0:0:
256,192,71080,1,8,0:0:0:0:
256,192,71380,1,0,0:0:0:0:
256,192,71530,1,8,0:0:0:0:
256,192,71680,1,8,0:0:0:0:
256,192,71830,1,0,0:0:0:0:
256,192,72130,1,0,0:0:0:0:
256,192,72430,1,0,0:0:0:0:
256,192,72730,1,0,0:0:0:0:
256,192,72880,1,8,0:0:0:0:
256,192,73180,1,0,0:0:0:0:
256,192,73330,1,0,0:0:0:0:
256,192,73480,1,8,0:0:0:0:
256,192,73780,1,0,0:0:0:0:
256,192,73930,1,8,0:0:0:0:
256,192,74230,1,8,0:0:0:0:
256,192,74380,1,0,0:0:0:0:
256,192,74530,1,0,0:0:0:0:
256,192,74680,1,8,0:0:0:0:
256,192,74980,1,0,0:0:0:0:
256,192,75130,1,8,0:0:0:0:
256,192,75430,1,8,0:0:0:0:
256,192,75580,1,0,0:0:0:0:
256,192,75730,1,0,0:0:0:0:
256,192,75880,1,8,0:0:0:0:
256,192,76180,1,0,0:0:0:0:
256,192,76330,1,8,0:0:0:0:
256,192,76480,1,0,0:0:0:0:
256,192,76630,1,8,0:0:0:0:
256,192,76930,1,0,0:0:0:0:
256,192,77230,1,8,0:0:0:0:
256,192,77530,1,0,0:0:0:0:
256,192,77680,1,8,0:0:0:0:
256,192,77730,1,8,0:0:0:0:
256,192,77780,1,8,0:0:0:0:
256,192,77830,1,0,0:0:0:0:
256,192,77980,5,4,0:0:0:0:
256,64,78280,1,8,0:0:0:0:
256,192,78430,1,0,0:0:0:0:
256,192,78580,1,8,0:0:0:0:
256,64,78730,1,8,0:0:0:0:
256,64,78880,1,0,0:0:0:0:
256,64,78955,1,8,0:0:0:0:
256,64,79105,1,8,0:0:0:0:
256,192,79180,1,0,0:0:0:0:
256,64,79330,1,8,0:0:0:0:
256,64,79405,1,0,0:0:0:0:
256,64,79480,1,8,0:0:0:0:
256,192,79630,1,0,0:0:0:0:
256,192,79780,1,8,0:0:0:0:
256,64,79930,1,8,0:0:0:0:
256,192,80005,1,8,0:0:0:0:
256,64,80155,1,0,0:0:0:0:
256,192,80230,1,8,0:0:0:0:
256,192,80380,1,0,0:0:0:0:
256,64,80530,1,0,0:0:0:0:
256,64,80605,1,0,0:0:0:0:
256,64,80680,1,8,0:0:0:0:
256,64,80830,1,0,0:0:0:0:
256,192,80980,1,8,0:0:0:0:
256,64,81130,1,8,0:0:0:0:
256,192,81280,1,0,0:0:0:0:
256,64,81355,1,8,0:0:0:0:
256,192,81430,1,0,0:0:0:0:
256,192,81580,1,0,0:0:0:0:
256,192,81730,1,8,0:0:0:0:
256,192,81805,1,0,0:0:0:0:
256,192,81880,1,8,0:0:0:0:
256,192,81955,1,8,0:0:0:0:
256,192,82030,1,0,0:0:0:0:
256,192,82105,1,8,0:0:0:0:
256,192,82180,1,0,0:0:0:0:
256,64,82330,1,8,0:0:0:0:
256,192,82480,1,0,0:0:0:0:
256,192,82780,1,8,0:0:0:0:
256,192,82930,1,0,0:0:0:0:
256,192,83005,1,0,0:0:0:0:
256,192,83080,1,8,0:0:0:0:
256,192,83230,1,8,0:0:0:0:
256,192,83380,1,0,0:0:0:0:
256,192,83455,1,0,0:0:0:0:
256,192,83530,1,8,0:0:0:0:
256,192,83680,1,8,0:0:0:0:
256,192,83830,1,8,0:0:0:0:
256,192,83980,1,0,0:0:0:0:
256,192,84055,1,8,0:0:0:0:
256,192,84130,1,0,0:0:0:0:
256,192,84205,1,0,0:0:0:0:
256,192,84280,1,8,0:0:0:0:
256,192,84430,1,8,0:0:0:0:
256,192,84480,1,8,0:0:0:0:
256,192,84530,1,8,0:0:0:0:
256,192,84580,1,0,0:0:0:0:
256,192,84655,1,0,0:0:0:0:
256,192,84730,1,8,0:0:0:0:
256,192,84880,1,8,0:0:0:0:
256,192,85030,1,0,0:0:0:0:
256,192,85105,1,0,0:0:0:0:
256,192,85180,1,8,0:0:0:0:
256,192,85330,1,8,0:0:0:0:
256,192,85405,1,0,0:0:0:0:
256,192,85480,1,8,0:0:0:0:
256,192,85630,1,0,0:0:0:0:
256,192,85780,1,8,0:0:0:0:
256,192,85855,1,0,0:0:0:0:
256,192,85930,1,8,0:0:0:0:
256,192,86005,1,8,0:0:0:0:
256,192,86080,1,0,0:0:0:0:
256,192,86230,1,0,0:0:0:0:
256,192,86380,1,8,0:0:0:0:
256,192,86455,1,8,0:0:0:0:
256,192,86530,1,0,0:0:0:0:
256,192,86605,1,0,0:0:0:0:
256,192,86680,1,8,0:0:0:0:
256,192,86755,1,0,0:0:0:0:
256,192,86830,1,8,0:0:0:0:
256,192,86905,1,8,0:0:0:0:
256,192,86980,1,0,0:0:0:0:
256,192,87580,5,4,0:0:0:0:
256,192,87730,1,0,0:0:0:0:
256,192,87805,1,0,0:0:0:0:
256,192,87880,1,8,0:0:0:0:
256,192,88030,1,8,0:0:0:0:
256,192,88180,1,0,0:0:0:0:
256,192,88255,1,0,0:0:0:0:
256,192,88330,1,8,0:0:0:0:
256,192,88405,1,0,0:0:0:0:
256,192,88480,1,8,0:0:0:0:
256,192,88630,1,8,0:0:0:0:
256,192,88780,1,0,0:0:0:0:
256,192,88930,1,0,0:0:0:0:
256,192,89005,1,0,0:0:0:0:
256,192,89080,1,8,0:0:0:0:
256,192,89230,1,8,0:0:0:0:
256,192,89380,1,0,0:0:0:0:
256,192,89455,1,8,0:0:0:0:
256,192,89530,1,0,0:0:0:0:
256,192,89605,1,0,0:0:0:0:
256,192,89680,1,8,0:0:0:0:
256,192,89830,1,8,0:0:0:0:
256,192,89980,1,0,0:0:0:0:
256,192,90130,1,0,0:0:0:0:
256,192,90205,1,0,0:0:0:0:
256,192,90280,1,8,0:0:0:0:
256,192,90430,1,8,0:0:0:0:
256,192,90580,1,0,0:0:0:0:
256,192,90655,1,0,0:0:0:0:
256,192,90730,1,8,0:0:0:0:
256,192,90805,1,0,0:0:0:0:
256,192,90880,1,0,0:0:0:0:
256,192,91030,1,8,0:0:0:0:
256,192,91180,1,0,0:0:0:0:
256,192,91330,1,0,0:0:0:0:
256,192,91405,1,0,0:0:0:0:
256,192,91480,1,8,0:0:0:0:
256,192,91630,1,0,0:0:0:0:
256,192,91930,1,0,0:0:0:0:
256,192,92080,1,8,0:0:0:0:
256,192,92230,1,8,0:0:0:0:
256,192,92305,1,8,0:0:0:0:
256,192,92380,1,0,0:0:0:0:
256,192,92530,1,0,0:0:0:0:
256,192,92605,1,0,0:0:0:0:
256,192,92680,1,8,0:0:0:0:
256,192,92830,1,0,0:0:0:0:
256,192,92980,1,8,0:0:0:0:
256,192,93055,1,0,0:0:0:0:
256,192,93130,1,0,0:0:0:0:
256,192,93205,1,8,0:0:0:0:
256,192,93280,1,0,0:0:0:0:
256,192,93430,1,8,0:0:0:0:
256,192,93580,1,0,0:0:0:0:
256,192,93730,1,0,0:0:0:0:
256,192,93805,1,0,0:0:0:0:
256,192,93880,1,8,0:0:0:0:
256,192,94030,1,0,0:0:0:0:
256,192,94180,1,8,0:0:0:0:
256,192,94255,1,0,0:0:0:0:
256,192,94330,1,8,0:0:0:0:
256,192,94405,1,8,0:0:0:0:
256,192,94480,1,0,0:0:0:0:
256,192,94630,1,8,0:0:0:0:
256,192,94780,1,0,0:0:0:0:
256,192,94930,1,0,0:0:0:0:
256,192,95005,1,0,0:0:0:0:
256,192,95080,1,8,0:0:0:0:
256,192,95230,1,0,0:0:0:0:
256,192,95380,1,8,0:0:0:0:
256,192,95455,1,8,0:0:0:0:
256,192,95530,1,8,0:0:0:0:
256,192,95605,1,0,0:0:0:0:
256,192,95680,1,8,0:0:0:0:
256,192,95830,1,0,0:0:0:0:
256,192,96130,1,0,0:0:0:0:
256,192,96205,1,0,0:0:0:0:
256,192,96280,1,8,0:0:0:0:
256,192,96430,1,8,0:0:0:0:
256,192,96580,1,0,0:0:0:0:
256,192,96730,1,0,0:0:0:0:
256,192,96805,1,0,0:0:0:0:
256,192,96880,1,8,0:0:0:0:
256,192,96930,1,8,0:0:0:0:
256,192,96980,1,8,0:0:0:0:
256,192,97030,1,0,0:0:0:0:
256,192,97180,5,4,0:0:0:0:
256,192,97330,1,0,0:0:0:0:
256,192,97405,1,0,0:0:0:0:
256,192,97480,1,8,0:0:0:0:
256,192,97630,1,8,0:0:0:0:
256,192,97780,1,0,0:0:0:0:
256,192,97855,1,8,0:0:0:0:
256,192,97930,1,8,0:0:0:0:
256,192,98005,1,8,0:0:0:0:
256,192,98080,1,0,0:0:0:0:
256,192,98230,1,8,0:0:0:0:
256,192,98380,1,0,0:0:0:0:
256,192,98530,1,0,0:0:0:0:
256,192,98605,1,0,0:0:0:0:
256,192,98680,1,8,0:0:0:0:
256,192,98830,1,8,0:0:0:0:
256,192,98980,1,0,0:0:0:0:
256,192,99055,1,0,0:0:0:0:
256,192,99130,1,8,0:0:0:0:
256,192,99205,1,8,0:0:0:0:
256,192,99280,1,0,0:0:0:0:
256,192,99430,1,8,0:0:0:0:
256,192,99580,1,0,0:0:0:0:
256,192,99730,1,0,0:0:0:0:
256,192,99805,1,0,0:0:0:0:
256,192,99880,1,8,0:0:0:0:
256,192,100030,1,8,0:0:0:0:
256,192,100180,1,0,0:0:0:0:
256,192,100255,1,8,0:0:0:0:
256,192,100330,1,8,0:0:0:0:
256,192,100405,1,0,0:0:0:0:
256,192,100480,1,8,0:0:0:0:
256,192,100630,1,8,0:0:0:0:
256,192,100780,1,0,0:0:0:0:
256,192,100930,1,0,0:0:0:0:
256,192,101005,1,0,0:0:0:0:
256,192,101080,1,8,0:0:0:0:
256,192,101230,1,0,0:0:0:0:
256,192,101530,1,0,0:0:0:0:
256,192,101680,1,8,0:0:0:0:
256,192,101830,1,8,0:0:0:0:
256,192,101905,1,8,0:0:0:0:
256,192,101980,1,0,0:0:0:0:
256,192,102130,1,0,0:0:0:0:
256,192,102205,1,0,0:0:0:0:
256,192,102280,1,8,0:0:0:0:
256,192,102430,1,0,0:0:0:0:
256,192,102580,1,8,0:0:0:0:
256,192,102655,1,0,0:0:0:0:
256,192,102730,1,0,0:0:0:0:
256,192,102805,1,0,0:0:0:0:
256,192,102880,1,8,0:0:0:0:
256,192,103030,1,8,0:0:0:0:
256,192,103180,1,0,0:0:0:0:
256,192,103330,1,0,0:0:0:0:
256,192,103405,1,0,0:0:0:0:
256,192,103480,1,8,0:0:0:0:
256,192,103630,1,0,0:0:0:0:
256,192,103780,1,8,0:0:0:0:
256,192,103855,1,8,0:0:0:0:
256,192,103930,1,0,0:0:0:0:
256,192,104005,1,0,0:0:0:0:
256,192,104080,1,8,0:0:0:0:
256,192,104230,1,8,0:0:0:0:
256,192,104380,1,0,0:0:0:0:
256,192,104455,1,0,0:0:0:0:
256,192,104530,1,8,0:0:0:0:
256,192,104605,1,0,0:0:0:0:
256,192,104680,1,8,0:0:0:0:
256,192,104755,1,8,0:0:0:0:
256,192,104830,1,8,0:0:0:0:
256,192,104905,1,0,0:0:0:0:
256,192,104980,1,8,0:0:0:0:
256,192,105055,1,0,0:0:0:0:
256,192,105130,1,8,0:0:0:0:
256,192,105205,1,8,0:0:0:0:
256,192,105280,1,0,0:0:0:0:
256,192,105355,1,0,0:0:0:0:
256,192,105430,1,8,0:0:0:0:
256,192,105580,1,8,0:0:0:0:
256,192,105655,1,0,0:0:0:0:
256,192,105805,1,8,0:0:0:0:
256,192,105955,1,0,0:0:0:0:
256,192,106030,1,8,0:0:0:0:
256,192,106105,1,8,0:0:0:0:
256,192,106180,1,4,0:0:0:0:
256,192,106480,1,4,0:0:0:0:
256,192,106780,5,12,0:0:0:0:
256,192,106930,1,0,0:0:0:0:
256,192,107005,1,0,0:0:0:0:
256,192,107080,1,8,0:0:0:0:
256,192,107230,1,8,0:0:0:0:
256,192,107380,1,0,0:0:0:0:
256,192,107455,1,0,0:0:0:0:
256,192,107530,1,0,0:0:0:0:
256,192,107605,1,0,0:0:0:0:
256,192,107680,1,8,0:0:0:0:
256,192,107830,1,8,0:0:0:0:
256,192,107980,1,0,0:0:0:0:
256,192,108130,1,0,0:0:0:0:
256,192,108205,1,0,0:0:0:0:
256,192,108280,1,8,0:0:0:0:
256,192,108430,1,8,0:0:0:0:
256,192,108580,1,0,0:0:0:0:
256,192,108655,1,0,0:0:0:0:
256,192,108730,1,8,0:0:0:0:
256,192,108805,1,0,0:0:0:0:
256,192,108880,1,8,0:0:0:0:
256,192,109030,1,8,0:0:0:0:
256,192,109180,1,0,0:0:0:0:
256,192,109330,1,0,0:0:0:0:
256,192,109405,1,0,0:0:0:0:
256,192,109480,1,8,0:0:0:0:
256,192,109630,1,8,0:0:0:0:
256,192,109780,1,0,0:0:0:0:
256,192,109855,1,8,0:0:0:0:
256,192,109930,1,8,0:0:0:0:
256,192,110005,1,0,0:0:0:0:
256,192,110080,1,8,0:0:0:0:
256,192,110230,1,8,0:0:0:0:
256,192,110380,1,0,0:0:0:0:
256,192,110530,1,0,0:0:0:0:
256,192,110605,1,0,0:0:0:0:
256,192,110680,1,8,0:0:0:0:
256,192,110830,1,8,0:0:0:0:
256,192,111130,1,0,0:0:0:0:
256,192,111205,1,0,0:0:0:0:
256,192,111280,1,8,0:0:0:0:
256,192,111430,1,8,0:0:0:0:
256,192,111580,1,4,0:0:0:0:
256,192,111730,1,0,0:0:0:0:
256,192,111805,1,0,0:0:0:0:
256,192,111880,1,8,0:0:0:0:
256,192,112030,1,0,0:0:0:0:
256,192,112180,1,8,0:0:0:0:
256,192,112255,1,0,0:0:0:0:
256,192,112330,1,0,0:0:0:0:
256,192,112405,1,0,0:0:0:0:
256,192,112480,1,8,0:0:0:0:
256,192,112630,1,8,0:0:0:0:
256,192,112780,1,0,0:0:0:0:
256,192,112930,1,0,0:0:0:0:
256,192,113005,1,0,0:0:0:0:
256,192,113080,1,8,0:0:0:0:
256,192,113230,1,0,0:0:0:0:
256,192,113380,1,8,0:0:0:0:
256,192,113455,1,0,0:0:0:0:
256,192,113530,1,0,0:0:0:0:
256,192,113605,1,8,0:0:0:0:
256,192,113680,1,8,0:0:0:0:
256,192,113830,1,8,0:0:0:0:
256,192,113980,1,0,0:0:0:0:
256,192,114130,1,0,0:0:0:0:
256,192,114205,1,0,0:0:0:0:
256,192,114280,1,8,0:0:0:0:
256,192,114430,1,0,0:0:0:0:
256,192,114580,1,8,0:0:0:0:
256,192,114655,1,8,0:0:0:0:
256,192,114730,1,0,0:0:0:0:
256,192,114805,1,0,0:0:0:0:
256,192,114880,1,8,0:0:0:0:
256,192,115030,1,0,0:0:0:0:
256,192,115330,1,0,0:0:0:0:
256,192,115405,1,0,0:0:0:0:
256,192,115480,1,8,0:0:0:0:
256,192,115630,1,8,0:0:0:0:
256,192,115780,1,0,0:0:0:0:
256,192,115930,1,8,0:0:0:0:
256,192,116080,1,8,0:0:0:0:
256,192,116130,1,8,0:0:0:0:
256,192,116180,1,8,0:0:0:0:
256,192,116230,1,0,0:0:0:0:
256,192,116380,5,12,0:0:0:0:
256,192,116530,1,0,0:0:0:0:
256,192,116605,1,0,0:0:0:0:
256,192,116680,1,8,0:0:0:0:
256,192,116830,1,8,0:0:0:0:
256,192,116980,1,0,0:0:0:0:
256,192,117055,1,0,0:0:0:0:
256,192,117130,1,0,0:0:0:0:
256,192,117205,1,8,0:0:0:0:
256,192,117280,1,0,0:0:0:0:
256,192,117430,1,8,0:0:0:0:
256,192,117580,1,0,0:0:0:0:
256,192,117730,1,0,0:0:0:0:
256,192,117805,1,0,0:0:0:0:
256,192,117880,1,8,0:0:0:0:
256,192,118030,1,8,0:0:0:0:
256,192,118180,1,0,0:0:0:0:
256,192,118255,1,0,0:0:0:0:
256,192,118330,1,8,0:0:0:0:
256,192,118405,1,8,0:0:0:0:
256,192,118480,1,0,0:0:0:0:
256,192,118630,1,8,0:0:0:0:
256,192,118780,1,0,0:0:0:0:
256,192,118930,1,0,0:0:0:0:
256,192,119005,1,0,0:0:0:0:
256,192,119080,1,8,0:0:0:0:
256,192,119230,1,8,0:0:0:0:
256,192,119380,1,0,0:0:0:0:
256,192,119455,1,0,0:0:0:0:
256,192,119530,1,8,0:0:0:0:
256,192,119605,1,8,0:0:0:0:
256,192,119680,1,0,0:0:0:0:
256,192,119830,1,8,0:0:0:0:
256,192,119980,1,0,0:0:0:0:
256,192,120130,1,0,0:0:0:0:
256,192,120205,1,0,0:0:0:0:
256,192,120280,1,8,0:0:0:0:
256,192,120430,1,0,0:0:0:0:
256,192,120730,1,0,0:0:0:0:
256,192,120805,1,0,0:0:0:0:
256,192,120880,1,8,0:0:0:0:
256,192,121030,1,8,0:0:0:0:
256,192,121180,1,4,0:0:0:0:
256,192,121330,1,0,0:0:0:0:
256,192,121405,1,0,0:0:0:0:
256,192,121480,1,8,0:0:0:0:
256,192,121630,1,0,0:0:0:0:
256,192,121780,1,8,0:0:0:0:
256,192,121855,1,0,0:0:0:0:
256,192,121930,1,0,0:0:0:0:
256,192,122005,1,8,0:0:0:0:
256,192,122080,1,0,0:0:0:0:
256,192,122230,1,8,0:0:0:0:
256,192,122380,1,0,0:0:0:0:
256,192,122530,1,0,0:0:0:0:
256,192,122605,1,0,0:0:0:0:
256,192,122680,1,8,0:0:0:0:
256,192,122830,1,0,0:0:0:0:
256,192,122980,1,8,0:0:0:0:
256,192,123055,1,0,0:0:0:0:
256,192,123130,1,8,0:0:0:0:
256,192,123205,1,8,0:0:0:0:
256,192,123280,1,0,0:0:0:0:
256,192,123430,1,8,0:0:0:0:
256,192,123580,1,0,0:0:0:0:
256,64,123655,1,8,0:0:0:0:
256,192,123730,1,0,0:0:0:0:
256,192,123805,1,0,0:0:0:0:
256,192,123880,1,8,0:0:0:0:
256,64,123955,1,0,0:0:0:0:
256,192,124030,1,8,0:0:0:0:
256,64,124105,1,8,0:0:0:0:
256,192,124180,1,0,0:0:0:0:
256,192,124255,1,0,0:0:0:0:
256,192,124330,1,8,0:0:0:0:
256,192,124405,1,0,0:0:0:0:
256,192,124480,1,0,0:0:0:0:
256,64,124555,1,0,0:0:0:0:
256,192,124630,1,8,0:0:0:0:
256,192,124780,1,0,0:0:0:0:
256,192,124855,1,8,0:0:0:0:
256,192,125005,1,8,0:0:0:0:
256,192,125155,1,8,0:0:0:0:
256,192,125230,1,8,0:0:0:0:
256,192,125305,1,8,0:0:0:0:
256,192,125380,1,0,0:0:0:0:
256,192,125530,1,0,0:0:0:0:
256,192,125680,1,8,0:0:0:0:
256,192,125980,1,0,0:0:0:0:
256,192,126130,12,0,128380,0:0:0:0:
256,192,128680,12,0,130480,0:0:0:0:
256,192,130780,12,0,133030,0:0:0:0:
256,192,133180,12,0,134230,0:0:0:0:
256,192,134380,5,0,0:0:0:0:
256,192,134530,1,0,0:0:0:0:
256,192,134680,1,8,0:0:0:0:
256,192,134830,1,0,0:0:0:0:
256,192,134980,1,8,0:0:0:0:
256,192,135280,1,8,0:0:0:0:
256,192,135580,5,4,0:0:0:0:
256,192,136630,1,12,0:0:0:0:
256,192,137080,1,12,0:0:0:0:
256,192,137680,1,0,0:0:0:0:
256,192,137980,1,4,0:0:0:0:
256,192,139030,1,12,0:0:0:0:
256,192,139480,1,12,0:0:0:0:
256,192,140080,1,0,0:0:0:0:
256,192,140380,5,4,0:0:0:0:
256,192,140680,1,0,0:0:0:0:
256,64,140830,1,0,0:0:0:0:
256,192,140980,1,8,0:0:0:0:
256,192,141280,1,8,0:0:0:0:
256,192,141430,1,0,0:0:0:0:
256,64,141580,1,0,0:0:0:0:
256,64,141730,1,8,0:0:0:0:
256,192,141880,1,0,0:0:0:0:
256,64,142030,1,0,0:0:0:0:
256,192,142180,1,8,0:0:0:0:
256,64,142480,1,0,0:0:0:0:
256,64,142630,1,8,0:0:0:0:
256,192,142780,1,0,0:0:0:0:
256,192,143080,1,0,0:0:0:0:
256,64,143230,1,0,0:0:0:0:
256,192,143380,1,8,0:0:0:0:
256,192,143680,1,8,0:0:0:0:
256,192,143830,1,0,0:0:0:0:
256,192,144130,1,0,0:0:0:0:
256,192,144430,1,0,0:0:0:0:
256,192,144580,1,8,0:0:0:0:
256,192,144730,1,0,0:0:0:0:
256,192,145180,1,4,0:0:0:0:
256,192,145330,1,0,0:0:0:0:
256,192,145480,1,8,0:0:0:0:
256,192,145780,1,0,0:0:0:0:
256,192,145930,1,8,0:0:0:0:
256,192,146230,1,8,0:0:0:0:
256,192,146380,1,0,0:0:0:0:
256,192,146530,1,0,0:0:0:0:
256,192,146680,1,8,0:0:0:0:
256,192,146980,1,0,0:0:0:0:
256,192,147130,1,8,0:0:0:0:
256,192,147430,1,8,0:0:0:0:
256,192,147580,1,0,0:0:0:0:
256,192,147730,1,0,0:0:0:0:
256,192,147880,1,8,0:0:0:0:
256,192,148180,1,0,0:0:0:0:
256,192,148330,1,8,0:0:0:0:
256,192,148480,1,8,0:0:0:0:
256,192,148630,1,0,0:0:0:0:
256,192,148930,1,0,0:0:0:0:
256,192,149230,1,0,0:0:0:0:
256,192,149530,1,0,0:0:0:0:
256,192,149680,1,8,0:0:0:0:
256,192,149980,1,8,0:0:0:0:
256,192,150130,1,0,0:0:0:0:
256,64,150205,1,0,0:0:0:0:
256,192,150280,1,8,0:0:0:0:
256,192,150430,1,8,0:0:0:0:
256,192,150580,1,0,0:0:0:0:
256,64,150655,1,0,0:0:0:0:
256,192,150730,1,8,0:0:0:0:
256,192,150880,1,8,0:0:0:0:
256,192,151030,1,8,0:0:0:0:
256,192,151180,1,0,0:0:0:0:
256,64,151255,1,8,0:0:0:0:
256,192,151330,1,0,0:0:0:0:
256,64,151405,1,0,0:0:0:0:
256,192,151480,1,8,0:0:0:0:
256,192,151630,1,8,0:0:0:0:
256,192,151680,1,8,0:0:0:0:
256,64,151730,1,8,0:0:0:0:
256,192,151780,1,0,0:0:0:0:
256,64,151855,1,0,0:0:0:0:
256,64,151930,1,8,0:0:0:0:
256,192,152080,1,8,0:0:0:0:
256,192,152230,1,0,0:0:0:0:
256,192,152380,1,0,0:0:0:0:
256,192,152455,1,0,0:0:0:0:
256,192,152530,1,8,0:0:0:0:
256,192,152605,1,0,0:0:0:0:
256,192,152680,1,8,0:0:0:0:
256,192,152755,1,8,0:0:0:0:
256,192,152830,1,0,0:0:0:0:
256,192,152905,1,0,0:0:0:0:
256,192,152980,1,8,0:0:0:0:
256,192,153055,1,0,0:0:0:0:
256,192,153130,1,8,0:0:0:0:
256,192,153205,1,8,0:0:0:0:
256,192,153280,1,8,0:0:0:0:
256,192,153355,1,0,0:0:0:0:
256,192,153430,1,8,0:0:0:0:
256,192,153505,1,8,0:0:0:0:
256,192,153580,1,0,0:0:0:0:
256,192,154780,5,4,0:0:0:0:
256,192,154930,1,0,0:0:0:0:
256,192,155005,1,0,0:0:0:0:
256,192,155080,1,8,0:0:0:0:
256,192,155230,1,8,0:0:0:0:
256,192,155380,1,0,0:0:0:0:
256,192,155455,1,0,0:0:0:0:
256,192,155530,1,8,0:0:0:0:
256,192,155605,1,0,0:0:0:0:
256,192,155680,1,8,0:0:0:0:
256,192,155830,1,8,0:0:0:0:
256,192,155980,1,0,0:0:0:0:
256,192,156130,1,0,0:0:0:0:
256,192,156205,1,0,0:0:0:0:
256,192,156280,1,8,0:0:0:0:
256,192,156430,1,8,0:0:0:0:
256,192,156580,1,0,0:0:0:0:
256,192,156655,1,8,0:0:0:0:
256,192,156730,1,0,0:0:0:0:
256,192,156805,1,0,0:0:0:0:
256,192,156880,1,8,0:0:0:0:
256,192,157030,1,8,0:0:0:0:
256,192,157180,1,0,0:0:0:0:
256,192,157330,1,0,0:0:0:0:
256,192,157405,1,0,0:0:0:0:
256,192,157480,1,8,0:0:0:0:
256,192,157630,1,8,0:0:0:0:
256,192,157780,1,0,0:0:0:0:
256,192,157855,1,0,0:0:0:0:
256,192,157930,1,8,0:0:0:0:
256,192,158005,1,0,0:0:0:0:
256,192,158080,1,0,0:0:0:0:
256,192,158230,1,8,0:0:0:0:
256,192,158380,1,0,0:0:0:0:
256,192,158530,1,0,0:0:0:0:
256,192,158605,1,0,0:0:0:0:
256,192,158680,1,8,0:0:0:0:
256,192,158830,1,0,0:0:0:0:
256,192,159130,1,0,0:0:0:0:
256,192,159280,1,8,0:0:0:0:
256,192,159430,1,8,0:0:0:0:
256,192,159505,1,8,0:0:0:0:
256,192,159580,1,0,0:0:0:0:
256,192,159730,1,0,0:0:0:0:
256,192,159805,1,0,0:0:0:0:
256,192,159880,1,8,0:0:0:0:
256,192,160030,1,0,0:0:0:0:
256,192,160180,1,8,0:0:0:0:
256,192,160255,1,0,0:0:0:0:
256,192,160330,1,0,0:0:0:0:
256,192,160405,1,8,0:0:0:0:
256,192,160480,1,0,0:0:0:0:
256,192,160630,1,8,0:0:0:0:
256,192,160780,1,0,0:0:0:0:
256,192,160930,1,0,0:0:0:0:
256,192,161005,1,0,0:0:0:0:
256,192,161080,1,8,0:0:0:0:
256,192,161230,1,0,0:0:0:0:
256,192,161380,1,8,0:0:0:0:
256,192,161455,1,0,0:0:0:0:
256,192,161530,1,8,0:0:0:0:
256,192,161605,1,8,0:0:0:0:
256,192,161680,1,0,0:0:0:0:
256,192,161830,1,8,0:0:0:0:
256,192,161980,1,0,0:0:0:0:
256,192,162130,1,0,0:0:0:0:
256,192,162205,1,0,0:0:0:0:
256,192,162280,1,8,0:0:0:0:
256,192,162430,1,0,0:0:0:0:
256,192,162580,1,8,0:0:0:0:
256,192,162655,1,8,0:0:0:0:
256,192,162730,1,8,0:0:0:0:
256,192,162805,1,0,0:0:0:0:
256,192,162880,1,8,0:0:0:0:
256,192,163030,1,0,0:0:0:0:
256,192,163330,1,0,0:0:0:0:
256,192,163405,1,0,0:0:0:0:
256,192,163480,1,8,0:0:0:0:
256,192,163630,1,8,0:0:0:0:
256,192,163780,1,0,0:0:0:0:
256,192,163930,1,0,0:0:0:0:
256,192,164005,1,0,0:0:0:0:
256,192,164080,1,8,0:0:0:0:
256,192,164130,1,8,0:0:0:0:
256,192,164180,1,8,0:0:0:0:
256,192,164230,1,0,0:0:0:0:
256,192,164380,5,4,0:0:0:0:
256,192,164530,1,0,0:0:0:0:
256,192,164605,1,0,0:0:0:0:
256,192,164680,1,8,0:0:0:0:
256,192,164830,1,8,0:0:0:0:
256,192,164980,1,0,0:0:0:0:
256,192,165055,1,8,0:0:0:0:
256,192,165130,1,8,0:0:0:0:
256,192,165205,1,8,0:0:0:0:
256,192,165280,1,0,0:0:0:0:
256,192,165430,1,8,0:0:0:0:
256,192,165580,1,0,0:0:0:0:
256,192,165730,1,0,0:0:0:0:
256,192,165805,1,0,0:0:0:0:
256,192,165880,1,8,0:0:0:0:
256,192,166030,1,8,0:0:0:0:
256,192,166180,1,0,0:0:0:0:
256,192,166255,1,0,0:0:0:0:
256,192,166330,1,8,0:0:0:0:
256,192,166405,1,8,0:0:0:0:
256,192,166480,1,0,0:0:0:0:
256,192,166630,1,8,0:0:0:0:
256,192,166780,1,0,0:0:0:0:
256,192,166930,1,0,0:0:0:0:
256,192,167005,1,0,0:0:0:0:
256,192,167080,1,8,0:0:0:0:
256,192,167230,1,8,0:0:0:0:
256,192,167380,1,0,0:0:0:0:
256,192,167455,1,8,0:0:0:0:
256,192,167530,1,8,0:0:0:0:
256,192,167605,1,0,0:0:0:0:
256,192,167680,1,8,0:0:0:0:
256,192,167830,1,8,0:0:0:0:
256,192,167980,1,0,0:0:0:0:
256,192,168130,1,0,0:0:0:0:
256,192,168205,1,0,0:0:0:0:
256,192,168280,1,8,0:0:0:0:
256,192,168430,1,0,0:0:0:0:
256,192,168730,1,0,0:0:0:0:
256,192,168880,1,8,0:0:0:0:
256,192,169030,1,8,0:0:0:0:
256,192,169105,1,8,0:0:0:0:
256,192,169180,1,0,0:0:0:0:
256,192,169330,1,0,0:0:0:0:
256,192,169405,1,0,0:0:0:0:
256,192,169480,1,8,0:0:0:0:
256,192,169630,1,0,0:0:0:0:
256,192,169780,1,0,0:0:0:0:
256,192,169855,1,0,0:0:0:0:
256,192,169930,1,8,0:0:0:0:
256,192,170005,1,8,0:0:0:0:
256,192,170080,1,0,0:0:0:0:
256,192,170230,1,8,0:0:0:0:
256,192,170380,1,0,0:0:0:0:
256,192,170530,1,0,0:0:0:0:
256,192,170605,1,0,0:0:0:0:
256,192,170680,1,8,0:0:0:0:
256,192,170830,1,0,0:0:0:0:
256,192,170980,1,8,0:0:0:0:
256,192,171055,1,8,0:0:0:0:
256,192,171130,1,0,0:0:0:0:
256,192,171205,1,0,0:0:0:0:
256,192,171280,1,8,0:0:0:0:
256,192,171430,1,8,0:0:0:0:
256,192,171580,1,0,0:0:0:0:
256,192,171655,1,0,0:0:0:0:
256,192,171730,1,8,0:0:0:0:
256,192,171805,1,0,0:0:0:0:
256,192,171880,1,8,0:0:0:0:
256,192,171955,1,8,0:0:0:0:
256,192,172030,1,8,0:0:0:0:
256,192,172105,1,0,0:0:0:0:
256,192,172180,1,8,0:0:0:0:
256,192,172255,1,0,0:0:0:0:
256,192,172330,1,8,0:0:0:0:
256,192,172405,1,8,0:0:0:0:
256,192,172480,1,0,0:0:0:0:
256,192,172555,1,0,0:0:0:0:
256,192,172630,1,8,0:0:0:0:
256,192,172780,1,8,0:0:0:0:
256,192,172855,1,0,0:0:0:0:
256,192,173005,1,8,0:0:0:0:
256,192,173155,1,0,0:0:0:0:
256,192,173230,1,8,0:0:0:0:
256,192,173305,1,8,0:0:0:0:
256,192,173380,1,4,0:0:0:0:
256,192,173680,1,4,0:0:0:0:
256,192,173980,5,12,0:0:0:0:
256,192,174130,1,0,0:0:0:0:
256,192,174205,1,0,0:0:0:0:
256,192,174280,1,8,0:0:0:0:
256,192,174430,1,8,0:0:0:0:
256,64,174505,1,8,0:0:0:0:
256,192,174580,1,0,0:0:0:0:
256,192,174655,1,0,0:0:0:0:
256,192,174730,1,0,0:0:0:0:
256,192,174805,1,0,0:0:0:0:
256,192,174880,1,8,0:0:0:0:
256,192,175030,1,8,0:0:0:0:
256,192,175180,1,0,0:0:0:0:
256,192,175330,1,0,0:0:0:0:
256,192,175405,1,0,0:0:0:0:
256,192,175480,1,8,0:0:0:0:
256,192,175630,1,8,0:0:0:0:
256,64,175705,1,8,0:0:0:0:
256,192,175780,1,0,0:0:0:0:
256,192,175855,1,0,0:0:0:0:
256,192,175930,1,8,0:0:0:0:
256,192,176005,1,0,0:0:0:0:
256,192,176080,1,8,0:0:0:0:
256,192,176230,1,8,0:0:0:0:
256,192,176380,1,0,0:0:0:0:
256,192,176530,1,0,0:0:0:0:
256,192,176605,1,0,0:0:0:0:
256,192,176680,1,8,0:0:0:0:
256,192,176830,1,8,0:0:0:0:
256,64,176905,1,0,0:0:0:0:
256,192,176980,1,0,0:0:0:0:
256,192,177055,1,8,0:0:0:0:
256,192,177130,1,8,0:0:0:0:
256,192,177205,1,0,0:0:0:0:
256,192,177280,1,8,0:0:0:0:
256,192,177430,1,8,0:0:0:0:
256,192,177580,1,0,0:0:0:0:
256,192,177730,1,0,0:0:0:0:
256,64,177805,1,0,0:0:0:0:
256,192,177880,1,8,0:0:0:0:
256,192,178030,1,8,0:0:0:0:
256,64,178180,1,0,0:0:0:0:
256,64,178255,1,0,0:0:0:0:
256,192,178330,1,0,0:0:0:0:
256,192,178405,1,0,0:0:0:0:
256,192,178480,1,8,0:0:0:0:
256,192,178630,1,8,0:0:0:0:
256,192,178780,1,4,0:0:0:0:
256,192,178930,1,0,0:0:0:0:
256,192,179005,1,0,0:0:0:0:
256,192,179080,1,8,0:0:0:0:
256,192,179230,1,0,0:0:0:0:
256,64,179305,1,0,0:0:0:0:
256,192,179380,1,8,0:0:0:0:
256,192,179455,1,0,0:0:0:0:
256,192,179530,1,0,0:0:0:0:
256,192,179605,1,0,0:0:0:0:
256,192,179680,1,8,0:0:0:0:
256,192,179830,1,8,0:0:0:0:
256,192,179980,1,0,0:0:0:0:
256,192,180130,1,0,0:0:0:0:
256,192,180205,1,0,0:0:0:0:
256,192,180280,1,8,0:0:0:0:
256,192,180430,1,0,0:0:0:0:
256,64,180505,1,0,0:0:0:0:
256,192,180580,1,8,0:0:0:0:
256,192,180655,1,0,0:0:0:0:
256,192,180730,1,0,0:0:0:0:
256,192,180805,1,8,0:0:0:0:
256,192,180880,1,8,0:0:0:0:
256,192,181030,1,8,0:0:0:0:
256,192,181180,1,0,0:0:0:0:
256,192,181330,1,0,0:0:0:0:
256,192,181405,1,0,0:0:0:0:
256,192,181480,1,8,0:0:0:0:
256,192,181630,1,8,0:0:0:0:
256,64,181705,1,0,0:0:0:0:
256,192,181780,1,8,0:0:0:0:
256,192,181855,1,8,0:0:0:0:
256,192,181930,1,0,0:0:0:0:
256,192,182005,1,0,0:0:0:0:
256,192,182080,1,8,0:0:0:0:
256,192,182230,1,0,0:0:0:0:
256,192,182530,1,0,0:0:0:0:
256,192,182605,1,0,0:0:0:0:
256,192,182680,1,8,0:0:0:0:
256,192,182830,1,8,0:0:0:0:
256,192,182980,1,0,0:0:0:0:
256,192,183130,1,8,0:0:0:0:
256,192,183280,1,8,0:0:0:0:
256,192,183330,1,8,0:0:0:0:
256,192,183380,1,8,0:0:0:0:
256,192,183430,1,0,0:0:0:0:
256,192,183580,5,12,0:0:0:0:
256,192,183730,1,0,0:0:0:0:
256,192,183805,1,0,0:0:0:0:
256,192,183880,1,8,0:0:0:0:
256,64,183955,1,0,0:0:0:0:
256,192,184030,1,8,0:0:0:0:
256,64,184105,1,8,0:0:0:0:
256,192,184180,1,0,0:0:0:0:
256,192,184255,1,0,0:0:0:0:
256,192,184330,1,8,0:0:0:0:
256,192,184405,1,0,0:0:0:0:
256,192,184480,1,0,0:0:0:0:
256,192,184630,1,8,0:0:0:0:
256,192,184780,1,0,0:0:0:0:
256,192,184930,1,0,0:0:0:0:
256,192,185005,1,0,0:0:0:0:
256,192,185080,1,8,0:0:0:0:
256,64,185155,1,0,0:0:0:0:
256,192,185230,1,8,0:0:0:0:
256,64,185305,1,8,0:0:0:0:
256,192,185380,1,0,0:0:0:0:
256,192,185455,1,0,0:0:0:0:
256,192,185530,1,8,0:0:0:0:
256,192,185605,1,8,0:0:0:0:
256,192,185680,1,0,0:0:0:0:
256,192,185830,1,8,0:0:0:0:
256,192,185980,1,0,0:0:0:0:
256,192,186130,1,0,0:0:0:0:
256,192,186205,1,0,0:0:0:0:
256,192,186280,1,8,0:0:0:0:
256,64,186355,1,0,0:0:0:0:
256,192,186430,1,8,0:0:0:0:
256,64,186505,1,8,0:0:0:0:
256,192,186580,1,0,0:0:0:0:
256,192,186655,1,8,0:0:0:0:
256,192,186730,1,8,0:0:0:0:
256,192,186805,1,8,0:0:0:0:
256,192,186880,1,0,0:0:0:0:
256,192,187030,1,8,0:0:0:0:
256,192,187180,1,0,0:0:0:0:
256,192,187330,1,0,0:0:0:0:
256,64,187405,1,0,0:0:0:0:
256,192,187480,1,8,0:0:0:0:
256,192,187630,1,8,0:0:0:0:
256,64,187780,1,0,0:0:0:0:
256,64,187855,1,0,0:0:0:0:
256,192,187930,1,0,0:0:0:0:
256,192,188005,1,0,0:0:0:0:
256,192,188080,1,8,0:0:0:0:
256,192,188230,1,8,0:0:0:0:
256,192,188380,1,4,0:0:0:0:
256,192,188530,1,0,0:0:0:0:
256,192,188605,1,0,0:0:0:0:
256,192,188680,1,8,0:0:0:0:
256,64,188755,1,0,0:0:0:0:
256,192,188830,1,0,0:0:0:0:
256,64,188905,1,0,0:0:0:0:
256,192,188980,1,8,0:0:0:0:
256,192,189055,1,0,0:0:0:0:
256,192,189130,1,0,0:0:0:0:
256,192,189205,1,8,0:0:0:0:
256,192,189280,1,0,0:0:0:0:
256,192,189430,1,8,0:0:0:0:
256,192,189580,1,0,0:0:0:0:
256,192,189730,1,0,0:0:0:0:
256,192,189805,1,0,0:0:0:0:
256,192,189880,1,8,0:0:0:0:
256,64,189955,1,0,0:0:0:0:
256,192,190030,1,0,0:0:0:0:
256,64,190105,1,8,0:0:0:0:
256,192,190180,1,8,0:0:0:0:
256,192,190255,1,0,0:0:0:0:
256,192,190330,1,8,0:0:0:0:
256,192,190405,1,8,0:0:0:0:
256,192,190480,1,0,0:0:0:0:
256,192,190630,1,8,0:0:0:0:
256,192,190780,1,0,0:0:0:0:
256,64,190855,1,8,0:0:0:0:
256,192,190930,1,0,0:0:0:0:
256,192,191005,1,0,0:0:0:0:
256,192,191080,1,8,0:0:0:0:
256,64,191155,1,0,0:0:0:0:
256,192,191230,1,8,0:0:0:0:
256,64,191305,1,8,0:0:0:0:
256,192,191380,1,0,0:0:0:0:
256,192,191455,1,0,0:0:0:0:
256,192,191530,1,8,0:0:0:0:
256,192,191605,1,0,0:0:0:0:
256,192,191680,1,0,0:0:0:0:
256,64,191755,1,0,0:0:0:0:
256,192,191830,1,8,0:0:0:0:
256,64,192130,1,8,0:0:0:0:
256,64,192430,1,8,0:0:0:0:
256,64,192730,1,8,0:0:0:0:
256,64,193030,1,8,0:0:0:0:
256,192,193180,5,4,0:0:0:0:
256,192,193330,1,0,0:0:0:0:
256,192,193405,1,0,0:0:0:0:
256,192,193480,1,8,0:0:0:0:
256,192,193630,1,0,0:0:0:0:
256,192,193780,1,0,0:0:0:0:
256,192,193855,1,8,0:0:0:0:
256,192,193930,1,0,0:0:0:0:
256,192,194005,1,0,0:0:0:0:
256,192,194080,1,8,0:0:0:0:
256,192,194230,1,8,0:0:0:0:
256,192,194380,1,0,0:0:0:0:
256,192,194530,1,8,0:0:0:0:
256,192,194605,1,0,0:0:0:0:
256,192,194680,1,8,0:0:0:0:
256,64,194755,1,8,0:0:0:0:
256,192,194830,1,8,0:0:0:0:
256,64,194905,1,0,0:0:0:0:
256,192,194980,1,0,0:0:0:0:
256,192,195055,1,8,0:0:0:0:
256,192,195130,1,8,0:0:0:0:
256,192,195205,1,0,0:0:0:0:
256,192,195280,1,8,0:0:0:0:
256,192,195355,1,8,0:0:0:0:
256,192,195430,1,0,0:0:0:0:
256,192,195505,1,0,0:0:0:0:
256,192,195580,1,8,0:0:0:0:
256,192,195730,1,0,0:0:0:0:
256,192,195805,1,0,0:0:0:0:
256,192,195880,1,8,0:0:0:0:
256,192,196030,1,8,0:0:0:0:
256,192,196180,1,0,0:0:0:0:
256,192,196255,1,0,0:0:0:0:
256,192,196330,1,8,0:0:0:0:
256,192,196405,1,8,0:0:0:0:
256,192,196480,1,0,0:0:0:0:
256,192,196630,1,8,0:0:0:0:
256,192,196705,1,8,0:0:0:0:
256,192,196780,1,0,0:0:0:0:
256,192,196930,1,0,0:0:0:0:
256,192,197005,1,0,0:0:0:0:
256,192,197080,1,8,0:0:0:0:
256,192,197155,1,0,0:0:0:0:
256,192,197230,1,8,0:0:0:0:
256,192,197380,1,8,0:0:0:0:
256,192,197530,1,8,0:0:0:0:
256,192,197605,1,8,0:0:0:0:
256,192,197680,1,0,0:0:0:0:
256,192,197755,1,0,0:0:0:0:
256,192,197830,1,8,0:0:0:0:
256,192,197980,1,0,0:0:0:0:
256,192,198130,1,0,0:0:0:0:
256,192,198205,1,0,0:0:0:0:
256,192,198280,1,8,0:0:0:0:
256,192,198430,1,8,0:0:0:0:
256,192,198580,1,0,0:0:0:0:
256,192,198655,1,8,0:0:0:0:
256,192,198730,1,0,0:0:0:0:
256,192,198805,1,0,0:0:0:0:
256,192,198880,1,8,0:0:0:0:
256,192,199030,1,8,0:0:0:0:
256,192,199180,1,0,0:0:0:0:
256,192,199330,1,8,0:0:0:0:
256,192,199405,1,0,0:0:0:0:
256,192,199480,1,8,0:0:0:0:
256,64,199555,1,0,0:0:0:0:
256,192,199630,1,8,0:0:0:0:
256,64,199705,1,8,0:0:0:0:
256,192,199780,1,0,0:0:0:0:
256,192,199855,1,8,0:0:0:0:
256,192,199930,1,0,0:0:0:0:
256,192,200005,1,0,0:0:0:0:
256,192,200080,1,8,0:0:0:0:
256,192,200155,1,8,0:0:0:0:
256,192,200230,1,0,0:0:0:0:
256,192,200305,1,0,0:0:0:0:
256,192,200380,1,8,0:0:0:0:
256,192,200530,1,0,0:0:0:0:
256,192,200605,1,0,0:0:0:0:
256,192,200680,1,8,0:0:0:0:
256,192,200830,1,8,0:0:0:0:
256,192,200980,1,0,0:0:0:0:
256,192,201055,1,0,0:0:0:0:
256,192,201130,1,8,0:0:0:0:
256,192,201205,1,8,0:0:0:0:
256,192,201280,1,0,0:0:0:0:
256,192,201430,1,4,0:0:0:0:
256,192,201580,1,8,0:0:0:0:
256,192,201655,1,8,0:0:0:0:
256,192,201730,1,4,0:0:0:0:
256,192,201880,1,8,0:0:0:0:
256,192,202030,1,0,0:0:0:0:
256,192,202105,1,0,0:0:0:0:
256,192,202330,1,4,0:0:0:0:
256,192,202480,1,12,0:0:0:0:
256,192,202780,5,4,0:0:0:0:
256,192,202930,1,0,0:0:0:0:
256,192,203005,1,0,0:0:0:0:
256,192,203080,1,8,0:0:0:0:
256,192,203230,1,0,0:0:0:0:
256,192,203380,1,0,0:0:0:0:
256,192,203455,1,8,0:0:0:0:
256,192,203530,1,0,0:0:0:0:
256,192,203605,1,0,0:0:0:0:
256,192,203680,1,8,0:0:0:0:
256,192,203830,1,8,0:0:0:0:
256,192,203980,1,0,0:0:0:0:
256,192,204130,1,8,0:0:0:0:
256,192,204205,1,0,0:0:0:0:
256,192,204280,1,8,0:0:0:0:
256,64,204355,1,8,0:0:0:0:
256,192,204430,1,8,0:0:0:0:
256,64,204505,1,0,0:0:0:0:
256,192,204580,1,0,0:0:0:0:
256,192,204655,1,8,0:0:0:0:
256,192,204730,1,8,0:0:0:0:
256,192,204805,1,0,0:0:0:0:
256,192,204880,1,8,0:0:0:0:
256,192,204955,1,8,0:0:0:0:
256,192,205030,1,0,0:0:0:0:
256,192,205105,1,0,0:0:0:0:
256,192,205180,1,8,0:0:0:0:
256,192,205330,1,0,0:0:0:0:
256,192,205405,1,0,0:0:0:0:
256,192,205480,1,8,0:0:0:0:
256,192,205630,1,8,0:0:0:0:
256,192,205780,1,0,0:0:0:0:
256,192,205855,1,0,0:0:0:0:
256,192,205930,1,8,0:0:0:0:
256,192,206005,1,8,0:0:0:0:
256,192,206080,1,0,0:0:0:0:
256,192,206230,1,8,0:0:0:0:
256,192,206305,1,8,0:0:0:0:
256,192,206380,1,0,0:0:0:0:
256,192,206530,1,0,0:0:0:0:
256,192,206605,1,0,0:0:0:0:
256,192,206680,1,8,0:0:0:0:
256,192,206755,1,0,0:0:0:0:
256,192,206830,1,8,0:0:0:0:
256,192,206980,1,8,0:0:0:0:
256,192,207130,1,8,0:0:0:0:
256,192,207205,1,8,0:0:0:0:
256,192,207280,1,0,0:0:0:0:
256,192,207355,1,0,0:0:0:0:
256,192,207430,1,8,0:0:0:0:
256,192,207580,1,0,0:0:0:0:
256,192,207730,1,0,0:0:0:0:
256,192,207805,1,0,0:0:0:0:
256,192,207880,1,8,0:0:0:0:
256,192,208030,1,8,0:0:0:0:
256,192,208180,1,0,0:0:0:0:
256,192,208255,1,8,0:0:0:0:
256,192,208330,1,0,0:0:0:0:
256,192,208405,1,0,0:0:0:0:
256,192,208480,1,8,0:0:0:0:
256,192,208630,1,8,0:0:0:0:
256,192,208780,1,0,0:0:0:0:
256,192,208930,1,8,0:0:0:0:
256,192,209005,1,0,0:0:0:0:
256,192,209080,1,8,0:0:0:0:
256,64,209155,1,0,0:0:0:0:
256,192,209230,1,8,0:0:0:0:
256,64,209305,1,8,0:0:0:0:
256,192,209380,1,0,0:0:0:0:
256,192,209455,1,8,0:0:0:0:
256,192,209530,1,0,0:0:0:0:
256,192,209605,1,0,0:0:0:0:
256,192,209680,1,8,0:0:0:0:
256,192,209755,1,8,0:0:0:0:
256,192,209830,1,8,0:0:0:0:
256,192,209905,1,0,0:0:0:0:
256,192,209980,1,8,0:0:0:0:
256,192,210130,1,0,0:0:0:0:
256,192,210205,1,0,0:0:0:0:
256,192,210280,1,8,0:0:0:0:
256,192,210430,1,8,0:0:0:0:
256,192,210580,1,0,0:0:0:0:
256,192,210655,1,0,0:0:0:0:
256,192,210730,1,8,0:0:0:0:
256,192,210805,1,8,0:0:0:0:
256,192,210880,1,0,0:0:0:0:
256,192,211030,1,8,0:0:0:0:
256,192,211105,1,8,0:0:0:0:
256,192,211180,1,0,0:0:0:0:
256,192,211330,1,8,0:0:0:0:
256,192,211405,1,0,0:0:0:0:
256,192,211480,1,0,0:0:0:0:
256,192,211555,1,0,0:0:0:0:
256,192,211630,1,8,0:0:0:0:
256,192,211780,1,8,0:0:0:0:
256,192,211830,1,8,0:0:0:0:
256,192,211880,1,8,0:0:0:0:
256,192,211930,1,0,0:0:0:0:
256,192,212080,1,0,0:0:0:0:
256,192,212130,1,0,0:0:0:0:
256,192,212180,1,0,0:0:0:0:
256,192,212230,1,8,0:0:0:0:
256,192,212380,5,4,0:0:0:0:
256,192,212530,1,0,0:0:0:0:
256,192,212605,1,0,0:0:0:0:
256,192,212680,1,8,0:0:0:0:
256,192,212755,1,0,0:0:0:0:
256,192,212830,1,8,0:0:0:0:
256,192,212905,1,8,0:0:0:0:
256,192,212980,1,0,0:0:0:0:
256,64,213055,1,0,0:0:0:0:
256,192,213130,1,8,0:0:0:0:
256,64,213205,1,0,0:0:0:0:
256,192,213280,1,8,0:0:0:0:
256,192,213355,1,8,0:0:0:0:
256,192,213430,1,8,0:0:0:0:
256,192,213505,1,0,0:0:0:0:
256,192,213580,1,8,0:0:0:0:
256,64,213655,1,8,0:0:0:0:
256,192,213730,1,0,0:0:0:0:
256,192,213805,1,0,0:0:0:0:
256,192,213880,1,8,0:0:0:0:
256,192,214030,1,0,0:0:0:0:
256,64,214105,1,0,0:0:0:0:
256,192,214180,1,0,0:0:0:0:
256,192,214255,1,8,0:0:0:0:
256,192,214330,1,0,0:0:0:0:
256,192,214405,1,0,0:0:0:0:
256,192,214480,1,8,0:0:0:0:
256,192,214555,1,8,0:0:0:0:
256,192,214630,1,0,0:0:0:0:
256,192,214705,1,0,0:0:0:0:
256,192,214780,1,8,0:0:0:0:
256,192,214855,1,0,0:0:0:0:
256,192,214930,1,0,0:0:0:0:
256,192,215005,1,8,0:0:0:0:
256,192,215080,1,0,0:0:0:0:
256,192,215230,1,8,0:0:0:0:
256,192,215380,1,0,0:0:0:0:
256,192,215455,1,0,0:0:0:0:
256,192,215530,1,8,0:0:0:0:
256,192,215605,1,8,0:0:0:0:
256,192,215680,1,0,0:0:0:0:
256,192,215830,1,8,0:0:0:0:
256,192,215905,1,8,0:0:0:0:
256,192,215980,1,0,0:0:0:0:
256,192,216130,1,0,0:0:0:0:
256,192,216205,1,0,0:0:0:0:
256,192,216280,1,8,0:0:0:0:
256,192,216355,1,0,0:0:0:0:
256,192,216430,1,8,0:0:0:0:
256,192,216580,1,8,0:0:0:0:
256,192,216730,1,8,0:0:0:0:
256,192,216805,1,8,0:0:0:0:
256,192,216880,1,0,0:0:0:0:
256,192,216955,1,0,0:0:0:0:
256,192,217030,1,8,0:0:0:0:
256,192,217180,5,8,0:0:0:0:
256,192,217330,1,0,0:0:0:0:
256,192,217405,1,0,0:0:0:0:
256,192,217480,1,8,0:0:0:0:
256,192,217555,1,0,0:0:0:0:
256,192,217630,1,8,0:0:0:0:
256,192,217705,1,8,0:0:0:0:
256,192,217780,1,0,0:0:0:0:
256,64,217855,1,0,0:0:0:0:
256,192,217930,1,8,0:0:0:0:
256,64,218005,1,0,0:0:0:0:
256,192,218080,1,8,0:0:0:0:
256,192,218155,1,8,0:0:0:0:
256,192,218230,1,0,0:0:0:0:
256,192,218305,1,0,0:0:0:0:
256,192,218380,1,8,0:0:0:0:
256,64,218455,1,0,0:0:0:0:
256,192,218530,1,0,0:0:0:0:
256,192,218605,1,0,0:0:0:0:
256,192,218680,1,8,0:0:0:0:
256,192,218830,1,0,0:0:0:0:
256,64,218905,1,0,0:0:0:0:
256,192,218980,1,0,0:0:0:0:
256,192,219055,1,8,0:0:0:0:
256,192,219130,1,8,0:0:0:0:
256,192,219205,1,0,0:0:0:0:
256,192,219280,1,8,0:0:0:0:
256,192,219355,1,8,0:0:0:0:
256,192,219430,1,0,0:0:0:0:
256,192,219505,1,0,0:0:0:0:
256,192,219580,1,8,0:0:0:0:
256,192,219655,1,0,0:0:0:0:
256,192,219730,1,0,0:0:0:0:
256,192,219805,1,8,0:0:0:0:
256,192,219880,1,0,0:0:0:0:
256,192,220030,1,8,0:0:0:0:
256,192,220180,1,0,0:0:0:0:
256,192,220255,1,0,0:0:0:0:
256,192,220330,1,8,0:0:0:0:
256,192,220405,1,8,0:0:0:0:
256,192,220480,1,0,0:0:0:0:
256,192,220555,1,0,0:0:0:0:
256,192,220630,1,8,0:0:0:0:
256,192,220705,1,0,0:0:0:0:
256,192,220780,1,0,0:0:0:0:
256,192,220930,1,8,0:0:0:0:
256,192,221080,1,0,0:0:0:0:
256,192,221230,1,8,0:0:0:0:
256,192,221380,1,0,0:0:0:0:
256,192,221530,1,8,0:0:0:0:
256,192,221680,1,0,0:0:0:0:
256,192,221830,1,8,0:0:0:0:
256,192,221980,1,0,0:0:0:0:
256,192,222580,1,8,0:0:0:0:
256,192,223030,1,0,0:0:0:0:
256,192,223480,1,0,0:0:0:0:
256,192,223780,1,8,0:0:0:0:
256,192,224380,1,0,0:0:0:0:
256,192,224980,1,8,0:0:0:0:
256,192,225430,1,0,0:0:0:0:
256,192,225880,1,0,0:0:0:0:
256,192,226180,1,8,0:0:0:0:
