osu file format v14

[General]
AudioFilename: 04. Plastic Kingyo.mp3
AudioLeadIn: 0
PreviewTime: -1
Countdown: 1
SampleSet: None
StackLeniency: 0.7
Mode: 3
LetterboxInBreaks: 1
SpecialStyle: 0
WidescreenStoryboard: 0

[Editor]
DistanceSpacing: 1.3
BeatDivisor: 4
GridSize: 32
TimelineZoom: 2.6

[Metadata]
Title:Plastic Kingyo
TitleUnicode:Plastic Kingyo
Artist:t+pazolite
ArtistUnicode:t+pazolite
Creator:Noobish
Version:+tic
Source:Irregular Nation
Tags:Hello Kitty
BeatmapID:1504233
BeatmapSetID:711552

[Difficulty]
HPDrainRate:8
CircleSize:7
OverallDifficulty:7
ApproachRate:5
SliderMultiplier:1.4
SliderTickRate:1

[Events]
//Background and Video events
0,0,"akemi_homura_black_eyes_black_hair_gun_mahou_shoujo_madoka_magica_swd3e2_weapon_1890x1063.jpg",0,0
//Break Periods
//Storyboard Layer 0 (Background)
//Storyboard Layer 1 (Fail)
//Storyboard Layer 2 (Pass)
//Storyboard Layer 3 (Foreground)
//Storyboard Sound Samples

[TimingPoints]
30,342.857142857143,4,2,0,30,1,0
30,-100,4,2,0,30,0,0
2087,-50,4,2,0,30,0,0
2172,-66.6666666666667,4,2,0,30,0,0
2344,-200,4,2,0,30,0,0
2430,-100,4,2,0,30,0,0
5172,-50,4,2,0,30,0,0
5258,-66.6666666666667,4,2,0,30,0,0
5430,-200,4,2,0,30,0,0
5515,-100,4,2,0,30,0,0
10658,-50,4,2,0,30,0,0
10744,-66.6666666666667,4,2,0,30,0,0
10915,-200,4,2,0,30,0,0
11001,-100,4,2,0,30,0,0
16144,-50,4,2,0,30,0,0
16230,-66.6666666666667,4,2,0,30,0,0
16401,-200,4,2,0,30,0,0
16487,-100,4,2,0,30,0,0
21630,-50,4,2,0,30,0,0
21715,-66.6666666666667,4,2,0,30,0,0
21887,-200,4,2,0,30,0,0
21942,-100,4,2,0,30,0,0
24715,-166.666666666667,4,2,0,30,0,0
35687,-133.333333333333,4,2,0,30,0,0
44944,-50,4,2,0,30,0,0
45201,-200,4,2,0,30,0,0
45287,-100,4,2,0,30,0,0

[HitObjects]
36,192,30,5,0,0:0:0:0:
109,192,201,1,0,0:0:0:0:
329,192,372,1,0,0:0:0:0:
329,192,544,1,0,0:0:0:0:
182,192,715,1,0,0:0:0:0:
475,192,887,1,0,0:0:0:0:
475,192,1058,1,0,0:0:0:0:
329,192,1058,1,0,0:0:0:0:
182,192,1230,1,0,0:0:0:0:
36,192,1230,1,0,0:0:0:0:
109,192,1401,1,0,0:0:0:0:
256,192,1487,1,0,0:0:0:0:
109,192,1572,1,0,0:0:0:0:
256,192,1658,1,0,0:0:0:0:
109,192,1744,1,0,0:0:0:0:
256,192,1830,1,0,0:0:0:0:
109,192,1915,1,0,0:0:0:0:
256,192,2001,1,0,0:0:0:0:
109,192,2087,128,0,2430:0:0:0:0:
402,192,2087,128,0,2430:0:0:0:0:
36,192,2430,1,0,0:0:0:0:
475,192,2430,1,0,0:0:0:0:
256,192,2430,1,0,0:0:0:0:
329,192,2772,128,0,2944:0:0:0:0:
36,192,2772,1,0,0:0:0:0:
109,192,2772,1,0,0:0:0:0:
182,192,2772,1,0,0:0:0:0:
475,192,2944,128,0,3115:0:0:0:0:
402,192,3115,128,0,3287:0:0:0:0:
256,192,3115,1,0,0:0:0:0:
109,192,3115,1,0,0:0:0:0:
475,192,3287,128,0,3458:0:0:0:0:
36,192,3287,1,0,0:0:0:0:
182,192,3287,1,0,0:0:0:0:
329,192,3458,128,0,3630:0:0:0:0:
36,192,3630,1,0,0:0:0:0:
402,192,3630,128,0,3801:0:0:0:0:
182,192,3630,1,0,0:0:0:0:
475,192,3801,128,0,3972:0:0:0:0:
256,192,3801,1,0,0:0:0:0:
109,192,3801,1,0,0:0:0:0:
329,192,3972,128,0,4144:0:0:0:0:
402,192,4144,128,0,4315:0:0:0:0:
109,192,4144,1,0,0:0:0:0:
256,192,4144,1,0,0:0:0:0:
475,192,4315,128,0,4487:0:0:0:0:
36,192,4315,1,0,0:0:0:0:
182,192,4315,1,0,0:0:0:0:
329,192,4487,128,0,4658:0:0:0:0:
256,192,4487,1,0,0:0:0:0:
36,192,4658,1,0,0:0:0:0:
402,192,4658,128,0,4830:0:0:0:0:
182,192,4658,1,0,0:0:0:0:
475,192,4830,128,0,5001:0:0:0:0:
256,192,4830,1,0,0:0:0:0:
109,192,4830,1,0,0:0:0:0:
329,192,5001,1,0,0:0:0:0:
182,192,5001,1,0,0:0:0:0:
109,192,5172,1,0,0:0:0:0:
402,192,5172,1,0,0:0:0:0:
475,192,5172,1,0,0:0:0:0:
256,192,5172,128,0,5515:0:0:0:0:
36,192,5172,1,0,0:0:0:0:
36,192,5515,128,0,5687:0:0:0:0:
329,192,5515,1,0,0:0:0:0:
402,192,5515,1,0,0:0:0:0:
475,192,5515,1,0,0:0:0:0:
182,192,5687,128,0,5858:0:0:0:0:
109,192,5858,128,0,6030:0:0:0:0:
402,192,5858,1,0,0:0:0:0:
475,192,5858,1,0,0:0:0:0:
182,192,6030,128,0,6201:0:0:0:0:
329,192,6030,1,0,0:0:0:0:
402,192,6030,1,0,0:0:0:0:
109,192,6201,128,0,6372:0:0:0:0:
36,192,6372,128,0,6544:0:0:0:0:
329,192,6372,1,0,0:0:0:0:
402,192,6372,1,0,0:0:0:0:
182,192,6544,128,0,6715:0:0:0:0:
402,192,6544,1,0,0:0:0:0:
475,192,6544,1,0,0:0:0:0:
109,192,6715,128,0,6887:0:0:0:0:
329,192,6715,1,0,0:0:0:0:
402,192,6801,1,0,0:0:0:0:
36,192,6887,128,0,7058:0:0:0:0:
475,192,6887,128,0,7058:0:0:0:0:
329,192,7058,128,0,7230:0:0:0:0:
182,192,7058,1,0,0:0:0:0:
402,192,7230,128,0,7401:0:0:0:0:
109,192,7230,1,0,0:0:0:0:
329,192,7401,128,0,7744:0:0:0:0:
36,192,7401,1,0,0:0:0:0:
109,192,7487,1,0,0:0:0:0:
182,192,7572,128,0,7744:0:0:0:0:
402,192,7744,128,0,7915:0:0:0:0:
109,192,7744,128,0,7915:0:0:0:0:
329,192,7915,128,0,8087:0:0:0:0:
36,192,7915,1,0,0:0:0:0:
109,192,8001,1,0,0:0:0:0:
402,192,8087,128,0,9030:0:0:0:0:
182,192,8087,1,0,0:0:0:0:
256,192,8172,1,0,0:0:0:0:
36,192,8258,128,0,8430:0:0:0:0:
329,192,8258,1,0,0:0:0:0:
109,192,8430,128,0,8601:0:0:0:0:
182,192,8601,128,0,8772:0:0:0:0:
475,192,8601,1,0,0:0:0:0:
36,192,8772,128,0,8944:0:0:0:0:
329,192,8772,1,0,0:0:0:0:
182,192,8944,128,0,9115:0:0:0:0:
109,192,9115,128,0,9287:0:0:0:0:
329,192,9115,1,0,0:0:0:0:
36,192,9287,128,0,9458:0:0:0:0:
475,192,9287,1,0,0:0:0:0:
402,192,9287,1,0,0:0:0:0:
182,192,9458,128,0,9630:0:0:0:0:
109,192,9630,128,0,9801:0:0:0:0:
329,192,9630,1,0,0:0:0:0:
36,192,9801,128,0,9972:0:0:0:0:
402,192,9801,1,0,0:0:0:0:
475,192,9801,1,0,0:0:0:0:
329,192,9972,128,0,10144:0:0:0:0:
256,192,9972,1,0,0:0:0:0:
402,192,10144,128,0,10315:0:0:0:0:
109,192,10144,1,0,0:0:0:0:
182,192,10144,1,0,0:0:0:0:
182,192,10315,128,0,10487:0:0:0:0:
475,192,10315,1,0,0:0:0:0:
109,192,10487,1,0,0:0:0:0:
329,192,10487,1,0,0:0:0:0:
256,192,10658,128,0,11001:0:0:0:0:
475,192,10658,128,0,11001:0:0:0:0:
36,192,10658,128,0,11001:0:0:0:0:
109,192,11001,128,0,11172:0:0:0:0:
329,192,11001,128,0,11172:0:0:0:0:
402,192,11172,128,0,11344:0:0:0:0:
182,192,11172,128,0,11344:0:0:0:0:
256,192,11344,1,0,0:0:0:0:
475,192,11344,1,0,0:0:0:0:
256,192,11515,1,0,0:0:0:0:
475,192,11515,1,0,0:0:0:0:
475,192,11687,1,0,0:0:0:0:
256,192,11687,1,0,0:0:0:0:
402,192,11772,1,0,0:0:0:0:
329,192,11858,1,0,0:0:0:0:
402,192,11944,1,0,0:0:0:0:
329,192,12030,1,0,0:0:0:0:
182,192,12030,1,0,0:0:0:0:
109,192,12201,1,0,0:0:0:0:
256,192,12201,1,0,0:0:0:0:
329,192,12372,128,0,13572:0:0:0:0:
475,192,12372,128,0,13572:0:0:0:0:
182,192,12372,128,0,13572:0:0:0:0:
36,192,12372,128,0,13572:0:0:0:0:
402,192,12544,128,0,12715:0:0:0:0:
256,192,12715,128,0,12887:0:0:0:0:
109,192,12887,128,0,13058:0:0:0:0:
256,192,13058,128,0,13230:0:0:0:0:
402,192,13230,128,0,13401:0:0:0:0:
256,192,13401,128,0,13572:0:0:0:0:
109,192,13572,1,0,0:0:0:0:
402,192,13658,1,0,0:0:0:0:
475,192,13658,1,0,0:0:0:0:
109,192,13744,1,0,0:0:0:0:
329,192,13744,128,0,13915:0:0:0:0:
256,192,13744,1,0,0:0:0:0:
36,192,13744,128,0,13915:0:0:0:0:
402,192,13915,128,0,14087:0:0:0:0:
182,192,13915,128,0,14087:0:0:0:0:
475,192,14087,128,0,14258:0:0:0:0:
256,192,14087,128,0,14258:0:0:0:0:
182,192,14258,128,0,14430:0:0:0:0:
402,192,14258,128,0,14430:0:0:0:0:
109,192,14430,128,0,14601:0:0:0:0:
329,192,14430,128,0,14601:0:0:0:0:
36,192,14601,128,0,14772:0:0:0:0:
475,192,14601,128,0,14772:0:0:0:0:
256,192,14772,128,0,14944:0:0:0:0:
402,192,14772,128,0,14944:0:0:0:0:
182,192,14944,128,0,15115:0:0:0:0:
329,192,14944,128,0,15115:0:0:0:0:
109,192,15115,128,0,15287:0:0:0:0:
402,192,15115,128,0,15287:0:0:0:0:
36,192,15287,128,0,15458:0:0:0:0:
475,192,15287,128,0,15458:0:0:0:0:
402,192,15458,128,0,15630:0:0:0:0:
256,192,15458,128,0,15630:0:0:0:0:
109,192,15458,128,0,15630:0:0:0:0:
475,192,15630,128,0,15801:0:0:0:0:
36,192,15630,128,0,15801:0:0:0:0:
329,192,15801,128,0,15972:0:0:0:0:
182,192,15801,128,0,15972:0:0:0:0:
256,192,15972,128,0,16144:0:0:0:0:
109,192,15972,128,0,16144:0:0:0:0:
402,192,15972,128,0,16144:0:0:0:0:
36,192,16144,128,0,16487:0:0:0:0:
475,192,16144,128,0,16487:0:0:0:0:
182,192,16144,128,0,16487:0:0:0:0:
329,192,16144,128,0,16487:0:0:0:0:
256,192,16487,128,0,16658:0:0:0:0:
109,192,16487,128,0,16658:0:0:0:0:
182,192,16658,128,0,16830:0:0:0:0:
329,192,16658,128,0,16830:0:0:0:0:
256,192,16830,128,0,17001:0:0:0:0:
402,192,16830,128,0,17001:0:0:0:0:
36,192,17001,128,0,17172:0:0:0:0:
182,192,17001,128,0,17172:0:0:0:0:
109,192,17172,128,0,17344:0:0:0:0:
256,192,17172,128,0,17344:0:0:0:0:
182,192,17344,128,0,17515:0:0:0:0:
329,192,17344,128,0,17515:0:0:0:0:
109,192,17515,128,0,17687:0:0:0:0:
256,192,17515,128,0,17687:0:0:0:0:
182,192,17687,128,0,17858:0:0:0:0:
36,192,17687,128,0,17858:0:0:0:0:
329,192,17687,1,0,0:0:0:0:
402,192,17772,1,0,0:0:0:0:
475,192,17858,128,0,18030:0:0:0:0:
109,192,17858,128,0,18030:0:0:0:0:
329,192,18030,128,0,18201:0:0:0:0:
182,192,18030,128,0,18201:0:0:0:0:
402,192,18201,128,0,18372:0:0:0:0:
109,192,18201,128,0,18372:0:0:0:0:
329,192,18372,128,0,18715:0:0:0:0:
182,192,18372,1,0,0:0:0:0:
109,192,18458,1,0,0:0:0:0:
36,192,18544,128,0,18715:0:0:0:0:
182,192,18715,128,0,18887:0:0:0:0:
475,192,18715,128,0,18887:0:0:0:0:
36,192,18887,1,0,0:0:0:0:
402,192,18887,128,0,19058:0:0:0:0:
109,192,18972,1,0,0:0:0:0:
475,192,19058,128,0,20087:0:0:0:0:
182,192,19058,1,0,0:0:0:0:
256,192,19144,1,0,0:0:0:0:
329,192,19230,1,0,0:0:0:0:
36,192,19230,128,0,19401:0:0:0:0:
109,192,19401,128,0,19572:0:0:0:0:
402,192,19572,1,0,0:0:0:0:
36,192,19572,128,0,19744:0:0:0:0:
329,192,19744,1,0,0:0:0:0:
182,192,19744,128,0,19915:0:0:0:0:
256,192,19915,128,0,20087:0:0:0:0:
329,192,20087,1,0,0:0:0:0:
182,192,20087,128,0,20258:0:0:0:0:
402,192,20258,1,0,0:0:0:0:
475,192,20258,1,0,0:0:0:0:
36,192,20258,128,0,20430:0:0:0:0:
256,192,20430,128,0,20601:0:0:0:0:
475,192,20601,1,0,0:0:0:0:
182,192,20601,128,0,20772:0:0:0:0:
402,192,20601,1,0,0:0:0:0:
36,192,20772,128,0,20944:0:0:0:0:
256,192,20944,128,0,21115:0:0:0:0:
109,192,20944,1,0,0:0:0:0:
402,192,20944,1,0,0:0:0:0:
329,192,21115,128,0,21287:0:0:0:0:
36,192,21115,1,0,0:0:0:0:
182,192,21287,128,0,21458:0:0:0:0:
402,192,21458,128,0,21630:0:0:0:0:
109,192,21458,128,0,21630:0:0:0:0:
36,192,21630,128,0,21972:0:0:0:0:
475,192,21630,128,0,21972:0:0:0:0:
256,192,21630,128,0,21972:0:0:0:0:
329,192,21972,128,0,22144:0:0:0:0:
109,192,21972,1,0,0:0:0:0:
402,192,22144,128,0,22315:0:0:0:0:
475,192,22315,1,0,0:0:0:0:
182,192,22315,1,0,0:0:0:0:
256,192,22315,1,0,0:0:0:0:
475,192,22487,1,0,0:0:0:0:
109,192,22487,1,0,0:0:0:0:
475,192,22658,1,0,0:0:0:0:
182,192,22658,1,0,0:0:0:0:
402,192,22744,1,0,0:0:0:0:
475,192,22830,1,0,0:0:0:0:
36,192,22830,1,0,0:0:0:0:
402,192,22915,1,0,0:0:0:0:
109,192,22915,1,0,0:0:0:0:
329,192,23001,128,0,23172:0:0:0:0:
182,192,23001,128,0,23172:0:0:0:0:
109,192,23172,128,0,23344:0:0:0:0:
256,192,23172,128,0,23344:0:0:0:0:
36,192,23344,1,0,0:0:0:0:
182,192,23344,1,0,0:0:0:0:
475,192,23515,128,0,23687:0:0:0:0:
329,192,23687,128,0,23858:0:0:0:0:
36,192,23687,1,0,0:0:0:0:
182,192,23687,1,0,0:0:0:0:
475,192,23858,128,0,24030:0:0:0:0:
256,192,23858,1,0,0:0:0:0:
109,192,23858,1,0,0:0:0:0:
36,192,24030,128,0,24201:0:0:0:0:
329,192,24030,128,0,24201:0:0:0:0:
109,192,24201,128,0,24372:0:0:0:0:
402,192,24201,128,0,24372:0:0:0:0:
182,192,24372,128,0,24544:0:0:0:0:
475,192,24372,128,0,24544:0:0:0:0:
329,192,24544,1,0,0:0:0:0:
36,192,24544,1,0,0:0:0:0:
402,192,24630,1,0,0:0:0:0:
109,192,24630,1,0,0:0:0:0:
182,192,24715,1,0,0:0:0:0:
475,192,24715,128,0,25744:0:0:0:0:
256,192,24715,128,0,26087:0:0:0:0:
402,192,25744,1,0,0:0:0:0:
329,192,25915,1,0,0:0:0:0:
402,192,26087,128,0,27115:0:0:0:0:
109,192,26087,128,0,27458:0:0:0:0:
475,192,27115,1,0,0:0:0:0:
402,192,27287,1,0,0:0:0:0:
36,192,27458,128,0,28830:0:0:0:0:
329,192,27458,128,0,27801:0:0:0:0:
402,192,27801,1,0,0:0:0:0:
475,192,27972,128,0,28487:0:0:0:0:
402,192,28487,128,0,28830:0:0:0:0:
329,192,28830,128,0,29515:0:0:0:0:
182,192,28830,128,0,29515:0:0:0:0:
36,192,29515,128,0,30201:0:0:0:0:
329,192,29858,1,0,0:0:0:0:
402,192,30030,1,0,0:0:0:0:
475,192,30201,128,0,31230:0:0:0:0:
109,192,30201,128,0,31572:0:0:0:0:
402,192,31230,1,0,0:0:0:0:
329,192,31401,1,0,0:0:0:0:
475,192,31572,128,0,32430:0:0:0:0:
182,192,31572,128,0,32944:0:0:0:0:
475,192,32601,1,0,0:0:0:0:
402,192,32772,1,0,0:0:0:0:
329,192,32944,128,0,33458:0:0:0:0:
109,192,32944,128,0,34315:0:0:0:0:
256,192,33458,128,0,33972:0:0:0:0:
475,192,33972,128,0,34315:0:0:0:0:
329,192,34315,128,0,35001:0:0:0:0:
182,192,34315,128,0,35001:0:0:0:0:
36,192,35001,128,0,35515:0:0:0:0:
329,192,35344,1,0,0:0:0:0:
402,192,35515,1,0,0:0:0:0:
475,192,35687,128,0,36715:0:0:0:0:
182,192,35687,1,0,0:0:0:0:
256,192,35858,1,0,0:0:0:0:
109,192,36030,1,0,0:0:0:0:
182,192,36201,1,0,0:0:0:0:
256,192,36287,1,0,0:0:0:0:
329,192,36372,1,0,0:0:0:0:
402,192,36372,1,0,0:0:0:0:
182,192,36544,1,0,0:0:0:0:
402,192,36715,128,0,36887:0:0:0:0:
36,192,36715,1,0,0:0:0:0:
109,192,36887,1,0,0:0:0:0:
329,192,36887,128,0,37058:0:0:0:0:
475,192,37058,128,0,38087:0:0:0:0:
36,192,37058,1,0,0:0:0:0:
182,192,37230,1,0,0:0:0:0:
329,192,37401,1,0,0:0:0:0:
36,192,37572,1,0,0:0:0:0:
109,192,37658,1,0,0:0:0:0:
256,192,37744,1,0,0:0:0:0:
182,192,37744,1,0,0:0:0:0:
402,192,37915,1,0,0:0:0:0:
109,192,37915,1,0,0:0:0:0:
256,192,38087,1,0,0:0:0:0:
109,192,38258,1,0,0:0:0:0:
402,192,38258,1,0,0:0:0:0:
36,192,38430,1,0,0:0:0:0:
329,192,38430,128,0,38944:0:0:0:0:
109,192,38601,1,0,0:0:0:0:
182,192,38772,1,0,0:0:0:0:
109,192,38944,1,0,0:0:0:0:
475,192,38944,128,0,39458:0:0:0:0:
182,192,39030,1,0,0:0:0:0:
256,192,39115,1,0,0:0:0:0:
402,192,39115,1,0,0:0:0:0:
36,192,39287,1,0,0:0:0:0:
256,192,39458,1,0,0:0:0:0:
402,192,39458,128,0,39801:0:0:0:0:
182,192,39630,1,0,0:0:0:0:
329,192,39801,128,0,40487:0:0:0:0:
36,192,39801,1,0,0:0:0:0:
256,192,39972,1,0,0:0:0:0:
36,192,40144,1,0,0:0:0:0:
109,192,40315,1,0,0:0:0:0:
182,192,40401,1,0,0:0:0:0:
475,192,40487,1,0,0:0:0:0:
402,192,40487,1,0,0:0:0:0:
256,192,40487,128,0,40830:0:0:0:0:
36,192,40830,1,0,0:0:0:0:
109,192,41001,1,0,0:0:0:0:
182,192,41172,128,0,42201:0:0:0:0:
475,192,41172,1,0,0:0:0:0:
329,192,41344,1,0,0:0:0:0:
402,192,41515,1,0,0:0:0:0:
256,192,41687,1,0,0:0:0:0:
329,192,41772,1,0,0:0:0:0:
402,192,41858,1,0,0:0:0:0:
475,192,41858,1,0,0:0:0:0:
329,192,42030,1,0,0:0:0:0:
402,192,42201,1,0,0:0:0:0:
109,192,42201,1,0,0:0:0:0:
36,192,42372,1,0,0:0:0:0:
329,192,42372,1,0,0:0:0:0:
109,192,42544,128,0,43572:0:0:0:0:
475,192,42544,128,0,44772:0:0:0:0:
182,192,42544,1,0,0:0:0:0:
256,192,42715,1,0,0:0:0:0:
329,192,42887,1,0,0:0:0:0:
182,192,43058,1,0,0:0:0:0:
256,192,43144,1,0,0:0:0:0:
329,192,43230,1,0,0:0:0:0:
402,192,43230,1,0,0:0:0:0:
182,192,43401,1,0,0:0:0:0:
402,192,43572,1,0,0:0:0:0:
256,192,43572,1,0,0:0:0:0:
329,192,43744,1,0,0:0:0:0:
182,192,43744,1,0,0:0:0:0:
109,192,43915,128,0,44430:0:0:0:0:
329,192,44430,128,0,44772:0:0:0:0:
36,192,44515,1,0,0:0:0:0:
109,192,44601,1,0,0:0:0:0:
182,192,44687,1,0,0:0:0:0:
256,192,44772,1,0,0:0:0:0:
329,192,44858,1,0,0:0:0:0:
109,192,44944,1,0,0:0:0:0:
182,192,44944,1,0,0:0:0:0:
36,192,44944,1,0,0:0:0:0:
402,192,44944,128,0,45287:0:0:0:0:
475,192,44944,128,0,45287:0:0:0:0:
36,192,45287,1,0,0:0:0:0:
109,192,45372,1,0,0:0:0:0:
182,192,45458,1,0,0:0:0:0:
109,192,45544,1,0,0:0:0:0:
182,192,45630,1,0,0:0:0:0:
256,192,45715,1,0,0:0:0:0:
182,192,45801,1,0,0:0:0:0:
256,192,45887,1,0,0:0:0:0:
475,192,45972,128,0,46144:0:0:0:0:
402,192,45972,128,0,46144:0:0:0:0:
329,192,45972,1,0,0:0:0:0:
36,192,46144,128,0,46315:0:0:0:0:
109,192,46144,128,0,46315:0:0:0:0:
329,192,46315,1,0,0:0:0:0:
402,192,46315,1,0,0:0:0:0:
182,192,46401,1,0,0:0:0:0:
109,192,46401,1,0,0:0:0:0:
329,192,46487,1,0,0:0:0:0:
402,192,46487,1,0,0:0:0:0:
182,192,46572,1,0,0:0:0:0:
109,192,46572,1,0,0:0:0:0:
329,192,46658,1,0,0:0:0:0:
402,192,46658,1,0,0:0:0:0:
475,192,46658,1,0,0:0:0:0:
36,192,46658,128,0,47001:0:0:0:0:
256,192,46658,128,0,47001:0:0:0:0:
329,192,46830,128,0,47001:0:0:0:0:
402,192,47001,128,0,47172:0:0:0:0:
475,192,47172,128,0,47344:0:0:0:0:
402,192,47344,128,0,47515:0:0:0:0:
109,192,47344,128,0,47687:0:0:0:0:
36,192,47344,128,0,47687:0:0:0:0:
329,192,47515,128,0,47687:0:0:0:0:
256,192,47687,128,0,47858:0:0:0:0:
402,192,47858,128,0,48201:0:0:0:0:
182,192,47858,128,0,48201:0:0:0:0:
36,192,47858,128,0,48201:0:0:0:0:
329,192,48201,128,0,48372:0:0:0:0:
402,192,48372,128,0,48544:0:0:0:0:
329,192,48544,128,0,49058:0:0:0:0:
256,192,48544,128,0,48887:0:0:0:0:
109,192,48544,128,0,48887:0:0:0:0:
182,192,49058,128,0,49230:0:0:0:0:
256,192,49058,128,0,49230:0:0:0:0:
36,192,49058,128,0,49230:0:0:0:0:
475,192,49058,128,0,49230:0:0:0:0:
109,192,49401,128,0,49572:0:0:0:0:
256,192,49401,128,0,49572:0:0:0:0:
402,192,49401,128,0,49572:0:0:0:0:
329,192,49572,128,0,49744:0:0:0:0:
402,192,49744,128,0,49915:0:0:0:0:
475,192,49915,128,0,50087:0:0:0:0:
402,192,50087,128,0,50258:0:0:0:0:
36,192,50087,128,0,50430:0:0:0:0:
109,192,50087,128,0,50430:0:0:0:0:
256,192,50087,128,0,50430:0:0:0:0:
329,192,50258,128,0,50430:0:0:0:0:
475,192,50430,128,0,50515:0:0:0:0:
475,192,50601,128,0,50944:0:0:0:0:
109,192,50601,128,0,50944:0:0:0:0:
182,192,50601,128,0,50944:0:0:0:0:
256,192,50601,128,0,50944:0:0:0:0:
329,192,50944,128,0,51115:0:0:0:0:
402,192,51115,128,0,51801:0:0:0:0:
36,192,51115,128,0,51458:0:0:0:0:
109,192,51115,128,0,51458:0:0:0:0:
182,192,51115,128,0,51458:0:0:0:0:
329,192,51801,128,0,52144:0:0:0:0:
475,192,51801,128,0,52144:0:0:0:0:
109,192,51801,128,0,52144:0:0:0:0:
182,192,52144,128,0,52487:0:0:0:0:
36,192,52144,128,0,52487:0:0:0:0:
256,192,52315,128,0,52487:0:0:0:0:
329,192,52487,128,0,52658:0:0:0:0:
475,192,52658,128,0,52830:0:0:0:0:
109,192,52830,128,0,53172:0:0:0:0:
402,192,52830,128,0,53001:0:0:0:0:
182,192,52830,128,0,53172:0:0:0:0:
329,192,53001,128,0,53172:0:0:0:0:
256,192,53172,128,0,53344:0:0:0:0:
402,192,53344,128,0,53687:0:0:0:0:
36,192,53344,128,0,53687:0:0:0:0:
109,192,53344,128,0,53687:0:0:0:0:
329,192,53687,128,0,53858:0:0:0:0:
402,192,53858,128,0,54030:0:0:0:0:
36,192,54030,128,0,54372:0:0:0:0:
256,192,54030,128,0,54372:0:0:0:0:
329,192,54030,128,0,54544:0:0:0:0:
182,192,54030,128,0,54372:0:0:0:0:
256,192,54544,128,0,54887:0:0:0:0:
109,192,54544,128,0,54887:0:0:0:0:
36,192,54887,128,0,55230:0:0:0:0:
329,192,54887,128,0,55058:0:0:0:0:
182,192,54887,128,0,55230:0:0:0:0:
402,192,55058,128,0,55230:0:0:0:0:
475,192,55230,128,0,55401:0:0:0:0:
402,192,55401,128,0,55572:0:0:0:0:
329,192,55572,128,0,55744:0:0:0:0:
109,192,55572,128,0,55915:0:0:0:0:
182,192,55572,128,0,55915:0:0:0:0:
256,192,55744,128,0,55915:0:0:0:0:
329,192,55915,128,0,56772:0:0:0:0:
402,192,56087,128,0,56258:0:0:0:0:
182,192,56087,128,0,56258:0:0:0:0:
182,192,56430,1,0,0:0:0:0:
402,192,56430,1,0,0:0:0:0:
182,192,56772,128,0,57115:0:0:0:0:
402,192,56772,128,0,57115:0:0:0:0:
329,192,57115,128,0,57287:0:0:0:0:
109,192,57115,128,0,57287:0:0:0:0:
182,192,57287,128,0,57630:0:0:0:0:
402,192,57287,128,0,57630:0:0:0:0:
109,192,57458,128,0,57630:0:0:0:0:
329,192,57458,128,0,57630:0:0:0:0:
256,192,57630,128,0,57972:0:0:0:0:
36,192,57630,128,0,57972:0:0:0:0:
475,192,57630,1,0,0:0:0:0:
329,192,57801,128,0,57972:0:0:0:0:
402,192,57972,128,0,58144:0:0:0:0:
475,192,58144,128,0,58315:0:0:0:0:
402,192,58315,128,0,58487:0:0:0:0:
182,192,58315,128,0,58658:0:0:0:0:
36,192,58315,128,0,58658:0:0:0:0:
329,192,58487,128,0,58658:0:0:0:0:
402,192,58658,128,0,58830:0:0:0:0:
36,192,58830,128,0,59172:0:0:0:0:
109,192,58830,128,0,59172:0:0:0:0:
475,192,58830,128,0,59172:0:0:0:0:
256,192,59001,1,0,0:0:0:0:
329,192,59172,128,0,59344:0:0:0:0:
475,192,59344,128,0,59515:0:0:0:0:
36,192,59515,128,0,59858:0:0:0:0:
402,192,59515,128,0,59858:0:0:0:0:
109,192,59515,128,0,59858:0:0:0:0:
256,192,59858,1,0,0:0:0:0:
36,192,60030,128,0,60372:0:0:0:0:
182,192,60030,128,0,60372:0:0:0:0:
475,192,60030,128,0,60372:0:0:0:0:
329,192,60030,1,0,0:0:0:0:
256,192,60372,128,0,60715:0:0:0:0:
109,192,60372,128,0,60715:0:0:0:0:
329,192,60544,128,0,60715:0:0:0:0:
402,192,60715,128,0,60887:0:0:0:0:
475,192,60887,128,0,61058:0:0:0:0:
402,192,61058,128,0,61230:0:0:0:0:
36,192,61058,128,0,61401:0:0:0:0:
109,192,61058,128,0,61401:0:0:0:0:
329,192,61230,128,0,61401:0:0:0:0:
182,192,61230,1,0,0:0:0:0:
402,192,61401,128,0,61487:0:0:0:0:
256,192,61401,1,0,0:0:0:0:
402,192,61572,128,0,61915:0:0:0:0:
109,192,61572,128,0,61915:0:0:0:0:
182,192,61572,128,0,61915:0:0:0:0:
475,192,61915,128,0,62087:0:0:0:0:
36,192,61915,1,0,0:0:0:0:
109,192,62087,128,0,62430:0:0:0:0:
256,192,62087,128,0,62430:0:0:0:0:
402,192,62087,128,0,62772:0:0:0:0:
329,192,62087,1,0,0:0:0:0:
36,192,62430,1,0,0:0:0:0:
329,192,62772,128,0,63115:0:0:0:0:
109,192,62772,128,0,63115:0:0:0:0:
256,192,62772,1,0,0:0:0:0:
36,192,63115,128,0,63458:0:0:0:0:
182,192,63115,1,0,0:0:0:0:
329,192,63287,128,0,63458:0:0:0:0:
402,192,63458,128,0,63630:0:0:0:0:
256,192,63458,1,0,0:0:0:0:
182,192,63458,1,0,0:0:0:0:
475,192,63630,128,0,63801:0:0:0:0:
402,192,63801,128,0,63972:0:0:0:0:
109,192,63801,128,0,64144:0:0:0:0:
329,192,63972,128,0,64144:0:0:0:0:
36,192,63972,1,0,0:0:0:0:
475,192,64144,128,0,64315:0:0:0:0:
256,192,64144,1,0,0:0:0:0:
182,192,64144,1,0,0:0:0:0:
402,192,64315,128,0,64658:0:0:0:0:
36,192,64315,128,0,64658:0:0:0:0:
109,192,64487,1,0,0:0:0:0:
329,192,64658,128,0,64830:0:0:0:0:
182,192,64658,1,0,0:0:0:0:
402,192,64830,128,0,65001:0:0:0:0:
256,192,64830,1,0,0:0:0:0:
36,192,65001,1,0,0:0:0:0:
475,192,65001,128,0,65344:0:0:0:0:
182,192,65001,128,0,65344:0:0:0:0:
109,192,65344,1,0,0:0:0:0:
36,192,65515,128,0,65858:0:0:0:0:
182,192,65515,128,0,65858:0:0:0:0:
329,192,65515,1,0,0:0:0:0:
109,192,65858,128,0,66201:0:0:0:0:
256,192,65858,1,0,0:0:0:0:
256,192,66030,1,0,0:0:0:0:
329,192,66030,128,0,66201:0:0:0:0:
256,192,66201,1,0,0:0:0:0:
402,192,66201,128,0,66372:0:0:0:0:
256,192,66372,1,0,0:0:0:0:
475,192,66372,128,0,66544:0:0:0:0:
402,192,66544,128,0,66715:0:0:0:0:
36,192,66544,128,0,66887:0:0:0:0:
256,192,66544,1,0,0:0:0:0:
182,192,66630,1,0,0:0:0:0:
329,192,66715,128,0,66887:0:0:0:0:
256,192,66715,1,0,0:0:0:0:
182,192,66801,1,0,0:0:0:0:
402,192,66887,128,0,67058:0:0:0:0:
256,192,66887,1,0,0:0:0:0:
475,192,67058,128,0,67915:0:0:0:0:
256,192,67058,128,0,67230:0:0:0:0:
329,192,67058,128,0,67230:0:0:0:0:
182,192,67058,128,0,67230:0:0:0:0:
329,192,67401,128,0,67572:0:0:0:0:
182,192,67401,128,0,67572:0:0:0:0:
36,192,67401,128,0,67572:0:0:0:0:
256,192,67744,128,0,67915:0:0:0:0:
109,192,67744,128,0,67915:0:0:0:0:
402,192,67744,128,0,67915:0:0:0:0:
329,192,68087,1,0,0:0:0:0:
182,192,68087,1,0,0:0:0:0:
402,192,68172,1,0,0:0:0:0:
109,192,68172,1,0,0:0:0:0:
256,192,68258,128,0,68515:0:0:0:0:
36,192,68258,128,0,68515:0:0:0:0:
475,192,68258,128,0,68515:0:0:0:0:
475,192,68601,128,0,68944:0:0:0:0:
182,192,68601,1,0,0:0:0:0:
109,192,68601,128,0,68772:0:0:0:0:
36,192,68772,128,0,68944:0:0:0:0:
182,192,68944,128,0,69115:0:0:0:0:
402,192,68944,1,0,0:0:0:0:
329,192,68944,1,0,0:0:0:0:
256,192,69115,128,0,69287:0:0:0:0:
475,192,69287,128,0,69630:0:0:0:0:
329,192,69287,128,0,69458:0:0:0:0:
36,192,69287,128,0,69630:0:0:0:0:
109,192,69458,1,0,0:0:0:0:
402,192,69458,128,0,69630:0:0:0:0:
329,192,69630,128,0,69801:0:0:0:0:
256,192,69630,1,0,0:0:0:0:
182,192,69630,1,0,0:0:0:0:
475,192,69801,128,0,69972:0:0:0:0:
256,192,69801,128,0,69972:0:0:0:0:
36,192,69801,128,0,70144:0:0:0:0:
109,192,69801,128,0,70144:0:0:0:0:
402,192,69972,128,0,70144:0:0:0:0:
182,192,69972,1,0,0:0:0:0:
256,192,70144,128,0,70315:0:0:0:0:
475,192,70144,128,0,70315:0:0:0:0:
182,192,70315,1,0,0:0:0:0:
109,192,70315,1,0,0:0:0:0:
329,192,70315,128,0,70487:0:0:0:0:
475,192,70487,128,0,70830:0:0:0:0:
36,192,70487,128,0,70830:0:0:0:0:
402,192,70487,1,0,0:0:0:0:
256,192,70830,1,0,0:0:0:0:
402,192,71001,128,0,71172:0:0:0:0:
182,192,71001,1,0,0:0:0:0:
109,192,71001,1,0,0:0:0:0:
329,192,71172,128,0,71344:0:0:0:0:
36,192,71344,128,0,71687:0:0:0:0:
182,192,71344,128,0,71687:0:0:0:0:
256,192,71344,1,0,0:0:0:0:
329,192,71515,1,0,0:0:0:0:
402,192,71515,1,0,0:0:0:0:
402,192,71687,1,0,0:0:0:0:
475,192,71687,1,0,0:0:0:0:
402,192,71858,1,0,0:0:0:0:
475,192,71858,1,0,0:0:0:0:
109,192,72030,128,0,72372:0:0:0:0:
182,192,72030,128,0,72372:0:0:0:0:
329,192,72030,1,0,0:0:0:0:
402,192,72030,1,0,0:0:0:0:
402,192,72201,1,0,0:0:0:0:
475,192,72201,1,0,0:0:0:0:
402,192,72372,1,0,0:0:0:0:
475,192,72372,1,0,0:0:0:0:
329,192,72544,1,0,0:0:0:0:
402,192,72544,1,0,0:0:0:0:
182,192,72544,128,0,72887:0:0:0:0:
256,192,72544,128,0,72887:0:0:0:0:
402,192,72715,1,0,0:0:0:0:
475,192,72715,1,0,0:0:0:0:
402,192,72887,1,0,0:0:0:0:
475,192,72887,1,0,0:0:0:0:
36,192,73058,128,0,73572:0:0:0:0:
109,192,73058,128,0,73572:0:0:0:0:
329,192,73058,1,0,0:0:0:0:
402,192,73058,1,0,0:0:0:0:
329,192,73187,1,0,0:0:0:0:
402,192,73230,1,0,0:0:0:0:
475,192,73272,128,0,73572:0:0:0:0:
256,192,73401,1,0,0:0:0:0:
329,192,73572,128,0,73744:0:0:0:0:
402,192,73744,128,0,74087:0:0:0:0:
109,192,73744,128,0,74087:0:0:0:0:
36,192,74087,128,0,74430:0:0:0:0:
329,192,74087,128,0,74258:0:0:0:0:
182,192,74087,128,0,74430:0:0:0:0:
402,192,74258,128,0,74430:0:0:0:0:
329,192,74430,128,0,74601:0:0:0:0:
475,192,74601,128,0,74772:0:0:0:0:
