osu file format v14

[General]
AudioFilename: audio.mp3
AudioLeadIn: 0
PreviewTime: 52819
Countdown: 0
SampleSet: Normal
StackLeniency: 0.7
Mode: 1
LetterboxInBreaks: 0
EpilepsyWarning: 1
WidescreenStoryboard: 1

[Editor]
Bookmarks: 231,11021,21808,32594,43381,54167,64954,78437,89223,100010,110796,121583,132369,143156,153942,164729,175515,186302,197088,210572,221358,234167,234504
DistanceSpacing: 1.6
BeatDivisor: 4
GridSize: 32
TimelineZoom: 2.3

[Metadata]
Title:Party in the HOLLOWood feat. Nanahira
TitleUnicode:Party in the HOLLOWood feat. ななひら
Artist:t+pazolite
ArtistUnicode:t+pazolite
Creator:eiri-
Version:KANtan
Source:
Tags:Ayyri Realazy Real Stefan inc incandescence Taikocracy Endymion Ascendance Underforest Trynna Dashyy- Dash Noffy TNG TheNutritiousGuy Comiket 93 C93 Good Evening, Evening CHS-0031 C.H.S CHS tpz
BeatmapID:1717845
BeatmapSetID:819349

[Difficulty]
HPDrainRate:7
CircleSize:2
OverallDifficulty:3
ApproachRate:10
SliderMultiplier:1.4
SliderTickRate:1

[Events]
//Background and Video events
0,0,"Miku Luka 846.png",0,250
//Break Periods
//Storyboard Layer 0 (Background)
Sprite,Background,TopCentre,"Miku Luka 846.png",320,250 S,0,235,,0.625 F,0,9504,9673,0.2,0 F,0,11021,42369,1 F,0,42369,43379,1,0.3 F,0,51470,53836,0.3,1 F,0,53830,,0 F,0,54167,,1 F,0,75740,78437,1,0 F,0,78437,98661,1 F,0,98661,100013,1,0.5 F,0,109448,110800,0.5,1 F,0,120572,121586,1,0.3 F,0,129673,132039,0.3,1 F,0,132032,,0 F,0,132369,,1 F,0,153942,156639,1,0.3 F,0,173998,174167,0.3,0.6 F,0,175515,185965,0.6,1 F,0,185965,,0 F,0,186302,,1 F,0,207875,210572,1,0 F,0,210572,234167,1 F,0,234167,234843,1,0
Sprite,Background,BottomLeft,"sb\Miku.png",-103,730 L,11021,0 F,0,0,,0.8 F,0,10786,11786,0.8,0 L,32594,0 F,0,0,1000,0,0.8 F,0,10786,11786,0.8,0 L,78437,0 F,0,0,,0.8 F,0,10786,11786,0.8,0 L,100010,0 F,0,0,1000,0,0.8 F,0,10786,11786,0.8,0 L,121583,0 F,0,0,1000,0,0.8 F,0,10786,,0 L,164729,0 F,0,0,1000,0,0.8 F,0,10786,11786,0.8,0 S,0,11021,,0.625 C,0,11021,,0,0,0 F,0,186302,,0
Sprite,Background,BottomRight,"sb\Luka.png",747,730 L,235,0 F,0,0,1000,0,0.8 F,0,10786,,0 L,21808,0 F,0,0,1000,0,0.8 F,0,10786,11786,0.8,0 L,43381,0 F,0,0,1000,0,0.8 F,0,10786,,0 L,89223,0 F,0,0,1000,0,0.8 F,0,10786,11786,0.8,0 L,110796,0 F,0,0,1000,0,0.8 F,0,10786,11786,0.8,0 L,153942,0 F,0,0,1000,0,0.8 F,0,10786,11786,0.8,0 L,175515,0 F,0,0,1000,0,0.8 F,0,10786,,0 S,0,11021,,0.625 C,0,11021,,0,0,0 F,0,186302,,0
Sprite,Background,BottomLeft,"sb\bm.jpg",-103,730 L,64954,16 F,0,0,674,1,0 L,132369,16 F,0,0,674,1,0 L,197088,16 F,0,0,674,1,0 F,0,54167,,0 S,0,54167,,0.625 P,0,54167,,A F,0,207875,,0
Sprite,Background,BottomRight,"sb\bl.jpg",747,730 L,54167,16 F,0,0,674,1,0 L,143156,16 F,0,0,674,1,0 L,186302,16 F,0,0,674,1,0 S,0,64954,,0.625 P,0,64954,,A F,0,207875,,0
//Storyboard Layer 1 (Fail)
Sprite,Fail,TopRight,"sb\fk.jpg",320,-10 L,235,12 MX,0,0,19530,747,-107 F,0,235,,0 F,0,54167,,1 F,0,64617,,0 F,0,64954,,1 F,0,75740,,0 F,0,132369,,1 F,0,142819,,0 F,0,143156,,1 F,0,153942,,0 F,0,186302,,1 F,0,196751,,0 F,0,197088,,1 F,0,207875,,0
Sprite,Fail,TopLeft,"sb\fk.jpg",320,-10 L,235,12 MX,0,0,19530,747,-107 F,0,235,,0 F,0,54167,,1 F,0,64617,,0 F,0,64954,,1 F,0,75740,,0 F,0,132369,,1 F,0,142819,,0 F,0,143156,,1 F,0,153942,,0 F,0,186302,,1 F,0,196751,,0 F,0,197088,,1 F,0,207875,,0
Sprite,Fail,TopRight,"sb\fk.jpg",320,71 L,235,12 MX,0,0,19530,-107,747 F,0,235,,0 F,0,54167,,1 F,0,64617,,0 F,0,64954,,1 F,0,75740,,0 F,0,132369,,1 F,0,142819,,0 F,0,143156,,1 F,0,153942,,0 F,0,186302,,1 F,0,196751,,0 F,0,197088,,1 F,0,207875,,0
Sprite,Fail,TopLeft,"sb\fk.jpg",320,71 L,235,12 MX,0,0,19530,-107,747 F,0,235,,0 F,0,54167,,1 F,0,64617,,0 F,0,64954,,1 F,0,75740,,0 F,0,132369,,1 F,0,142819,,0 F,0,143156,,1 F,0,153942,,0 F,0,186302,,1 F,0,196751,,0 F,0,197088,,1 F,0,207875,,0
Sprite,Fail,TopRight,"sb\fv.jpg",320,-10 L,235,12 MX,0,0,19530,747,-107 F,0,235,,1 F,0,54167,,0 F,0,64617,,1 F,0,64954,,0 F,0,75740,,1 F,0,132369,,0 F,0,142819,,1 F,0,143156,,0 F,0,153942,,1 F,0,186302,,0 F,0,196751,,1 F,0,197088,,0 F,0,207875,,1 F,0,234167,234843,1,0
Sprite,Fail,TopLeft,"sb\fv.jpg",320,-10 L,235,12 MX,0,0,19530,747,-107 F,0,235,,1 F,0,54167,,0 F,0,64617,,1 F,0,64954,,0 F,0,75740,,1 F,0,132369,,0 F,0,142819,,1 F,0,143156,,0 F,0,153942,,1 F,0,186302,,0 F,0,196751,,1 F,0,197088,,0 F,0,207875,,1 F,0,234167,234843,1,0
Sprite,Fail,TopRight,"sb\fv.jpg",320,71 L,235,12 MX,0,0,19530,-107,747 F,0,235,,1 F,0,54167,,0 F,0,64617,,1 F,0,64954,,0 F,0,75740,,1 F,0,132369,,0 F,0,142819,,1 F,0,143156,,0 F,0,153942,,1 F,0,186302,,0 F,0,196751,,1 F,0,197088,,0 F,0,207875,,1 F,0,234167,234843,1,0
Sprite,Fail,TopLeft,"sb\fv.jpg",320,71 L,235,12 MX,0,0,19530,-107,747 F,0,235,,1 F,0,54167,,0 F,0,64617,,1 F,0,64954,,0 F,0,75740,,1 F,0,132369,,0 F,0,142819,,1 F,0,143156,,0 F,0,153942,,1 F,0,186302,,0 F,0,196751,,1 F,0,197088,,0 F,0,207875,,1 F,0,234167,234843,1,0
//Storyboard Layer 2 (Pass)
Sprite,Pass,TopRight,"sb\pk.jpg",320,-10 L,235,12 MX,0,0,19530,747,-107 F,0,235,,0 F,0,54167,,1 F,0,64617,,0 F,0,64954,,1 F,0,75740,,0 F,0,132369,,1 F,0,142819,,0 F,0,143156,,1 F,0,153942,,0 F,0,186302,,1 F,0,196751,,0 F,0,197088,,1 F,0,207875,,0
Sprite,Pass,TopLeft,"sb\pk.jpg",320,-10 L,235,12 MX,0,0,19530,747,-107 F,0,235,,0 F,0,54167,,1 F,0,64617,,0 F,0,64954,,1 F,0,75740,,0 F,0,132369,,1 F,0,142819,,0 F,0,143156,,1 F,0,153942,,0 F,0,186302,,1 F,0,196751,,0 F,0,197088,,1 F,0,207875,,0
Sprite,Pass,TopRight,"sb\pk.jpg",320,71 L,235,12 MX,0,0,19530,-107,747 F,0,235,,0 F,0,54167,,1 F,0,64617,,0 F,0,64954,,1 F,0,75740,,0 F,0,132369,,1 F,0,142819,,0 F,0,143156,,1 F,0,153942,,0 F,0,186302,,1 F,0,196751,,0 F,0,197088,,1 F,0,207875,,0
Sprite,Pass,TopLeft,"sb\pk.jpg",320,71 L,235,12 MX,0,0,19530,-107,747 F,0,235,,0 F,0,54167,,1 F,0,64617,,0 F,0,64954,,1 F,0,75740,,0 F,0,132369,,1 F,0,142819,,0 F,0,143156,,1 F,0,153942,,0 F,0,186302,,1 F,0,196751,,0 F,0,197088,,1 F,0,207875,,0
Sprite,Pass,TopRight,"sb\pv.jpg",320,-10 L,235,12 MX,0,0,19530,747,-107 F,0,235,,1 F,0,54167,,0 F,0,64617,,1 F,0,64954,,0 F,0,75740,,1 F,0,132369,,0 F,0,142819,,1 F,0,143156,,0 F,0,153942,,1 F,0,186302,,0 F,0,196751,,1 F,0,197088,,0 F,0,207875,,1 F,0,234167,234843,1,0
Sprite,Pass,TopLeft,"sb\pv.jpg",320,-10 L,235,12 MX,0,0,19530,747,-107 F,0,235,,1 F,0,54167,,0 F,0,64617,,1 F,0,64954,,0 F,0,75740,,1 F,0,132369,,0 F,0,142819,,1 F,0,143156,,0 F,0,153942,,1 F,0,186302,,0 F,0,196751,,1 F,0,197088,,0 F,0,207875,,1 F,0,234167,234843,1,0
Sprite,Pass,TopRight,"sb\pv.jpg",320,71 L,235,12 MX,0,0,19530,-107,747 F,0,235,,1 F,0,54167,,0 F,0,64617,,1 F,0,64954,,0 F,0,75740,,1 F,0,132369,,0 F,0,142819,,1 F,0,143156,,0 F,0,153942,,1 F,0,186302,,0 F,0,196751,,1 F,0,197088,,0 F,0,207875,,1 F,0,234167,234843,1,0
Sprite,Pass,TopLeft,"sb\pv.jpg",320,71 L,235,12 MX,0,0,19530,-107,747 F,0,235,,1 F,0,54167,,0 F,0,64617,,1 F,0,64954,,0 F,0,75740,,1 F,0,132369,,0 F,0,142819,,1 F,0,143156,,0 F,0,153942,,1 F,0,186302,,0 F,0,196751,,1 F,0,197088,,0 F,0,207875,,1 F,0,234167,234843,1,0
//Storyboard Layer 3 (Foreground)
Sprite,Foreground,Centre,"sb\t\tab.png",530,117 F,0,235,,1 V,0,235,,0.5,-0.5 F,0,234167,234843,1,0
Sprite,Foreground,Centre,"sb\t\ayyri.png",530,121 L,235,3 F,0,0,337,0,1 F,0,337,10449,1 F,0,10449,10786,1,0 F,0,21573,,0 L,89223,5 F,0,0,337,0,1 F,0,337,10449,1 F,0,10449,10786,1,0 F,0,21573,,0 S,0,235,,0.5 F,0,64954,65291,0,1 F,0,78100,78437,1,0 F,0,197088,197426,0,1 F,0,210234,210572,1,0 F,0,221358,221695,0,1 F,0,234167,234843,1,0
Sprite,Foreground,Centre,"sb\t\stefan.png",530,121 L,11021,3 F,0,0,337,0,1 F,0,337,10449,1 F,0,10449,10786,1,0 F,0,21573,,0 L,78437,6 F,0,0,337,0,1 F,0,337,10449,1 F,0,10449,10786,1,0 F,0,21573,,0 L,210572,1 F,0,0,337,0,1 F,0,337,10449,1 F,0,10449,10786,1,0 F,0,21573,,0 S,0,11021,,0.5 F,0,221358,,0
//Storyboard Sound Samples

[TimingPoints]
231,338.983050847458,4,1,0,50,1,0
9673,337.078651685393,4,1,0,60,1,0
11021,-100,4,1,0,75,0,0
21808,-100,4,1,0,60,0,0
32594,-100,4,1,0,75,0,0
43381,-100,4,1,0,50,0,0
51470,-100,4,1,0,60,0,0
52819,-100,4,1,0,75,0,0
54167,-100,4,1,0,90,0,1
64616,-100,4,1,0,90,0,0
64953,-100,4,1,0,90,0,1
75740,-100,4,1,0,60,0,0
78437,-100,4,1,0,75,0,0
98661,-100,4,1,0,70,0,0
100010,-100,4,1,0,60,0,0
110796,-100,4,1,0,75,0,0
121583,-100,4,1,0,50,0,0
129673,-100,4,1,0,60,0,0
131021,-100,4,1,0,75,0,0
132369,-100,4,1,0,90,0,1
142819,-100,4,1,0,90,0,0
143156,-100,4,1,0,90,0,1
153942,-100,4,1,0,60,0,0
164729,-100,4,1,0,50,0,0
174167,-100,4,1,0,60,0,0
175515,-100,4,1,0,75,0,0
180909,-100,4,1,0,80,0,0
183605,-100,4,1,0,85,0,0
186302,-100,4,1,0,90,0,1
196751,-100,4,1,0,90,0,0
197088,-100,4,1,0,90,0,1
207875,-100,4,1,0,60,0,0
210572,-100,4,1,0,75,0,0
234504,-100,4,1,0,50,0,0

[HitObjects]
256,192,231,5,0,0:0:0:0:
256,192,908,1,0,0:0:0:0:
256,192,1586,1,8,0:0:0:0:
256,192,2942,1,0,0:0:0:0:
256,192,3620,1,8,0:0:0:0:
256,192,4298,1,0,0:0:0:0:
256,192,5654,1,0,0:0:0:0:
256,192,6332,1,0,0:0:0:0:
256,192,7010,1,8,0:0:0:0:
256,192,8366,1,0,0:0:0:0:
256,192,9044,1,8,0:0:0:0:
256,192,9673,1,0,0:0:0:0:
256,192,10010,1,0,0:0:0:0:
256,192,10347,1,8,0:0:0:0:
256,192,11021,1,12,0:0:0:0:
256,192,11695,1,0,0:0:0:0:
256,192,12032,1,0,0:0:0:0:
256,192,12369,1,0,0:0:0:0:
256,192,13043,1,8,0:0:0:0:
256,192,13718,1,0,0:0:0:0:
256,192,14392,1,0,0:0:0:0:
256,192,14729,1,0,0:0:0:0:
256,192,15066,1,0,0:0:0:0:
256,192,15403,1,0,0:0:0:0:
256,192,15740,1,8,0:0:0:0:
256,192,16414,1,4,0:0:0:0:
256,192,17763,1,0,0:0:0:0:
256,192,18437,1,8,0:0:0:0:
256,192,18774,1,0,0:0:0:0:
256,192,19111,1,0,0:0:0:0:
256,192,20122,1,8,0:0:0:0:
256,192,20459,1,0,0:0:0:0:
256,192,20796,1,0,0:0:0:0:
256,192,21133,1,8,0:0:0:0:
256,192,21808,1,12,0:0:0:0:
256,192,22482,1,0,0:0:0:0:
256,192,23156,1,0,0:0:0:0:
256,192,23493,1,8,0:0:0:0:
256,192,23830,1,0,0:0:0:0:
256,192,24504,1,0,0:0:0:0:
256,192,25178,1,8,0:0:0:0:
256,192,25852,1,0,0:0:0:0:
256,192,26190,1,0,0:0:0:0:
256,192,26527,1,8,0:0:0:0:
256,192,27201,1,0,0:0:0:0:
256,192,28549,1,8,0:0:0:0:
256,192,29223,1,0,0:0:0:0:
256,192,29560,1,8,0:0:0:0:
256,192,29897,1,0,0:0:0:0:
256,192,30572,1,8,0:0:0:0:
256,192,30909,1,0,0:0:0:0:
256,192,31246,1,8,0:0:0:0:
256,192,31920,1,0,0:0:0:0:
256,192,32594,1,12,0:0:0:0:
256,192,33942,1,0,0:0:0:0:
256,192,34617,1,0,0:0:0:0:
256,192,34954,1,8,0:0:0:0:
256,192,35291,1,0,0:0:0:0:
256,192,35965,1,0,0:0:0:0:
256,192,36639,1,0,0:0:0:0:
256,192,36976,1,8,0:0:0:0:
256,192,37313,1,0,0:0:0:0:
256,192,37650,1,8,0:0:0:0:
256,192,37987,1,0,0:0:0:0:
256,192,39336,1,0,0:0:0:0:
256,192,40010,1,0,0:0:0:0:
256,192,40347,1,8,0:0:0:0:
256,192,40684,1,8,0:0:0:0:
256,192,42032,1,0,0:0:0:0:
256,192,42706,1,0,0:0:0:0:
256,192,43381,1,12,0:0:0:0:
256,192,44055,1,0,0:0:0:0:
256,192,44729,1,8,0:0:0:0:
256,192,46077,1,12,0:0:0:0:
256,192,46751,1,0,0:0:0:0:
256,192,47426,1,8,0:0:0:0:
256,192,48774,1,12,0:0:0:0:
256,192,49448,1,0,0:0:0:0:
256,192,50122,1,8,0:0:0:0:
256,192,51470,1,12,0:0:0:0:
256,192,51808,1,0,0:0:0:0:
256,192,52145,1,0,0:0:0:0:
256,192,52482,1,0,0:0:0:0:
256,192,52819,1,8,0:0:0:0:
256,192,53493,1,8,0:0:0:0:
256,192,53830,1,4,0:0:0:0:
256,192,54167,1,12,0:0:0:0:
256,192,54841,1,0,0:0:0:0:
256,192,55178,1,8,0:0:0:0:
256,192,55515,1,0,0:0:0:0:
256,192,56190,1,8,0:0:0:0:
256,192,56864,1,0,0:0:0:0:
256,192,57201,1,8,0:0:0:0:
256,192,57538,1,8,0:0:0:0:
256,192,57875,1,0,0:0:0:0:
256,192,58212,1,0,0:0:0:0:
256,192,58886,1,8,0:0:0:0:
256,192,59560,1,4,0:0:0:0:
256,192,60572,1,8,0:0:0:0:
256,192,60909,1,0,0:0:0:0:
256,192,61583,1,8,0:0:0:0:
256,192,62257,1,0,0:0:0:0:
256,192,62594,1,0,0:0:0:0:
256,192,62931,1,8,0:0:0:0:
256,192,63268,1,8,0:0:0:0:
256,192,63605,1,0,0:0:0:0:
256,192,64617,1,0,0:0:0:0:
256,192,64954,1,12,0:0:0:0:
256,192,65291,1,0,0:0:0:0:
256,192,65628,1,8,0:0:0:0:
256,192,66302,1,0,0:0:0:0:
256,192,66976,1,0,0:0:0:0:
256,192,67313,1,12,0:0:0:0:
256,192,67650,1,0,0:0:0:0:
256,192,68324,1,0,0:0:0:0:
256,192,68999,1,8,0:0:0:0:
256,192,70347,1,12,0:0:0:0:
256,192,71021,1,8,0:0:0:0:
256,192,71358,1,0,0:0:0:0:
256,192,71695,1,8,0:0:0:0:
256,192,72369,1,0,0:0:0:0:
256,192,72706,1,12,0:0:0:0:
256,192,73043,1,0,0:0:0:0:
256,192,73718,1,8,0:0:0:0:
256,192,74055,1,0,0:0:0:0:
256,192,75066,1,8,0:0:0:0:
256,192,75403,1,0,0:0:0:0:
256,192,75740,1,8,0:0:0:0:
256,192,77088,1,8,0:0:0:0:
256,192,77763,1,0,0:0:0:0:
256,192,78100,1,0,0:0:0:0:
256,192,78437,1,12,0:0:0:0:
256,192,79111,1,0,0:0:0:0:
256,192,79448,1,0,0:0:0:0:
256,192,79785,1,0,0:0:0:0:
256,192,80459,1,8,0:0:0:0:
256,192,81133,1,0,0:0:0:0:
256,192,81808,1,0,0:0:0:0:
256,192,82145,1,0,0:0:0:0:
256,192,82482,1,0,0:0:0:0:
256,192,82819,1,0,0:0:0:0:
256,192,83156,1,8,0:0:0:0:
256,192,83830,1,4,0:0:0:0:
256,192,85178,1,0,0:0:0:0:
256,192,85852,1,8,0:0:0:0:
256,192,86190,1,0,0:0:0:0:
256,192,86527,1,0,0:0:0:0:
256,192,87538,1,8,0:0:0:0:
256,192,87875,1,0,0:0:0:0:
256,192,88212,1,0,0:0:0:0:
256,192,88549,1,8,0:0:0:0:
256,192,89223,1,12,0:0:0:0:
256,192,89897,1,8,0:0:0:0:
256,192,90572,1,0,0:0:0:0:
256,192,91246,1,8,0:0:0:0:
256,192,91920,1,0,0:0:0:0:
256,192,93268,1,0,0:0:0:0:
256,192,93942,1,0,0:0:0:0:
256,192,94279,1,0,0:0:0:0:
256,192,94617,1,8,0:0:0:0:
256,192,95291,1,0,0:0:0:0:
256,192,95628,1,8,0:0:0:0:
256,192,95965,1,0,0:0:0:0:
256,192,96639,1,0,0:0:0:0:
256,192,97313,1,0,0:0:0:0:
256,192,97650,1,0,0:0:0:0:
256,192,97987,1,8,0:0:0:0:
256,192,98661,1,0,0:0:0:0:
256,192,100010,1,0,0:0:0:0:
256,192,101358,1,0,0:0:0:0:
256,192,102706,1,0,0:0:0:0:
256,192,104055,1,0,0:0:0:0:
256,192,104729,1,0,0:0:0:0:
256,192,105403,1,0,0:0:0:0:
256,192,106751,1,0,0:0:0:0:
256,192,108100,1,0,0:0:0:0:
256,192,109448,1,0,0:0:0:0:
256,192,110122,1,0,0:0:0:0:
256,192,110796,1,12,0:0:0:0:
256,192,111133,1,8,0:0:0:0:
256,192,111470,1,0,0:0:0:0:
256,192,112145,1,0,0:0:0:0:
256,192,112819,1,0,0:0:0:0:
256,192,113156,1,8,0:0:0:0:
256,192,113493,1,0,0:0:0:0:
256,192,114841,1,0,0:0:0:0:
256,192,115178,1,0,0:0:0:0:
256,192,115515,1,8,0:0:0:0:
256,192,116190,1,0,0:0:0:0:
256,192,116527,1,8,0:0:0:0:
256,192,116864,1,0,0:0:0:0:
256,192,117538,1,8,0:0:0:0:
256,192,117875,1,8,0:0:0:0:
256,192,118212,1,0,0:0:0:0:
256,192,118549,1,8,0:0:0:0:
256,192,118886,1,0,0:0:0:0:
256,192,120234,1,0,0:0:0:0:
256,192,120572,1,8,0:0:0:0:
256,192,120909,1,0,0:0:0:0:
256,192,121246,1,0,0:0:0:0:
256,192,121583,1,12,0:0:0:0:
256,192,122931,1,0,0:0:0:0:
256,192,123268,1,8,0:0:0:0:
256,192,123605,1,0,0:0:0:0:
256,192,124279,1,8,0:0:0:0:
256,192,125628,1,8,0:0:0:0:
256,192,125965,1,8,0:0:0:0:
256,192,126302,1,0,0:0:0:0:
256,192,126639,1,8,0:0:0:0:
256,192,126976,1,0,0:0:0:0:
256,192,128324,1,0,0:0:0:0:
256,192,128661,1,8,0:0:0:0:
256,192,128999,1,0,0:0:0:0:
256,192,129673,1,0,0:0:0:0:
256,192,130347,1,0,0:0:0:0:
256,192,131021,1,8,0:0:0:0:
256,192,131695,1,0,0:0:0:0:
256,192,132369,1,12,0:0:0:0:
256,192,132706,1,0,0:0:0:0:
256,192,133043,1,8,0:0:0:0:
256,192,133381,1,8,0:0:0:0:
256,192,133718,1,0,0:0:0:0:
256,192,134392,1,0,0:0:0:0:
256,192,134729,1,12,0:0:0:0:
256,192,135066,1,0,0:0:0:0:
256,192,136414,1,8,0:0:0:0:
256,192,137088,1,0,0:0:0:0:
256,192,137426,1,0,0:0:0:0:
256,192,137763,1,12,0:0:0:0:
256,192,138437,1,8,0:0:0:0:
256,192,138774,1,0,0:0:0:0:
256,192,139111,1,8,0:0:0:0:
256,192,139785,1,0,0:0:0:0:
256,192,140122,1,12,0:0:0:0:
256,192,140459,1,0,0:0:0:0:
256,192,141133,1,8,0:0:0:0:
256,192,141470,1,0,0:0:0:0:
256,192,141808,1,8,0:0:0:0:
256,192,142819,1,4,0:0:0:0:
256,192,143156,1,12,0:0:0:0:
256,192,143830,1,0,0:0:0:0:
256,192,144167,1,8,0:0:0:0:
256,192,144504,1,0,0:0:0:0:
256,192,145178,1,8,0:0:0:0:
256,192,145852,1,0,0:0:0:0:
256,192,146190,1,0,0:0:0:0:
256,192,146527,1,8,0:0:0:0:
256,192,146864,1,8,0:0:0:0:
256,192,147201,1,0,0:0:0:0:
256,192,147875,1,8,0:0:0:0:
256,192,148549,1,4,0:0:0:0:
256,192,149560,1,8,0:0:0:0:
256,192,149897,1,0,0:0:0:0:
256,192,150572,1,8,0:0:0:0:
256,192,151246,1,0,0:0:0:0:
256,192,151583,1,8,0:0:0:0:
256,192,151920,1,8,0:0:0:0:
256,192,152257,1,0,0:0:0:0:
256,192,153268,1,0,0:0:0:0:
256,192,153942,1,12,0:0:0:0:
256,192,154617,1,8,0:0:0:0:
256,192,155965,1,8,0:0:0:0:
256,192,157313,1,8,0:0:0:0:
256,192,158661,1,8,0:0:0:0:
256,192,160010,1,8,0:0:0:0:
256,192,161358,1,8,0:0:0:0:
256,192,162706,1,8,0:0:0:0:
256,192,164055,1,8,0:0:0:0:
256,192,164729,1,8,0:0:0:0:
256,192,166077,1,0,0:0:0:0:
256,192,166751,1,8,0:0:0:0:
256,192,167426,1,0,0:0:0:0:
256,192,168774,1,0,0:0:0:0:
256,192,169448,1,0,0:0:0:0:
256,192,170122,1,8,0:0:0:0:
256,192,171470,1,0,0:0:0:0:
256,192,172145,1,0,0:0:0:0:
256,192,172819,1,0,0:0:0:0:
256,192,174167,1,0,0:0:0:0:
256,192,174841,1,8,0:0:0:0:
256,192,175515,1,12,0:0:0:0:
256,192,176864,1,8,0:0:0:0:
256,192,177538,1,8,0:0:0:0:
256,192,178212,1,8,0:0:0:0:
256,192,179560,1,8,0:0:0:0:
256,192,180234,1,8,0:0:0:0:
256,192,180909,1,8,0:0:0:0:
256,192,181246,1,8,0:0:0:0:
256,192,181583,1,8,0:0:0:0:
256,192,182257,1,8,0:0:0:0:
256,192,182594,1,8,0:0:0:0:
256,192,182931,1,8,0:0:0:0:
256,192,183605,1,8,0:0:0:0:
256,192,184279,1,8,0:0:0:0:
256,192,184617,1,0,0:0:0:0:
256,192,184954,1,8,0:0:0:0:
256,192,185965,1,4,0:0:0:0:
256,192,186302,1,12,0:0:0:0:
256,192,186976,1,0,0:0:0:0:
256,192,187313,1,8,0:0:0:0:
256,192,187650,1,0,0:0:0:0:
256,192,188324,1,8,0:0:0:0:
256,192,188999,1,0,0:0:0:0:
256,192,189336,1,8,0:0:0:0:
256,192,189673,1,8,0:0:0:0:
256,192,190010,1,0,0:0:0:0:
256,192,190347,1,0,0:0:0:0:
256,192,191021,1,8,0:0:0:0:
256,192,191695,1,4,0:0:0:0:
256,192,192706,1,8,0:0:0:0:
256,192,193043,1,0,0:0:0:0:
256,192,193718,1,8,0:0:0:0:
256,192,194392,1,0,0:0:0:0:
256,192,194729,1,0,0:0:0:0:
256,192,195066,1,8,0:0:0:0:
256,192,195403,1,8,0:0:0:0:
256,192,195740,1,0,0:0:0:0:
256,192,196751,1,0,0:0:0:0:
256,192,197088,1,12,0:0:0:0:
256,192,197763,1,8,0:0:0:0:
256,192,198100,1,8,0:0:0:0:
256,192,198437,1,0,0:0:0:0:
256,192,199111,1,0,0:0:0:0:
256,192,199448,1,12,0:0:0:0:
256,192,199785,1,0,0:0:0:0:
256,192,200459,1,0,0:0:0:0:
256,192,200796,1,0,0:0:0:0:
256,192,201133,1,8,0:0:0:0:
256,192,202482,1,12,0:0:0:0:
256,192,203156,1,8,0:0:0:0:
256,192,203493,1,8,0:0:0:0:
256,192,203830,1,0,0:0:0:0:
256,192,204504,1,0,0:0:0:0:
256,192,204841,1,12,0:0:0:0:
256,192,205178,1,0,0:0:0:0:
256,192,205852,1,8,0:0:0:0:
256,192,206190,1,0,0:0:0:0:
256,192,206527,1,8,0:0:0:0:
256,192,207201,1,0,0:0:0:0:
256,192,207538,1,8,0:0:0:0:
256,192,207875,1,0,0:0:0:0:
256,192,209223,1,0,0:0:0:0:
256,192,209897,1,0,0:0:0:0:
256,192,210234,1,0,0:0:0:0:
256,192,210572,1,12,0:0:0:0:
256,192,211246,1,0,0:0:0:0:
256,192,211583,1,0,0:0:0:0:
256,192,211920,1,0,0:0:0:0:
256,192,212594,1,8,0:0:0:0:
256,192,213268,1,0,0:0:0:0:
256,192,213942,1,0,0:0:0:0:
256,192,214279,1,0,0:0:0:0:
256,192,214617,1,0,0:0:0:0:
256,192,214954,1,0,0:0:0:0:
256,192,215291,1,8,0:0:0:0:
256,192,215965,1,4,0:0:0:0:
256,192,217313,1,0,0:0:0:0:
256,192,217987,1,8,0:0:0:0:
256,192,218324,1,0,0:0:0:0:
256,192,218661,1,0,0:0:0:0:
256,192,219336,1,0,0:0:0:0:
256,192,220010,1,0,0:0:0:0:
256,192,220684,1,8,0:0:0:0:
256,192,221021,1,0,0:0:0:0:
256,192,221358,1,12,0:0:0:0:
256,192,222032,1,8,0:0:0:0:
256,192,222369,1,8,0:0:0:0:
256,192,222706,1,0,0:0:0:0:
256,192,223381,1,0,0:0:0:0:
256,192,223718,1,0,0:0:0:0:
256,192,224055,1,8,0:0:0:0:
256,192,225403,1,0,0:0:0:0:
256,192,225740,1,8,0:0:0:0:
256,192,226077,1,4,0:0:0:0:
256,192,226414,1,4,0:0:0:0:
256,192,226751,1,12,0:0:0:0:
256,192,227426,1,0,0:0:0:0:
256,192,228100,1,0,0:0:0:0:
256,192,228774,1,8,0:0:0:0:
256,192,229111,1,8,0:0:0:0:
256,192,229448,1,0,0:0:0:0:
256,192,230796,1,0,0:0:0:0:
256,192,231133,1,8,0:0:0:0:
256,192,231470,1,4,0:0:0:0:
256,192,231808,1,4,0:0:0:0:
256,192,232145,1,12,0:0:0:0:
256,192,233493,1,0,0:0:0:0:
256,192,233830,1,0,0:0:0:0:
256,192,234167,1,12,0:0:0:0:
256,192,234504,1,0,0:0:0:0:
