osu file format v14

[General]
AudioFilename: audio.mp3
AudioLeadIn: 0
PreviewTime: 52819
Countdown: 0
SampleSet: Normal
StackLeniency: 0.7
Mode: 1
LetterboxInBreaks: 0
EpilepsyWarning: 1
WidescreenStoryboard: 1

[Editor]
Bookmarks: 231,11021,21808,32594,43381,54167,64954,78437,89223,100010,110796,121583,132369,143156,153942,164729,175515,186302,197088,210572,221358,234167
DistanceSpacing: 1.6
BeatDivisor: 4
GridSize: 32
TimelineZoom: 2.3

[Metadata]
Title:Party in the HOLLOWood feat. Nanahira
TitleUnicode:Party in the HOLLOWood feat. ななひら
Artist:t+pazolite
ArtistUnicode:t+pazolite
Creator:eiri-
Version:INNer ONi
Source:
Tags:Ayyri Realazy Real Stefan inc incandescence Taikocracy Endymion Ascendance Underforest Trynna Dashyy- Dash Noffy TNG TheNutritiousGuy Comiket 93 C93 Good Evening, Evening CHS-0031 C.H.S CHS tpz
BeatmapID:1717849
BeatmapSetID:819349

[Difficulty]
HPDrainRate:5.5
CircleSize:2
OverallDifficulty:5.5
ApproachRate:10
SliderMultiplier:1.4
SliderTickRate:1

[Events]
//Background and Video events
0,0,"Miku Luka 846.png",0,250
//Break Periods
//Storyboard Layer 0 (Background)
Sprite,Background,TopCentre,"Miku Luka 846.png",320,250 S,0,235,,0.625 F,0,9504,9673,0.2,0 F,0,11021,42369,1 F,0,42369,43379,1,0.3 F,0,51470,53836,0.3,1 F,0,53830,,0 F,0,54167,,1 F,0,75740,78437,1,0 F,0,78437,98661,1 F,0,98661,100013,1,0.5 F,0,109448,110800,0.5,1 F,0,120572,121586,1,0.3 F,0,129673,132039,0.3,1 F,0,132032,,0 F,0,132369,,1 F,0,153942,156639,1,0.3 F,0,173998,174167,0.3,0.6 F,0,175515,185965,0.6,1 F,0,185965,,0 F,0,186302,,1 F,0,207875,210572,1,0 F,0,210572,234167,1 F,0,234167,234843,1,0
Sprite,Background,BottomLeft,"sb\Miku.png",-103,730 L,11021,0 F,0,0,,0.8 F,0,10786,11786,0.8,0 L,32594,0 F,0,0,1000,0,0.8 F,0,10786,11786,0.8,0 L,78437,0 F,0,0,,0.8 F,0,10786,11786,0.8,0 L,100010,0 F,0,0,1000,0,0.8 F,0,10786,11786,0.8,0 L,121583,0 F,0,0,1000,0,0.8 F,0,10786,,0 L,164729,0 F,0,0,1000,0,0.8 F,0,10786,11786,0.8,0 S,0,11021,,0.625 C,0,11021,,0,0,0 F,0,186302,,0
Sprite,Background,BottomRight,"sb\Luka.png",747,730 L,235,0 F,0,0,1000,0,0.8 F,0,10786,,0 L,21808,0 F,0,0,1000,0,0.8 F,0,10786,11786,0.8,0 L,43381,0 F,0,0,1000,0,0.8 F,0,10786,,0 L,89223,0 F,0,0,1000,0,0.8 F,0,10786,11786,0.8,0 L,110796,0 F,0,0,1000,0,0.8 F,0,10786,11786,0.8,0 L,153942,0 F,0,0,1000,0,0.8 F,0,10786,11786,0.8,0 L,175515,0 F,0,0,1000,0,0.8 F,0,10786,,0 S,0,11021,,0.625 C,0,11021,,0,0,0 F,0,186302,,0
Sprite,Background,BottomLeft,"sb\bm.jpg",-103,730 L,64954,16 F,0,0,674,1,0 L,132369,16 F,0,0,674,1,0 L,197088,16 F,0,0,674,1,0 F,0,54167,,0 S,0,54167,,0.625 P,0,54167,,A F,0,207875,,0
Sprite,Background,BottomRight,"sb\bl.jpg",747,730 L,54167,16 F,0,0,674,1,0 L,143156,16 F,0,0,674,1,0 L,186302,16 F,0,0,674,1,0 S,0,64954,,0.625 P,0,64954,,A F,0,207875,,0
//Storyboard Layer 1 (Fail)
Sprite,Fail,TopRight,"sb\fk.jpg",320,-10 L,235,12 MX,0,0,19530,747,-107 F,0,235,,0 F,0,54167,,1 F,0,64617,,0 F,0,64954,,1 F,0,75740,,0 F,0,132369,,1 F,0,142819,,0 F,0,143156,,1 F,0,153942,,0 F,0,186302,,1 F,0,196751,,0 F,0,197088,,1 F,0,207875,,0
Sprite,Fail,TopLeft,"sb\fk.jpg",320,-10 L,235,12 MX,0,0,19530,747,-107 F,0,235,,0 F,0,54167,,1 F,0,64617,,0 F,0,64954,,1 F,0,75740,,0 F,0,132369,,1 F,0,142819,,0 F,0,143156,,1 F,0,153942,,0 F,0,186302,,1 F,0,196751,,0 F,0,197088,,1 F,0,207875,,0
Sprite,Fail,TopRight,"sb\fk.jpg",320,71 L,235,12 MX,0,0,19530,-107,747 F,0,235,,0 F,0,54167,,1 F,0,64617,,0 F,0,64954,,1 F,0,75740,,0 F,0,132369,,1 F,0,142819,,0 F,0,143156,,1 F,0,153942,,0 F,0,186302,,1 F,0,196751,,0 F,0,197088,,1 F,0,207875,,0
Sprite,Fail,TopLeft,"sb\fk.jpg",320,71 L,235,12 MX,0,0,19530,-107,747 F,0,235,,0 F,0,54167,,1 F,0,64617,,0 F,0,64954,,1 F,0,75740,,0 F,0,132369,,1 F,0,142819,,0 F,0,143156,,1 F,0,153942,,0 F,0,186302,,1 F,0,196751,,0 F,0,197088,,1 F,0,207875,,0
Sprite,Fail,TopRight,"sb\fv.jpg",320,-10 L,235,12 MX,0,0,19530,747,-107 F,0,235,,1 F,0,54167,,0 F,0,64617,,1 F,0,64954,,0 F,0,75740,,1 F,0,132369,,0 F,0,142819,,1 F,0,143156,,0 F,0,153942,,1 F,0,186302,,0 F,0,196751,,1 F,0,197088,,0 F,0,207875,,1 F,0,234167,234843,1,0
Sprite,Fail,TopLeft,"sb\fv.jpg",320,-10 L,235,12 MX,0,0,19530,747,-107 F,0,235,,1 F,0,54167,,0 F,0,64617,,1 F,0,64954,,0 F,0,75740,,1 F,0,132369,,0 F,0,142819,,1 F,0,143156,,0 F,0,153942,,1 F,0,186302,,0 F,0,196751,,1 F,0,197088,,0 F,0,207875,,1 F,0,234167,234843,1,0
Sprite,Fail,TopRight,"sb\fv.jpg",320,71 L,235,12 MX,0,0,19530,-107,747 F,0,235,,1 F,0,54167,,0 F,0,64617,,1 F,0,64954,,0 F,0,75740,,1 F,0,132369,,0 F,0,142819,,1 F,0,143156,,0 F,0,153942,,1 F,0,186302,,0 F,0,196751,,1 F,0,197088,,0 F,0,207875,,1 F,0,234167,234843,1,0
Sprite,Fail,TopLeft,"sb\fv.jpg",320,71 L,235,12 MX,0,0,19530,-107,747 F,0,235,,1 F,0,54167,,0 F,0,64617,,1 F,0,64954,,0 F,0,75740,,1 F,0,132369,,0 F,0,142819,,1 F,0,143156,,0 F,0,153942,,1 F,0,186302,,0 F,0,196751,,1 F,0,197088,,0 F,0,207875,,1 F,0,234167,234843,1,0
//Storyboard Layer 2 (Pass)
Sprite,Pass,TopRight,"sb\pk.jpg",320,-10 L,235,12 MX,0,0,19530,747,-107 F,0,235,,0 F,0,54167,,1 F,0,64617,,0 F,0,64954,,1 F,0,75740,,0 F,0,132369,,1 F,0,142819,,0 F,0,143156,,1 F,0,153942,,0 F,0,186302,,1 F,0,196751,,0 F,0,197088,,1 F,0,207875,,0
Sprite,Pass,TopLeft,"sb\pk.jpg",320,-10 L,235,12 MX,0,0,19530,747,-107 F,0,235,,0 F,0,54167,,1 F,0,64617,,0 F,0,64954,,1 F,0,75740,,0 F,0,132369,,1 F,0,142819,,0 F,0,143156,,1 F,0,153942,,0 F,0,186302,,1 F,0,196751,,0 F,0,197088,,1 F,0,207875,,0
Sprite,Pass,TopRight,"sb\pk.jpg",320,71 L,235,12 MX,0,0,19530,-107,747 F,0,235,,0 F,0,54167,,1 F,0,64617,,0 F,0,64954,,1 F,0,75740,,0 F,0,132369,,1 F,0,142819,,0 F,0,143156,,1 F,0,153942,,0 F,0,186302,,1 F,0,196751,,0 F,0,197088,,1 F,0,207875,,0
Sprite,Pass,TopLeft,"sb\pk.jpg",320,71 L,235,12 MX,0,0,19530,-107,747 F,0,235,,0 F,0,54167,,1 F,0,64617,,0 F,0,64954,,1 F,0,75740,,0 F,0,132369,,1 F,0,142819,,0 F,0,143156,,1 F,0,153942,,0 F,0,186302,,1 F,0,196751,,0 F,0,197088,,1 F,0,207875,,0
Sprite,Pass,TopRight,"sb\pv.jpg",320,-10 L,235,12 MX,0,0,19530,747,-107 F,0,235,,1 F,0,54167,,0 F,0,64617,,1 F,0,64954,,0 F,0,75740,,1 F,0,132369,,0 F,0,142819,,1 F,0,143156,,0 F,0,153942,,1 F,0,186302,,0 F,0,196751,,1 F,0,197088,,0 F,0,207875,,1 F,0,234167,234843,1,0
Sprite,Pass,TopLeft,"sb\pv.jpg",320,-10 L,235,12 MX,0,0,19530,747,-107 F,0,235,,1 F,0,54167,,0 F,0,64617,,1 F,0,64954,,0 F,0,75740,,1 F,0,132369,,0 F,0,142819,,1 F,0,143156,,0 F,0,153942,,1 F,0,186302,,0 F,0,196751,,1 F,0,197088,,0 F,0,207875,,1 F,0,234167,234843,1,0
Sprite,Pass,TopRight,"sb\pv.jpg",320,71 L,235,12 MX,0,0,19530,-107,747 F,0,235,,1 F,0,54167,,0 F,0,64617,,1 F,0,64954,,0 F,0,75740,,1 F,0,132369,,0 F,0,142819,,1 F,0,143156,,0 F,0,153942,,1 F,0,186302,,0 F,0,196751,,1 F,0,197088,,0 F,0,207875,,1 F,0,234167,234843,1,0
Sprite,Pass,TopLeft,"sb\pv.jpg",320,71 L,235,12 MX,0,0,19530,-107,747 F,0,235,,1 F,0,54167,,0 F,0,64617,,1 F,0,64954,,0 F,0,75740,,1 F,0,132369,,0 F,0,142819,,1 F,0,143156,,0 F,0,153942,,1 F,0,186302,,0 F,0,196751,,1 F,0,197088,,0 F,0,207875,,1 F,0,234167,234843,1,0
//Storyboard Layer 3 (Foreground)
Sprite,Foreground,Centre,"sb\t\tab.png",530,117 F,0,235,,1 V,0,235,,0.5,-0.5 F,0,234167,234843,1,0
Sprite,Foreground,Centre,"sb\t\ayyri.png",530,121 L,235,3 F,0,0,337,0,1 F,0,337,10449,1 F,0,10449,10786,1,0 F,0,21573,,0 L,89223,5 F,0,0,337,0,1 F,0,337,10449,1 F,0,10449,10786,1,0 F,0,21573,,0 S,0,235,,0.5 F,0,64954,65291,0,1 F,0,78100,78437,1,0 F,0,197088,197426,0,1 F,0,210234,210572,1,0 F,0,221358,221695,0,1 F,0,234167,234843,1,0
Sprite,Foreground,Centre,"sb\t\incandescence.png",530,121 L,11021,3 F,0,0,337,0,1 F,0,337,10449,1 F,0,10449,10786,1,0 F,0,21573,,0 L,78437,6 F,0,0,337,0,1 F,0,337,10449,1 F,0,10449,10786,1,0 F,0,21573,,0 L,210572,1 F,0,0,337,0,1 F,0,337,10449,1 F,0,10449,10786,1,0 F,0,21573,,0 S,0,11021,,0.48 F,0,221358,,0
//Storyboard Sound Samples

[TimingPoints]
231,338.983050847458,4,1,0,50,1,0
9673,337.078651685393,4,1,0,60,1,0
11021,-100,4,1,0,75,0,0
21808,-100,4,1,0,60,0,0
32594,-100,4,1,0,75,0,0
43381,-100,4,1,0,50,0,0
51470,-100,4,1,0,60,0,0
52819,-100,4,1,0,75,0,0
54167,-100,4,1,0,90,0,1
64616,-100,4,1,0,90,0,0
64953,-100,4,1,0,90,0,1
75740,-100,4,1,0,60,0,0
78437,-100,4,1,0,75,0,0
98661,-100,4,1,0,70,0,0
100010,-100,4,1,0,60,0,0
110796,-100,4,1,0,75,0,0
121583,-100,4,1,0,50,0,0
129673,-100,4,1,0,60,0,0
131021,-100,4,1,0,75,0,0
132369,-100,4,1,0,90,0,1
142819,-100,4,1,0,90,0,0
143156,-100,4,1,0,90,0,1
153942,-100,4,1,0,60,0,0
164729,-100,4,1,0,50,0,0
174167,-100,4,1,0,60,0,0
175515,-100,4,1,0,75,0,0
180909,-100,4,1,0,80,0,0
183605,-100,4,1,0,85,0,0
186302,-100,4,1,0,90,0,1
196751,-100,4,1,0,90,0,0
197088,-100,4,1,0,90,0,1
207875,-100,4,1,0,60,0,0
210572,-100,4,1,0,75,0,0
234504,-100,4,1,0,50,0,0

[HitObjects]
256,192,231,5,0,0:0:0:0:
256,192,569,1,8,0:0:0:0:
256,192,908,1,0,0:0:0:0:
256,192,1247,1,8,0:0:0:0:
256,192,1586,1,0,0:0:0:0:
256,192,1756,1,8,0:0:0:0:
256,192,1925,1,0,0:0:0:0:
256,192,2095,1,8,0:0:0:0:
256,192,2264,1,0,0:0:0:0:
256,192,2603,1,0,0:0:0:0:
256,192,2942,1,0,0:0:0:0:
256,192,3281,1,8,0:0:0:0:
256,192,3620,1,0,0:0:0:0:
256,192,3959,1,8,0:0:0:0:
256,192,4298,1,0,0:0:0:0:
256,192,4468,1,8,0:0:0:0:
256,192,4637,1,0,0:0:0:0:
256,192,4807,1,8,0:0:0:0:
256,192,4976,1,0,0:0:0:0:
256,192,5654,1,0,0:0:0:0:
256,192,5993,1,8,0:0:0:0:
256,192,6332,1,0,0:0:0:0:
256,192,6671,1,8,0:0:0:0:
256,192,7010,1,0,0:0:0:0:
256,192,7180,1,8,0:0:0:0:
256,192,7349,1,0,0:0:0:0:
256,192,7519,1,8,0:0:0:0:
256,192,7688,1,0,0:0:0:0:
256,192,8027,1,0,0:0:0:0:
256,192,8366,1,0,0:0:0:0:
256,192,8705,1,8,0:0:0:0:
256,192,9044,1,0,0:0:0:0:
256,192,9383,1,8,0:0:0:0:
256,192,9673,1,8,0:0:0:0:
256,192,9841,1,0,0:0:0:0:
256,192,10010,1,8,0:0:0:0:
256,192,10178,1,0,0:0:0:0:
256,192,10347,1,8,0:0:0:0:
256,192,10515,1,8,0:0:0:0:
256,192,10684,1,0,0:0:0:0:
256,192,10852,1,0,0:0:0:0:
256,192,11021,1,12,0:0:0:0:
256,192,11190,1,0,0:0:0:0:
256,192,11274,1,0,0:0:0:0:
256,192,11358,1,8,0:0:0:0:
256,192,11527,1,8,0:0:0:0:
256,192,11695,1,0,0:0:0:0:
256,192,11864,1,8,0:0:0:0:
256,192,11948,1,8,0:0:0:0:
256,192,12032,1,0,0:0:0:0:
256,192,12201,1,8,0:0:0:0:
256,192,12369,1,0,0:0:0:0:
256,192,12538,1,8,0:0:0:0:
256,192,12622,1,0,0:0:0:0:
256,192,12706,1,8,0:0:0:0:
256,192,12875,1,0,0:0:0:0:
256,192,13043,1,8,0:0:0:0:
256,192,13128,1,8,0:0:0:0:
256,192,13212,1,0,0:0:0:0:
256,192,13296,1,0,0:0:0:0:
256,192,13381,1,8,0:0:0:0:
256,192,13549,1,0,0:0:0:0:
256,192,13633,1,0,0:0:0:0:
256,192,13718,1,8,0:0:0:0:
256,192,13886,1,0,0:0:0:0:
256,192,13970,1,0,0:0:0:0:
256,192,14055,1,8,0:0:0:0:
256,192,14139,1,0,0:0:0:0:
256,192,14223,1,8,0:0:0:0:
256,192,14308,1,8,0:0:0:0:
256,192,14392,1,0,0:0:0:0:
256,192,14560,1,8,0:0:0:0:
256,192,14729,1,0,0:0:0:0:
256,192,14897,1,8,0:0:0:0:
256,192,14982,1,8,0:0:0:0:
256,192,15066,1,0,0:0:0:0:
256,192,15234,1,8,0:0:0:0:
256,192,15403,1,0,0:0:0:0:
256,192,15487,1,0,0:0:0:0:
256,192,15572,1,0,0:0:0:0:
256,192,15656,1,0,0:0:0:0:
256,192,15740,1,12,0:0:0:0:
256,192,16077,1,12,0:0:0:0:
256,192,16414,1,4,0:0:0:0:
256,192,16583,1,8,0:0:0:0:
256,192,16667,1,0,0:0:0:0:
256,192,16751,1,8,0:0:0:0:
256,192,16920,1,0,0:0:0:0:
256,192,17088,1,8,0:0:0:0:
256,192,17257,1,0,0:0:0:0:
256,192,17341,1,0,0:0:0:0:
256,192,17426,1,8,0:0:0:0:
256,192,17594,1,8,0:0:0:0:
256,192,17763,1,0,0:0:0:0:
256,192,17931,1,0,0:0:0:0:
256,192,18015,1,8,0:0:0:0:
256,192,18100,1,0,0:0:0:0:
256,192,18268,1,8,0:0:0:0:
256,192,18437,1,0,0:0:0:0:
256,192,18521,1,0,0:0:0:0:
256,192,18605,1,8,0:0:0:0:
256,192,18690,1,8,0:0:0:0:
256,192,18774,1,0,0:0:0:0:
256,192,18942,1,8,0:0:0:0:
256,192,19027,1,0,0:0:0:0:
256,192,19111,1,0,0:0:0:0:
256,192,19279,1,8,0:0:0:0:
256,192,19364,1,8,0:0:0:0:
256,192,19448,1,0,0:0:0:0:
256,192,19532,1,8,0:0:0:0:
256,192,19617,1,0,0:0:0:0:
256,192,19701,1,0,0:0:0:0:
256,192,19785,1,8,0:0:0:0:
256,192,19954,1,0,0:0:0:0:
256,192,20122,1,8,0:0:0:0:
256,192,20291,1,8,0:0:0:0:
256,192,20375,1,8,0:0:0:0:
256,192,20459,1,0,0:0:0:0:
256,192,20628,1,8,0:0:0:0:
256,192,20796,1,8,0:0:0:0:
256,192,20881,1,8,0:0:0:0:
256,192,20965,1,0,0:0:0:0:
256,192,21049,1,0,0:0:0:0:
256,192,21133,1,12,0:0:0:0:
256,192,21470,1,12,0:0:0:0:
256,192,21808,1,12,0:0:0:0:
256,192,21976,1,0,0:0:0:0:
256,192,22145,1,8,0:0:0:0:
256,192,22313,1,8,0:0:0:0:
256,192,22482,1,0,0:0:0:0:
256,192,22650,1,8,0:0:0:0:
256,192,22987,1,0,0:0:0:0:
256,192,23156,1,8,0:0:0:0:
256,192,23493,1,8,0:0:0:0:
256,192,23661,1,0,0:0:0:0:
256,192,23830,1,0,0:0:0:0:
256,192,23999,1,8,0:0:0:0:
256,192,24167,1,8,0:0:0:0:
256,192,24504,1,8,0:0:0:0:
256,192,24673,1,0,0:0:0:0:
256,192,24841,1,8,0:0:0:0:
256,192,25010,1,8,0:0:0:0:
256,192,25178,1,0,0:0:0:0:
256,192,25347,1,8,0:0:0:0:
256,192,25684,1,0,0:0:0:0:
256,192,25852,1,8,0:0:0:0:
256,192,26190,1,8,0:0:0:0:
256,192,26358,1,0,0:0:0:0:
256,192,26527,1,0,0:0:0:0:
256,192,26695,1,8,0:0:0:0:
256,192,26864,1,8,0:0:0:0:
256,192,27201,1,8,0:0:0:0:
256,192,27369,1,0,0:0:0:0:
256,192,27538,1,8,0:0:0:0:
256,192,27706,1,8,0:0:0:0:
256,192,27875,1,0,0:0:0:0:
256,192,28043,1,8,0:0:0:0:
256,192,28381,1,0,0:0:0:0:
256,192,28549,1,8,0:0:0:0:
256,192,28886,1,8,0:0:0:0:
256,192,29055,1,0,0:0:0:0:
256,192,29223,1,0,0:0:0:0:
256,192,29392,1,8,0:0:0:0:
256,192,29560,1,8,0:0:0:0:
256,192,29897,1,8,0:0:0:0:
256,192,30066,1,0,0:0:0:0:
256,192,30234,1,8,0:0:0:0:
256,192,30403,1,0,0:0:0:0:
256,192,30572,1,8,0:0:0:0:
256,192,30740,1,8,0:0:0:0:
256,192,30909,1,0,0:0:0:0:
256,192,31077,1,0,0:0:0:0:
256,192,31246,1,8,0:0:0:0:
256,192,31583,1,8,0:0:0:0:
256,192,31751,1,8,0:0:0:0:
256,192,31920,1,0,0:0:0:0:
256,192,32088,1,8,0:0:0:0:
256,192,32257,1,8,0:0:0:0:
256,192,32426,1,8,0:0:0:0:
256,192,32594,1,12,0:0:0:0:
256,192,32763,1,8,0:0:0:0:
256,192,32847,1,8,0:0:0:0:
256,192,32931,1,0,0:0:0:0:
256,192,33100,1,8,0:0:0:0:
256,192,33268,1,0,0:0:0:0:
256,192,33437,1,0,0:0:0:0:
256,192,33521,1,8,0:0:0:0:
256,192,33605,1,0,0:0:0:0:
256,192,33774,1,8,0:0:0:0:
256,192,33942,1,0,0:0:0:0:
256,192,34027,1,0,0:0:0:0:
256,192,34111,1,0,0:0:0:0:
256,192,34195,1,0,0:0:0:0:
256,192,34279,1,8,0:0:0:0:
256,192,34448,1,8,0:0:0:0:
256,192,34617,1,0,0:0:0:0:
256,192,34785,1,0,0:0:0:0:
256,192,34954,1,8,0:0:0:0:
256,192,35291,1,0,0:0:0:0:
256,192,35459,1,8,0:0:0:0:
256,192,35543,1,0,0:0:0:0:
256,192,35628,1,8,0:0:0:0:
256,192,35796,1,8,0:0:0:0:
256,192,35965,1,0,0:0:0:0:
256,192,36133,1,8,0:0:0:0:
256,192,36218,1,8,0:0:0:0:
256,192,36302,1,0,0:0:0:0:
256,192,36470,1,8,0:0:0:0:
256,192,36639,1,0,0:0:0:0:
256,192,36808,1,8,0:0:0:0:
256,192,36976,1,8,0:0:0:0:
256,192,37060,1,0,0:0:0:0:
256,192,37145,1,8,0:0:0:0:
256,192,37229,1,8,0:0:0:0:
256,192,37313,1,0,0:0:0:0:
256,192,37482,1,0,0:0:0:0:
256,192,37566,1,0,0:0:0:0:
256,192,37650,1,8,0:0:0:0:
256,192,37819,1,8,0:0:0:0:
256,192,37987,1,0,0:0:0:0:
256,192,38156,1,0,0:0:0:0:
256,192,38240,1,8,0:0:0:0:
256,192,38324,1,0,0:0:0:0:
256,192,38493,1,8,0:0:0:0:
256,192,38661,1,0,0:0:0:0:
256,192,38830,1,8,0:0:0:0:
256,192,38999,1,0,0:0:0:0:
256,192,39083,1,0,0:0:0:0:
256,192,39167,1,8,0:0:0:0:
256,192,39251,1,0,0:0:0:0:
256,192,39336,1,8,0:0:0:0:
256,192,39504,1,0,0:0:0:0:
256,192,39673,1,8,0:0:0:0:
256,192,40010,1,0,0:0:0:0:
256,192,40178,1,8,0:0:0:0:
256,192,40263,1,8,0:0:0:0:
256,192,40347,1,0,0:0:0:0:
256,192,40515,1,8,0:0:0:0:
256,192,40684,1,0,0:0:0:0:
256,192,40852,1,0,0:0:0:0:
256,192,40937,1,0,0:0:0:0:
256,192,41021,1,8,0:0:0:0:
256,192,41190,1,8,0:0:0:0:
256,192,41358,1,0,0:0:0:0:
256,192,41527,1,8,0:0:0:0:
256,192,41611,1,0,0:0:0:0:
256,192,41695,1,8,0:0:0:0:
256,192,41864,1,8,0:0:0:0:
256,192,42032,1,0,0:0:0:0:
256,192,42201,1,0,0:0:0:0:
256,192,42285,1,0,0:0:0:0:
256,192,42369,1,8,0:0:0:0:
256,192,42538,1,0,0:0:0:0:
256,192,42706,1,8,0:0:0:0:
256,192,43043,1,0,0:0:0:0:
256,192,43381,1,12,0:0:0:0:
256,192,43549,1,0,0:0:0:0:
256,192,43633,1,0,0:0:0:0:
256,192,43718,1,8,0:0:0:0:
256,192,43886,1,0,0:0:0:0:
256,192,44055,1,8,0:0:0:0:
256,192,44223,1,0,0:0:0:0:
256,192,44392,1,8,0:0:0:0:
256,192,44476,1,8,0:0:0:0:
256,192,44560,1,0,0:0:0:0:
256,192,44729,1,8,0:0:0:0:
256,192,44897,1,0,0:0:0:0:
256,192,44982,1,0,0:0:0:0:
256,192,45066,1,8,0:0:0:0:
256,192,45234,1,0,0:0:0:0:
256,192,45403,1,8,0:0:0:0:
256,192,45572,1,0,0:0:0:0:
256,192,45740,1,8,0:0:0:0:
256,192,45824,1,8,0:0:0:0:
256,192,45909,1,0,0:0:0:0:
256,192,46077,1,12,0:0:0:0:
256,192,46246,1,0,0:0:0:0:
256,192,46330,1,0,0:0:0:0:
256,192,46414,1,8,0:0:0:0:
256,192,46583,1,0,0:0:0:0:
256,192,46751,1,8,0:0:0:0:
256,192,46920,1,0,0:0:0:0:
256,192,47088,1,8,0:0:0:0:
256,192,47173,1,8,0:0:0:0:
256,192,47257,1,0,0:0:0:0:
256,192,47426,1,8,0:0:0:0:
256,192,47594,1,0,0:0:0:0:
256,192,47678,1,0,0:0:0:0:
256,192,47763,1,8,0:0:0:0:
256,192,47931,1,0,0:0:0:0:
256,192,48100,1,8,0:0:0:0:
256,192,48268,1,8,0:0:0:0:
256,192,48352,1,8,0:0:0:0:
256,192,48437,1,0,0:0:0:0:
256,192,48521,1,0,0:0:0:0:
256,192,48605,1,8,0:0:0:0:
256,192,48774,1,12,0:0:0:0:
256,192,48942,1,0,0:0:0:0:
256,192,49027,1,0,0:0:0:0:
256,192,49111,1,8,0:0:0:0:
256,192,49279,1,0,0:0:0:0:
256,192,49448,1,8,0:0:0:0:
256,192,49617,1,0,0:0:0:0:
256,192,49785,1,8,0:0:0:0:
256,192,49869,1,8,0:0:0:0:
256,192,49954,1,0,0:0:0:0:
256,192,50122,1,8,0:0:0:0:
256,192,50291,1,0,0:0:0:0:
256,192,50375,1,0,0:0:0:0:
256,192,50459,1,8,0:0:0:0:
256,192,50628,1,0,0:0:0:0:
256,192,50796,1,8,0:0:0:0:
256,192,50965,1,0,0:0:0:0:
256,192,51133,1,8,0:0:0:0:
256,192,51218,1,8,0:0:0:0:
256,192,51302,1,0,0:0:0:0:
256,192,51470,1,12,0:0:0:0:
256,192,51639,1,0,0:0:0:0:
256,192,51808,1,8,0:0:0:0:
256,192,51892,1,8,0:0:0:0:
256,192,51976,1,0,0:0:0:0:
256,192,52145,1,8,0:0:0:0:
256,192,52313,1,0,0:0:0:0:
256,192,52482,1,8,0:0:0:0:
256,192,52566,1,8,0:0:0:0:
256,192,52650,1,0,0:0:0:0:
256,192,52819,1,8,0:0:0:0:
256,192,52903,1,8,0:0:0:0:
256,192,52987,1,0,0:0:0:0:
256,192,53072,1,0,0:0:0:0:
256,192,53156,1,8,0:0:0:0:
256,192,53240,1,0,0:0:0:0:
256,192,53324,1,8,0:0:0:0:
256,192,53409,1,0,0:0:0:0:
256,192,53493,1,8,0:0:0:0:
256,192,53577,1,8,0:0:0:0:
256,192,53661,1,0,0:0:0:0:
256,192,53830,1,12,0:0:0:0:
256,192,54167,1,12,0:0:0:0:
256,192,54336,1,0,0:0:0:0:
256,192,54420,1,0,0:0:0:0:
256,192,54504,1,8,0:0:0:0:
256,192,54673,1,0,0:0:0:0:
256,192,54841,1,8,0:0:0:0:
256,192,55010,1,0,0:0:0:0:
256,192,55094,1,0,0:0:0:0:
256,192,55178,1,8,0:0:0:0:
256,192,55263,1,8,0:0:0:0:
256,192,55347,1,0,0:0:0:0:
256,192,55515,1,8,0:0:0:0:
256,192,55684,1,8,0:0:0:0:
256,192,55768,1,0,0:0:0:0:
256,192,55852,1,0,0:0:0:0:
256,192,56021,1,8,0:0:0:0:
256,192,56190,1,8,0:0:0:0:
256,192,56274,1,0,0:0:0:0:
256,192,56358,1,0,0:0:0:0:
256,192,56442,1,0,0:0:0:0:
256,192,56527,1,8,0:0:0:0:
256,192,56695,1,0,0:0:0:0:
256,192,56864,1,8,0:0:0:0:
256,192,57032,1,8,0:0:0:0:
256,192,57117,1,8,0:0:0:0:
256,192,57201,1,0,0:0:0:0:
256,192,57369,1,8,0:0:0:0:
256,192,57538,1,0,0:0:0:0:
256,192,57706,1,8,0:0:0:0:
256,192,57791,1,0,0:0:0:0:
256,192,57959,1,0,0:0:0:0:
256,192,58043,1,8,0:0:0:0:
256,192,58212,1,0,0:0:0:0:
256,192,58296,1,8,0:0:0:0:
256,192,58381,1,8,0:0:0:0:
256,192,58465,1,8,0:0:0:0:
256,192,58549,1,0,0:0:0:0:
256,192,58718,1,8,0:0:0:0:
256,192,58886,1,0,0:0:0:0:
256,192,59055,1,8,0:0:0:0:
256,192,59139,1,8,0:0:0:0:
256,192,59223,1,0,0:0:0:0:
256,192,59392,1,8,0:0:0:0:
256,192,59560,1,0,0:0:0:0:
256,192,59729,1,0,0:0:0:0:
256,192,59813,1,8,0:0:0:0:
256,192,59897,1,0,0:0:0:0:
256,192,60066,1,8,0:0:0:0:
256,192,60234,1,0,0:0:0:0:
256,192,60403,1,0,0:0:0:0:
256,192,60487,1,0,0:0:0:0:
256,192,60572,1,8,0:0:0:0:
256,192,60656,1,0,0:0:0:0:
256,192,60740,1,8,0:0:0:0:
256,192,60909,1,0,0:0:0:0:
256,192,61077,1,8,0:0:0:0:
256,192,61161,1,0,0:0:0:0:
256,192,61246,1,8,0:0:0:0:
256,192,61414,1,0,0:0:0:0:
256,192,61583,1,8,0:0:0:0:
256,192,61751,1,0,0:0:0:0:
256,192,61836,1,0,0:0:0:0:
256,192,61920,1,8,0:0:0:0:
256,192,62088,1,0,0:0:0:0:
256,192,62257,1,8,0:0:0:0:
256,192,62426,1,0,0:0:0:0:
256,192,62510,1,0,0:0:0:0:
256,192,62594,1,8,0:0:0:0:
256,192,62763,1,8,0:0:0:0:
256,192,62847,1,8,0:0:0:0:
256,192,62931,1,8,0:0:0:0:
256,192,63100,1,8,0:0:0:0:
256,192,63184,1,0,0:0:0:0:
256,192,63268,1,0,0:0:0:0:
256,192,63437,1,8,0:0:0:0:
256,192,63605,1,8,0:0:0:0:
256,192,63690,1,0,0:0:0:0:
256,192,63774,1,8,0:0:0:0:
256,192,63858,1,8,0:0:0:0:
256,192,63942,1,0,0:0:0:0:
256,192,64027,1,8,0:0:0:0:
256,192,64111,1,0,0:0:0:0:
256,192,64195,1,0,0:0:0:0:
256,192,64279,1,8,0:0:0:0:
256,192,64448,1,0,0:0:0:0:
256,192,64617,1,12,0:0:0:0:
256,192,64954,1,12,0:0:0:0:
256,192,65122,1,0,0:0:0:0:
256,192,65206,1,8,0:0:0:0:
256,192,65291,1,0,0:0:0:0:
256,192,65459,1,8,0:0:0:0:
256,192,65543,1,0,0:0:0:0:
256,192,65628,1,8,0:0:0:0:
256,192,65796,1,0,0:0:0:0:
256,192,65965,1,8,0:0:0:0:
256,192,66049,1,8,0:0:0:0:
256,192,66133,1,0,0:0:0:0:
256,192,66218,1,0,0:0:0:0:
256,192,66302,1,8,0:0:0:0:
256,192,66470,1,0,0:0:0:0:
256,192,66555,1,8,0:0:0:0:
256,192,66639,1,8,0:0:0:0:
256,192,66808,1,8,0:0:0:0:
256,192,66976,1,0,0:0:0:0:
256,192,67060,1,0,0:0:0:0:
256,192,67145,1,0,0:0:0:0:
256,192,67313,1,12,0:0:0:0:
256,192,67482,1,0,0:0:0:0:
256,192,67650,1,8,0:0:0:0:
256,192,67734,1,8,0:0:0:0:
256,192,67819,1,8,0:0:0:0:
256,192,67987,1,8,0:0:0:0:
256,192,68072,1,0,0:0:0:0:
256,192,68156,1,8,0:0:0:0:
256,192,68324,1,8,0:0:0:0:
256,192,68409,1,8,0:0:0:0:
256,192,68493,1,8,0:0:0:0:
256,192,68577,1,0,0:0:0:0:
256,192,68661,1,8,0:0:0:0:
256,192,68830,1,0,0:0:0:0:
256,192,68999,1,8,0:0:0:0:
256,192,69167,1,8,0:0:0:0:
256,192,69251,1,8,0:0:0:0:
256,192,69336,1,8,0:0:0:0:
256,192,69504,1,8,0:0:0:0:
256,192,69673,1,8,0:0:0:0:
256,192,69757,1,0,0:0:0:0:
256,192,69841,1,8,0:0:0:0:
256,192,70010,1,8,0:0:0:0:
256,192,70178,1,0,0:0:0:0:
256,192,70347,1,12,0:0:0:0:
256,192,70515,1,0,0:0:0:0:
256,192,70600,1,8,0:0:0:0:
256,192,70684,1,0,0:0:0:0:
256,192,70852,1,8,0:0:0:0:
256,192,71021,1,8,0:0:0:0:
256,192,71105,1,0,0:0:0:0:
256,192,71190,1,8,0:0:0:0:
256,192,71358,1,8,0:0:0:0:
256,192,71442,1,8,0:0:0:0:
256,192,71527,1,0,0:0:0:0:
256,192,71611,1,0,0:0:0:0:
256,192,71695,1,8,0:0:0:0:
256,192,71864,1,0,0:0:0:0:
256,192,71948,1,8,0:0:0:0:
256,192,72032,1,8,0:0:0:0:
256,192,72201,1,0,0:0:0:0:
256,192,72369,1,8,0:0:0:0:
256,192,72454,1,8,0:0:0:0:
256,192,72538,1,0,0:0:0:0:
256,192,72706,1,12,0:0:0:0:
256,192,72875,1,0,0:0:0:0:
256,192,73043,1,8,0:0:0:0:
256,192,73212,1,0,0:0:0:0:
256,192,73296,1,0,0:0:0:0:
256,192,73381,1,8,0:0:0:0:
256,192,73549,1,0,0:0:0:0:
256,192,73718,1,8,0:0:0:0:
256,192,73802,1,8,0:0:0:0:
256,192,73886,1,0,0:0:0:0:
256,192,74055,1,8,0:0:0:0:
256,192,74139,1,0,0:0:0:0:
256,192,74223,1,0,0:0:0:0:
256,192,74308,1,0,0:0:0:0:
256,192,74392,1,8,0:0:0:0:
256,192,74560,1,8,0:0:0:0:
256,192,74645,1,8,0:0:0:0:
256,192,74729,1,0,0:0:0:0:
256,192,74897,1,8,0:0:0:0:
256,192,75066,1,8,0:0:0:0:
256,192,75150,1,0,0:0:0:0:
256,192,75234,1,0,0:0:0:0:
256,192,75403,1,8,0:0:0:0:
256,192,75487,1,8,0:0:0:0:
256,192,75572,1,0,0:0:0:0:
256,192,75740,1,0,0:0:0:0:
256,192,75993,1,8,0:0:0:0:
256,192,76246,1,8,0:0:0:0:
256,192,76499,1,0,0:0:0:0:
256,192,76583,1,8,0:0:0:0:
256,192,76920,1,8,0:0:0:0:
256,192,77004,1,0,0:0:0:0:
256,192,77088,1,8,0:0:0:0:
256,192,77173,1,8,0:0:0:0:
256,192,77257,1,0,0:0:0:0:
256,192,77341,1,0,0:0:0:0:
256,192,77426,1,8,0:0:0:0:
256,192,77510,1,0,0:0:0:0:
256,192,77594,1,0,0:0:0:0:
256,192,77678,1,0,0:0:0:0:
256,192,77763,1,8,0:0:0:0:
256,192,77931,1,0,0:0:0:0:
256,192,78015,1,0,0:0:0:0:
256,192,78100,1,0,0:0:0:0:
256,192,78268,1,0,0:0:0:0:
256,192,78437,1,12,0:0:0:0:
256,192,78605,1,8,0:0:0:0:
256,192,78690,1,8,0:0:0:0:
256,192,78774,1,0,0:0:0:0:
256,192,78942,1,8,0:0:0:0:
256,192,79111,1,0,0:0:0:0:
256,192,79279,1,0,0:0:0:0:
256,192,79364,1,0,0:0:0:0:
256,192,79448,1,8,0:0:0:0:
256,192,79617,1,8,0:0:0:0:
256,192,79701,1,0,0:0:0:0:
256,192,79785,1,8,0:0:0:0:
256,192,79954,1,0,0:0:0:0:
256,192,80122,1,8,0:0:0:0:
256,192,80291,1,0,0:0:0:0:
256,192,80459,1,8,0:0:0:0:
256,192,80543,1,0,0:0:0:0:
256,192,80628,1,8,0:0:0:0:
256,192,80712,1,8,0:0:0:0:
256,192,80796,1,0,0:0:0:0:
256,192,80965,1,8,0:0:0:0:
256,192,81133,1,0,0:0:0:0:
256,192,81302,1,8,0:0:0:0:
256,192,81386,1,8,0:0:0:0:
256,192,81470,1,0,0:0:0:0:
256,192,81555,1,0,0:0:0:0:
256,192,81639,1,8,0:0:0:0:
256,192,81723,1,0,0:0:0:0:
256,192,81808,1,8,0:0:0:0:
256,192,81976,1,8,0:0:0:0:
256,192,82060,1,8,0:0:0:0:
256,192,82145,1,0,0:0:0:0:
256,192,82313,1,8,0:0:0:0:
256,192,82397,1,0,0:0:0:0:
256,192,82482,1,0,0:0:0:0:
256,192,82650,1,8,0:0:0:0:
256,192,82819,1,0,0:0:0:0:
256,192,82903,1,0,0:0:0:0:
256,192,82987,1,0,0:0:0:0:
256,192,83072,1,0,0:0:0:0:
256,192,83156,1,12,0:0:0:0:
256,192,83493,1,12,0:0:0:0:
256,192,83830,1,4,0:0:0:0:
256,192,83999,1,8,0:0:0:0:
256,192,84083,1,0,0:0:0:0:
256,192,84167,1,8,0:0:0:0:
256,192,84336,1,0,0:0:0:0:
256,192,84504,1,8,0:0:0:0:
256,192,84673,1,0,0:0:0:0:
256,192,84757,1,0,0:0:0:0:
256,192,84841,1,8,0:0:0:0:
256,192,85010,1,8,0:0:0:0:
256,192,85094,1,0,0:0:0:0:
256,192,85178,1,0,0:0:0:0:
256,192,85347,1,0,0:0:0:0:
256,192,85515,1,8,0:0:0:0:
256,192,85684,1,0,0:0:0:0:
256,192,85852,1,0,0:0:0:0:
256,192,85937,1,0,0:0:0:0:
256,192,86021,1,8,0:0:0:0:
256,192,86105,1,0,0:0:0:0:
256,192,86190,1,8,0:0:0:0:
256,192,86358,1,8,0:0:0:0:
256,192,86527,1,0,0:0:0:0:
256,192,86695,1,8,0:0:0:0:
256,192,86779,1,0,0:0:0:0:
256,192,86864,1,8,0:0:0:0:
256,192,86948,1,8,0:0:0:0:
256,192,87032,1,0,0:0:0:0:
256,192,87117,1,0,0:0:0:0:
256,192,87201,1,8,0:0:0:0:
256,192,87369,1,0,0:0:0:0:
256,192,87454,1,0,0:0:0:0:
256,192,87538,1,8,0:0:0:0:
256,192,87706,1,8,0:0:0:0:
256,192,87791,1,8,0:0:0:0:
256,192,87875,1,0,0:0:0:0:
256,192,88043,1,8,0:0:0:0:
256,192,88212,1,8,0:0:0:0:
256,192,88296,1,8,0:0:0:0:
256,192,88381,1,8,0:0:0:0:
256,192,88465,1,8,0:0:0:0:
256,192,88549,1,4,0:0:0:0:
256,192,88886,1,4,0:0:0:0:
256,192,89223,1,12,0:0:0:0:
256,192,89392,1,0,0:0:0:0:
256,192,89476,1,0,0:0:0:0:
256,192,89560,1,8,0:0:0:0:
256,192,89729,1,0,0:0:0:0:
256,192,89897,1,8,0:0:0:0:
256,192,89982,1,0,0:0:0:0:
256,192,90066,1,8,0:0:0:0:
256,192,90234,1,8,0:0:0:0:
256,192,90572,1,0,0:0:0:0:
256,192,90656,1,0,0:0:0:0:
256,192,90740,1,8,0:0:0:0:
256,192,90824,1,8,0:0:0:0:
256,192,90909,1,0,0:0:0:0:
256,192,91077,1,8,0:0:0:0:
256,192,91246,1,0,0:0:0:0:
256,192,91414,1,8,0:0:0:0:
256,192,91583,1,8,0:0:0:0:
256,192,91667,1,8,0:0:0:0:
256,192,91751,1,0,0:0:0:0:
256,192,91920,1,8,0:0:0:0:
256,192,92004,1,0,0:0:0:0:
256,192,92173,1,8,0:0:0:0:
256,192,92257,1,8,0:0:0:0:
256,192,92341,1,0,0:0:0:0:
256,192,92426,1,8,0:0:0:0:
256,192,92594,1,0,0:0:0:0:
256,192,92678,1,8,0:0:0:0:
256,192,92847,1,8,0:0:0:0:
256,192,92931,1,0,0:0:0:0:
256,192,93100,1,0,0:0:0:0:
256,192,93268,1,8,0:0:0:0:
256,192,93352,1,8,0:0:0:0:
256,192,93437,1,0,0:0:0:0:
256,192,93605,1,8,0:0:0:0:
256,192,93774,1,8,0:0:0:0:
256,192,93858,1,8,0:0:0:0:
256,192,93942,1,8,0:0:0:0:
256,192,94027,1,0,0:0:0:0:
256,192,94111,1,8,0:0:0:0:
256,192,94279,1,8,0:0:0:0:
256,192,94364,1,0,0:0:0:0:
256,192,94448,1,8,0:0:0:0:
256,192,94617,1,8,0:0:0:0:
256,192,94785,1,0,0:0:0:0:
256,192,94869,1,8,0:0:0:0:
256,192,94954,1,0,0:0:0:0:
256,192,95122,1,0,0:0:0:0:
256,192,95291,1,8,0:0:0:0:
256,192,95375,1,0,0:0:0:0:
256,192,95459,1,8,0:0:0:0:
256,192,95543,1,8,0:0:0:0:
256,192,95628,1,0,0:0:0:0:
256,192,95796,1,0,0:0:0:0:
256,192,95881,1,0,0:0:0:0:
256,192,95965,1,8,0:0:0:0:
256,192,96133,1,0,0:0:0:0:
256,192,96302,1,8,0:0:0:0:
256,192,96386,1,0,0:0:0:0:
256,192,96470,1,8,0:0:0:0:
256,192,96639,1,0,0:0:0:0:
256,192,96723,1,0,0:0:0:0:
256,192,96808,1,8,0:0:0:0:
256,192,96892,1,0,0:0:0:0:
256,192,96976,1,8,0:0:0:0:
256,192,97145,1,0,0:0:0:0:
256,192,97313,1,8,0:0:0:0:
256,192,97482,1,0,0:0:0:0:
256,192,97566,1,8,0:0:0:0:
256,192,97650,1,0,0:0:0:0:
256,192,97819,1,0,0:0:0:0:
256,192,97987,1,8,0:0:0:0:
256,192,98072,1,0,0:0:0:0:
256,192,98156,1,8,0:0:0:0:
256,192,98324,1,8,0:0:0:0:
256,192,98493,1,0,0:0:0:0:
256,192,98661,1,8,0:0:0:0:
256,192,98830,1,0,0:0:0:0:
256,192,98914,1,0,0:0:0:0:
256,192,98999,1,8,0:0:0:0:
256,192,99167,1,8,0:0:0:0:
256,192,99336,1,0,0:0:0:0:
256,192,99420,1,0,0:0:0:0:
256,192,99504,1,8,0:0:0:0:
256,192,99673,1,8,0:0:0:0:
256,192,100010,1,8,0:0:0:0:
256,192,100347,1,0,0:0:0:0:
256,192,100515,1,0,0:0:0:0:
256,192,100684,1,8,0:0:0:0:
256,192,100852,1,0,0:0:0:0:
256,192,101190,1,8,0:0:0:0:
256,192,101358,1,0,0:0:0:0:
256,192,101695,1,0,0:0:0:0:
256,192,101864,1,0,0:0:0:0:
256,192,102032,1,8,0:0:0:0:
256,192,102201,1,8,0:0:0:0:
256,192,102285,1,8,0:0:0:0:
256,192,102369,1,0,0:0:0:0:
256,192,102538,1,8,0:0:0:0:
256,192,102706,1,0,0:0:0:0:
256,192,103043,1,0,0:0:0:0:
256,192,103212,1,8,0:0:0:0:
256,192,103381,1,0,0:0:0:0:
256,192,103549,1,0,0:0:0:0:
256,192,103718,1,8,0:0:0:0:
256,192,103886,1,0,0:0:0:0:
256,192,104055,1,8,0:0:0:0:
256,192,104392,1,0,0:0:0:0:
256,192,104560,1,0,0:0:0:0:
256,192,104645,1,0,0:0:0:0:
256,192,104729,1,8,0:0:0:0:
256,192,104897,1,8,0:0:0:0:
256,192,105066,1,0,0:0:0:0:
256,192,105234,1,8,0:0:0:0:
256,192,105403,1,0,0:0:0:0:
256,192,105740,1,0,0:0:0:0:
256,192,105909,1,0,0:0:0:0:
256,192,106077,1,8,0:0:0:0:
256,192,106246,1,0,0:0:0:0:
256,192,106583,1,8,0:0:0:0:
256,192,106751,1,0,0:0:0:0:
256,192,107088,1,0,0:0:0:0:
256,192,107257,1,0,0:0:0:0:
256,192,107426,1,8,0:0:0:0:
256,192,107594,1,8,0:0:0:0:
256,192,107678,1,8,0:0:0:0:
256,192,107763,1,0,0:0:0:0:
256,192,107931,1,8,0:0:0:0:
256,192,108100,1,0,0:0:0:0:
256,192,108437,1,0,0:0:0:0:
256,192,108605,1,8,0:0:0:0:
256,192,108774,1,0,0:0:0:0:
256,192,108942,1,8,0:0:0:0:
256,192,109279,1,8,0:0:0:0:
256,192,109448,1,0,0:0:0:0:
256,192,109617,1,0,0:0:0:0:
256,192,109785,1,8,0:0:0:0:
256,192,109869,1,8,0:0:0:0:
256,192,109954,1,0,0:0:0:0:
256,192,110038,1,0,0:0:0:0:
256,192,110122,1,8,0:0:0:0:
256,192,110291,1,0,0:0:0:0:
256,192,110459,1,12,0:0:0:0:
256,192,110796,1,12,0:0:0:0:
256,192,110965,1,0,0:0:0:0:
256,192,111049,1,0,0:0:0:0:
256,192,111133,1,8,0:0:0:0:
256,192,111302,1,0,0:0:0:0:
256,192,111470,1,8,0:0:0:0:
256,192,111639,1,8,0:0:0:0:
256,192,111723,1,8,0:0:0:0:
256,192,111808,1,0,0:0:0:0:
256,192,111976,1,0,0:0:0:0:
256,192,112145,1,8,0:0:0:0:
256,192,112229,1,0,0:0:0:0:
256,192,112313,1,0,0:0:0:0:
256,192,112482,1,8,0:0:0:0:
256,192,112566,1,8,0:0:0:0:
256,192,112650,1,0,0:0:0:0:
256,192,112819,1,8,0:0:0:0:
256,192,112987,1,0,0:0:0:0:
256,192,113156,1,8,0:0:0:0:
256,192,113240,1,8,0:0:0:0:
256,192,113324,1,0,0:0:0:0:
256,192,113493,1,0,0:0:0:0:
256,192,113661,1,8,0:0:0:0:
256,192,113746,1,0,0:0:0:0:
256,192,113830,1,8,0:0:0:0:
256,192,113999,1,0,0:0:0:0:
256,192,114167,1,8,0:0:0:0:
256,192,114336,1,8,0:0:0:0:
256,192,114420,1,8,0:0:0:0:
256,192,114504,1,0,0:0:0:0:
256,192,114673,1,0,0:0:0:0:
256,192,114841,1,8,0:0:0:0:
256,192,114926,1,0,0:0:0:0:
256,192,115010,1,0,0:0:0:0:
256,192,115178,1,8,0:0:0:0:
256,192,115347,1,8,0:0:0:0:
256,192,115431,1,8,0:0:0:0:
256,192,115515,1,8,0:0:0:0:
256,192,115684,1,8,0:0:0:0:
256,192,115852,1,8,0:0:0:0:
256,192,115937,1,0,0:0:0:0:
256,192,116021,1,8,0:0:0:0:
256,192,116190,1,8,0:0:0:0:
256,192,116358,1,8,0:0:0:0:
256,192,116442,1,0,0:0:0:0:
256,192,116527,1,8,0:0:0:0:
256,192,116695,1,0,0:0:0:0:
256,192,116864,1,8,0:0:0:0:
256,192,117032,1,8,0:0:0:0:
256,192,117117,1,8,0:0:0:0:
256,192,117201,1,0,0:0:0:0:
256,192,117369,1,0,0:0:0:0:
256,192,117538,1,8,0:0:0:0:
256,192,117622,1,0,0:0:0:0:
256,192,117706,1,0,0:0:0:0:
256,192,117875,1,8,0:0:0:0:
256,192,117959,1,8,0:0:0:0:
256,192,118043,1,0,0:0:0:0:
256,192,118212,1,8,0:0:0:0:
256,192,118381,1,0,0:0:0:0:
256,192,118549,1,8,0:0:0:0:
256,192,118633,1,0,0:0:0:0:
256,192,118718,1,8,0:0:0:0:
256,192,118886,1,8,0:0:0:0:
256,192,119055,1,0,0:0:0:0:
256,192,119139,1,0,0:0:0:0:
256,192,119223,1,8,0:0:0:0:
256,192,119392,1,0,0:0:0:0:
256,192,119560,1,8,0:0:0:0:
256,192,119729,1,0,0:0:0:0:
256,192,119813,1,0,0:0:0:0:
256,192,119897,1,8,0:0:0:0:
256,192,120066,1,0,0:0:0:0:
256,192,120234,1,8,0:0:0:0:
256,192,120403,1,0,0:0:0:0:
256,192,120487,1,0,0:0:0:0:
256,192,120572,1,8,0:0:0:0:
256,192,120740,1,0,0:0:0:0:
256,192,120909,1,8,0:0:0:0:
256,192,121246,1,8,0:0:0:0:
256,192,121583,1,4,0:0:0:0:
256,192,121751,1,0,0:0:0:0:
256,192,121836,1,0,0:0:0:0:
256,192,121920,1,8,0:0:0:0:
256,192,122088,1,0,0:0:0:0:
256,192,122257,1,8,0:0:0:0:
256,192,122426,1,8,0:0:0:0:
256,192,122510,1,0,0:0:0:0:
256,192,122594,1,8,0:0:0:0:
256,192,122763,1,0,0:0:0:0:
256,192,122931,1,0,0:0:0:0:
256,192,123015,1,0,0:0:0:0:
256,192,123100,1,8,0:0:0:0:
256,192,123184,1,8,0:0:0:0:
256,192,123268,1,0,0:0:0:0:
256,192,123437,1,8,0:0:0:0:
256,192,123605,1,0,0:0:0:0:
256,192,123774,1,0,0:0:0:0:
256,192,123858,1,0,0:0:0:0:
256,192,123942,1,8,0:0:0:0:
256,192,124111,1,0,0:0:0:0:
256,192,124279,1,8,0:0:0:0:
256,192,124448,1,8,0:0:0:0:
256,192,124532,1,0,0:0:0:0:
256,192,124617,1,0,0:0:0:0:
256,192,124785,1,8,0:0:0:0:
256,192,124954,1,0,0:0:0:0:
256,192,125038,1,0,0:0:0:0:
256,192,125122,1,8,0:0:0:0:
256,192,125206,1,0,0:0:0:0:
256,192,125291,1,8,0:0:0:0:
256,192,125459,1,0,0:0:0:0:
256,192,125628,1,8,0:0:0:0:
256,192,125712,1,8,0:0:0:0:
256,192,125796,1,0,0:0:0:0:
256,192,125881,1,0,0:0:0:0:
256,192,125965,1,8,0:0:0:0:
256,192,126133,1,0,0:0:0:0:
256,192,126302,1,8,0:0:0:0:
256,192,126470,1,8,0:0:0:0:
256,192,126555,1,8,0:0:0:0:
256,192,126639,1,0,0:0:0:0:
256,192,126723,1,8,0:0:0:0:
256,192,126808,1,0,0:0:0:0:
256,192,126892,1,0,0:0:0:0:
256,192,126976,1,8,0:0:0:0:
256,192,127145,1,0,0:0:0:0:
256,192,127229,1,0,0:0:0:0:
256,192,127313,1,8,0:0:0:0:
256,192,127482,1,8,0:0:0:0:
256,192,127650,1,0,0:0:0:0:
256,192,127819,1,8,0:0:0:0:
256,192,127903,1,0,0:0:0:0:
256,192,127987,1,8,0:0:0:0:
256,192,128156,1,8,0:0:0:0:
256,192,128324,1,0,0:0:0:0:
256,192,128409,1,0,0:0:0:0:
256,192,128493,1,8,0:0:0:0:
256,192,128577,1,0,0:0:0:0:
256,192,128661,1,0,0:0:0:0:
256,192,128830,1,8,0:0:0:0:
256,192,128999,1,0,0:0:0:0:
256,192,129167,1,8,0:0:0:0:
256,192,129251,1,8,0:0:0:0:
256,192,129336,1,0,0:0:0:0:
256,192,129504,1,8,0:0:0:0:
256,192,129673,1,0,0:0:0:0:
256,192,129757,1,0,0:0:0:0:
256,192,129841,1,0,0:0:0:0:
256,192,129926,1,0,0:0:0:0:
256,192,130010,1,8,0:0:0:0:
256,192,130178,1,0,0:0:0:0:
256,192,130347,1,0,0:0:0:0:
256,192,130431,1,0,0:0:0:0:
256,192,130515,1,8,0:0:0:0:
256,192,130600,1,8,0:0:0:0:
256,192,130684,1,8,0:0:0:0:
256,192,130852,1,0,0:0:0:0:
256,192,131021,1,8,0:0:0:0:
256,192,131105,1,8,0:0:0:0:
256,192,131190,1,0,0:0:0:0:
256,192,131274,1,0,0:0:0:0:
256,192,131358,1,8,0:0:0:0:
256,192,131442,1,0,0:0:0:0:
256,192,131527,1,8,0:0:0:0:
256,192,131611,1,8,0:0:0:0:
256,192,131695,1,0,0:0:0:0:
256,192,131779,1,0,0:0:0:0:
256,192,131864,1,0,0:0:0:0:
256,192,131948,1,0,0:0:0:0:
256,192,132032,1,12,0:0:0:0:
256,192,132369,1,12,0:0:0:0:
256,192,132538,1,0,0:0:0:0:
256,192,132622,1,8,0:0:0:0:
256,192,132706,1,0,0:0:0:0:
256,192,132875,1,8,0:0:0:0:
256,192,132959,1,0,0:0:0:0:
256,192,133043,1,8,0:0:0:0:
256,192,133128,1,8,0:0:0:0:
256,192,133212,1,0,0:0:0:0:
256,192,133381,1,8,0:0:0:0:
256,192,133465,1,8,0:0:0:0:
256,192,133549,1,0,0:0:0:0:
256,192,133633,1,0,0:0:0:0:
256,192,133718,1,8,0:0:0:0:
256,192,133886,1,0,0:0:0:0:
256,192,133970,1,8,0:0:0:0:
256,192,134055,1,8,0:0:0:0:
256,192,134223,1,8,0:0:0:0:
256,192,134392,1,0,0:0:0:0:
256,192,134476,1,0,0:0:0:0:
256,192,134560,1,0,0:0:0:0:
256,192,134729,1,12,0:0:0:0:
256,192,134897,1,0,0:0:0:0:
256,192,135066,1,8,0:0:0:0:
256,192,135150,1,8,0:0:0:0:
256,192,135234,1,8,0:0:0:0:
256,192,135403,1,8,0:0:0:0:
256,192,135487,1,0,0:0:0:0:
256,192,135572,1,8,0:0:0:0:
256,192,135740,1,8,0:0:0:0:
256,192,135824,1,0,0:0:0:0:
256,192,135909,1,0,0:0:0:0:
256,192,135993,1,0,0:0:0:0:
256,192,136077,1,8,0:0:0:0:
256,192,136246,1,0,0:0:0:0:
256,192,136414,1,8,0:0:0:0:
256,192,136583,1,8,0:0:0:0:
256,192,136667,1,8,0:0:0:0:
256,192,136751,1,8,0:0:0:0:
256,192,136920,1,8,0:0:0:0:
256,192,137088,1,8,0:0:0:0:
256,192,137173,1,0,0:0:0:0:
256,192,137257,1,8,0:0:0:0:
256,192,137426,1,8,0:0:0:0:
256,192,137594,1,0,0:0:0:0:
256,192,137763,1,12,0:0:0:0:
256,192,137931,1,0,0:0:0:0:
256,192,138015,1,8,0:0:0:0:
256,192,138100,1,0,0:0:0:0:
256,192,138268,1,8,0:0:0:0:
256,192,138437,1,8,0:0:0:0:
256,192,138521,1,8,0:0:0:0:
256,192,138605,1,0,0:0:0:0:
256,192,138690,1,0,0:0:0:0:
256,192,138774,1,8,0:0:0:0:
256,192,138858,1,8,0:0:0:0:
256,192,138942,1,0,0:0:0:0:
256,192,139111,1,8,0:0:0:0:
256,192,139279,1,0,0:0:0:0:
256,192,139364,1,8,0:0:0:0:
256,192,139448,1,8,0:0:0:0:
256,192,139617,1,0,0:0:0:0:
256,192,139785,1,8,0:0:0:0:
256,192,139869,1,8,0:0:0:0:
256,192,139954,1,0,0:0:0:0:
256,192,140122,1,12,0:0:0:0:
256,192,140291,1,0,0:0:0:0:
256,192,140459,1,8,0:0:0:0:
256,192,140543,1,8,0:0:0:0:
256,192,140628,1,0,0:0:0:0:
256,192,140712,1,0,0:0:0:0:
256,192,140796,1,8,0:0:0:0:
256,192,140965,1,0,0:0:0:0:
256,192,141133,1,8,0:0:0:0:
256,192,141218,1,8,0:0:0:0:
256,192,141302,1,0,0:0:0:0:
256,192,141470,1,8,0:0:0:0:
256,192,141555,1,8,0:0:0:0:
256,192,141639,1,8,0:0:0:0:
256,192,141808,1,8,0:0:0:0:
256,192,141976,1,0,0:0:0:0:
256,192,142145,1,8,0:0:0:0:
256,192,142313,1,0,0:0:0:0:
256,192,142482,1,8,0:0:0:0:
256,192,142650,1,0,0:0:0:0:
256,192,142706,1,0,0:0:0:0:
256,192,142763,1,0,0:0:0:0:
256,192,142819,1,8,0:0:0:0:
256,192,142987,1,0,0:0:0:0:
256,192,143156,1,12,0:0:0:0:
256,192,143324,1,0,0:0:0:0:
256,192,143409,1,0,0:0:0:0:
256,192,143493,1,8,0:0:0:0:
256,192,143661,1,0,0:0:0:0:
256,192,143830,1,8,0:0:0:0:
256,192,143999,1,0,0:0:0:0:
256,192,144083,1,0,0:0:0:0:
256,192,144167,1,8,0:0:0:0:
256,192,144251,1,0,0:0:0:0:
256,192,144336,1,0,0:0:0:0:
256,192,144420,1,0,0:0:0:0:
256,192,144504,1,8,0:0:0:0:
256,192,144673,1,8,0:0:0:0:
256,192,144757,1,8,0:0:0:0:
256,192,144841,1,0,0:0:0:0:
256,192,145010,1,8,0:0:0:0:
256,192,145178,1,8,0:0:0:0:
256,192,145263,1,8,0:0:0:0:
256,192,145347,1,0,0:0:0:0:
256,192,145431,1,0,0:0:0:0:
256,192,145515,1,8,0:0:0:0:
256,192,145684,1,0,0:0:0:0:
256,192,145768,1,0,0:0:0:0:
256,192,145852,1,8,0:0:0:0:
256,192,146021,1,8,0:0:0:0:
256,192,146105,1,8,0:0:0:0:
256,192,146190,1,0,0:0:0:0:
256,192,146358,1,8,0:0:0:0:
256,192,146527,1,0,0:0:0:0:
256,192,146695,1,8,0:0:0:0:
256,192,146779,1,0,0:0:0:0:
256,192,146864,1,0,0:0:0:0:
256,192,146948,1,0,0:0:0:0:
256,192,147032,1,8,0:0:0:0:
256,192,147201,1,0,0:0:0:0:
256,192,147285,1,0,0:0:0:0:
256,192,147369,1,8,0:0:0:0:
256,192,147454,1,0,0:0:0:0:
256,192,147538,1,8,0:0:0:0:
256,192,147706,1,8,0:0:0:0:
256,192,147875,1,0,0:0:0:0:
256,192,148043,1,8,0:0:0:0:
256,192,148128,1,8,0:0:0:0:
256,192,148212,1,0,0:0:0:0:
256,192,148381,1,8,0:0:0:0:
256,192,148549,1,0,0:0:0:0:
256,192,148718,1,0,0:0:0:0:
256,192,148802,1,8,0:0:0:0:
256,192,148970,1,0,0:0:0:0:
256,192,149055,1,8,0:0:0:0:
256,192,149139,1,8,0:0:0:0:
256,192,149223,1,0,0:0:0:0:
256,192,149392,1,8,0:0:0:0:
256,192,149476,1,8,0:0:0:0:
256,192,149560,1,0,0:0:0:0:
256,192,149645,1,0,0:0:0:0:
256,192,149729,1,8,0:0:0:0:
256,192,149897,1,0,0:0:0:0:
256,192,150066,1,8,0:0:0:0:
256,192,150150,1,0,0:0:0:0:
256,192,150234,1,8,0:0:0:0:
256,192,150403,1,0,0:0:0:0:
256,192,150572,1,8,0:0:0:0:
256,192,150740,1,8,0:0:0:0:
256,192,150824,1,0,0:0:0:0:
256,192,150909,1,8,0:0:0:0:
256,192,151077,1,0,0:0:0:0:
256,192,151246,1,8,0:0:0:0:
256,192,151414,1,0,0:0:0:0:
256,192,151499,1,0,0:0:0:0:
256,192,151583,1,8,0:0:0:0:
256,192,151751,1,8,0:0:0:0:
256,192,151836,1,8,0:0:0:0:
256,192,151920,1,8,0:0:0:0:
256,192,152088,1,8,0:0:0:0:
256,192,152173,1,0,0:0:0:0:
256,192,152257,1,0,0:0:0:0:
256,192,152426,1,8,0:0:0:0:
256,192,152594,1,0,0:0:0:0:
256,192,152763,1,8,0:0:0:0:
256,192,152847,1,8,0:0:0:0:
256,192,152931,1,0,0:0:0:0:
256,192,153100,1,8,0:0:0:0:
256,192,153268,1,0,0:0:0:0:
256,192,153352,1,0,0:0:0:0:
256,192,153437,1,8,0:0:0:0:
256,192,153521,1,8,0:0:0:0:
256,192,153605,1,0,0:0:0:0:
256,192,153774,1,8,0:0:0:0:
256,192,153942,1,0,0:0:0:0:
256,192,154448,1,0,0:0:0:0:
256,192,154617,1,8,0:0:0:0:
256,192,154954,1,0,0:0:0:0:
256,192,155291,1,0,0:0:0:0:
256,192,155796,1,0,0:0:0:0:
256,192,155965,1,8,0:0:0:0:
256,192,156639,1,0,0:0:0:0:
256,192,157145,1,0,0:0:0:0:
256,192,157313,1,8,0:0:0:0:
256,192,157650,1,0,0:0:0:0:
256,192,157987,1,0,0:0:0:0:
256,192,158493,1,0,0:0:0:0:
256,192,158661,1,8,0:0:0:0:
256,192,159336,1,0,0:0:0:0:
256,192,159841,1,0,0:0:0:0:
256,192,160010,1,8,0:0:0:0:
256,192,160347,1,0,0:0:0:0:
256,192,160684,1,0,0:0:0:0:
256,192,161190,1,0,0:0:0:0:
256,192,161358,1,8,0:0:0:0:
256,192,162032,1,0,0:0:0:0:
256,192,162538,1,0,0:0:0:0:
256,192,162706,1,8,0:0:0:0:
256,192,163043,1,0,0:0:0:0:
256,192,163381,1,0,0:0:0:0:
256,192,163886,1,0,0:0:0:0:
256,192,164055,1,8,0:0:0:0:
256,192,164729,1,8,0:0:0:0:
256,192,165234,1,0,0:0:0:0:
256,192,165403,1,8,0:0:0:0:
256,192,165740,1,0,0:0:0:0:
256,192,166077,1,0,0:0:0:0:
256,192,166246,1,0,0:0:0:0:
256,192,166414,1,8,0:0:0:0:
256,192,166583,1,8,0:0:0:0:
256,192,166751,1,0,0:0:0:0:
256,192,167088,1,0,0:0:0:0:
256,192,167426,1,8,0:0:0:0:
256,192,167931,1,0,0:0:0:0:
256,192,168100,1,8,0:0:0:0:
256,192,168437,1,8,0:0:0:0:
256,192,168774,1,0,0:0:0:0:
256,192,168942,1,0,0:0:0:0:
256,192,169111,1,8,0:0:0:0:
256,192,169279,1,8,0:0:0:0:
256,192,169448,1,0,0:0:0:0:
256,192,169785,1,0,0:0:0:0:
256,192,169954,1,0,0:0:0:0:
256,192,170122,1,8,0:0:0:0:
256,192,170628,1,0,0:0:0:0:
256,192,170796,1,8,0:0:0:0:
256,192,171133,1,8,0:0:0:0:
256,192,171470,1,0,0:0:0:0:
256,192,171639,1,0,0:0:0:0:
256,192,171808,1,8,0:0:0:0:
256,192,171976,1,8,0:0:0:0:
256,192,172145,1,0,0:0:0:0:
256,192,172482,1,0,0:0:0:0:
256,192,172819,1,8,0:0:0:0:
256,192,173324,1,0,0:0:0:0:
256,192,173493,1,8,0:0:0:0:
256,192,173830,1,8,0:0:0:0:
256,192,174167,1,0,0:0:0:0:
256,192,174841,1,8,0:0:0:0:
256,192,174926,1,8,0:0:0:0:
256,192,175010,1,0,0:0:0:0:
256,192,175094,1,0,0:0:0:0:
256,192,175178,1,12,0:0:0:0:
256,192,175515,1,12,0:0:0:0:
256,192,175684,1,0,0:0:0:0:
256,192,175768,1,8,0:0:0:0:
256,192,175852,1,8,0:0:0:0:
256,192,176021,1,0,0:0:0:0:
256,192,176190,1,8,0:0:0:0:
256,192,176358,1,0,0:0:0:0:
256,192,176442,1,8,0:0:0:0:
256,192,176527,1,0,0:0:0:0:
256,192,176695,1,0,0:0:0:0:
256,192,176864,1,8,0:0:0:0:
256,192,177032,1,0,0:0:0:0:
256,192,177117,1,0,0:0:0:0:
256,192,177201,1,8,0:0:0:0:
256,192,177369,1,0,0:0:0:0:
256,192,177538,1,8,0:0:0:0:
256,192,177706,1,0,0:0:0:0:
256,192,177791,1,8,0:0:0:0:
256,192,177875,1,0,0:0:0:0:
256,192,178043,1,0,0:0:0:0:
256,192,178212,1,8,0:0:0:0:
256,192,178381,1,0,0:0:0:0:
256,192,178465,1,8,0:0:0:0:
256,192,178549,1,8,0:0:0:0:
256,192,178718,1,0,0:0:0:0:
256,192,178886,1,8,0:0:0:0:
256,192,179055,1,0,0:0:0:0:
256,192,179139,1,8,0:0:0:0:
256,192,179223,1,0,0:0:0:0:
256,192,179392,1,0,0:0:0:0:
256,192,179560,1,8,0:0:0:0:
256,192,179729,1,0,0:0:0:0:
256,192,179813,1,0,0:0:0:0:
256,192,179897,1,8,0:0:0:0:
256,192,180066,1,0,0:0:0:0:
256,192,180234,1,8,0:0:0:0:
256,192,180403,1,0,0:0:0:0:
256,192,180487,1,8,0:0:0:0:
256,192,180572,1,0,0:0:0:0:
256,192,180740,1,0,0:0:0:0:
256,192,180909,1,8,0:0:0:0:
256,192,181077,1,0,0:0:0:0:
256,192,181246,1,8,0:0:0:0:
256,192,181414,1,8,0:0:0:0:
256,192,181583,1,0,0:0:0:0:
256,192,181751,1,0,0:0:0:0:
256,192,181836,1,8,0:0:0:0:
256,192,181920,1,8,0:0:0:0:
256,192,182088,1,0,0:0:0:0:
256,192,182257,1,8,0:0:0:0:
256,192,182426,1,0,0:0:0:0:
256,192,182594,1,8,0:0:0:0:
256,192,182763,1,8,0:0:0:0:
256,192,182931,1,0,0:0:0:0:
256,192,183100,1,0,0:0:0:0:
256,192,183184,1,8,0:0:0:0:
256,192,183268,1,8,0:0:0:0:
256,192,183437,1,0,0:0:0:0:
256,192,183605,1,8,0:0:0:0:
256,192,183690,1,0,0:0:0:0:
256,192,183774,1,8,0:0:0:0:
256,192,183858,1,8,0:0:0:0:
256,192,183942,1,0,0:0:0:0:
256,192,184027,1,0,0:0:0:0:
256,192,184111,1,8,0:0:0:0:
256,192,184279,1,8,0:0:0:0:
256,192,184364,1,8,0:0:0:0:
256,192,184448,1,0,0:0:0:0:
256,192,184532,1,0,0:0:0:0:
256,192,184617,1,8,0:0:0:0:
256,192,184701,1,8,0:0:0:0:
256,192,184785,1,0,0:0:0:0:
256,192,184869,1,0,0:0:0:0:
256,192,184954,1,8,0:0:0:0:
256,192,185038,1,0,0:0:0:0:
256,192,185122,1,8,0:0:0:0:
256,192,185206,1,0,0:0:0:0:
256,192,185291,1,8,0:0:0:0:
256,192,185375,1,8,0:0:0:0:
256,192,185459,1,0,0:0:0:0:
256,192,185543,1,0,0:0:0:0:
256,192,185628,1,8,0:0:0:0:
256,192,185796,1,0,0:0:0:0:
256,192,185965,1,12,0:0:0:0:
256,192,186302,1,12,0:0:0:0:
256,192,186470,1,0,0:0:0:0:
256,192,186555,1,8,0:0:0:0:
256,192,186639,1,8,0:0:0:0:
256,192,186723,1,0,0:0:0:0:
256,192,186808,1,8,0:0:0:0:
256,192,186976,1,8,0:0:0:0:
256,192,187145,1,0,0:0:0:0:
256,192,187229,1,0,0:0:0:0:
256,192,187313,1,8,0:0:0:0:
256,192,187397,1,8,0:0:0:0:
256,192,187482,1,0,0:0:0:0:
256,192,187566,1,0,0:0:0:0:
256,192,187650,1,8,0:0:0:0:
256,192,187819,1,0,0:0:0:0:
256,192,187903,1,0,0:0:0:0:
256,192,187987,1,8,0:0:0:0:
256,192,188156,1,8,0:0:0:0:
256,192,188324,1,0,0:0:0:0:
256,192,188409,1,0,0:0:0:0:
256,192,188493,1,8,0:0:0:0:
256,192,188577,1,0,0:0:0:0:
256,192,188661,1,8,0:0:0:0:
256,192,188830,1,8,0:0:0:0:
256,192,188914,1,0,0:0:0:0:
256,192,188999,1,0,0:0:0:0:
256,192,189167,1,8,0:0:0:0:
256,192,189251,1,8,0:0:0:0:
256,192,189336,1,0,0:0:0:0:
256,192,189504,1,8,0:0:0:0:
256,192,189673,1,0,0:0:0:0:
256,192,189841,1,8,0:0:0:0:
256,192,189926,1,0,0:0:0:0:
256,192,190094,1,0,0:0:0:0:
256,192,190178,1,8,0:0:0:0:
256,192,190347,1,0,0:0:0:0:
256,192,190431,1,8,0:0:0:0:
256,192,190515,1,8,0:0:0:0:
256,192,190600,1,8,0:0:0:0:
256,192,190684,1,0,0:0:0:0:
256,192,190852,1,8,0:0:0:0:
256,192,191021,1,0,0:0:0:0:
256,192,191190,1,8,0:0:0:0:
256,192,191274,1,8,0:0:0:0:
256,192,191358,1,0,0:0:0:0:
256,192,191527,1,8,0:0:0:0:
256,192,191695,1,0,0:0:0:0:
256,192,191864,1,0,0:0:0:0:
256,192,191948,1,8,0:0:0:0:
256,192,192032,1,0,0:0:0:0:
256,192,192117,1,0,0:0:0:0:
256,192,192201,1,8,0:0:0:0:
256,192,192369,1,8,0:0:0:0:
256,192,192538,1,0,0:0:0:0:
256,192,192622,1,8,0:0:0:0:
256,192,192706,1,8,0:0:0:0:
256,192,192791,1,0,0:0:0:0:
256,192,192875,1,8,0:0:0:0:
256,192,192959,1,0,0:0:0:0:
256,192,193043,1,0,0:0:0:0:
256,192,193212,1,8,0:0:0:0:
256,192,193296,1,0,0:0:0:0:
256,192,193381,1,8,0:0:0:0:
256,192,193549,1,0,0:0:0:0:
256,192,193718,1,8,0:0:0:0:
256,192,193802,1,0,0:0:0:0:
256,192,193886,1,0,0:0:0:0:
256,192,193970,1,0,0:0:0:0:
256,192,194055,1,8,0:0:0:0:
256,192,194223,1,0,0:0:0:0:
256,192,194308,1,0,0:0:0:0:
256,192,194392,1,8,0:0:0:0:
256,192,194560,1,8,0:0:0:0:
256,192,194645,1,0,0:0:0:0:
256,192,194729,1,8,0:0:0:0:
256,192,194897,1,8,0:0:0:0:
256,192,194982,1,8,0:0:0:0:
256,192,195066,1,8,0:0:0:0:
256,192,195234,1,8,0:0:0:0:
256,192,195319,1,0,0:0:0:0:
256,192,195403,1,0,0:0:0:0:
256,192,195572,1,8,0:0:0:0:
256,192,195740,1,8,0:0:0:0:
256,192,195824,1,0,0:0:0:0:
256,192,195909,1,8,0:0:0:0:
256,192,195993,1,8,0:0:0:0:
256,192,196077,1,0,0:0:0:0:
256,192,196161,1,8,0:0:0:0:
256,192,196246,1,0,0:0:0:0:
256,192,196330,1,0,0:0:0:0:
256,192,196414,1,8,0:0:0:0:
256,192,196583,1,0,0:0:0:0:
256,192,196751,1,12,0:0:0:0:
256,192,197088,1,12,0:0:0:0:
256,192,197257,1,0,0:0:0:0:
256,192,197341,1,8,0:0:0:0:
256,192,197426,1,0,0:0:0:0:
256,192,197594,1,8,0:0:0:0:
256,192,197678,1,0,0:0:0:0:
256,192,197763,1,8,0:0:0:0:
256,192,197847,1,8,0:0:0:0:
256,192,197931,1,0,0:0:0:0:
256,192,198100,1,8,0:0:0:0:
256,192,198184,1,8,0:0:0:0:
256,192,198268,1,0,0:0:0:0:
256,192,198437,1,8,0:0:0:0:
256,192,198605,1,0,0:0:0:0:
256,192,198690,1,8,0:0:0:0:
256,192,198774,1,8,0:0:0:0:
256,192,198858,1,0,0:0:0:0:
256,192,198942,1,8,0:0:0:0:
256,192,199111,1,0,0:0:0:0:
256,192,199195,1,0,0:0:0:0:
256,192,199279,1,0,0:0:0:0:
256,192,199448,1,12,0:0:0:0:
256,192,199617,1,0,0:0:0:0:
256,192,199785,1,8,0:0:0:0:
256,192,199869,1,8,0:0:0:0:
256,192,199954,1,8,0:0:0:0:
256,192,200122,1,8,0:0:0:0:
256,192,200206,1,0,0:0:0:0:
256,192,200291,1,8,0:0:0:0:
256,192,200459,1,8,0:0:0:0:
256,192,200628,1,0,0:0:0:0:
256,192,200712,1,0,0:0:0:0:
256,192,200796,1,8,0:0:0:0:
256,192,200881,1,0,0:0:0:0:
256,192,200965,1,8,0:0:0:0:
256,192,201133,1,8,0:0:0:0:
256,192,201302,1,8,0:0:0:0:
256,192,201386,1,8,0:0:0:0:
256,192,201470,1,8,0:0:0:0:
256,192,201639,1,0,0:0:0:0:
256,192,201808,1,8,0:0:0:0:
256,192,201892,1,0,0:0:0:0:
256,192,201976,1,8,0:0:0:0:
256,192,202145,1,8,0:0:0:0:
256,192,202313,1,0,0:0:0:0:
256,192,202482,1,12,0:0:0:0:
256,192,202650,1,0,0:0:0:0:
256,192,202734,1,8,0:0:0:0:
256,192,202819,1,0,0:0:0:0:
256,192,202987,1,8,0:0:0:0:
256,192,203156,1,8,0:0:0:0:
256,192,203240,1,0,0:0:0:0:
256,192,203324,1,8,0:0:0:0:
256,192,203493,1,8,0:0:0:0:
256,192,203577,1,8,0:0:0:0:
256,192,203661,1,0,0:0:0:0:
256,192,203746,1,0,0:0:0:0:
256,192,203830,1,8,0:0:0:0:
256,192,203999,1,0,0:0:0:0:
256,192,204083,1,8,0:0:0:0:
256,192,204167,1,8,0:0:0:0:
256,192,204336,1,8,0:0:0:0:
256,192,204504,1,8,0:0:0:0:
256,192,204588,1,8,0:0:0:0:
256,192,204673,1,0,0:0:0:0:
256,192,204841,1,12,0:0:0:0:
256,192,205010,1,0,0:0:0:0:
256,192,205178,1,8,0:0:0:0:
256,192,205263,1,0,0:0:0:0:
256,192,205347,1,8,0:0:0:0:
256,192,205431,1,8,0:0:0:0:
256,192,205515,1,0,0:0:0:0:
256,192,205684,1,8,0:0:0:0:
256,192,205852,1,8,0:0:0:0:
256,192,205937,1,8,0:0:0:0:
256,192,206021,1,0,0:0:0:0:
256,192,206105,1,0,0:0:0:0:
256,192,206190,1,8,0:0:0:0:
256,192,206274,1,8,0:0:0:0:
256,192,206358,1,0,0:0:0:0:
256,192,206527,1,8,0:0:0:0:
256,192,206695,1,8,0:0:0:0:
256,192,206779,1,8,0:0:0:0:
256,192,206864,1,0,0:0:0:0:
256,192,207032,1,8,0:0:0:0:
256,192,207117,1,0,0:0:0:0:
256,192,207201,1,8,0:0:0:0:
256,192,207369,1,0,0:0:0:0:
256,192,207538,1,8,0:0:0:0:
256,192,207622,1,8,0:0:0:0:
256,192,207706,1,0,0:0:0:0:
256,192,207875,1,0,0:0:0:0:
256,192,208128,1,8,0:0:0:0:
256,192,208381,1,8,0:0:0:0:
256,192,208633,1,0,0:0:0:0:
256,192,208718,1,8,0:0:0:0:
256,192,208886,1,0,0:0:0:0:
256,192,209055,1,8,0:0:0:0:
256,192,209139,1,0,0:0:0:0:
256,192,209223,1,8,0:0:0:0:
256,192,209308,1,8,0:0:0:0:
256,192,209392,1,0,0:0:0:0:
256,192,209476,1,0,0:0:0:0:
256,192,209560,1,8,0:0:0:0:
256,192,209645,1,0,0:0:0:0:
256,192,209729,1,0,0:0:0:0:
256,192,209813,1,0,0:0:0:0:
256,192,209897,1,8,0:0:0:0:
256,192,210066,1,0,0:0:0:0:
256,192,210150,1,0,0:0:0:0:
256,192,210234,1,0,0:0:0:0:
256,192,210403,1,0,0:0:0:0:
256,192,210572,1,12,0:0:0:0:
256,192,210740,1,0,0:0:0:0:
256,192,210824,1,0,0:0:0:0:
256,192,210909,1,8,0:0:0:0:
256,192,210993,1,0,0:0:0:0:
256,192,211077,1,8,0:0:0:0:
256,192,211161,1,8,0:0:0:0:
256,192,211246,1,0,0:0:0:0:
256,192,211414,1,0,0:0:0:0:
256,192,211499,1,0,0:0:0:0:
256,192,211583,1,8,0:0:0:0:
256,192,211751,1,8,0:0:0:0:
256,192,211836,1,0,0:0:0:0:
256,192,211920,1,8,0:0:0:0:
256,192,212088,1,0,0:0:0:0:
256,192,212257,1,8,0:0:0:0:
256,192,212341,1,0,0:0:0:0:
256,192,212426,1,0,0:0:0:0:
256,192,212510,1,0,0:0:0:0:
256,192,212594,1,8,0:0:0:0:
256,192,212763,1,8,0:0:0:0:
256,192,212847,1,0,0:0:0:0:
256,192,212931,1,8,0:0:0:0:
256,192,213015,1,0,0:0:0:0:
256,192,213100,1,0,0:0:0:0:
256,192,213184,1,0,0:0:0:0:
256,192,213268,1,8,0:0:0:0:
256,192,213437,1,0,0:0:0:0:
256,192,213521,1,0,0:0:0:0:
256,192,213605,1,8,0:0:0:0:
256,192,213690,1,8,0:0:0:0:
256,192,213774,1,0,0:0:0:0:
256,192,213858,1,0,0:0:0:0:
256,192,213942,1,8,0:0:0:0:
256,192,214111,1,8,0:0:0:0:
256,192,214195,1,8,0:0:0:0:
256,192,214279,1,0,0:0:0:0:
256,192,214448,1,8,0:0:0:0:
256,192,214532,1,0,0:0:0:0:
256,192,214617,1,8,0:0:0:0:
256,192,214785,1,0,0:0:0:0:
256,192,214869,1,0,0:0:0:0:
256,192,214954,1,8,0:0:0:0:
256,192,215038,1,0,0:0:0:0:
256,192,215122,1,0,0:0:0:0:
256,192,215206,1,0,0:0:0:0:
256,192,215291,1,12,0:0:0:0:
256,192,215459,1,0,0:0:0:0:
256,192,215628,1,12,0:0:0:0:
256,192,215796,1,0,0:0:0:0:
256,192,215965,1,4,0:0:0:0:
256,192,216133,1,0,0:0:0:0:
256,192,216218,1,8,0:0:0:0:
256,192,216302,1,0,0:0:0:0:
256,192,216386,1,0,0:0:0:0:
256,192,216470,1,8,0:0:0:0:
256,192,216555,1,8,0:0:0:0:
256,192,216639,1,0,0:0:0:0:
256,192,216808,1,8,0:0:0:0:
256,192,216892,1,8,0:0:0:0:
256,192,216976,1,0,0:0:0:0:
256,192,217145,1,8,0:0:0:0:
256,192,217229,1,0,0:0:0:0:
256,192,217313,1,8,0:0:0:0:
256,192,217482,1,0,0:0:0:0:
256,192,217650,1,8,0:0:0:0:
256,192,217734,1,8,0:0:0:0:
256,192,217819,1,0,0:0:0:0:
256,192,217903,1,0,0:0:0:0:
256,192,217987,1,8,0:0:0:0:
256,192,218156,1,0,0:0:0:0:
256,192,218240,1,0,0:0:0:0:
256,192,218324,1,8,0:0:0:0:
256,192,218409,1,0,0:0:0:0:
256,192,218493,1,8,0:0:0:0:
256,192,218577,1,8,0:0:0:0:
256,192,218661,1,0,0:0:0:0:
256,192,218830,1,8,0:0:0:0:
256,192,218914,1,8,0:0:0:0:
256,192,218999,1,0,0:0:0:0:
256,192,219083,1,0,0:0:0:0:
256,192,219167,1,8,0:0:0:0:
256,192,219251,1,0,0:0:0:0:
256,192,219336,1,8,0:0:0:0:
256,192,219504,1,0,0:0:0:0:
256,192,219588,1,0,0:0:0:0:
256,192,219673,1,8,0:0:0:0:
256,192,219841,1,8,0:0:0:0:
256,192,219926,1,0,0:0:0:0:
256,192,220010,1,0,0:0:0:0:
256,192,220178,1,0,0:0:0:0:
256,192,220263,1,0,0:0:0:0:
256,192,220347,1,8,0:0:0:0:
256,192,220431,1,0,0:0:0:0:
256,192,220515,1,8,0:0:0:0:
256,192,220600,1,0,0:0:0:0:
256,192,220684,1,8,0:0:0:0:
256,192,220852,1,0,0:0:0:0:
256,192,221021,1,8,0:0:0:0:
256,192,221358,1,12,0:0:0:0:
256,192,221527,1,0,0:0:0:0:
256,192,221611,1,0,0:0:0:0:
256,192,221695,1,8,0:0:0:0:
256,192,221779,1,0,0:0:0:0:
256,192,221864,1,8,0:0:0:0:
256,192,222032,1,8,0:0:0:0:
256,192,222201,1,8,0:0:0:0:
256,192,222285,1,8,0:0:0:0:
256,192,222369,1,0,0:0:0:0:
256,192,222454,1,0,0:0:0:0:
256,192,222538,1,8,0:0:0:0:
256,192,222706,1,8,0:0:0:0:
256,192,222875,1,8,0:0:0:0:
256,192,222959,1,8,0:0:0:0:
256,192,223043,1,0,0:0:0:0:
256,192,223128,1,0,0:0:0:0:
256,192,223212,1,8,0:0:0:0:
256,192,223381,1,0,0:0:0:0:
256,192,223465,1,0,0:0:0:0:
256,192,223549,1,8,0:0:0:0:
256,192,223718,1,8,0:0:0:0:
256,192,223802,1,0,0:0:0:0:
256,192,223886,1,8,0:0:0:0:
256,192,224055,1,8,0:0:0:0:
256,192,224223,1,0,0:0:0:0:
256,192,224308,1,0,0:0:0:0:
256,192,224392,1,8,0:0:0:0:
256,192,224476,1,0,0:0:0:0:
256,192,224560,1,8,0:0:0:0:
256,192,224729,1,8,0:0:0:0:
256,192,224897,1,8,0:0:0:0:
256,192,224982,1,8,0:0:0:0:
256,192,225066,1,0,0:0:0:0:
256,192,225150,1,0,0:0:0:0:
256,192,225234,1,8,0:0:0:0:
256,192,225403,1,8,0:0:0:0:
256,192,225572,1,8,0:0:0:0:
256,192,225656,1,0,0:0:0:0:
256,192,225740,1,8,0:0:0:0:
256,192,225824,1,8,0:0:0:0:
256,192,225909,1,0,0:0:0:0:
256,192,226077,1,4,0:0:0:0:
256,192,226246,1,8,0:0:0:0:
256,192,226414,1,4,0:0:0:0:
256,192,226583,1,0,0:0:0:0:
256,192,226751,1,12,0:0:0:0:
256,192,226920,1,0,0:0:0:0:
256,192,227004,1,0,0:0:0:0:
256,192,227088,1,8,0:0:0:0:
256,192,227173,1,0,0:0:0:0:
256,192,227257,1,8,0:0:0:0:
256,192,227426,1,8,0:0:0:0:
256,192,227594,1,8,0:0:0:0:
256,192,227678,1,8,0:0:0:0:
256,192,227763,1,0,0:0:0:0:
256,192,227847,1,0,0:0:0:0:
256,192,227931,1,8,0:0:0:0:
256,192,228100,1,8,0:0:0:0:
256,192,228268,1,8,0:0:0:0:
256,192,228352,1,8,0:0:0:0:
256,192,228437,1,0,0:0:0:0:
256,192,228521,1,0,0:0:0:0:
256,192,228605,1,8,0:0:0:0:
256,192,228774,1,0,0:0:0:0:
256,192,228858,1,0,0:0:0:0:
256,192,228942,1,8,0:0:0:0:
256,192,229111,1,8,0:0:0:0:
256,192,229195,1,0,0:0:0:0:
256,192,229279,1,8,0:0:0:0:
256,192,229448,1,8,0:0:0:0:
256,192,229617,1,0,0:0:0:0:
256,192,229701,1,0,0:0:0:0:
256,192,229785,1,8,0:0:0:0:
256,192,229869,1,0,0:0:0:0:
256,192,229954,1,8,0:0:0:0:
256,192,230122,1,8,0:0:0:0:
256,192,230291,1,8,0:0:0:0:
256,192,230375,1,8,0:0:0:0:
256,192,230459,1,0,0:0:0:0:
256,192,230543,1,0,0:0:0:0:
256,192,230628,1,8,0:0:0:0:
256,192,230796,1,8,0:0:0:0:
256,192,230965,1,8,0:0:0:0:
256,192,231049,1,0,0:0:0:0:
256,192,231133,1,8,0:0:0:0:
256,192,231218,1,8,0:0:0:0:
256,192,231302,1,0,0:0:0:0:
256,192,231470,1,4,0:0:0:0:
256,192,231639,1,8,0:0:0:0:
256,192,231808,1,4,0:0:0:0:
256,192,231976,1,0,0:0:0:0:
256,192,232060,1,0,0:0:0:0:
256,192,232145,1,8,0:0:0:0:
256,192,232313,1,0,0:0:0:0:
256,192,232482,1,8,0:0:0:0:
256,192,232566,1,0,0:0:0:0:
256,192,232650,1,8,0:0:0:0:
256,192,232734,1,0,0:0:0:0:
256,192,232819,1,8,0:0:0:0:
256,192,232903,1,8,0:0:0:0:
256,192,232987,1,0,0:0:0:0:
256,192,233072,1,0,0:0:0:0:
256,192,233156,1,8,0:0:0:0:
256,192,233240,1,0,0:0:0:0:
256,192,233324,1,8,0:0:0:0:
256,192,233409,1,8,0:0:0:0:
256,192,233493,1,0,0:0:0:0:
256,192,233661,1,8,0:0:0:0:
256,192,233830,1,0,0:0:0:0:
256,192,233999,1,8,0:0:0:0:
256,192,234167,1,12,0:0:0:0:
256,192,234504,1,0,0:0:0:0:
