osu file format v14

[General]
AudioFilename: audio.mp3
AudioLeadIn: 0
PreviewTime: 52819
Countdown: 0
SampleSet: Soft
StackLeniency: 0.5
Mode: 0
LetterboxInBreaks: 0
EpilepsyWarning: 1
WidescreenStoryboard: 1

[Editor]
Bookmarks: 231,21808,43381,64954,100010,121583,143156,164729,186302,197088,210572,221358,234167
DistanceSpacing: 1.3
BeatDivisor: 4
GridSize: 32
TimelineZoom: 2.5

[Metadata]
Title:Party in the HOLLOWood feat. Nanahira
TitleUnicode:Party in the HOLLOWood feat. ななひら
Artist:t+pazolite
ArtistUnicode:t+pazolite
Creator:eiri-
Version:HYper
Source:
Tags:Ayyri Realazy Real Stefan inc incandescence Taikocracy Endymion Ascendance Underforest Trynna Dashyy- Dash Noffy TNG TheNutritiousGuy Comiket 93 C93 Good Evening, Evening CHS-0031 C.H.S CHS tpz
BeatmapID:1717855
BeatmapSetID:819349

[Difficulty]
HPDrainRate:5.7
CircleSize:4
OverallDifficulty:6
ApproachRate:8
SliderMultiplier:1.3
SliderTickRate:1

[Events]
//Background and Video events
0,0,"Miku Luka 846.png",0,0
//Break Periods
2,154142,163979
//Storyboard Layer 0 (Background)
Sprite,Background,Centre,"Miku Luka 846.png",320,240 S,0,235,,0.625 F,0,9504,9673,0.2,0 F,0,11021,,1 F,0,42369,43379,1,0.3 F,0,51470,53836,0.3,1 F,0,53830,,0 F,0,54167,,1 F,0,75740,78437,1,0 F,0,78437,,1 F,0,98661,100013,1,0.5 F,0,109448,110800,0.5,1 F,0,120572,121586,1,0.3 F,0,129673,132039,0.3,1 F,0,132032,,0 F,0,132369,,1 F,0,153942,156639,1,0.3 F,0,173998,174167,0.3,0.6 F,0,175515,185965,0.6,1 F,0,185965,,0 F,0,186302,,1 F,0,207875,210572,1,0 F,0,210572,,1 F,0,234167,234843,1,0
Sprite,Background,BottomLeft,"sb\Miku.png",-103,480 F,0,11021,,0 S,0,11021,,0.625 C,0,11021,,0,0,0 F,0,21808,22145,0,0.8 F,0,43381,44392,0.8,0 F,0,78437,,0.8 F,0,100010,100347,0.8,0 F,0,121583,122257,0,0.8 F,0,132369,,0 F,0,164729,166077,0,0.8 F,0,186302,,0
Sprite,Background,BottomRight,"sb\Luka.png",747,480 F,0,11021,,0.8 S,0,11021,,0.625 C,0,11021,,0,0,0 F,0,21808,22145,0.8,0 F,0,43381,44392,0,0.8 F,0,54167,,0 F,0,100010,100347,0,0.8 F,0,121583,122257,0.8,0
Sprite,Background,BottomLeft,"sb\bm.jpg",-103,480 L,54167,16 F,0,0,674,1,0 L,143156,16 F,0,0,674,1,0 L,186302,16 F,0,0,674,1,0 S,0,54167,,0.625 P,0,54167,,A F,0,207875,,0
Sprite,Background,BottomRight,"sb\bl.jpg",747,480 L,64954,16 F,0,0,674,1,0 L,132369,16 F,0,0,674,1,0 L,197088,16 F,0,0,674,1,0 S,0,64954,,0.625 P,0,64954,,A F,0,207875,,0
Sprite,Background,Centre,"sb\n\underforest.png",72,366 S,0,235,,0.5 R,0,235,,-0.85 F,0,21808,22145,0,1 C,0,42369,43379,255,255,255,76,76,76 F,0,43043,43381,1,0 C,0,64954,,255,255,255 F,0,64954,65291,0,1 C,0,75740,78437,255,255,255,0,0,0 C,0,78437,,255,255,255 C,0,98661,100013,255,255,255,128,128,128 F,0,99673,100010,1,0 C,0,120572,121586,255,255,255,76,76,76 F,0,121583,121920,0,1 C,0,129673,132039,76,76,76,255,255,255 C,0,132032,,0,0,0 C,0,132369,,255,255,255 F,0,142819,143156,1,0 C,0,164729,,76,76,76 F,0,164729,165066,0,1 C,0,173998,174167,76,76,76,153,153,153 C,0,175515,185965,153,153,153,255,255,255 F,0,185965,,0 F,0,197088,197426,0,1 C,0,207875,210572,255,255,255,0,0,0 F,0,210234,210572,1,0 C,0,210572,,255,255,255 F,0,221358,221695,0,1 C,0,234167,234843,255,255,255,0,0,0 F,0,235515,,0
Sprite,Background,Centre,"sb\n\ayyri.png",75,370 S,0,235,,0.625 R,0,235,,-0.85 C,0,235,,51,51,51 F,0,235,1583,1 C,0,9504,9673,51,51,51,0,0,0 C,0,11021,,255,255,255 F,0,21470,21808,1,0 C,0,43381,,76,76,76 F,0,43381,43718,0,1 C,0,51470,53836,76,76,76,255,255,255 C,0,53830,,0,0,0 C,0,54167,,255,255,255 F,0,64617,64954,1,0 C,0,98661,100013,255,255,255,128,128,128 F,0,100010,100347,0,1 C,0,109448,110800,128,128,128,255,255,255 C,0,120572,121586,255,255,255,76,76,76 F,0,121246,121583,1,0 C,0,143156,,255,255,255 F,0,143156,143493,0,1 F,0,153605,153942,1,0 F,0,186302,186639,0,1 F,0,196751,197088,1,0 F,0,210572,210909,0,1 F,0,221021,221358,1,0
Sprite,Background,Centre,"sb\Highlight.png",462,243 C,0,9673,,132,168,111 F,2,9673,9873,1,0 S,2,9673,9873,1,0.2 P,0,9673,9873,A
Sprite,Background,Centre,"sb\Highlight.png",553,223 C,0,9841,,132,168,111 F,2,9841,10041,1,0 S,2,9841,10041,1,0.2 P,0,9841,10041,A
Sprite,Background,Centre,"sb\Highlight.png",471,315 C,0,10010,,132,168,111 F,2,10010,10210,1,0 S,2,10010,10210,1,0.2 P,0,10010,10210,A
Sprite,Background,Centre,"sb\Highlight.png",570,293 C,0,10178,,132,168,111 F,2,10178,10378,1,0 S,2,10178,10378,1,0.2 P,0,10178,10378,A
Sprite,Background,Centre,"sb\Highlight.png",462,243 C,0,10347,,84,111,68 F,2,10347,10547,1,0 S,2,10347,10547,1,0.2 P,0,10347,10547,A
Sprite,Background,Centre,"sb\Highlight.png",388,216 C,0,10515,,84,111,68 F,2,10515,10715,1,0 S,2,10515,10715,1,0.2 P,0,10515,10715,A
Sprite,Background,Centre,"sb\Highlight.png",323,259 C,0,10684,,84,111,68 F,2,10684,10884,1,0 S,2,10684,10884,1,0.2 P,0,10684,10884,A
Sprite,Background,Centre,"sb\Highlight.png",318,337 C,0,10852,,84,111,68 F,2,10852,11052,1,0 S,2,10852,11052,1,0.2 P,0,10852,11052,A
Sprite,Background,Centre,"sb\Highlight.png",0,0 C,0,53830,,238,139,49 M,0,53830,53872,81,298,91.74197,285.8356 F,2,53830,54282,1,0 S,2,53830,54282,1,0.2 P,0,53830,54282,A M,0,53872,53914,91.74197,285.8356,99.86404,271.8003 M,0,53914,53956,99.86404,271.8003,104.4689,256.2596 M,0,53956,53998,104.4689,256.2596,105.2391,240.0641 M,0,53998,54040,105.2391,240.0641,102.6071,224.0533 M,0,54040,54082,102.6071,224.0533,97.39182,208.6784
Sprite,Background,Centre,"sb\Highlight.png",0,0 C,0,132032,,132,168,111 M,0,132032,132074,420,361,440.1171,363.8105 F,2,132032,132484,1,0 S,2,132032,132484,1,0.2 P,0,132032,132484,A M,0,132074,132116,440.1171,363.8105,460.2343,366.621 M,0,132116,132158,460.2343,366.621,480.3514,369.4315 M,0,132158,132200,480.3514,369.4315,500.4685,372.2419 M,0,132200,132242,500.4685,372.2419,520.5856,375.0524 M,0,132242,132284,520.5856,375.0524,540.7028,377.8629
Sprite,Background,Centre,"sb\Highlight.png",0,0 C,0,185965,,190,55,31 M,0,185965,186007,543,287,522.7391,288.4472 F,2,185965,186417,1,0 S,2,185965,186417,1,0.2 P,0,185965,186417,A M,0,186007,186049,522.7391,288.4472,502.4782,289.8944 M,0,186049,186091,502.4782,289.8944,482.2173,291.3416 M,0,186091,186133,482.2173,291.3416,461.9565,292.7888 M,0,186133,186175,461.9565,292.7888,441.6956,294.236 M,0,186175,186217,441.6956,294.236,421.4347,295.6832
//Storyboard Layer 1 (Fail)
//Storyboard Layer 2 (Pass)
//Storyboard Layer 3 (Foreground)
//Storyboard Sound Samples

[TimingPoints]
231,338.983050847458,4,2,1,50,1,0
9673,337.078651685393,4,2,1,60,1,0
11021,-100,4,2,1,75,0,1
11105,-100,4,2,1,75,0,0
16414,-100,4,2,1,75,0,1
16498,-100,4,2,1,75,0,0
21808,-133.333333333333,4,2,1,60,0,0
32594,-100,4,2,1,75,0,0
43381,-133.333333333333,4,2,1,50,0,0
51470,-100,4,2,1,60,0,0
52819,-100,4,2,1,75,0,0
54167,-80,4,2,2,90,0,1
64616,-80,4,2,2,90,0,0
64953,-80,4,2,2,90,0,1
75740,-80,4,2,2,60,0,0
78437,-133.333333333333,4,2,1,75,0,1
78521,-80,4,2,1,75,0,0
83830,-80,4,2,1,75,0,1
83914,-80,4,2,1,75,0,0
98661,-80,4,2,1,70,0,0
100010,-133.333333333333,4,2,1,60,0,0
110796,-100,4,2,1,75,0,0
121583,-133.333333333333,4,2,1,50,0,0
129673,-133.333333333333,4,2,1,60,0,0
131021,-133.333333333333,4,2,1,75,0,0
132032,-80,4,2,1,75,0,0
132369,-80,4,2,2,90,0,1
142819,-80,4,2,2,90,0,0
143156,-80,4,2,2,90,0,1
153942,-80,4,2,2,60,0,0
164729,-133.333333333333,4,2,1,50,0,0
174841,-100,4,2,1,60,0,0
175515,-100,4,2,1,75,0,0
180909,-100,4,2,1,80,0,0
183605,-100,4,2,1,85,0,0
185965,-80,4,2,1,85,0,0
186302,-80,4,2,2,90,0,1
196751,-80,4,2,2,90,0,0
197088,-80,4,2,2,90,0,1
207875,-80,4,2,2,60,0,0
210571,-80,4,2,1,75,0,1
210656,-80,4,2,1,75,0,0
215965,-80,4,2,1,75,0,1
216049,-80,4,2,1,75,0,0
221358,-80,4,2,1,75,0,1
221442,-80,4,2,1,75,0,0
226751,-80,4,2,1,75,0,1
226835,-80,4,2,1,75,0,0
234167,-80,4,2,1,75,0,1
234251,-80,4,2,1,75,0,0
234504,-80,4,2,1,50,0,0

[Colours]
Combo1 : 238,139,49
Combo2 : 132,168,111
Combo3 : 84,111,68
Combo4 : 190,55,31
Combo5 : 126,36,20
Combo6 : 244,189,62

[HitObjects]
120,305,231,6,0,L|101:171,2,130,2|0|0,0:0|0:0|0:0,0:0:0:0:
255,351,1247,1,0,0:0:0:0:
354,246,1586,5,2,0:0:0:0:
377,178,1756,1,0,0:0:0:0:
426,230,1925,1,2,0:0:0:0:
403,298,2095,1,0,0:0:0:0:
473,287,2264,2,0,P|465:333|368:363,1,130,2|0,0:0|0:0,0:0:0:0:
299,263,2942,6,0,L|150:272,2,130,2|0|0,0:0|0:0|0:0,0:0:0:0:
379,144,3959,1,0,0:0:0:0:
237,162,4298,1,2,0:0:0:0:
219,92,4468,1,0,0:0:0:0:
166,141,4637,1,2,0:0:0:0:
125,81,4807,1,0,0:0:0:0:
53,84,4976,1,2,0:0:0:0:
361,52,5654,6,0,L|516:42,2,130,2|0|0,0:0|0:0|0:0,0:0:0:0:
219,28,6671,1,0,0:0:0:0:
119,130,7010,5,2,0:0:0:0:
54,99,7180,1,0,0:0:0:0:
56,170,7349,1,2,0:0:0:0:
121,202,7519,1,0,0:0:0:0:
63,244,7688,2,0,P|118:272|176:247,1,130,2|0,0:0|0:0,0:0:0:0:
280,150,8366,6,0,L|264:14,2,130,2|0|0,0:0|0:0|0:0,0:0:0:0:
300,291,9383,1,0,0:0:0:0:
398,187,9673,5,2,0:0:0:0:
489,167,9841,1,0,0:0:0:0:
407,259,10010,1,2,0:0:0:0:
506,237,10178,1,0,0:0:0:0:
398,187,10347,5,2,0:0:0:0:
324,160,10515,1,2,0:0:0:0:
259,203,10684,1,2,0:0:0:0:
254,281,10852,1,2,0:0:0:0:
174,338,11021,6,0,L|159:255,1,65,4|0,1:1|0:0,0:0:0:0:
121,253,11274,1,0,0:0:0:0:
121,253,11358,2,0,L|106:170,1,65,8|0,0:0|0:0,0:0:0:0:
86,114,11695,6,0,L|170:124,1,65,0|0,1:0|0:0,0:0:0:0:
171,46,12032,2,0,L|87:36,1,65,8|0,0:0|0:0,0:0:0:0:
28,54,12369,6,0,L|-20:135,1,65,0|0,1:0|0:0,0:0:0:0:
52,169,12706,2,0,L|88:110,1,65,8|0,0:0|0:0,0:0:0:0:
171,46,13043,5,0,1:0:0:0:
189,140,13212,1,0,0:0:0:0:
282,116,13381,1,8,0:0:0:0:
264,210,13550,1,0,0:0:0:0:
202,275,13718,6,0,L|262:298,1,65,0|0,1:0|0:0,0:0:0:0:
291,329,13970,1,0,0:0:0:0:
291,329,14055,2,0,L|351:306,1,65,8|0,0:0|0:0,0:0:0:0:
394,234,14392,6,0,L|383:142,1,65,0|0,1:0|0:0,0:0:0:0:
469,125,14729,2,0,L|476:189,1,65,8|0,0:0|0:0,0:0:0:0:
479,280,15066,6,0,L|434:340,1,65,0|0,1:0|0:0,0:0:0:0:
355,286,15403,2,0,L|394:234,1,65,8|0,0:0|0:0,0:0:0:0:
425,139,15740,6,2,P|392:113|344:112,1,65,4|0,0:3|0:0,0:1:0:0:
303,35,16077,2,2,P|277:68|276:116,1,65,4|0,0:3|0:0,0:1:0:0:
273,187,16414,6,0,L|185:209,1,65,4|0,1:1|0:0,0:0:0:0:
186,239,16667,1,0,0:0:0:0:
186,239,16751,2,0,L|97:260,1,65,8|0,0:0|0:0,0:0:0:0:
55,214,17088,6,0,L|24:130,1,65,0|0,1:0|0:0,0:0:0:0:
93,80,17426,2,0,L|115:140,1,65,8|0,0:0|0:0,0:0:0:0:
192,152,17763,6,0,L|239:104,1,65,0|0,1:0|0:0,0:0:0:0:
208,17,18100,2,0,L|162:63,1,65,8|0,0:0|0:0,0:0:0:0:
115,141,18437,5,0,1:0:0:0:
133,235,18606,1,0,0:0:0:0:
226,211,18775,1,8,0:0:0:0:
208,305,18942,1,0,0:0:0:0:
279,369,19111,6,0,L|364:347,1,65,0|0,1:0|0:0,0:0:0:0:
351,308,19364,1,0,0:0:0:0:
351,308,19448,2,0,L|433:313,1,65,8|0,0:0|0:0,0:0:0:0:
475,257,19785,6,0,L|491:177,1,65,0|0,1:0|0:0,0:0:0:0:
415,132,20122,2,0,L|402:195,1,65,8|0,0:0|0:0,0:0:0:0:
334,240,20459,6,0,L|253:224,1,65,0|0,1:0|0:0,0:0:0:0:
245,137,20796,2,0,L|308:149,1,65,8|0,0:0|0:0,0:0:0:0:
415,132,21133,6,2,P|407:84|378:49,1,65,4|0,0:3|0:0,0:1:0:0:
312,24,21470,2,2,P|264:32|228:61,1,65,4|0,0:3|0:0,0:1:0:0:
186,114,21808,5,4,1:1:0:0:
133,183,21976,2,0,P|129:219|131:232,1,48.750001859665,0|8,0:0|0:0,0:0:0:0:
175,306,22313,1,0,0:0:0:0:
254,343,22482,1,0,0:0:0:0:
334,307,22650,2,0,L|405:318,2,48.750001859665
330,219,23156,6,0,L|401:230,1,48.750001859665,0|0,1:0|0:0,0:0:0:0:
418,148,23493,2,0,L|369:140,1,48.750001859665,8|0,0:0|0:0,0:0:0:0:
301,84,23830,2,0,L|252:76,1,48.750001859665,0|8,0:0|0:0,0:0:0:0:
165,71,24167,1,8,0:0:0:0:
137,155,24336,1,0,0:0:0:0:
137,155,24420,1,0,0:0:0:0:
137,155,24504,6,0,P|128:200|134:222,1,48.750001859665,0|0,1:0|0:0,0:0:0:0:
168,280,24841,2,0,P|203:285|235:276,1,48.750001859665,8|0,0:0|0:0,0:0:0:0:
300,259,25178,1,0,0:0:0:0:
380,222,25347,2,0,L|373:161,2,48.750001859665,0|0|0,0:0|0:0|0:0,0:0:0:0:
465,241,25852,6,0,L|452:128,1,97.50000371933,0|8,1:0|0:0,0:0:0:0:
382,92,26358,1,0,0:0:0:0:
294,80,26527,2,0,L|229:85,1,48.750001859665,0|8,0:0|0:0,0:0:0:0:
157,90,26864,1,8,0:0:0:0:
70,103,27032,1,0,0:0:0:0:
70,103,27117,1,0,0:0:0:0:
70,103,27201,6,0,L|80:168,1,48.750001859665,0|0,1:0|0:0,0:0:0:0:
34,228,27538,2,0,L|44:293,1,48.750001859665,8|0,0:0|0:0,0:0:0:0:
108,332,27875,1,0,0:0:0:0:
191,304,28043,2,0,B|217:309|217:309|252:303,2,48.750001859665,0|0|0,0:0|0:0|0:0,0:0:0:0:
219,220,28549,6,0,L|285:225,1,48.750001859665,0|0,1:0|0:0,0:0:0:0:
343,267,28886,2,0,L|409:272,1,48.750001859665,8|0,0:0|0:0,0:0:0:0:
473,239,29223,2,0,L|469:177,1,48.750001859665,0|8,0:0|0:0,0:0:0:0:
428,112,29560,1,8,0:0:0:0:
348,73,29729,1,0,0:0:0:0:
348,73,29813,1,0,0:0:0:0:
348,73,29897,6,0,P|298:48|240:62,1,97.50000371933,0|8,1:0|0:0,0:0:0:0:
173,78,30403,1,0,0:0:0:0:
112,141,30572,2,0,L|120:205,1,48.750001859665,0|0,0:0|0:0,0:0:0:0:
130,276,30909,2,0,L|122:340,1,48.750001859665,8|0,0:0|0:0,0:0:0:0:
212,328,31246,6,0,L|231:210,1,97.50000371933,0|8,1:0|0:0,0:0:0:0:
279,161,31751,2,0,P|317:144|338:140,1,48.750001859665,0|0,0:0|0:0,0:0:0:0:
407,170,32088,1,8,0:0:0:0:
407,170,32257,1,8,0:0:0:0:
407,170,32426,1,8,0:0:0:0:
382,69,32594,6,0,L|295:60,1,65,4|0,1:1|0:0,0:0:0:0:
233,73,32931,2,0,L|146:64,1,65,8|0,0:0|0:0,0:0:0:0:
89,96,33268,1,0,1:0:0:0:
44,168,33437,2,0,P|41:194|58:240,1,65,0|8,0:0|0:0,0:0:0:0:
108,293,33774,1,0,0:0:0:0:
192,293,33942,6,0,B|232:267|232:267|326:283,1,130,0|8,1:0|0:0,0:0:0:0:
384,326,34448,1,0,0:0:0:0:
411,245,34617,2,0,B|427:181|388:182|411:117,1,130,0|8,1:0|0:0,0:0:0:0:
346,62,35122,1,0,0:0:0:0:
261,66,35291,6,0,L|191:82,1,65,0|0,1:0|0:0,0:0:0:0:
148,149,35628,1,8,0:0:0:0:
229,171,35796,2,0,L|299:187,1,65,0|0,0:0|1:0,0:0:0:0:
331,260,36133,2,0,L|261:276,1,65,0|8,0:0|0:0,0:0:0:0:
186,298,36470,1,0,0:0:0:0:
111,258,36639,6,0,P|58:221|60:133,1,130,0|8,1:0|0:0,0:0:0:0:
88,85,37145,1,8,0:0:0:0:
88,85,37229,1,8,0:0:0:0:
88,85,37313,2,0,P|139:72|176:78,1,65,8|8,0:0|0:0,0:0:0:0:
227,108,37650,2,0,P|278:121|315:115,1,65,8|8,0:0|0:0,0:0:0:0:
369,91,37987,6,0,L|375:165,1,65,8|0,1:2|0:0,0:0:0:0:
398,236,38324,2,0,L|392:300,1,65,8|0,0:0|0:0,0:0:0:0:
328,356,38661,1,0,1:0:0:0:
251,320,38830,2,0,P|211:309|173:316,1,65,0|8,0:0|0:0,0:0:0:0:
117,357,39167,1,0,0:0:0:0:
59,294,39336,6,0,B|65:250|65:250|54:213|54:213|66:158,1,130,0|8,1:0|0:0,0:0:0:0:
121,105,39841,1,0,0:0:0:0:
199,74,40010,2,0,L|280:63,1,65,0|0,1:0|0:0,0:0:0:0:
346,82,40347,1,8,0:0:0:0:
346,82,40515,1,0,0:0:0:0:
401,146,40684,6,0,P|404:194|397:217,1,65,0|0,1:0|0:0,0:0:0:0:
342,272,41021,2,0,P|294:275|271:268,1,65,8|0,0:0|0:0,0:0:0:0:
193,273,41358,2,0,L|183:367,1,65,0|0,1:0|0:0,0:0:0:0:
111,298,41695,2,0,L|117:233,1,65,8|0,0:0|0:0,0:0:0:0:
149,154,42032,5,0,1:0:0:0:
149,154,42200,1,0,0:0:0:0:
212,97,42369,2,0,L|294:86,1,65,8|0,0:0|0:0,0:0:0:0:
317,162,42706,2,0,L|252:171,1,65,0|0,1:0|0:0,0:0:0:0:
233,253,43043,2,0,L|297:243,1,65,8|0,0:0|0:0,0:0:0:0:
381,230,43381,6,0,L|399:290,1,48.750001859665,4|0,0:0|0:0,0:0:0:0:
422,360,43718,1,8,0:0:0:0:
486,300,43886,1,0,0:0:0:0:
464,214,44055,2,0,L|446:154,1,48.750001859665
417,85,44392,2,0,L|357:103,1,48.750001859665,8|0,0:0|0:0,0:0:0:0:
295,52,44729,5,0,0:0:0:0:
242,121,44897,1,0,0:0:0:0:
213,37,45066,2,0,P|163:42|145:50,1,48.750001859665,8|0,0:0|0:0,0:0:0:0:
108,108,45403,2,0,P|103:158|62:200,1,97.50000371933,0|8,0:0|0:0,0:0:0:0:
1,243,45909,1,0,0:0:0:0:
55,311,46077,6,0,P|93:305|122:313,1,48.750001859665,4|0,0:0|0:0,0:0:0:0:
177,259,46414,2,0,P|171:221|179:192,1,48.750001859665,8|0,0:0|0:0,0:0:0:0:
233,147,46751,2,0,P|291:159|334:133,1,97.50000371933,0|8,0:0|0:0,0:0:0:0:
389,85,47257,1,0,0:0:0:0:
457,139,47426,2,0,L|467:205,1,48.750001859665
447,273,47763,1,8,0:0:0:0:
371,229,47931,1,0,0:0:0:0:
347,313,48100,6,0,L|280:322,1,48.750001859665
269,352,48352,1,0,0:0:0:0:
269,352,48437,2,0,L|202:361,1,48.750001859665,8|0,0:0|0:0,0:0:0:0:
137,330,48774,6,0,P|142:291|135:262,1,48.750001859665,4|0,0:0|0:0,0:0:0:0:
98,204,49111,1,8,0:0:0:0:
20,163,49279,1,0,0:0:0:0:
85,103,49448,2,0,L|150:95,1,48.750001859665
192,31,49785,2,0,L|257:39,1,48.750001859665,8|0,0:0|0:0,0:0:0:0:
308,92,50122,5,0,0:0:0:0:
271,172,50291,1,0,0:0:0:0:
358,172,50459,2,0,L|347:237,1,48.750001859665,8|0,0:0|0:0,0:0:0:0:
330,305,50796,2,0,P|410:312|432:337,1,97.50000371933,0|8,0:0|0:0,0:0:0:0:
490,268,51302,1,0,0:0:0:0:
463,187,51470,6,0,L|474:114,2,65,4|0|8,0:0|0:0|0:0,0:0:0:0:
387,226,51976,1,0,0:0:0:0:
338,156,52145,2,0,L|349:83,2,65,0|0|8,0:0|0:0|0:0,0:0:0:0:
262,194,52651,1,0,0:0:0:0:
262,278,52819,6,0,L|215:282,3,32.5,0|0|0|0,0:0|0:0|0:0|0:0,0:0:0:0:
196,307,53156,2,0,L|149:303,3,32.5,8|0|0|0,0:0|0:0|0:0|0:0,0:0:0:0:
126,324,53493,1,0,0:0:0:0:
41,324,53661,1,0,0:0:0:0:
17,242,53830,2,0,B|62:199|24:134,1,97.5,4|0,3:1|0:0,0:0:0:0:
1,109,54167,6,0,L|100:93,1,81.25,6|0,1:2|0:0,0:0:0:0:
109,50,54420,1,2,0:0:0:0:
109,50,54504,2,0,L|208:66,1,81.25,8|2,0:0|0:0,0:0:0:0:
290,30,54841,2,0,P|290:88|322:134,1,81.25,2|0,1:2|0:0,0:0:0:0:
389,163,55178,2,0,P|447:163|492:131,1,81.25,10|0,0:0|0:0,0:0:0:0:
497,255,55515,6,0,L|385:277,1,81.25,2|0,1:2|0:0,0:0:0:0:
384,312,55768,1,2,0:0:0:0:
384,312,55852,2,0,L|272:290,1,81.25,8|2,0:0|0:0,0:0:0:0:
201,323,56190,2,0,P|181:277|126:253,1,81.25,2|0,1:2|0:0,0:0:0:0:
53,236,56527,6,2,L|37:85,1,121.875,8|0,0:0|0:0,0:1:0:0:
14,67,56864,6,0,P|60:74|122:53,1,81.25,2|0,1:2|0:0,0:0:0:0:
182,10,57201,1,10,0:0:0:0:
210,111,57369,1,0,0:0:0:0:
299,54,57538,2,0,P|361:64|393:47,1,81.25,2|0,1:2|0:0,0:0:0:0:
413,40,57791,1,2,0:0:0:0:
413,40,57875,2,0,L|403:146,1,81.25,8|0,0:0|0:0,0:0:0:0:
452,216,58212,6,0,P|397:219|363:248,1,81.25,10|8,1:2|0:0,0:0:0:0:
349,278,58465,1,10,0:0:0:0:
349,278,58549,2,0,L|239:262,1,81.25,8|8,0:0|0:0,0:0:0:0:
167,297,58886,1,10,1:2:0:0:
87,226,59055,1,8,0:0:0:0:
178,174,59223,1,8,0:0:0:0:
98,103,59392,1,8,0:0:0:0:
200,78,59560,6,0,L|301:68,1,81.25,6|0,1:2|0:0,0:0:0:0:
327,45,59813,1,2,0:0:0:0:
327,45,59897,2,0,L|428:55,1,81.25,8|2,0:0|0:0,0:0:0:0:
497,109,60234,2,0,P|479:171|497:206,1,81.25,2|0,1:2|0:0,0:0:0:0:
511,278,60572,1,10,0:0:0:0:
414,320,60740,1,0,0:0:0:0:
386,226,60909,6,0,L|278:215,1,81.25,2|0,1:2|0:0,0:0:0:0:
262,187,61161,1,2,0:0:0:0:
262,187,61246,2,0,L|251:295,1,81.25,8|2,0:0|0:0,0:0:0:0:
183,346,61583,2,0,P|126:350|94:331,1,81.25,2|0,1:2|0:0,0:0:0:0:
43,254,61920,6,2,L|170:239,1,121.875,8|0,0:0|0:0,0:1:0:0:
191,194,62257,6,0,P|164:151|114:143,1,81.25,2|0,1:2|0:0,0:0:0:0:
192,51,62594,2,0,P|219:94|269:102,1,81.25,10|0,0:0|0:0,0:0:0:0:
351,91,62931,2,0,L|362:185,1,81.25,2|0,1:2|0:0,0:0:0:0:
416,261,63268,1,10,0:0:0:0:
350,344,63437,1,0,0:0:0:0:
255,297,63605,6,0,P|266:242|255:201,1,81.25,10|10,1:2|0:0,0:0:0:0:
155,214,63942,2,0,P|150:254|161:293,1,81.25,10|10,0:0|0:0,0:0:0:0:
70,346,64279,1,10,1:2:0:0:
20,252,64448,1,8,0:0:0:0:
20,252,64532,1,0,0:0:0:0:
20,252,64617,2,2,L|41:127,1,121.875,10|0,0:0|0:0,0:1:0:0:
85,104,64954,6,0,P|132:111|176:85,1,81.25,6|0,1:2|0:0,0:0:0:0:
202,63,65206,1,2,0:0:0:0:
202,63,65291,2,0,L|195:159,1,81.25,8|2,0:0|0:0,0:0:0:0:
216,247,65628,2,0,B|257:237|257:237|304:250,1,81.25,2|0,1:2|0:0,0:0:0:0:
326,348,65965,2,0,B|285:358|285:358|238:345,1,81.25,10|0,0:0|0:0,0:0:0:0:
158,290,66302,6,0,P|146:262|161:200,1,81.25,2|0,1:2|0:0,0:0:0:0:
183,169,66555,1,2,0:0:0:0:
183,169,66639,2,0,L|188:87,1,81.25,8|2,0:0|0:0,0:0:0:0:
287,52,66976,2,0,L|281:133,1,81.25,2|0,1:2|0:0,0:0:0:0:
300,237,67313,2,2,P|350:223|418:252,1,121.875,8|0,0:0|0:0,0:1:0:0:
457,276,67650,6,0,L|466:180,1,81.25,2|0,1:2|0:0,0:0:0:0:
403,108,67987,1,10,0:0:0:0:
403,108,68156,1,0,0:0:0:0:
301,136,68324,2,0,L|140:153,1,162.5,2|8,1:2|0:0,0:0:0:0:
51,211,68830,1,0,0:0:0:0:
138,270,68999,6,0,P|175:282|230:265,1,81.25,10|10,1:2|0:0,0:0:0:0:
263,252,69251,1,10,0:0:0:0:
263,252,69336,2,0,P|300:240|355:257,1,81.25,10|8,0:0|0:0,0:0:0:0:
438,206,69673,2,0,B|463:160|463:160|441:29,1,162.5,10|8,1:2|0:0,0:0:0:0:
341,71,70178,1,8,0:0:0:0:
211,89,70347,6,0,L|108:86,1,81.25,6|0,1:2|0:0,0:0:0:0:
80,106,70600,1,2,0:0:0:0:
80,106,70684,2,0,P|70:166|93:209,1,81.25,8|2,0:0|0:0,0:0:0:0:
148,276,71021,2,0,P|155:315|143:354,1,81.25,2|0,1:2|0:0,0:0:0:0:
37,363,71358,2,0,P|29:323|41:284,1,81.25,10|0,0:0|0:0,0:0:0:0:
75,184,71695,6,0,L|177:194,1,81.25,2|0,1:2|0:0,0:0:0:0:
207,177,71948,1,2,0:0:0:0:
207,177,72032,2,0,L|309:187,1,81.25,8|2,0:0|0:0,0:0:0:0:
393,182,72369,2,0,L|408:72,1,81.25,2|0,1:2|0:0,0:0:0:0:
304,64,72706,2,2,L|285:204,1,121.875,8|0,0:0|0:0,0:1:0:0:
315,230,73043,6,0,P|320:280|286:330,1,81.25,2|0,1:2|0:0,0:0:0:0:
222,370,73380,1,10,0:0:0:0:
222,370,73549,1,0,0:0:0:0:
127,322,73718,2,0,L|38:309,1,81.25,2|0,1:2|0:0,0:0:0:0:
5,212,74055,2,0,L|94:199,1,81.25,10|0,0:0|0:0,0:0:0:0:
189,181,74392,5,0,1:2:0:0:
128,94,74560,2,0,L|39:81,1,81.25,2|8,0:0|0:0,0:0:0:0:
124,9,74897,1,0,0:0:0:0:
218,56,75066,2,0,L|307:43,1,81.25,2|0,1:2|0:0,0:0:0:0:
368,123,75403,2,0,P|373:178|355:226,1,81.25,10|0,0:0|0:0,0:0:0:0:
309,291,75740,6,0,P|360:308|426:291,2,121.875,2|0|0,1:2|0:0|0:0,0:0:0:0:
249,87,76583,2,0,L|81:99,1,162.5,2|2,0:0|0:0,0:0:0:0:
37,191,77088,2,0,L|27:235,3,40.625,2|0|0|0,0:0|0:0|0:0|0:0,0:0:0:0:
49,280,77426,2,0,L|59:324,3,40.625,0|0|0|0,0:0|0:0|0:0|0:0,0:0:0:0:
93,359,77763,2,0,P|165:323|248:344,1,162.5,2|4,0:0|0:3,0:0:0:0:
345,358,78268,1,4,0:3:0:0:
413,247,78437,5,4,1:1:0:0:
404,142,78605,1,0,0:0:0:0:
404,142,78690,1,0,0:0:0:0:
404,142,78774,2,0,P|355:128|316:139,1,81.25,8|0,0:0|0:0,0:0:0:0:
222,146,79111,2,0,P|182:151|144:138,1,81.25,0|0,1:0|0:0,0:0:0:0:
40,160,79448,2,0,B|29:202|29:202|40:243,1,81.25,8|0,0:0|0:0,0:0:0:0:
125,299,79785,6,0,B|167:310|167:310|208:299,1,81.25,0|0,1:0|0:0,0:0:0:0:
298,346,80122,1,8,0:0:0:0:
391,296,80291,1,0,0:0:0:0:
431,198,80459,2,0,L|435:107,1,81.25,0|0,1:0|0:0,0:0:0:0:
332,89,80796,2,0,L|328:170,1,81.25,8|0,0:0|0:0,0:0:0:0:
321,275,81133,5,0,1:0:0:0:
235,212,81302,1,0,0:0:0:0:
235,212,81386,1,0,0:0:0:0:
235,212,81470,2,0,L|144:206,1,81.25,8|0,0:0|0:0,0:0:0:0:
54,245,81808,2,0,L|45:336,1,81.25,0|0,1:0|0:0,0:0:0:0:
141,283,82145,2,0,L|148:202,1,81.25,8|0,0:0|0:0,0:0:0:0:
206,114,82482,6,0,P|247:97|304:109,1,81.25,0|0,1:0|0:0,0:0:0:0:
358,25,82819,1,8,0:0:0:0:
427,104,82987,1,0,0:0:0:0:
358,184,83156,6,2,L|351:287,1,81.25,4|0,0:3|0:0,0:1:0:0:
229,309,83493,6,2,L|234:227,1,81.25,4|0,0:3|0:0,0:1:0:0:
268,102,83830,5,4,1:1:0:0:
167,67,83999,1,0,0:0:0:0:
167,67,84083,1,0,0:0:0:0:
167,67,84167,2,0,P|113:54|63:75,1,81.25,8|0,0:0|0:0,0:0:0:0:
84,165,84504,2,0,P|138:178|188:157,1,81.25,0|0,1:0|0:0,0:0:0:0:
258,128,84841,6,0,P|297:122|336:135,1,81.25,8|0,0:0|0:0,0:0:0:0:
331,241,85178,2,0,P|291:246|252:233,1,81.25,0|0,1:0|0:0,0:0:0:0:
162,172,85515,1,8,0:0:0:0:
110,264,85684,1,0,0:0:0:0:
201,315,85852,2,0,L|307:347,1,81.25,0|0,1:0|0:0,0:0:0:0:
382,314,86190,2,0,L|459:290,1,81.25,8|0,0:0|0:0,0:0:0:0:
469,185,86527,5,0,1:0:0:0:
475,79,86695,1,0,0:0:0:0:
475,79,86779,1,0,0:0:0:0:
475,79,86864,2,0,P|416:69|385:83,1,81.25,8|0,0:0|0:0,0:0:0:0:
306,130,87201,2,0,P|247:140|216:126,1,81.25,0|0,1:0|0:0,0:0:0:0:
157,54,87538,2,0,L|43:44,1,81.25,8|0,0:0|0:0,0:0:0:0:
30,142,87875,6,0,L|110:149,1,81.25,0|0,1:0|0:0,0:0:0:0:
198,208,88212,1,8,0:0:0:0:
109,265,88380,1,0,0:0:0:0:
195,326,88549,6,2,L|275:333,1,81.25,4|0,0:3|0:0,0:1:0:0:
368,241,88886,6,2,L|287:233,1,81.25,4|0,0:3|0:0,0:1:0:0:
166,183,89223,5,4,1:1:0:0:
251,120,89392,2,0,L|262:26,1,81.25,0|8,0:0|0:0,0:0:0:0:
155,28,89729,1,0,0:0:0:0:
72,93,89897,1,0,1:0:0:0:
72,93,89982,1,0,0:0:0:0:
72,93,90066,2,0,P|50:143|61:190,1,81.25,0|8,0:0|0:0,0:0:0:0:
139,228,90403,1,0,0:0:0:0:
236,268,90572,6,0,L|331:258,1,81.25,0|0,1:0|0:0,0:0:0:0:
415,220,90909,2,0,L|455:224,2,40.625,8|0|0,0:0|0:0|0:0,0:0:0:0:
349,130,91246,2,0,L|346:17,1,81.25,0|0,1:0|0:0,0:0:0:0:
243,25,91583,2,0,L|245:106,1,81.25,8|0,0:0|0:0,0:0:0:0:
280,205,91920,6,0,L|282:286,1,81.25,0|0,1:0|0:0,0:0:0:0:
193,344,92257,2,0,P|146:349|83:317,1,81.25,8|0,0:0|0:0,0:0:0:0:
69,243,92594,1,0,1:0:0:0:
69,243,92678,2,0,B|55:203|55:203|70:165,1,81.25
97,121,92931,2,0,L|184:127,1,81.25,8|0,0:0|0:0,0:0:0:0:
271,77,93268,5,0,1:0:0:0:
373,51,93437,2,0,P|420:46|467:64,1,81.25,0|8,0:0|0:0,0:0:0:0:
495,152,93774,1,8,0:0:0:0:
495,257,93942,2,0,L|490:320,3,40.625,8|0|8|0,0:0|0:0|0:0|0:0,0:0:0:0:
449,330,94279,2,0,P|402:335|355:317,1,81.25,8|8,0:0|0:0,0:0:0:0:
290,254,94617,5,8,1:2:0:0:
184,250,94785,1,0,0:0:0:0:
184,250,94869,1,0,0:0:0:0:
184,250,94954,2,0,L|98:241,1,81.25,8|0,0:0|0:0,0:0:0:0:
39,156,95291,2,0,L|119:164,1,81.25,0|0,1:0|0:0,0:0:0:0:
190,85,95628,1,8,0:0:0:0:
190,85,95796,1,0,0:0:0:0:
288,48,95965,6,0,L|394:36,1,81.25,0|0,1:0|0:0,0:0:0:0:
467,76,96302,2,0,L|529:67,2,40.625,8|0|0,0:0|0:0|0:0,0:0:0:0:
471,181,96639,2,0,L|477:279,1,81.25,0|0,1:0|0:0,0:0:0:0:
374,240,96976,2,0,L|284:238,1,81.25,8|0,0:0|0:0,0:0:0:0:
190,209,97313,6,0,P|173:154|199:108,1,81.25,0|0,1:0|0:0,0:0:0:0:
241,47,97650,2,0,L|338:57,1,81.25,8|0,0:0|0:0,0:0:0:0:
408,116,97987,1,0,1:0:0:0:
408,116,98072,2,0,B|419:156|419:156|401:199,1,81.25
369,231,98324,2,0,L|274:216,1,81.25,8|0,0:0|0:0,0:0:0:0:
185,240,98661,5,0,0:0:0:0:
185,240,98999,1,2,0:0:0:0:
115,188,99336,5,0,0:0:0:0:
115,188,99672,1,2,0:0:0:0:
55,252,100010,5,0,1:0:0:0:
87,317,100178,2,0,P|121:333|150:333,2,48.750001859665,0|0|0,0:0|0:0|0:0,0:0:0:0:
55,252,100684,1,8,0:0:0:0:
33,182,100852,2,0,L|38:64,1,97.50000371933,0|0,0:0|0:0,0:0:0:0:
97,42,101358,6,0,P|130:42|150:47,1,48.750001859665,0|0,1:0|0:0,0:0:0:0:
203,89,101695,2,0,P|236:89|256:84,1,48.750001859665,0|0,0:0|0:0,0:0:0:0:
309,41,102032,1,8,0:0:0:0:
320,113,102201,1,8,0:0:0:0:
378,69,102369,1,8,0:0:0:0:
435,24,102538,1,0,0:0:0:0:
435,24,102622,1,0,0:0:0:0:
435,24,102706,6,0,P|471:48|493:111,1,97.50000371933,0|0,1:0|0:0,0:0:0:0:
479,169,103212,1,0,0:0:0:0:
429,223,103381,1,8,0:0:0:0:
500,237,103549,2,0,L|490:306,1,48.750001859665,0|0,0:0|0:0,0:0:0:0:
453,346,103886,1,0,0:0:0:0:
389,309,104055,6,0,P|336:304|322:309,1,48.750001859665,0|0,1:0|0:0,0:0:0:0:
268,303,104392,2,0,P|273:250|268:236,1,48.750001859665,8|0,0:0|0:0,0:0:0:0:
241,189,104729,1,0,0:0:0:0:
173,160,104897,1,8,0:0:0:0:
115,205,105066,1,8,0:0:0:0:
122,292,105234,1,0,0:0:0:0:
122,292,105319,1,0,0:0:0:0:
122,292,105403,6,0,L|60:284,1,48.750001859665,0|0,1:0|0:0,0:0:0:0:
27,342,105740,1,0,0:0:0:0:
92,375,105909,1,0,0:0:0:0:
163,358,106077,2,0,L|225:366,1,48.750001859665,8|0,0:0|0:0,0:0:0:0:
281,344,106414,1,0,0:0:0:0:
351,364,106583,1,0,0:0:0:0:
334,292,106751,6,0,P|352:251|361:241,1,48.750001859665,8|0,1:2|0:0,0:0:0:0:
401,192,107088,2,0,P|383:151|374:141,1,48.750001859665,0|0,0:0|0:0,0:0:0:0:
319,106,107426,1,8,0:0:0:0:
268,158,107594,1,8,0:0:0:0:
245,88,107763,1,8,0:0:0:0:
194,140,107931,1,0,0:0:0:0:
194,140,108015,1,0,0:0:0:0:
194,140,108100,6,0,P|192:185|151:228,1,97.50000371933,0|0,1:0|0:0,0:0:0:0:
87,238,108605,1,0,0:0:0:0:
19,208,108774,2,0,L|6:138,1,48.750001859665,8|0,0:0|0:0,0:0:0:0:
33,90,109111,1,0,0:0:0:0:
13,19,109279,1,0,0:0:0:0:
83,37,109448,6,0,L|141:37,1,48.750001859665,8|0,1:2|0:0,0:0:0:0:
166,101,109785,2,0,L|166:159,1,48.750001859665,0|0,0:0|0:0,0:0:0:0:
182,221,110122,1,8,0:0:0:0:
234,271,110291,1,0,0:0:0:0:
289,223,110459,6,2,P|336:222|371:231,1,73.1250027894975,4|0,0:1|0:0,0:1:0:0:
394,263,110796,5,4,1:1:0:0:
456,187,110965,2,0,P|457:146|475:111,2,65,0|8|0,0:0|0:0|0:0,0:0:0:0:
499,274,111470,1,0,1:0:0:0:
441,353,111639,2,0,L|346:343,1,65,0|8,0:0|0:0,0:0:0:0:
296,289,111976,1,0,0:0:0:0:
213,342,112145,6,0,P|163:335|132:311,1,65,0|0,1:0|0:0,0:0:0:0:
204,246,112482,2,0,P|173:205|168:166,1,65,8|0,0:0|0:0,0:0:0:0:
265,171,112819,2,0,P|272:121|296:89,1,65,0|0,1:0|0:0,0:0:0:0:
361,161,113156,2,0,P|401:130|440:125,1,65,8|0,0:0|0:0,0:0:0:0:
435,221,113493,5,0,1:0:0:0:
509,281,113661,2,0,P|468:311|429:316,2,65,0|8|0,0:0|0:0|0:0,0:0:0:0:
435,221,114167,1,0,1:0:0:0:
414,126,114336,2,0,P|384:138|361:161,1,65,0|8,0:0|0:0,0:0:0:0:
318,249,114673,1,0,0:0:0:0:
239,191,114841,6,0,L|162:193,1,65,0|0,1:0|0:0,0:0:0:0:
123,108,115178,2,0,L|200:110,1,65,8|8,0:0|0:0,0:0:0:0:
234,92,115431,1,8,0:0:0:0:
234,92,115515,1,8,0:0:0:0:
322,50,115684,1,8,0:0:0:0:
364,137,115852,1,8,0:0:0:0:
452,95,116021,1,8,0:0:0:0:
364,137,116190,6,0,L|370:228,1,65,8|0,1:2|0:0,0:0:0:0:
380,298,116527,2,0,P|328:293|299:301,1,65,8|0,0:0|0:0,0:0:0:0:
231,345,116864,1,0,1:0:0:0:
164,274,117032,2,0,P|137:213|159:151,1,130,0|0,0:0|0:0,0:0:0:0:
244,114,117538,6,0,P|287:118|321:110,1,65,0|0,1:0|0:0,0:0:0:0:
279,20,117875,2,0,P|236:16|202:24,1,65,8|0,0:0|0:0,0:0:0:0:
149,92,118212,2,0,P|106:96|72:88,1,65,0|0,1:0|0:0,0:0:0:0:
8,30,118549,1,8,0:0:0:0:
2,127,118718,1,0,0:0:0:0:
72,193,118886,6,0,P|88:239|85:269,1,65,0|0,1:0|0:0,0:0:0:0:
168,309,119223,2,0,P|184:263|181:233,1,65,8|0,0:0|0:0,0:0:0:0:
265,194,119560,6,0,P|281:240|278:270,1,65,0|0,1:0|0:0,0:0:0:0:
361,310,119897,2,0,P|377:264|374:234,1,65,8|0,0:0|0:0,0:0:0:0:
355,152,120234,1,0,1:0:0:0:
261,124,120403,1,0,0:0:0:0:
203,203,120572,6,0,L|179:269,1,65,8|0,0:0|0:0,0:0:0:0:
127,182,120909,2,0,L|103:248,1,65,0|0,1:0|0:0,0:0:0:0:
35,174,121246,2,0,L|59:108,1,65,8|0,0:0|0:0,0:0:0:0:
109,58,121583,6,0,L|226:51,1,97.50000371933,4|8,0:0|0:0,0:0:0:0:
344,160,122257,2,0,L|246:165,1,97.50000371933,0|8,0:0|0:0,0:0:0:0:
82,227,122931,2,0,P|73:255|79:289,1,48.750001859665,0|0,0:0|0:0,0:0:0:0:
136,335,123268,2,0,P|164:344|198:338,1,48.750001859665,8|0,0:0|0:0,0:0:0:0:
255,292,123605,2,0,P|290:278|367:299,1,97.50000371933,0|8,0:0|0:0,0:0:0:0:
455,147,124279,6,0,L|465:40,1,97.50000371933,4|8,0:0|0:0,0:0:0:0:
288,66,124954,2,0,L|278:163,1,97.50000371933,0|8,0:0|0:0,0:0:0:0:
190,314,125628,2,0,P|154:315|123:307,1,48.750001859665,0|0,0:0|0:0,0:0:0:0:
139,224,125965,2,0,P|175:223|206:231,1,48.750001859665,8|0,0:0|0:0,0:0:0:0:
262,270,126302,1,0,0:0:0:0:
334,319,126470,1,0,0:0:0:0:
334,319,126555,1,0,0:0:0:0:
334,319,126639,2,0,L|373:312,3,24.3750009298325,8|0|0|0,0:0|0:0|0:0|0:0,0:0:0:0:
398,296,126976,6,0,P|412:253|395:192,1,97.50000371933,4|8,0:0|0:0,0:0:0:0:
273,83,127650,2,0,P|225:72|179:86,1,97.50000371933,0|8,0:0|0:0,0:0:0:0:
63,217,128324,2,0,L|66:270,1,48.750001859665,0|0,0:0|0:0,0:0:0:0:
143,307,128661,2,0,L|140:258,1,48.750001859665,8|0,0:0|0:0,0:0:0:0:
200,193,128999,2,0,B|221:176|221:176|295:180,1,97.50000371933,0|8,0:0|0:0,0:0:0:0:
438,275,129673,6,0,P|464:221|458:178,1,97.50000371933,4|8,0:0|0:0,0:0:0:0:
317,82,130347,2,0,P|291:136|297:179,1,97.50000371933,0|8,0:0|0:0,0:0:0:0:
226,332,131021,2,0,P|151:324|200:249,1,195.00000743866,0|0,0:0|0:0,0:0:0:0:
356,305,132032,6,0,L|492:324,1,121.875,4|0,3:1|0:0,0:0:0:0:
505,276,132369,6,0,P|514:228|501:187,1,81.25,6|0,1:2|0:0,0:0:0:0:
467,160,132622,1,2,0:0:0:0:
467,160,132706,2,0,P|419:151|378:164,1,81.25,8|2,0:0|0:0,0:0:0:0:
289,195,133043,2,0,P|241:204|200:191,1,81.25,2|0,1:2|0:0,0:0:0:0:
124,133,133381,2,0,L|118:23,1,81.25,10|0,0:0|0:0,0:0:0:0:
28,105,133717,6,0,L|32:186,1,81.25,2|0,1:2|0:0,0:0:0:0:
49,236,133970,1,2,0:0:0:0:
49,236,134055,2,0,L|53:317,1,81.25,8|2,0:0|0:0,0:0:0:0:
148,364,134392,2,0,L|143:282,1,81.25,2|0,1:2|0:0,0:0:0:0:
226,217,134729,2,2,P|293:197|352:223,1,121.875,8|0,0:0|0:0,0:1:0:0:
388,235,135066,6,0,L|395:153,1,81.25,2|0,1:2|0:0,0:0:0:0:
328,71,135403,1,10,0:0:0:0:
328,71,135572,1,0,0:0:0:0:
223,81,135740,2,0,B|188:73|188:73|105:89|105:89|43:72,1,162.5,2|10,1:2|0:0,0:0:0:0:
11,169,136246,1,0,0:0:0:0:
59,256,136414,6,0,B|100:265|100:265|141:257,1,81.25,10|8,1:2|0:0,0:0:0:0:
188,238,136667,1,10,0:0:0:0:
188,238,136751,2,0,B|226:230|226:230|267:239,1,81.25,8|8,0:0|0:0,0:0:0:0:
357,183,137088,2,0,P|396:137|396:103,1,81.25,10|8,1:2|0:0,0:0:0:0:
312,54,137426,2,0,P|273:100|273:134,1,81.25,8|8,0:0|0:0,0:0:0:0:
269,250,137763,6,0,L|276:338,1,81.25,6|0,1:2|0:0,0:0:0:0:
313,367,138015,1,2,0:0:0:0:
313,367,138100,2,0,P|357:368|410:339,1,81.25,8|2,0:0|0:0,0:0:0:0:
472,286,138437,2,0,L|465:205,1,81.25,2|0,1:2|0:0,0:0:0:0:
405,117,138774,2,0,L|411:36,1,81.25,10|0,0:0|0:0,0:0:0:0:
306,53,139111,6,0,P|254:41|200:57,1,81.25,2|0,1:2|0:0,0:0:0:0:
182,73,139364,1,2,0:0:0:0:
182,73,139448,2,0,L|170:183,1,81.25,8|2,0:0|0:0,0:0:0:0:
115,242,139785,2,0,L|103:352,1,81.25,2|0,1:2|0:0,0:0:0:0:
205,286,140122,2,2,P|249:259|329:283,1,121.875,8|0,0:0|0:0,0:1:0:0:
356,305,140459,6,0,L|450:301,1,81.25,2|0,1:2|0:0,0:0:0:0:
499,216,140796,1,10,0:0:0:0:
499,216,140965,1,0,0:0:0:0:
473,113,141133,2,0,L|468:2,1,81.25,2|0,1:2|0:0,0:0:0:0:
366,55,141470,2,0,L|369:136,1,81.25,10|0,0:0|0:0,0:0:0:0:
303,219,141808,5,10,1:2:0:0:
303,219,141976,1,10,0:0:0:0:
202,184,142145,1,10,0:0:0:0:
202,184,142313,1,10,0:0:0:0:
168,284,142482,1,10,1:2:0:0:
267,319,142650,1,8,0:0:0:0:
267,319,142734,1,0,0:0:0:0:
267,319,142819,2,2,P|318:325|388:269,1,121.875,10|0,0:0|0:0,0:1:0:0:
413,251,143156,6,0,L|425:144,1,81.25,6|0,1:2|0:0,0:0:0:0:
394,115,143409,1,2,0:0:0:0:
394,115,143493,2,0,L|382:8,1,81.25,8|2,0:0|0:0,0:0:0:0:
263,48,143830,2,0,P|213:71|159:58,1,81.25,2|0,1:2|0:0,0:0:0:0:
125,155,144167,2,0,P|148:205|135:259,1,81.25,10|0,0:0|0:0,0:0:0:0:
92,321,144504,6,0,L|184:334,1,81.25,2|0,1:2|0:0,0:0:0:0:
226,303,144757,1,2,0:0:0:0:
226,303,144841,2,0,L|318:290,1,81.25,8|2,0:0|0:0,0:0:0:0:
397,345,145178,2,0,P|406:275|428:241,1,81.25,2|0,1:2|0:0,0:0:0:0:
485,191,145515,6,2,L|493:43,1,121.875,8|0,0:0|0:0,0:1:0:0:
462,24,145852,6,0,P|415:20|379:32,1,81.25,2|0,1:2|0:0,0:0:0:0:
291,85,146190,1,10,0:0:0:0:
202,28,146358,1,0,0:0:0:0:
115,89,146527,6,0,P|111:136|123:172,1,81.25,2|0,1:2|0:0,0:0:0:0:
184,253,146865,1,10,0:0:0:0:
129,343,147033,1,0,0:0:0:0:
232,363,147201,6,0,L|317:358,1,81.25,10|10,1:2|0:0,0:0:0:0:
313,358,147454,1,10,0:0:0:0:
313,358,147538,1,10,0:0:0:0:
408,313,147706,1,8,0:0:0:0:
340,231,147875,1,10,1:2:0:0:
340,231,148043,1,8,0:0:0:0:
236,251,148212,1,8,0:0:0:0:
236,251,148380,1,8,0:0:0:0:
252,144,148549,6,0,P|236:91|206:69,1,81.25,6|0,1:2|0:0,0:0:0:0:
167,55,148802,1,2,0:0:0:0:
167,55,148886,2,0,P|114:71|92:101,1,81.25,8|2,0:0|0:0,0:0:0:0:
58,187,149223,1,2,1:2:0:0:
101,283,149392,1,0,0:0:0:0:
203,260,149560,2,0,L|301:257,1,81.25,10|0,0:0|0:0,0:0:0:0:
358,181,149897,6,0,L|404:99,1,81.25,2|0,1:2|0:0,0:0:0:0:
455,112,150150,1,2,0:0:0:0:
455,112,150234,2,0,L|494:182,1,81.25,8|2,0:0|0:0,0:0:0:0:
510,288,150572,2,0,P|459:292|428:314,1,81.25,2|0,1:2|0:0,0:0:0:0:
335,346,150909,6,2,L|197:341,1,121.875,8|0,0:0|0:0,0:1:0:0:
161,327,151246,6,0,P|143:269|156:229,1,81.25,2|0,1:2|0:0,0:0:0:0:
179,149,151583,1,10,0:0:0:0:
89,93,151751,1,0,0:0:0:0:
168,22,151920,2,0,P|234:24|272:41,1,81.25,2|0,1:2|0:0,0:0:0:0:
322,104,152257,2,0,P|388:102|426:85,1,81.25,10|0,0:0|0:0,0:0:0:0:
488,36,152594,1,0,1:2:0:0:
510,139,152763,6,0,L|490:243,1,81.25,2|8,0:0|0:0,0:0:0:0:
467,321,153100,1,0,0:0:0:0:
393,245,153268,2,0,P|333:266|311:288,1,81.25,2|0,1:2|0:0,0:0:0:0:
221,238,153605,2,0,P|213:198|192:165,1,81.25,10|0,0:0|0:0,0:0:0:0:
98,114,153942,5,6,1:2:0:0:
256,103,164729,6,0,P|327:88|360:103,1,97.50000371933,0|0,0:0|0:0,0:0:0:0:
369,270,165403,2,0,P|298:285|265:270,1,97.50000371933,8|0,0:0|0:0,0:0:0:0:
137,171,166077,2,0,L|127:114,1,48.750001859665,0|0,0:0|0:0,0:0:0:0:
56,173,166414,2,0,L|64:221,1,48.750001859665,0|0,0:0|0:0,0:0:0:0:
145,255,166751,2,0,P|201:238|248:255,1,97.50000371933,8|0,0:0|0:0,0:0:0:0:
404,301,167426,6,0,L|417:191,1,97.50000371933,0|0,0:0|0:0,0:0:0:0:
250,143,168100,2,0,L|261:239,1,97.50000371933,8|0,0:0|0:0,0:0:0:0:
134,360,168774,2,0,L|79:352,1,48.750001859665,0|0,0:0|0:0,0:0:0:0:
59,269,169111,2,0,L|107:276,1,48.750001859665,0|0,0:0|0:0,0:0:0:0:
131,191,169448,2,0,L|22:174,1,97.50000371933,8|0,0:0|0:0,0:0:0:0:
83,102,169954,1,0,0:0:0:0:
160,60,170122,6,0,P|203:45|264:59,1,97.50000371933,0|0,0:0|0:0,0:0:0:0:
343,203,170796,2,0,P|297:218|249:209,1,97.50000371933,8|0,0:0|0:0,0:0:0:0:
131,339,171470,2,0,L|186:333,1,48.750001859665,0|0,0:0|0:0,0:0:0:0:
266,319,171808,2,0,L|314:324,1,48.750001859665,0|0,0:0|0:0,0:0:0:0:
397,353,172145,2,0,B|406:306|406:306|397:247,1,97.50000371933,8|0,0:0|0:0,0:0:0:0:
263,144,172819,6,0,L|154:137,1,97.50000371933,0|0,0:0|0:0,0:0:0:0:
313,43,173493,2,0,L|410:49,1,97.50000371933,8|0,0:0|0:0,0:0:0:0:
410,49,174841,2,0,L|417:108,3,32.5,2|0|2|0,0:0|0:0|0:0|0:0,0:0:0:0:
420,123,175178,1,2,0:0:0:0:
420,123,175515,6,0,L|342:134,1,65,8|0,0:0|0:0,0:0:0:0:
273,111,175852,2,0,L|208:101,1,65,8|0,0:0|0:0,0:0:0:0:
126,123,176190,2,0,P|109:173|136:238,2,97.5,8|0|0,0:0|0:0|0:0,0:0:0:0:
193,174,176864,6,0,L|271:185,1,65,8|0,0:0|0:0,0:0:0:0:
340,162,177201,2,0,L|404:152,1,65,8|0,0:0|0:0,0:0:0:0:
461,215,177538,2,0,P|478:265|451:330,2,97.5,8|0|0,0:0|0:0|0:0,0:0:0:0:
395,268,178212,6,0,L|317:279,1,65,8|0,0:0|0:0,0:0:0:0:
248,256,178549,2,0,L|183:246,1,65,8|0,0:0|0:0,0:0:0:0:
118,192,178886,2,0,P|101:142|128:77,2,97.5,8|0|0,0:0|0:0|0:0,0:0:0:0:
184,139,179560,6,0,P|217:127|272:143,1,65,8|0,0:0|0:0,0:0:0:0:
314,179,179897,2,0,P|347:191|402:175,1,65,8|0,0:0|0:0,0:0:0:0:
453,154,180234,2,0,L|444:265,1,97.5,8|0,0:0|0:0,0:0:0:0:
423,288,180572,2,0,B|391:278|391:278|355:287,1,65,8|0,0:0|0:0,0:0:0:0:
281,315,180909,6,0,P|235:322|196:307,1,65,8|0,0:0|0:0,0:0:0:0:
143,276,181246,2,0,P|97:269|58:284,1,65,8|0,0:0|0:0,0:0:0:0:
30,204,181583,2,0,B|25:169|25:169|34:121,1,65,8|8,0:0|0:0,0:0:0:0:
54,104,181836,1,8,0:0:0:0:
54,104,181920,2,0,L|135:95,1,65,8|0,0:0|0:0,0:0:0:0:
195,60,182257,6,0,P|241:53|280:68,1,65,8|0,0:0|0:0,0:0:0:0:
333,99,182594,2,0,P|379:106|418:91,1,65,8|0,0:0|0:0,0:0:0:0:
446,171,182931,2,0,B|451:206|451:206|442:254,1,65,8|8,0:0|0:0,0:0:0:0:
422,271,183184,1,8,0:0:0:0:
422,271,183268,2,0,L|341:280,1,65,8|0,0:0|0:0,0:0:0:0:
278,309,183605,6,0,L|197:318,1,65,8|8,0:0|0:0,0:0:0:0:
169,243,183942,2,0,L|233:235,1,65,8|8,0:0|0:0,0:0:0:0:
260,155,184279,2,0,L|125:169,1,130,8|8,0:0|0:0,0:0:0:0:
238,38,184954,6,0,P|286:32|323:45,1,65,8|8,0:0|0:0,0:0:0:0:
367,89,185291,2,0,P|415:95|452:82,1,65,8|8,0:0|0:0,0:0:0:0:
493,148,185628,1,8,0:0:0:0:
493,148,185796,1,8,0:0:0:0:
479,231,185965,2,0,L|325:242,1,121.875,4|0,3:1|0:0,0:0:0:0:
304,243,186302,6,0,P|270:297|270:332,1,81.25,6|0,1:2|0:0,0:0:0:0:
222,339,186555,1,2,0:0:0:0:
222,339,186639,2,0,P|168:305|133:305,1,81.25,8|2,0:0|0:0,0:0:0:0:
46,303,186976,2,0,L|29:202,1,81.25,2|0,1:2|0:0,0:0:0:0:
97,139,187313,2,0,L|114:38,1,81.25,10|0,0:0|0:0,0:0:0:0:
216,57,187650,6,0,P|236:111|264:133,1,81.25,2|0,1:2|0:0,0:0:0:0:
303,141,187903,1,2,0:0:0:0:
303,141,187987,2,0,P|341:128|369:99,1,81.25,8|2,0:0|0:0,0:0:0:0:
449,30,188324,2,0,L|456:125,1,81.25,2|0,1:2|0:0,0:0:0:0:
486,212,188661,6,2,P|428:223|395:303,1,121.875,8|0,0:0|0:0,0:1:0:0:
406,325,188999,6,0,L|306:339,1,81.25,2|0,1:2|0:0,0:0:0:0:
229,290,189336,1,10,0:0:0:0:
139,345,189504,1,0,0:0:0:0:
124,240,189673,2,0,L|97:141,1,81.25,2|2,1:2|0:0,0:0:0:0:
60,129,189926,1,2,0:0:0:0:
60,129,190010,2,0,L|33:30,1,81.25,8|0,0:0|0:0,0:0:0:0:
143,65,190347,6,0,P|201:74|244:51,1,81.25,10|8,1:2|0:0,0:0:0:0:
267,40,190600,1,10,0:0:0:0:
267,40,190684,2,0,P|325:31|368:54,1,81.25,8|10,0:0|0:0,0:0:0:0:
437,89,191021,1,10,1:2:0:0:
420,193,191190,1,8,0:0:0:0:
315,179,191358,1,8,0:0:0:0:
339,282,191527,1,8,0:0:0:0:
250,338,191695,6,0,P|191:326|142:342,1,81.25,6|0,1:2|0:0,0:0:0:0:
125,301,191948,1,2,0:0:0:0:
125,301,192032,2,0,P|137:242|121:193,1,81.25,8|2,0:0|0:0,0:0:0:0:
88,126,192369,2,0,L|191:117,1,81.25,2|0,1:2|0:0,0:0:0:0:
233,34,192706,1,10,0:0:0:0:
333,68,192875,1,0,0:0:0:0:
340,172,193043,6,0,P|360:226|403:248,1,81.25,2|0,1:2|0:0,0:0:0:0:
429,252,193296,1,2,0:0:0:0:
429,252,193381,2,0,P|465:235|487:201,1,81.25,8|2,0:0|0:0,0:0:0:0:
496,95,193718,2,0,L|404:85,1,81.25,2|0,1:2|0:0,0:0:0:0:
321,36,194055,6,2,P|267:85|197:56,1,121.875,8|0,0:0|0:0,0:1:0:0:
172,62,194392,6,0,L|179:167,1,81.25,2|0,1:2|0:0,0:0:0:0:
93,207,194729,2,0,L|100:102,1,81.25,10|0,0:0|0:0,0:0:0:0:
165,213,195066,2,0,L|172:318,1,81.25,2|0,1:2|0:0,0:0:0:0:
254,358,195403,1,10,0:0:0:0:
353,321,195572,1,0,0:0:0:0:
276,248,195740,6,0,P|249:199|259:152,1,81.25,10|10,1:2|0:0,0:0:0:0:
312,89,196077,2,0,P|339:138|329:185,1,81.25,10|10,0:0|0:0,0:0:0:0:
276,248,196414,1,10,1:2:0:0:
380,265,196583,1,8,0:0:0:0:
380,265,196667,1,0,0:0:0:0:
380,265,196751,2,2,L|426:136,1,121.875,10|0,0:0|0:0,0:1:0:0:
439,100,197088,6,0,P|392:107|348:81,1,81.25,6|0,1:2|0:0,0:0:0:0:
316,66,197340,1,2,0:0:0:0:
316,66,197425,2,0,L|323:162,1,81.25,8|2,0:0|0:0,0:0:0:0:
306,251,197762,2,0,B|265:241|265:241|218:254,1,81.25,2|0,1:2|0:0,0:0:0:0:
197,353,198099,2,0,B|238:363|238:363|285:350,1,81.25,10|0,0:0|0:0,0:0:0:0:
365,297,198436,6,0,P|377:269|362:207,1,81.25,2|0,1:2|0:0,0:0:0:0:
340,176,198689,1,2,0:0:0:0:
340,176,198773,2,0,L|335:94,1,81.25,8|2,0:0|0:0,0:0:0:0:
236,55,199110,2,0,L|242:136,1,81.25,2|0,1:2|0:0,0:0:0:0:
212,237,199448,2,2,P|162:223|94:252,1,121.875,8|0,0:0|0:0,0:1:0:0:
55,276,199785,6,0,L|46:180,1,81.25,2|0,1:2|0:0,0:0:0:0:
109,108,200121,1,10,0:0:0:0:
109,108,200290,1,0,0:0:0:0:
211,136,200458,2,0,L|372:153,1,162.5,2|10,1:2|0:0,0:0:0:0:
461,211,200964,1,0,0:0:0:0:
374,270,201133,6,0,P|337:282|282:265,1,81.25,10|10,1:2|0:0,0:0:0:0:
249,252,201385,1,10,0:0:0:0:
249,252,201470,2,0,P|212:240|157:257,1,81.25,10|8,0:0|0:0,0:0:0:0:
74,206,201807,2,0,B|49:160|49:160|71:29,1,162.5,10|8,1:2|0:0,0:0:0:0:
171,71,202312,1,8,0:0:0:0:
301,89,202481,6,0,L|404:86,1,81.25,6|0,1:2|0:0,0:0:0:0:
432,106,202734,1,2,0:0:0:0:
432,106,202818,2,0,P|442:166|419:209,1,81.25,8|2,0:0|0:0,0:0:0:0:
364,276,203155,2,0,P|357:315|369:354,1,81.25,2|0,1:2|0:0,0:0:0:0:
475,363,203492,2,0,P|483:323|471:284,1,81.25,10|0,0:0|0:0,0:0:0:0:
437,184,203830,6,0,L|335:194,1,81.25,2|0,1:2|0:0,0:0:0:0:
305,177,204082,1,2,0:0:0:0:
305,177,204167,2,0,L|203:187,1,81.25,8|2,0:0|0:0,0:0:0:0:
119,182,204504,2,0,L|104:72,1,81.25,2|0,1:2|0:0,0:0:0:0:
208,64,204841,2,2,L|227:204,1,121.875,8|0,0:0|0:0,0:1:0:0:
196,229,205178,6,0,P|191:279|225:329,1,81.25,2|0,1:2|0:0,0:0:0:0:
228,336,205431,1,2,0:0:0:0:
228,336,205514,1,8,0:0:0:0:
328,369,205683,1,0,0:0:0:0:
417,312,205852,2,0,L|506:299,1,81.25,2|0,1:2|0:0,0:0:0:0:
431,217,206189,2,0,L|342:204,1,81.25,10|0,0:0|0:0,0:0:0:0:
283,123,206526,5,0,1:2:0:0:
384,94,206695,2,0,L|473:81,1,81.25,2|8,0:0|0:0,0:0:0:0:
388,9,207031,1,0,0:0:0:0:
286,38,207200,2,0,L|197:25,1,81.25,2|0,1:2|0:0,0:0:0:0:
119,87,207537,2,0,P|114:142|132:190,1,81.25,10|0,0:0|0:0,0:0:0:0:
177,256,207875,6,0,P|126:273|60:256,2,121.875,2|0|0,1:2|0:0|0:0,0:0:0:0:
277,68,208718,1,2,0:0:0:0:
376,33,208886,2,0,P|412:25|465:46,1,81.25,2|0,0:0|0:0,0:0:0:0:
484,138,209223,2,0,L|494:182,3,40.625,2|0|0|0,0:0|0:0|0:0|0:0,0:0:0:0:
464,223,209560,2,0,L|454:267,3,40.625,0|0|0|0,0:0|0:0|0:0|0:0,0:0:0:0:
445,314,209897,2,0,P|370:332|290:299,1,162.5,2|4,0:0|0:3,0:0:0:0:
210,236,210402,1,4,0:3:0:0:
127,168,210572,6,0,L|118:259,1,81.25,4|0,1:1|0:0,0:0:0:0:
87,300,210824,1,0,0:0:0:0:
87,300,210909,2,0,L|-4:291,1,81.25,8|0,0:0|0:0,0:0:0:0:
32,189,211246,6,0,P|42:130|28:84,1,81.25,0|0,1:0|0:0,0:0:0:0:
128,54,211583,2,0,P|118:113|132:159,1,81.25,8|0,0:0|0:0,0:0:0:0:
215,182,211920,6,0,P|225:142|221:102,1,81.25,0|0,1:0|0:0,0:0:0:0:
321,67,212257,2,0,P|310:106|314:146,1,81.25,8|0,0:0|0:0,0:0:0:0:
400,207,212594,1,0,1:0:0:0:
477,134,212763,1,0,0:0:0:0:
486,238,212931,1,8,0:0:0:0:
410,312,213100,1,0,0:0:0:0:
313,270,213268,6,0,L|294:359,1,81.25,0|0,1:0|0:0,0:0:0:0:
252,379,213521,1,0,0:0:0:0:
252,379,213605,2,0,L|172:329,1,81.25,8|0,0:0|0:0,0:0:0:0:
104,264,213942,6,0,P|117:211|102:164,1,81.25,0|0,1:0|0:0,0:0:0:0:
72,87,214279,2,0,P|125:100|172:85,1,81.25,8|0,0:0|0:0,0:0:0:0:
251,62,214617,6,0,P|304:49|351:64,1,81.25,0|0,1:0|0:0,0:0:0:0:
415,115,214954,2,0,P|402:62|417:15,1,81.25,8|0,0:0|0:0,0:0:0:0:
497,90,215291,6,2,L|484:185,1,81.25,4|0,0:3|0:0,0:1:0:0:
405,239,215628,2,2,L|417:334,1,81.25,4|0,0:3|0:0,0:1:0:0:
313,348,215965,6,0,P|299:303|307:251,1,81.25,4|0,1:1|0:0,0:0:0:0:
324,221,216218,1,0,0:0:0:0:
324,221,216302,2,0,P|338:176|330:124,1,81.25,8|0,0:0|0:0,0:0:0:0:
272,57,216639,6,0,P|218:68|170:48,1,81.25,0|0,1:0|0:0,0:0:0:0:
138,152,216976,2,0,P|192:141|240:161,1,81.25,8|0,0:0|0:0,0:0:0:0:
174,244,217313,6,0,P|120:255|72:235,1,81.25,0|0,1:0|0:0,0:0:0:0:
41,339,217650,2,0,P|95:328|143:348,1,81.25,8|0,0:0|0:0,0:0:0:0:
215,378,217987,5,0,1:0:0:0:
275,290,218156,1,0,0:0:0:0:
365,344,218324,1,8,0:0:0:0:
425,256,218493,1,0,0:0:0:0:
379,161,218661,6,0,L|281:127,1,81.25,0|0,1:0|0:0,0:0:0:0:
263,98,218914,1,0,0:0:0:0:
263,98,218999,2,0,L|165:132,1,81.25,8|0,0:0|0:0,0:0:0:0:
87,163,219336,6,0,P|115:210|113:242,1,81.25,0|0,1:0|0:0,0:0:0:0:
217,260,219673,2,0,P|189:307|191:339,1,81.25,8|0,0:0|0:0,0:0:0:0:
88,364,220010,6,2,L|54:263,1,81.25,0|0,1:0|0:0,0:1:0:0:
87,184,220347,2,0,L|53:83,1,81.25,8|0,0:0|0:0,0:0:0:0:
109,12,220684,1,4,0:3:0:0:
109,12,220852,1,4,0:3:0:0:
200,64,221021,6,2,P|200:125|147:177,1,121.875,8|0,0:0|0:0,0:1:0:0:
113,189,221358,5,4,1:1:0:0:
194,256,221527,1,0,0:0:0:0:
194,256,221611,1,0,0:0:0:0:
194,256,221695,2,0,P|236:243|275:209,1,81.25,8|0,0:0|0:0,0:0:0:0:
344,149,222033,2,0,P|380:124|432:116,1,81.25,0|0,1:0|0:0,0:0:0:0:
456,213,222369,2,0,P|422:236|383:246,1,81.25,8|0,0:0|0:0,0:0:0:0:
296,306,222706,6,0,L|182:320,1,81.25,0|0,1:0|0:0,0:0:0:0:
110,301,223043,2,0,L|-4:315,1,81.25,8|0,0:0|0:0,0:0:0:0:
73,213,223381,2,0,P|83:159|67:118,1,81.25,0|0,1:0|0:0,0:0:0:0:
113,35,223718,2,0,P|167:25|208:41,1,81.25,8|0,0:0|0:0,0:0:0:0:
246,122,224055,5,0,1:0:0:0:
338,67,224223,1,0,0:0:0:0:
338,67,224308,1,0,0:0:0:0:
338,67,224392,2,0,L|457:71,1,81.25,8|0,0:0|0:0,0:0:0:0:
458,167,224729,2,0,P|466:206|445:258,1,81.25,0|0,1:0|0:0,0:0:0:0:
373,313,225066,2,0,P|361:274|369:234,1,81.25,8|0,0:0|0:0,0:0:0:0:
283,173,225403,6,0,P|244:181|192:160,1,81.25,0|0,1:0|0:0,0:0:0:0:
141,84,225740,1,8,0:0:0:0:
72,165,225909,1,0,0:0:0:0:
138,246,226077,6,2,B|125:285|125:285|142:336,1,81.25,4|0,0:3|0:0,0:1:0:0:
260,366,226414,6,2,B|273:327|273:327|256:276,1,81.25,4|0,0:3|0:0,0:1:0:0:
205,169,226751,5,4,1:1:0:0:
279,94,226920,1,0,0:0:0:0:
279,94,227004,1,0,0:0:0:0:
279,94,227088,2,0,P|324:80|382:99,1,81.25,8|0,0:0|0:0,0:0:0:0:
445,144,227426,2,0,L|439:254,1,81.25,0|0,1:0|0:0,0:0:0:0:
350,281,227763,2,0,L|354:199,1,81.25,8|0,0:0|0:0,0:0:0:0:
262,252,228100,6,0,L|256:362,1,81.25,0|0,1:0|0:0,0:0:0:0:
164,383,228437,1,8,0:0:0:0:
76,324,228605,1,0,0:0:0:0:
96,220,228774,2,0,P|92:155|114:122,1,81.25,0|0,1:0|0:0,0:0:0:0:
170,64,229111,2,0,P|235:60|268:82,1,81.25,8|0,0:0|0:0,0:0:0:0:
327,136,229448,5,0,1:0:0:0:
419,85,229617,1,0,0:0:0:0:
419,85,229701,1,0,0:0:0:0:
419,85,229785,2,0,L|409:185,1,81.25,8|0,0:0|0:0,0:0:0:0:
335,240,230122,2,0,L|235:230,1,81.25,0|0,1:0|0:0,0:0:0:0:
284,333,230459,2,0,L|364:341,1,81.25,8|0,0:0|0:0,0:0:0:0:
448,276,230796,6,0,P|488:225|484:173,1,81.25,0|0,1:0|0:0,0:0:0:0:
455,110,231133,1,8,0:0:0:0:
362,161,231302,1,0,0:0:0:0:
295,79,231470,6,2,P|254:63|192:82,1,81.25,4|0,0:3|0:0,0:1:0:0:
140,173,231808,6,2,P|181:189|243:170,1,81.25,4|0,0:3|0:0,0:1:0:0:
325,256,232145,5,4,0:1:0:0:
325,256,232482,2,0,L|262:265,3,40.625,2|2|2|2,0:0|0:0|0:0|0:0,0:0:0:0:
234,278,232819,2,0,L|194:284,3,40.625,2|0|2|0,0:0|0:0|0:0|0:0,0:0:0:0:
144,301,233156,2,0,L|104:307,3,40.625,2|0|2|0,0:0|0:0|0:0|0:0,0:0:0:0:
52,318,233493,5,2,0:0:0:0:
52,318,233661,1,0,0:0:0:0:
86,187,233830,1,2,0:0:0:0:
86,187,233999,1,0,0:0:0:0:
158,298,234167,6,0,P|168:256|79:189,1,162.5,4|0,0:1|0:0,0:0:0:0:
