osu file format v14

[General]
AudioFilename: audio.mp3
AudioLeadIn: 0
PreviewTime: 52819
Countdown: 0
SampleSet: Soft
StackLeniency: 0.7
Mode: 0
LetterboxInBreaks: 0
EpilepsyWarning: 1
WidescreenStoryboard: 1

[Editor]
Bookmarks: 231,21808,43381,64954,100010,121583,143156,164729,186302,197088,210572,221358,234167
DistanceSpacing: 1.2
BeatDivisor: 4
GridSize: 32
TimelineZoom: 1.4

[Metadata]
Title:Party in the HOLLOWood feat. Nanahira
TitleUnicode:Party in the HOLLOWood feat. ななひら
Artist:t+pazolite
ArtistUnicode:t+pazolite
Creator:eiri-
Version:EASy
Source:
Tags:Ayyri Realazy Real Stefan inc incandescence Taikocracy Endymion Ascendance Underforest Trynna Dashyy- Dash Noffy TNG TheNutritiousGuy Comiket 93 C93 Good Evening, Evening CHS-0031 C.H.S CHS tpz
BeatmapID:1717850
BeatmapSetID:819349

[Difficulty]
HPDrainRate:3
CircleSize:2
OverallDifficulty:3
ApproachRate:3
SliderMultiplier:1
SliderTickRate:1

[Events]
//Background and Video events
0,0,"Miku Luka 846.png",0,0
//Break Periods
2,154142,163289
//Storyboard Layer 0 (Background)
Sprite,Background,Centre,"Miku Luka 846.png",320,240 S,0,235,,0.625 F,0,9504,9673,0.2,0 F,0,11021,,1 F,0,42369,43379,1,0.3 F,0,51470,53836,0.3,1 F,0,53830,,0 F,0,54167,,1 F,0,75740,78437,1,0 F,0,78437,,1 F,0,98661,100013,1,0.5 F,0,109448,110800,0.5,1 F,0,120572,121586,1,0.3 F,0,129673,132039,0.3,1 F,0,132032,,0 F,0,132369,,1 F,0,153942,156639,1,0.3 F,0,173998,174167,0.3,0.6 F,0,175515,185965,0.6,1 F,0,185965,,0 F,0,186302,,1 F,0,207875,210572,1,0 F,0,210572,,1 F,0,234167,234843,1,0
Sprite,Background,BottomLeft,"sb\Miku.png",-103,480 F,0,11021,,0 S,0,11021,,0.625 C,0,11021,,0,0,0 F,0,21808,22145,0,0.8 F,0,43381,44392,0.8,0 F,0,78437,,0.8 F,0,100010,100347,0.8,0 F,0,121583,122257,0,0.8 F,0,132369,,0 F,0,164729,166077,0,0.8 F,0,186302,,0
Sprite,Background,BottomRight,"sb\Luka.png",747,480 F,0,11021,,0.8 S,0,11021,,0.625 C,0,11021,,0,0,0 F,0,21808,22145,0.8,0 F,0,43381,44392,0,0.8 F,0,54167,,0 F,0,100010,100347,0,0.8 F,0,121583,122257,0.8,0
Sprite,Background,BottomLeft,"sb\bm.jpg",-103,480 L,54167,16 F,0,0,674,1,0 L,143156,16 F,0,0,674,1,0 L,186302,16 F,0,0,674,1,0 S,0,54167,,0.625 P,0,54167,,A F,0,207875,,0
Sprite,Background,BottomRight,"sb\bl.jpg",747,480 L,64954,16 F,0,0,674,1,0 L,132369,16 F,0,0,674,1,0 L,197088,16 F,0,0,674,1,0 S,0,64954,,0.625 P,0,64954,,A F,0,207875,,0
Sprite,Background,Centre,"sb\n\noffy.png",75,370 S,0,235,,0.625 R,0,235,,-0.85 F,0,21808,22145,0,1 C,0,42369,43379,255,255,255,76,76,76 F,0,43043,43381,1,0 C,0,64954,,255,255,255 F,0,64954,65291,0,1 C,0,75740,78437,255,255,255,0,0,0 C,0,78437,,255,255,255 C,0,98661,100013,255,255,255,128,128,128 F,0,99673,100010,1,0 C,0,120572,121586,255,255,255,76,76,76 F,0,121583,121920,0,1 C,0,129673,132039,76,76,76,255,255,255 C,0,132032,,0,0,0 C,0,132369,,255,255,255 F,0,142819,143156,1,0 C,0,164729,,76,76,76 F,0,164729,165066,0,1 C,0,173998,174167,76,76,76,153,153,153 C,0,175515,185965,153,153,153,255,255,255 F,0,185965,,0 F,0,197088,197426,0,1 C,0,207875,210572,255,255,255,0,0,0 F,0,210234,210572,1,0 C,0,210572,,255,255,255 F,0,221358,221695,0,1 C,0,234167,234843,255,255,255,0,0,0 F,0,235515,,0
Sprite,Background,Centre,"sb\n\ayyri.png",75,370 S,0,235,,0.625 R,0,235,,-0.85 C,0,235,,51,51,51 F,0,235,1583,1 C,0,9504,9673,51,51,51,0,0,0 C,0,11021,,255,255,255 F,0,21470,21808,1,0 C,0,43381,,76,76,76 F,0,43381,43718,0,1 C,0,51470,53836,76,76,76,255,255,255 C,0,53830,,0,0,0 C,0,54167,,255,255,255 F,0,64617,64954,1,0 C,0,98661,100013,255,255,255,128,128,128 F,0,100010,100347,0,1 C,0,109448,110800,128,128,128,255,255,255 C,0,120572,121586,255,255,255,76,76,76 F,0,121246,121583,1,0 C,0,143156,,255,255,255 F,0,143156,143493,0,1 F,0,153605,153942,1,0 F,0,186302,186639,0,1 F,0,196751,197088,1,0 F,0,210572,210909,0,1 F,0,221021,221358,1,0
//Storyboard Layer 1 (Fail)
//Storyboard Layer 2 (Pass)
//Storyboard Layer 3 (Foreground)
//Storyboard Sound Samples

[TimingPoints]
231,338.983050847458,4,2,1,50,1,0
231,-133.333333333333,4,2,1,50,0,0
9673,337.078651685393,4,2,1,60,1,0
9673,-133.333333333333,4,2,1,60,0,0
11021,-133.333333333333,4,2,1,75,0,1
11105,-133.333333333333,4,2,1,75,0,0
16414,-133.333333333333,4,2,1,75,0,1
16498,-133.333333333333,4,2,1,75,0,0
21808,-133.333333333333,4,2,1,60,0,0
32594,-133.333333333333,4,2,1,75,0,0
43381,-133.333333333333,4,2,1,50,0,0
51470,-133.333333333333,4,2,1,60,0,0
52819,-133.333333333333,4,2,1,75,0,0
54167,-100,4,2,2,90,0,1
64616,-100,4,2,2,90,0,0
64953,-100,4,2,2,90,0,1
75740,-133.333333333333,4,2,2,60,0,0
78437,-133.333333333333,4,2,1,75,0,1
78521,-133.333333333333,4,2,1,75,0,0
83830,-133.333333333333,4,2,1,75,0,1
83914,-133.333333333333,4,2,1,75,0,0
98661,-133.333333333333,4,2,1,70,0,0
100010,-133.333333333333,4,2,1,60,0,0
110796,-133.333333333333,4,2,1,75,0,0
121583,-133.333333333333,4,2,1,50,0,0
129673,-133.333333333333,4,2,1,60,0,0
131021,-133.333333333333,4,2,1,75,0,0
132369,-100,4,2,2,90,0,1
142819,-100,4,2,2,90,0,0
143156,-100,4,2,2,90,0,1
153942,-133.333333333333,4,2,2,60,0,0
164729,-133.333333333333,4,2,1,50,0,0
174167,-133.333333333333,4,2,1,60,0,0
175515,-133.333333333333,4,2,1,75,0,0
180909,-133.333333333333,4,2,1,80,0,0
183605,-133.333333333333,4,2,1,85,0,0
186302,-100,4,2,2,90,0,1
196751,-100,4,2,2,90,0,0
197088,-100,4,2,2,90,0,1
207875,-133.333333333333,4,2,2,60,0,0
210571,-133.333333333333,4,2,1,75,0,1
210656,-133.333333333333,4,2,1,75,0,0
215965,-133.333333333333,4,2,1,75,0,1
216049,-133.333333333333,4,2,1,75,0,0
221358,-133.333333333333,4,2,1,75,0,1
221442,-133.333333333333,4,2,1,75,0,0
226751,-133.333333333333,4,2,1,75,0,1
226835,-133.333333333333,4,2,1,75,0,0
234167,-133.333333333333,4,2,1,75,0,1
234251,-133.333333333333,4,2,1,75,0,0
234504,-133.333333333333,4,2,1,50,0,0

[Colours]
Combo1 : 238,139,49
Combo2 : 132,168,111
Combo3 : 84,111,68
Combo4 : 190,55,31
Combo5 : 126,36,20
Combo6 : 244,189,62

[HitObjects]
151,249,231,6,0,L|75:244,2,75.0000028610231,2|0|0,0:0|0:0|0:0,0:0:0:0:
225,298,1247,1,0,0:0:0:0:
313,281,1586,2,0,P|361:256|387:161,1,150.000005722046,2|2,0:0|0:0,0:0:0:0:
368,81,2603,1,0,0:0:0:0:
278,84,2942,6,0,L|268:5,2,75.0000028610231,2|0|0,0:0|0:0|0:0,0:0:0:0:
226,157,3959,1,0,0:0:0:0:
137,141,4298,2,0,L|118:297,1,150.000005722046,2|2,0:0|0:0,0:0:0:0:
299,286,5654,6,0,L|310:371,2,75.0000028610231,2|0|0,0:0|0:0|0:0,0:0:0:0:
359,219,6671,1,0,0:0:0:0:
447,234,7010,2,0,P|480:168|461:83,1,150.000005722046,2|2,0:0|0:0,0:0:0:0:
406,29,8027,1,0,0:0:0:0:
317,44,8366,6,0,L|242:38,2,75.0000028610231,2|0|0,0:0|0:0|0:0,0:0:0:0:
341,130,9383,1,0,0:0:0:0:
280,196,9673,6,0,L|270:284,1,75.0000028610231,2|2,0:0|0:0,0:0:0:0:
184,294,10347,2,0,L|137:369,1,75.0000028610231,2|2,0:0|0:0,0:0:0:0:
55,345,11021,6,0,P|32:317|39:197,1,150.000005722046,4|0,1:1|1:0,0:0:0:0:
92,141,12032,1,8,0:0:0:0:
176,171,12369,2,0,L|333:160,1,150.000005722046,0|0,1:0|1:0,0:0:0:0:
497,107,13718,6,0,P|484:70|382:19,1,150.000005722046,0|0,1:0|1:0,0:0:0:0:
302,16,14729,1,8,0:0:0:0:
251,90,15066,2,0,L|244:169,1,75.0000028610231,0|8,1:0|0:0,0:0:0:0:
282,246,15740,1,4,0:3:0:0:
241,326,16077,1,4,0:3:0:0:
152,342,16414,6,0,P|83:299|63:231,1,150.000005722046,4|0,1:1|1:0,0:0:0:0:
94,152,17426,1,8,0:0:0:0:
67,65,17763,2,0,L|232:48,1,150.000005722046,0|0,1:0|1:0,0:0:0:0:
395,64,19111,6,0,P|419:132|404:224,1,150.000005722046,0|0,1:0|1:0,0:0:0:0:
366,286,20122,1,8,0:0:0:0:
276,292,20459,2,0,P|172:233|173:127,1,225.000008583069,0|4,1:0|0:3,0:0:0:0:
196,51,21808,6,0,B|271:73|277:28|351:56,1,150.000005722046,4|0,1:1|0:0,0:0:0:0:
455,194,23156,1,0,1:0:0:0:
302,289,23830,1,0,0:0:0:0:
133,353,24504,6,0,B|107:286|152:280|130:205,1,150.000005722046,0|0,1:0|0:0,0:0:0:0:
50,44,25852,1,0,1:0:0:0:
229,35,26526,1,0,0:0:0:0:
293,203,27201,6,0,P|352:244|431:235,1,150.000005722046,0|0,1:0|0:0,0:0:0:0:
404,58,28549,1,0,1:0:0:0:
224,64,29223,1,0,0:0:0:0:
194,241,29897,6,0,P|267:248|327:206,1,150.000005722046,0|0,1:0|0:0,0:0:0:0:
380,33,31245,1,0,1:0:0:0:
473,186,31919,1,0,0:0:0:0:
404,352,32594,6,0,L|241:337,1,150.000005722046,4|0,1:1|1:0,0:0:0:0:
166,318,33605,1,8,0:0:0:0:
182,229,33942,2,0,L|336:243,1,150.000005722046,0|0,1:0|1:0,0:0:0:0:
490,157,35291,6,0,P|476:89|410:35,1,150.000005722046,0|0,1:0|1:0,0:0:0:0:
328,25,36302,1,8,0:0:0:0:
288,105,36639,2,0,L|308:182,2,75.0000028610231,0|8|8,1:0|0:0|0:0,0:0:0:0:
207,63,37651,1,8,0:0:0:0:
134,116,37987,6,0,L|92:262,1,150.000005722046,8|0,1:2|1:0,0:0:0:0:
134,339,38998,1,8,0:0:0:0:
218,307,39335,2,0,B|292:290|292:290|372:321,1,150.000005722046,0|0,1:0|1:0,0:0:0:0:
512,335,40684,6,0,P|498:267|432:213,1,150.000005722046,0|0,1:0|1:0,0:0:0:0:
350,200,41695,1,8,0:0:0:0:
262,221,42032,1,0,1:0:0:0:
214,47,42706,1,0,1:0:0:0:
45,111,43381,6,0,L|104:259,1,150.000005722046,4|0,0:0|0:0,0:0:0:0:
256,344,44729,1,0,0:0:0:0:
338,308,45066,1,8,0:0:0:0:
421,342,45403,2,0,P|452:306|460:273,1,75.0000028610231,0|8,0:0|0:0,0:0:0:0:
449,190,46077,6,0,L|291:168,1,150.000005722046,4|0,0:0|0:0,0:0:0:0:
184,31,47426,1,0,0:0:0:0:
145,112,47763,1,8,0:0:0:0:
192,188,48100,1,0,0:0:0:0:
311,322,48774,6,0,L|469:300,1,150.000005722046,4|0,0:0|0:0,0:0:0:0:
504,127,50122,1,0,0:0:0:0:
439,63,50459,1,8,0:0:0:0:
349,76,50796,2,0,L|262:68,1,75.0000028610231,0|8,0:0|0:0,0:0:0:0:
197,116,51470,6,0,P|205:144|205:199,2,75.0000028610231,4|8|0,0:0|0:0|0:0,0:0:0:0:
122,64,52482,1,8,0:0:0:0:
48,115,52819,2,0,P|35:158|41:200,1,75.0000028610231,0|8,0:0|0:0,0:0:0:0:
106,245,53493,2,0,P|119:288|113:330,1,75.0000028610231,0|4,0:0|3:1,0:0:0:0:
211,348,54167,6,0,P|281:369|358:338,2,150,6|0|10,1:2|0:0|0:0,0:0:0:0:
206,248,55515,2,0,L|216:136,1,100,2|8,1:2|0:0,0:0:0:0:
179,54,56190,1,2,1:2:0:0:
51,207,56864,6,0,P|67:241|119:281,1,100,2|8,1:2|0:0,0:0:0:0:
214,287,57538,2,0,P|262:277|302:248,1,100,2|8,1:2|0:0,0:0:0:0:
336,154,58212,2,0,L|324:38,2,100,10|8|10,1:2|0:0|1:2,0:0:0:0:
454,314,59560,6,0,P|481:271|485:167,2,150,6|0|10,1:2|0:0|0:0,0:0:0:0:
359,346,60909,2,0,L|243:340,1,100,2|8,1:2|0:0,0:0:0:0:
171,292,61583,1,2,1:2:0:0:
61,124,62257,6,0,P|75:90|128:50,1,100,2|10,1:2|0:0,0:0:0:0:
222,31,62931,1,2,1:2:0:0:
383,149,63605,2,0,L|374:250,2,100,10|10|10,1:2|0:0|1:2,0:0:0:0:
442,67,64617,1,10,0:0:0:0:
352,23,64954,6,0,P|282:48|244:122,2,150,6|0|10,1:2|0:0|0:0,0:0:0:0:
442,67,66302,2,0,L|433:166,1,100,2|8,1:2|0:0,0:0:0:0:
423,266,66977,1,2,1:2:0:0:
232,325,67650,6,0,B|178:319|143:282|143:282|88:314|32:285,1,200,10|10,1:2|1:2,0:0:0:0:
11,198,68661,1,8,0:0:0:0:
28,99,68999,2,0,P|83:85|134:94,1,100,10|10,1:2|0:0,0:0:0:0:
220,120,69673,1,10,1:2:0:0:
333,284,70347,6,0,P|403:305|480:274,2,150,6|0|10,1:2|0:0|0:0,0:0:0:0:
265,210,71695,2,0,P|221:200|162:217,1,100,2|8,1:2|0:0,0:0:0:0:
102,288,72370,1,2,1:2:0:0:
293,345,73043,6,0,B|341:347|389:317|389:317|430:345|500:343,1,200,10|10,1:2|1:2,0:0:0:0:
499,244,74054,1,2,0:0:0:0:
497,143,74392,1,8,1:2:0:0:
481,95,74560,2,0,B|414:92|362:127|362:127|302:89|241:92,1,250,2|10,0:0|0:0,0:0:0:0:
256,192,75740,12,4,78437,1:1:0:0:
419,116,81133,6,0,P|465:198|465:262,1,150.000005722046,0|0,1:0|1:0,0:0:0:0:
435,336,82144,1,8,0:0:0:0:
346,353,82481,2,0,L|316:282,1,75.0000028610231,0|8,1:0|0:0,0:0:0:0:
275,203,83155,1,4,0:3:0:0:
204,146,83492,1,4,0:3:0:0:
116,166,83829,6,0,P|91:245|114:311,1,150.000005722046,4|0,1:1|1:0,0:0:0:0:
181,363,84841,1,8,0:0:0:0:
257,316,85178,2,0,B|324:287|324:287|404:314,1,150.000005722046,0|0,1:0|1:0,0:0:0:0:
500,164,86527,6,0,L|351:115,1,150.000005722046,0|0,1:0|1:0,0:0:0:0:
273,83,87538,1,8,0:0:0:0:
185,61,87875,2,0,P|153:95|141:134,1,75.0000028610231,0|8,1:0|0:0,0:0:0:0:
133,210,88549,1,4,0:3:0:0:
161,295,88886,1,4,0:3:0:0:
249,278,89223,6,0,B|288:276|288:276|322:295|322:295|394:291,1,150.000005722046,4|0,1:1|1:0,0:0:0:0:
483,279,90234,1,8,0:0:0:0:
499,190,90572,2,0,B|429:153|429:153|330:154,1,150.000005722046,0|0,1:0|1:0,0:0:0:0:
268,158,91583,1,8,0:0:0:0:
178,169,91920,6,0,B|139:171|139:171|105:152|105:152|33:156,1,150.000005722046,0|0,1:0|1:0,0:0:0:0:
5,241,92931,1,8,0:0:0:0:
67,305,93268,2,0,B|137:342|137:342|236:341,1,150.000005722046,0|8,1:0|0:0,0:0:0:0:
266,273,94279,1,8,0:0:0:0:
222,194,94617,6,0,B|222:146|222:146|204:102|204:102|218:48,1,150.000005722046,8|0,1:2|1:0,0:0:0:0:
299,12,95628,1,8,0:0:0:0:
383,41,95965,2,0,B|396:93|396:93|378:137|378:137|378:185,1,150.000005722046,0|0,1:0|1:0,0:0:0:0:
388,275,96976,1,8,0:0:0:0:
329,343,97313,6,0,B|291:343|291:343|257:359|257:359|220:345|220:345|179:346,1,150.000005722046,0|0,1:0|1:0,0:0:0:0:
96,362,98324,1,8,0:0:0:0:
61,279,98661,1,0,0:0:0:0:
123,110,99336,1,0,0:0:0:0:
296,64,100010,6,0,L|313:227,1,150.000005722046,0|8,1:0|0:0,0:0:0:0:
450,327,101358,2,0,L|460:238,1,75.0000028610231,0|0,1:0|0:0,0:0:0:0:
441,164,102032,2,0,L|451:75,1,75.0000028610231,8|8,0:0|0:0,0:0:0:0:
395,17,102706,5,0,1:0:0:0:
329,78,103043,2,0,P|296:87|248:87,1,75.0000028610231,0|8,0:0|0:0,0:0:0:0:
85,28,104055,2,0,L|95:111,1,75.0000028610231,0|8,1:0|0:0,0:0:0:0:
52,182,104729,2,0,L|62:265,1,75.0000028610231,0|8,0:0|0:0,0:0:0:0:
133,309,105403,5,0,1:0:0:0:
207,259,105740,2,0,P|246:243|289:247,1,75.0000028610231,0|8,0:0|0:0,0:0:0:0:
428,342,106751,2,0,L|417:257,1,75.0000028610231,8|0,1:2|0:0,0:0:0:0:
452,183,107426,2,0,L|441:98,1,75.0000028610231,8|8,0:0|0:0,0:0:0:0:
392,35,108100,1,0,1:0:0:0:
323,93,108437,2,0,L|238:91,1,75.0000028610231,0|8,0:0|0:0,0:0:0:0:
178,34,109111,1,0,0:0:0:0:
96,71,109448,5,8,1:2:0:0:
55,246,110122,1,8,0:0:0:0:
131,295,110459,1,4,0:1:0:0:
211,254,110796,6,0,P|284:248|349:284,1,150.000005722046,4|0,1:1|1:0,0:0:0:0:
409,351,111808,1,8,0:0:0:0:
467,282,112145,2,0,L|478:204,1,75.0000028610231,0|8,1:0|0:0,0:0:0:0:
428,132,112819,2,0,L|417:54,1,75.0000028610231,0|8,1:0|0:0,0:0:0:0:
338,14,113493,5,0,1:0:0:0:
275,78,113830,2,0,L|264:156,1,75.0000028610231,8|0,0:0|1:0,0:0:0:0:
203,218,114504,1,8,0:0:0:0:
221,306,114841,2,0,P|194:324|81:299,1,150.000005722046,0|8,1:0|0:0,0:0:0:0:
39,226,115852,1,8,0:0:0:0:
61,138,116190,1,8,1:2:0:0:
37,51,116527,6,0,L|123:38,1,75.0000028610231,8|0,0:0|1:0,0:0:0:0:
198,62,117201,1,8,0:0:0:0:
283,32,117538,2,0,P|350:54|438:33,1,150.000005722046,0|0,1:0|1:0,0:0:0:0:
500,89,118549,1,8,0:0:0:0:
449,163,118886,6,0,L|434:250,1,75.0000028610231,0|8,1:0|0:0,0:0:0:0:
284,333,119897,1,8,0:0:0:0:
209,169,120572,1,8,0:0:0:0:
129,210,120909,1,0,1:0:0:0:
127,299,121246,1,8,0:0:0:0:
45,260,121583,6,0,B|22:228|16:174|74:152|53:109,2,150.000005722046,4|0|0,0:0|0:0|0:0,0:0:0:0:
203,344,123605,1,0,0:0:0:0:
292,344,123942,1,8,0:0:0:0:
370,300,124279,6,0,B|393:268|399:214|341:192|362:149,2,150.000005722046,4|0|0,0:0|0:0|0:0,0:0:0:0:
201,236,126302,2,0,P|183:178|194:118,1,112.500004291535,0|0,0:0|0:0,0:0:0:0:
206,85,126976,6,0,B|279:75|279:75|310:103|357:86,2,150.000005722046,4|0|0,0:0|0:0|0:0,0:0:0:0:
40,155,128998,1,0,0:0:0:0:
68,240,129335,1,0,0:0:0:0:
157,229,129673,6,0,B|230:219|230:219|261:247|308:230,2,150.000005722046,4|0|0,0:0|0:0|0:0,0:0:0:0:
32,98,131695,1,0,0:0:0:0:
271,93,132369,6,0,P|341:118|379:192,2,150,6|0|10,1:2|0:0|0:0,0:0:0:0:
177,127,133717,2,0,P|159:195|166:229,1,100,2|8,1:2|0:0,0:0:0:0:
198,317,134392,1,2,1:2:0:0:
394,355,135066,6,0,B|413:301|387:258|387:258|423:151,1,200,10|10,1:2|1:2,0:0:0:0:
384,70,136076,1,0,0:0:0:0:
290,106,136414,2,0,L|252:207,1,100,10|8,1:2|0:0,0:0:0:0:
229,296,137088,1,10,1:2:0:0:
45,216,137762,6,0,P|23:133|52:61,2,150,6|0|10,1:2|0:0|0:0,0:0:0:0:
133,262,139110,2,0,P|180:248|229:258,1,100,2|8,1:2|0:0,0:0:0:0:
318,305,139785,1,2,1:2:0:0:
405,125,140458,6,0,B|357:123|309:153|309:153|269:124|198:127,1,200,10|10,1:2|1:2,0:0:0:0:
120,157,141469,1,0,0:0:0:0:
39,217,141808,1,10,1:2:0:0:
40,316,142145,1,10,0:0:0:0:
124,369,142482,1,10,1:2:0:0:
287,253,143156,6,0,P|357:232|434:263,2,150,6|0|10,1:2|0:0|0:0,0:0:0:0:
201,305,144504,2,0,L|191:193,1,100,2|8,1:2|0:0,0:0:0:0:
182,105,145179,1,2,1:2:0:0:
365,25,145853,6,0,P|405:53|428:97,1,100,2|8,1:2|0:0,0:0:0:0:
410,195,146527,2,0,P|375:230|329:249,1,100,2|8,1:2|0:0,0:0:0:0:
241,202,147201,2,0,L|229:86,2,100,10|8|10,1:2|0:0|1:2,0:0:0:0:
102,346,148549,6,0,P|59:318|11:225,2,150,6|0|10,1:2|0:0|0:0,0:0:0:0:
199,323,149898,2,0,L|315:317,1,100,2|8,1:2|0:0,0:0:0:0:
394,347,150572,1,2,1:2:0:0:
444,153,151246,6,0,P|430:119|377:79,1,100,2|8,1:2|0:0,0:0:0:0:
283,60,151920,1,2,1:2:0:0:
196,109,152257,1,10,0:0:0:0:
266,180,152594,2,0,L|277:235,1,50,0|2,1:2|0:0,0:0:0:0:
250,326,153100,1,0,0:0:0:0:
207,299,153268,2,0,P|171:286|90:292,1,100,2|8,1:2|0:0,0:0:0:0:
28,326,153942,5,6,1:2:0:0:
45,365,164729,6,0,P|126:329|144:258,1,150.000005722046,0|8,0:0|0:0,0:0:0:0:
127,126,166077,1,0,0:0:0:0:
256,49,166751,1,8,0:0:0:0:
385,126,167426,2,0,P|364:272|462:375,1,300.000011444092
501,230,169448,1,8,0:0:0:0:
495,79,170123,6,0,P|442:21|361:9,1,150.000005722046,0|8,0:0|0:0,0:0:0:0:
286,23,171133,1,0,0:0:0:0:
222,86,171470,1,0,0:0:0:0:
83,28,172144,1,8,0:0:0:0:
46,173,172819,2,0,P|105:291|269:309,1,300.000011444092,0|0,0:0|0:0,0:0:0:0:
472,101,175515,6,0,B|420:101|420:101|387:141|325:141,1,150.000005722046,8|8,0:0|0:0,0:0:0:0:
256,93,176527,1,8,0:0:0:0:
178,140,176864,2,0,B|125:141|92:101|92:101|40:101,1,150.000005722046,8|8,0:0|0:0,0:0:0:0:
54,280,178212,6,0,P|124:318|208:321,1,150.000005722046,8|8,0:0|0:0,0:0:0:0:
256,259,179224,1,8,0:0:0:0:
319,323,179561,2,0,P|368:323|396:314,1,75.0000028610231,8|8,0:0|0:0,0:0:0:0:
452,248,180234,1,8,0:0:0:0:
451,68,180909,6,0,P|390:76|328:135,1,150.000005722046,8|8,0:0|0:0,0:0:0:0:
304,222,181920,1,8,0:0:0:0:
274,306,182257,2,0,P|223:359|150:373,1,150.000005722046,8|8,0:0|0:0,0:0:0:0:
63,353,183268,1,8,0:0:0:0:
63,263,183605,6,0,L|63:113,1,150.000005722046,8|8,0:0|0:0,0:0:0:0:
111,37,184616,1,8,0:0:0:0:
196,65,184954,2,0,P|229:84|260:199,1,150.000005722046,8|8,0:0|0:0,0:0:0:0:
140,341,186302,6,0,P|70:320|-7:351,2,150,6|0|10,1:2|0:0|0:0,0:0:0:0:
233,375,187650,2,0,L|223:263,1,100,2|8,1:2|0:0,0:0:0:0:
194,179,188325,1,2,1:2:0:0:
338,40,188999,6,0,P|373:27|438:35,1,100,2|8,1:2|0:0,0:0:0:0:
392,124,189673,2,0,P|344:138|295:129,1,100,2|8,1:2|0:0,0:0:0:0:
199,103,190347,2,0,L|211:219,2,100,10|8|10,1:2|0:0|1:2,0:0:0:0:
26,204,191695,6,0,P|19:254|60:350,2,150,6|0|10,1:2|0:0|0:0,0:0:0:0:
86,124,193044,2,0,L|202:118,1,100,2|8,1:2|0:0,0:0:0:0:
274,70,193718,1,2,1:2:0:0:
406,220,194392,6,0,P|392:254|339:294,1,100,2|8,1:2|0:0,0:0:0:0:
245,313,195066,1,2,1:2:0:0:
117,159,195740,2,0,L|108:58,2,100,10|10|10,1:2|0:0|1:2,0:0:0:0:
84,253,196752,1,10,0:0:0:0:
170,301,197088,6,0,B|223:310|266:284|266:284|289:305|316:309,2,150,6|0|10,1:2|0:0|0:0,0:0:0:0:
84,253,198436,2,0,P|79:200|93:154,1,100,2|8,1:2|0:0,0:0:0:0:
144,70,199111,1,2,1:2:0:0:
283,212,199784,6,0,P|379:247|472:201,1,200,10|10,1:2|1:2,0:0:0:0:
503,117,200795,1,2,0:0:0:0:
430,48,201133,2,0,P|378:35|317:50,1,100,10|8,1:2|0:0,0:0:0:0:
259,110,201807,1,10,1:2:0:0:
154,280,202481,6,0,B|105:245|100:197|100:197|52:174,2,150,6|0|10,1:2|0:0|1:2,0:0:0:0:
251,302,203829,2,0,P|305:288|346:253,1,100,2|8,1:2|0:0,0:0:0:0:
400,182,204504,1,2,1:2:0:0:
270,29,205177,6,0,B|217:27|176:55|176:55|128:25|80:27,1,200,10|10,1:2|1:2,0:0:0:0:
12,99,206190,1,2,0:0:0:0:
26,198,206526,1,8,1:2:0:0:
59,235,206695,2,0,B|126:238|178:203|178:203|238:241|299:238,1,250,2|2,0:0|0:0,0:0:0:0:
256,192,207875,12,4,210572,1:0:0:0:
45,299,213268,6,0,P|78:254|174:232,1,150.000005722046,0|0,1:0|1:0,0:0:0:0:
254,246,214279,1,8,0:0:0:0:
321,305,214617,2,0,L|403:298,1,75.0000028610231,0|8,1:0|0:0,0:0:0:0:
460,235,215291,1,4,0:3:0:0:
431,149,215628,1,4,0:3:0:0:
344,174,215965,6,0,P|309:176|240:81,1,150.000005722046,4|0,1:1|1:0,0:0:0:0:
247,7,216976,1,8,0:0:0:0:
161,33,217313,2,0,L|81:41,1,75.0000028610231,0|8,1:0|0:0,0:0:0:0:
71,129,217987,2,0,L|151:121,1,75.0000028610231,0|8,1:0|0:0,0:0:0:0:
219,172,218661,6,0,P|228:199|172:301,1,150.000005722046,0|0,1:0|1:0,0:0:0:0:
94,337,219673,1,8,0:0:0:0:
37,267,220010,2,0,B|48:226|48:226|11:188|25:119,1,150.000005722046,0|4,1:0|0:3,0:0:0:0:
54,40,221021,1,8,0:0:0:0:
143,47,221358,6,0,B|203:67|217:118|217:118|258:129,1,150.000005722046,4|0,1:1|1:0,0:0:0:0:
345,153,222369,1,8,0:0:0:0:
324,240,222706,2,0,P|348:316|415:362,1,150.000005722046,0|0,1:0|1:0,0:0:0:0:
491,367,223717,1,8,0:0:0:0:
489,277,224054,6,0,L|488:122,1,150.000005722046,0|0,1:0|1:0,0:0:0:0:
488,36,225066,1,8,0:0:0:0:
398,29,225403,2,0,P|364:39|331:68,1,75.0000028610231,0|8,1:0|0:0,0:0:0:0:
295,145,226077,1,4,0:3:0:0:
295,234,226414,1,4,0:3:0:0:
213,272,226751,6,0,P|146:243|103:166,1,150.000005722046,4|0,1:1|1:0,0:0:0:0:
93,90,227762,1,8,0:0:0:0:
182,81,228099,2,0,B|255:100|255:100|330:80,1,150.000005722046,0|0,1:0|1:0,0:0:0:0:
419,90,229111,1,8,0:0:0:0:
406,179,229448,6,0,P|366:242|299:272,1,150.000005722046,0|0,1:0|1:0,0:0:0:0:
209,270,230459,1,8,0:0:0:0:
122,245,230796,2,0,B|122:155,1,75.0000028610231,0|8,1:0|0:0,0:0:0:0:
127,80,231470,1,4,1:3:0:0:
216,81,231807,1,4,0:3:0:0:
260,159,232145,5,4,1:1:0:0:
314,230,232482,2,0,B|348:223|376:190|376:190|411:209|411:209|441:189|441:189|463:220|519:232,1,225.000008583069,2|2,0:0|0:0,0:0:0:0:
512,62,234167,6,0,P|471:38|430:31,1,75.0000028610231,4|0,0:1|0:0,0:0:0:0:
