osu file format v14

[General]
AudioFilename: audio.mp3
AudioLeadIn: 0
PreviewTime: 52819
Countdown: 0
SampleSet: Soft
StackLeniency: 0.7
Mode: 0
LetterboxInBreaks: 0
EpilepsyWarning: 1
WidescreenStoryboard: 1

[Editor]
Bookmarks: 231,21808,43381,64954,100010,121583,143156,164729,186302,197088,210572,221358,234167
DistanceSpacing: 1.2
BeatDivisor: 4
GridSize: 32
TimelineZoom: 2.3

[Metadata]
Title:Party in the HOLLOWood feat. Nanahira
TitleUnicode:Party in the HOLLOWood feat. ななひら
Artist:t+pazolite
ArtistUnicode:t+pazolite
Creator:eiri-
Version:ADVanced
Source:
Tags:Ayyri Realazy Real Stefan inc incandescence Taikocracy Endymion Ascendance Underforest Trynna Dashyy- Dash Noffy TNG TheNutritiousGuy Comiket 93 C93 Good Evening, Evening CHS-0031 C.H.S CHS tpz
BeatmapID:1717854
BeatmapSetID:819349

[Difficulty]
HPDrainRate:5.5
CircleSize:3.5
OverallDifficulty:5
ApproachRate:6
SliderMultiplier:1.3
SliderTickRate:1

[Events]
//Background and Video events
0,0,"Miku Luka 846.png",0,0
//Break Periods
2,154142,163679
//Storyboard Layer 0 (Background)
Sprite,Background,Centre,"Miku Luka 846.png",320,240 S,0,235,,0.625 F,0,9504,9673,0.2,0 F,0,11021,,1 F,0,42369,43379,1,0.3 F,0,51470,53836,0.3,1 F,0,53830,,0 F,0,54167,,1 F,0,75740,78437,1,0 F,0,78437,,1 F,0,98661,100013,1,0.5 F,0,109448,110800,0.5,1 F,0,120572,121586,1,0.3 F,0,129673,132039,0.3,1 F,0,132032,,0 F,0,132369,,1 F,0,153942,156639,1,0.3 F,0,173998,174167,0.3,0.6 F,0,175515,185965,0.6,1 F,0,185965,,0 F,0,186302,,1 F,0,207875,210572,1,0 F,0,210572,,1 F,0,234167,234843,1,0
Sprite,Background,BottomLeft,"sb\Miku.png",-103,480 F,0,11021,,0 S,0,11021,,0.625 C,0,11021,,0,0,0 F,0,21808,22145,0,0.8 F,0,43381,44392,0.8,0 F,0,78437,,0.8 F,0,100010,100347,0.8,0 F,0,121583,122257,0,0.8 F,0,132369,,0 F,0,164729,166077,0,0.8 F,0,186302,,0
Sprite,Background,BottomRight,"sb\Luka.png",747,480 F,0,11021,,0.8 S,0,11021,,0.625 C,0,11021,,0,0,0 F,0,21808,22145,0.8,0 F,0,43381,44392,0,0.8 F,0,54167,,0 F,0,100010,100347,0,0.8 F,0,121583,122257,0.8,0
Sprite,Background,BottomLeft,"sb\bm.jpg",-103,480 L,54167,16 F,0,0,674,1,0 L,143156,16 F,0,0,674,1,0 L,186302,16 F,0,0,674,1,0 S,0,54167,,0.625 P,0,54167,,A F,0,207875,,0
Sprite,Background,BottomRight,"sb\bl.jpg",747,480 L,64954,16 F,0,0,674,1,0 L,132369,16 F,0,0,674,1,0 L,197088,16 F,0,0,674,1,0 S,0,64954,,0.625 P,0,64954,,A F,0,207875,,0
Sprite,Background,Centre,"sb\n\trynna.png",75,370 S,0,235,,0.625 R,0,235,,-0.85 F,0,21808,22145,0,1 C,0,42369,43379,255,255,255,76,76,76 F,0,43043,43381,1,0 C,0,64954,,255,255,255 F,0,64954,65291,0,1 C,0,75740,78437,255,255,255,0,0,0 C,0,78437,,255,255,255 C,0,98661,100013,255,255,255,128,128,128 F,0,99673,100010,1,0 C,0,120572,121586,255,255,255,76,76,76 F,0,121583,121920,0,1 C,0,129673,132039,76,76,76,255,255,255 C,0,132032,,0,0,0 C,0,132369,,255,255,255 F,0,142819,143156,1,0 C,0,164729,,76,76,76 F,0,164729,165066,0,1 C,0,173998,174167,76,76,76,153,153,153 C,0,175515,185965,153,153,153,255,255,255 F,0,185965,,0 F,0,197088,197426,0,1 C,0,207875,210572,255,255,255,0,0,0 F,0,210234,210572,1,0 C,0,210572,,255,255,255 F,0,221358,221695,0,1 C,0,234167,234843,255,255,255,0,0,0 F,0,235515,,0
Sprite,Background,Centre,"sb\n\ayyri.png",75,370 S,0,235,,0.625 R,0,235,,-0.85 C,0,235,,51,51,51 F,0,235,1583,1 C,0,9504,9673,51,51,51,0,0,0 C,0,11021,,255,255,255 F,0,21470,21808,1,0 C,0,43381,,76,76,76 F,0,43381,43718,0,1 C,0,51470,53836,76,76,76,255,255,255 C,0,53830,,0,0,0 C,0,54167,,255,255,255 F,0,64617,64954,1,0 C,0,98661,100013,255,255,255,128,128,128 F,0,100010,100347,0,1 C,0,109448,110800,128,128,128,255,255,255 C,0,120572,121586,255,255,255,76,76,76 F,0,121246,121583,1,0 C,0,143156,,255,255,255 F,0,143156,143493,0,1 F,0,153605,153942,1,0 F,0,186302,186639,0,1 F,0,196751,197088,1,0 F,0,210572,210909,0,1 F,0,221021,221358,1,0
Sprite,Background,Centre,"sb\Highlight.png",0,0 C,0,9673,,126,36,20 M,0,9673,9715,392,213,390.5334,225.0989 F,2,9673,10041,1,0 S,2,9673,10041,1,0.2 P,0,9673,10041,A M,0,9715,9757,390.5334,225.0989,389.0669,237.1979 M,0,9757,9799,389.0669,237.1979,387.6004,249.2968 M,0,9799,9841,387.6004,249.2968,386.1339,261.3958
Sprite,Background,Centre,"sb\Highlight.png",0,0 C,0,10010,,126,36,20 M,0,10010,10052,427,303,425.5334,315.0989 F,2,10010,10378,1,0 S,2,10010,10378,1,0.2 P,0,10010,10378,A M,0,10052,10094,425.5334,315.0989,424.0669,327.1979 M,0,10094,10136,424.0669,327.1979,422.6004,339.2968 M,0,10136,10178,422.6004,339.2968,421.1339,351.3958
Sprite,Background,Centre,"sb\Highlight.png",411,409 C,0,10347,,244,189,62 F,2,10347,10547,1,0 S,2,10347,10547,1,0.2 P,0,10347,10547,A
Sprite,Background,Centre,"sb\Highlight.png",341,374 C,0,10515,,244,189,62 F,2,10515,10715,1,0 S,2,10515,10715,1,0.2 P,0,10515,10715,A
Sprite,Background,Centre,"sb\Highlight.png",263,385 C,0,10684,,244,189,62 F,2,10684,10884,1,0 S,2,10684,10884,1,0.2 P,0,10684,10884,A
Sprite,Background,Centre,"sb\Highlight.png",203,434 C,0,10852,,244,189,62 F,2,10852,11052,1,0 S,2,10852,11052,1,0.2 P,0,10852,11052,A
//Storyboard Layer 1 (Fail)
//Storyboard Layer 2 (Pass)
//Storyboard Layer 3 (Foreground)
//Storyboard Sound Samples

[TimingPoints]
231,338.983050847458,4,2,1,50,1,0
231,-133.333333333333,4,2,1,50,0,0
9673,337.078651685393,4,2,1,60,1,0
9673,-133.333333333333,4,2,1,60,0,0
11021,-133.333333333333,4,2,1,75,0,1
11105,-133.333333333333,4,2,1,75,0,0
16414,-133.333333333333,4,2,1,75,0,1
16498,-133.333333333333,4,2,1,75,0,0
21808,-133.333333333333,4,2,1,60,0,0
32594,-133.333333333333,4,2,1,75,0,0
43381,-133.333333333333,4,2,1,50,0,0
51470,-133.333333333333,4,2,1,60,0,0
52819,-133.333333333333,4,2,1,75,0,0
54167,-100,4,2,2,90,0,1
64616,-100,4,2,2,90,0,0
64953,-100,4,2,2,90,0,1
75740,-133.333333333333,4,2,2,60,0,0
78437,-133.333333333333,4,2,1,75,0,1
78521,-133.333333333333,4,2,1,75,0,0
83830,-133.333333333333,4,2,1,75,0,1
83914,-133.333333333333,4,2,1,75,0,0
98661,-133.333333333333,4,2,1,70,0,0
100010,-133.333333333333,4,2,1,60,0,0
110796,-133.333333333333,4,2,1,75,0,0
121583,-133.333333333333,4,2,1,50,0,0
129673,-133.333333333333,4,2,1,60,0,0
131021,-133.333333333333,4,2,1,75,0,0
132369,-100,4,2,2,90,0,1
142819,-100,4,2,2,90,0,0
143156,-100,4,2,2,90,0,1
153942,-133.333333333333,4,2,2,60,0,0
164729,-133.333333333333,4,2,1,50,0,0
174167,-133.333333333333,4,2,1,60,0,0
175515,-117.647058823529,4,2,1,75,0,0
180909,-117.647058823529,4,2,1,80,0,0
183605,-117.647058823529,4,2,1,85,0,0
186302,-100,4,2,2,90,0,1
196751,-100,4,2,2,90,0,0
197088,-100,4,2,2,90,0,1
207875,-133.333333333333,4,2,2,60,0,0
210571,-133.333333333333,4,2,1,75,0,1
210656,-133.333333333333,4,2,1,75,0,0
215965,-133.333333333333,4,2,1,75,0,1
216049,-133.333333333333,4,2,1,75,0,0
221358,-133.333333333333,4,2,1,75,0,1
221442,-133.333333333333,4,2,1,75,0,0
226751,-133.333333333333,4,2,1,75,0,1
226835,-133.333333333333,4,2,1,75,0,0
234167,-133.333333333333,4,2,1,75,0,1
234251,-133.333333333333,4,2,1,75,0,0
234504,-133.333333333333,4,2,1,50,0,0

[Colours]
Combo1 : 238,139,49
Combo2 : 132,168,111
Combo3 : 84,111,68
Combo4 : 190,55,31
Combo5 : 126,36,20
Combo6 : 244,189,62

[HitObjects]
170,302,231,6,0,L|68:308,2,97.50000371933,2|0|0,0:0|0:0|0:0,0:0:0:0:
271,225,1247,1,0,0:0:0:0:
389,269,1586,1,2,0:0:0:0:
459,237,1756,1,0,0:0:0:0:
459,159,1925,1,2,0:0:0:0:
389,127,2095,1,0,0:0:0:0:
403,50,2264,1,2,0:0:0:0:
279,21,2603,1,0,0:0:0:0:
194,115,2942,6,0,P|207:166|206:224,2,97.50000371933,2|0|0,0:0|0:0|0:0,0:0:0:0:
97,32,3959,1,0,0:0:0:0:
17,131,4298,1,2,0:0:0:0:
65,192,4468,1,0,0:0:0:0:
57,269,4637,1,2,0:0:0:0:
9,330,4807,1,0,0:0:0:0:
73,372,4976,1,2,0:0:0:0:
276,221,5654,6,0,L|281:113,2,97.50000371933,2|0|0,0:0|0:0|0:0,0:0:0:0:
206,326,6671,1,0,0:0:0:0:
328,358,7010,1,2,0:0:0:0:
381,301,7180,1,0,0:0:0:0:
374,223,7349,1,2,0:0:0:0:
427,166,7519,1,0,0:0:0:0:
392,96,7688,1,2,0:0:0:0:
277,42,8027,1,0,0:0:0:0:
177,120,8366,6,0,P|131:131|63:122,2,97.50000371933,2|0|0,0:0|0:0|0:0,0:0:0:0:
277,42,9383,1,0,0:0:0:0:
328,157,9673,2,0,L|320:223,1,48.750001859665,2|0,0:0|0:0,0:0:0:0:
363,247,10010,2,0,L|355:313,1,48.750001859665,2|0,0:0|0:0,0:0:0:0:
347,353,10347,5,2,0:0:0:0:
277,318,10515,1,2,0:0:0:0:
199,329,10684,1,2,0:0:0:0:
139,378,10852,1,2,0:0:0:0:
139,378,11021,6,0,P|114:326|119:275,1,97.50000371933,4|8,1:1|0:0,0:0:0:0:
127,229,11527,1,0,0:0:0:0:
127,229,11695,2,0,L|17:219,1,97.50000371933,0|8,1:0|0:0,0:0:0:0:
13,104,12369,2,0,L|123:94,1,97.50000371933,0|8,1:0|0:0,0:0:0:0:
161,66,12875,1,0,0:0:0:0:
161,66,13043,2,0,L|223:60,1,48.750001859665,0|0,1:0|0:0,0:0:0:0:
263,86,13381,2,0,L|325:80,1,48.750001859665,8|0,0:0|0:0,0:0:0:0:
359,114,13718,6,0,P|366:155|423:196,1,97.50000371933,0|8,1:0|0:0,0:0:0:0:
462,205,14223,1,0,0:0:0:0:
462,205,14392,2,0,L|459:308,1,97.50000371933,0|8,1:0|0:0,0:0:0:0:
348,339,15066,2,0,P|322:307|254:296,1,97.50000371933,0|8,1:0|0:0,0:0:0:0:
213,322,15572,1,0,0:0:0:0:
213,322,15740,2,2,P|181:335|148:335,1,48.750001859665,4|0,0:3|0:0,0:1:0:0:
114,301,16077,2,2,P|83:299|59:304,1,48.750001859665,4|0,0:3|0:0,0:1:0:0:
22,262,16414,6,0,P|32:189|20:155,1,97.50000371933,4|8,1:1|0:0,0:0:0:0:
8,106,16920,1,0,0:0:0:0:
8,106,17088,2,0,L|124:94,1,97.50000371933,0|8,1:0|0:0,0:0:0:0:
193,18,17763,2,0,L|205:134,1,97.50000371933,0|8,1:0|0:0,0:0:0:0:
246,160,18268,1,0,0:0:0:0:
246,160,18437,2,0,L|253:228,1,48.750001859665,0|0,1:0|0:0,0:0:0:0:
302,245,18774,2,0,L|309:313,1,48.750001859665,8|0,0:0|0:0,0:0:0:0:
347,335,19111,6,0,P|392:320|455:348,1,97.50000371933,0|8,1:0|0:0,0:0:0:0:
484,370,19617,1,0,0:0:0:0:
484,370,19785,2,0,L|495:262,1,97.50000371933,0|8,1:0|0:0,0:0:0:0:
469,158,20459,2,0,L|361:169,1,97.50000371933,0|8,1:0|0:0,0:0:0:0:
319,194,20965,1,0,0:0:0:0:
319,194,21133,2,2,P|288:196|264:191,1,48.750001859665,4|0,0:3|0:0,0:1:0:0:
212,168,21470,2,2,P|181:166|157:171,1,48.750001859665,4|0,0:3|0:0,0:1:0:0:
109,203,21808,5,4,1:1:0:0:
73,85,22145,2,0,L|25:92,2,48.750001859665,8|0|0,0:0|0:0|0:0,0:0:0:0:
184,25,22819,2,0,P|206:34|230:39,1,48.750001859665
268,89,23156,2,0,P|311:68|359:63,1,97.50000371933,0|8,1:0|0:0,0:0:0:0:
415,33,23661,1,0,0:0:0:0:
419,37,23830,1,0,0:0:0:0:
423,41,23999,2,0,L|420:99,1,48.750001859665,8|8,0:0|0:0,0:0:0:0:
465,208,24504,6,0,B|420:195|420:195|370:204,1,97.50000371933,0|8,1:0|0:0,0:0:0:0:
321,245,25010,1,0,0:0:0:0:
321,245,25178,2,0,P|296:247|272:249,1,48.750001859665,0|0,0:0|0:0,0:0:0:0:
216,218,25515,1,8,0:0:0:0:
91,192,25852,2,0,L|83:289,1,97.50000371933,0|8,1:0|0:0,0:0:0:0:
114,344,26358,1,0,0:0:0:0:
118,348,26527,1,0,0:0:0:0:
122,353,26695,2,0,P|142:353|170:345,1,48.750001859665,8|8,0:0|0:0,0:0:0:0:
276,276,27201,6,0,L|372:290,1,97.50000371933,0|8,1:0|0:0,0:0:0:0:
456,195,27875,2,0,L|503:186,2,48.750001859665,0|0|8,0:0|0:0|0:0,0:0:0:0:
353,119,28549,2,0,P|308:136|260:133,1,97.50000371933,0|8,1:0|0:0,0:0:0:0:
200,155,29055,1,0,0:0:0:0:
196,151,29223,1,0,0:0:0:0:
192,147,29392,2,0,L|189:81,1,48.750001859665,8|8,0:0|0:0,0:0:0:0:
71,52,29897,5,0,1:0:0:0:
71,52,30066,2,0,L|81:148,1,97.50000371933,0|0,0:0|0:0,0:0:0:0:
58,208,30572,2,0,P|76:224|97:235,1,48.750001859665,0|0,0:0|0:0,0:0:0:0:
123,294,30909,2,0,P|104:310|83:321,1,48.750001859665,8|0,0:0|0:0,0:0:0:0:
102,382,31246,2,0,P|148:367|196:371,1,97.50000371933,0|8,1:0|0:0,0:0:0:0:
305,306,31920,1,0,0:0:0:0:
305,306,32088,2,0,P|329:312|354:312,2,48.750001859665,8|8|8,0:0|0:0|0:0,0:0:0:0:
264,257,32594,6,0,L|261:159,1,97.50000371933,4|8,1:1|0:0,0:0:0:0:
229,104,33100,1,0,0:0:0:0:
229,104,33268,2,0,L|231:55,1,48.750001859665,0|0,1:0|0:0,0:0:0:0:
285,20,33605,2,0,P|306:22|333:22,1,48.750001859665,8|0,0:0|0:0,0:0:0:0:
395,8,33942,2,0,P|442:4|479:34,1,97.50000371933,0|8,1:0|0:0,0:0:0:0:
466,96,34448,1,0,0:0:0:0:
466,96,34617,2,0,P|473:160|473:210,1,97.50000371933,0|8,1:0|0:0,0:0:0:0:
482,319,35291,5,0,1:0:0:0:
482,319,35459,2,0,B|428:308|432:334|385:323,1,97.50000371933,0|0,0:0|0:0,0:0:0:0:
336,283,35965,2,0,P|343:259|347:235,1,48.750001859665,0|0,1:0|0:0,0:0:0:0:
308,185,36302,2,0,P|283:190|259:191,1,48.750001859665,8|0,0:0|0:0,0:0:0:0:
216,237,36639,2,0,P|170:224|121:222,1,97.50000371933,0|8,1:0|0:0,0:0:0:0:
65,252,37145,1,8,0:0:0:0:
65,251,37313,2,0,P|70:203|67:154,1,97.50000371933,8|8,0:0|0:0,0:0:0:0:
135,47,37987,5,8,1:2:0:0:
135,47,38156,2,0,L|233:51,1,97.50000371933,0|0,0:0|0:0,0:0:0:0:
282,90,38661,2,0,P|313:78|344:76,1,48.750001859665,0|0,1:0|0:0,0:0:0:0:
379,37,38999,2,0,P|410:49|441:51,1,48.750001859665,8|0,0:0|0:0,0:0:0:0:
472,94,39336,2,0,L|469:206,1,97.50000371933,0|8,1:0|0:0,0:0:0:0:
441,248,39841,1,0,0:0:0:0:
441,248,40010,2,0,B|385:239|397:269|348:268,1,97.50000371933,0|8,1:0|0:0,0:0:0:0:
255,354,40684,6,0,P|215:328|167:320,1,97.50000371933,0|8,1:0|0:0,0:0:0:0:
43,298,41358,2,0,P|86:276|116:238,1,97.50000371933,0|8,1:0|0:0,0:0:0:0:
198,142,42032,2,0,P|195:190|212:235,2,97.50000371933,0|8|0,1:0|0:0|1:0,0:0:0:0:
223,83,42875,2,0,P|223:59|222:34,1,48.750001859665,0|8,0:0|0:0,0:0:0:0:
328,104,43381,6,0,P|352:160|406:182,1,97.50000371933,4|8,0:0|0:0,0:0:0:0:
444,183,43886,1,0,0:0:0:0:
444,183,44055,2,0,L|450:258,1,48.750001859665,0|0,0:0|0:0,0:0:0:0:
496,272,44392,2,0,L|502:347,1,48.750001859665,8|0,0:0|0:0,0:0:0:0:
451,361,44729,5,0,0:0:0:0:
381,325,44897,1,0,0:0:0:0:
307,352,45066,1,8,0:0:0:0:
237,316,45234,1,0,0:0:0:0:
225,238,45403,2,0,P|183:198|132:197,1,97.50000371933,0|8,0:0|0:0,0:0:0:0:
25,233,46077,6,0,L|10:112,1,97.50000371933,4|8,0:0|0:0,0:0:0:0:
35,76,46583,1,0,0:0:0:0:
35,76,46751,2,0,L|97:69,1,48.750001859665,0|0,0:0|0:0,0:0:0:0:
143,90,47088,2,0,L|205:83,1,48.750001859665,8|0,0:0|0:0,0:0:0:0:
252,104,47426,5,0,0:0:0:0:
323,73,47594,1,0,0:0:0:0:
394,104,47763,1,8,0:0:0:0:
465,73,47931,1,0,0:0:0:0:
506,139,48100,1,0,0:0:0:0:
474,210,48268,2,0,L|435:205,5,24.3750009298325,0|0|8|0|0|0,0:0|0:0|0:0|0:0|0:0|0:0,0:0:0:0:
423,224,48774,6,0,L|402:323,1,97.50000371933,4|8,0:0|0:0,0:0:0:0:
343,341,49279,1,0,0:0:0:0:
343,341,49448,2,0,L|286:334,1,48.750001859665,0|0,0:0|0:0,0:0:0:0:
234,355,49785,2,0,L|177:362,1,48.750001859665,8|0,0:0|0:0,0:0:0:0:
122,360,50122,5,0,0:0:0:0:
100,284,50291,1,0,0:0:0:0:
34,241,50459,1,8,0:0:0:0:
56,165,50628,1,0,0:0:0:0:
122,122,50796,2,0,P|166:125|228:87,1,97.50000371933,0|8,0:0|0:0,0:0:0:0:
302,12,51470,6,0,L|319:69,1,48.750001859665,4|0,0:0|0:0,0:0:0:0:
358,106,51808,2,0,L|341:163,1,48.750001859665,8|0,0:0|0:0,0:0:0:0:
306,204,52145,2,0,L|323:261,1,48.750001859665,0|0,0:0|0:0,0:0:0:0:
362,298,52481,2,0,L|345:355,1,48.750001859665,8|0,0:0|0:0,0:0:0:0:
285,354,52819,6,0,P|237:330|186:338,1,97.50000371933,0|8,0:0|0:0,0:0:0:0:
132,345,53324,1,0,0:0:0:0:
132,345,53493,2,0,P|84:369|32:360,1,97.50000371933,0|4,0:0|3:1,0:0:0:0:
11,198,54167,6,0,L|19:98,2,97.5,6|2|2,1:2|0:0|0:0,0:0:0:0:
78,248,54841,2,0,P|137:243|186:173,1,130,2|10,1:2|0:0,0:0:0:0:
215,27,55515,2,0,L|111:18,2,97.5,2|2|2,1:2|0:0|0:0,0:0:0:0:
283,77,56190,1,2,1:2:0:0:
283,77,56358,1,0,0:0:0:0:
315,155,56527,2,2,L|325:243,1,65,8|0,0:0|0:0,0:1:0:0:
382,278,56864,6,0,P|416:247|423:161,1,130,2|10,1:2|0:0,0:0:0:0:
370,102,57369,1,0,0:0:0:0:
370,102,57538,2,0,L|379:-13,2,97.5,2|2|2,1:2|0:0|0:0,0:0:0:0:
286,86,58212,2,0,P|238:79|194:101,2,97.5,10|10|10,1:2|0:0|0:0,0:0:0:0:
317,164,58886,1,10,1:2:0:0:
317,164,59055,1,8,0:0:0:0:
291,244,59223,1,8,0:0:0:0:
291,244,59392,1,8,0:0:0:0:
323,321,59560,6,0,L|432:315,2,97.5,6|2|2,1:2|0:0|0:0,0:0:0:0:
248,361,60234,2,0,P|181:369|123:315,1,130,2|10,1:2|0:0,0:0:0:0:
122,249,60740,1,0,0:0:0:0:
122,249,60909,2,0,P|72:242|17:274,2,97.5,2|2|2,1:2|0:0|0:0,0:0:0:0:
202,221,61583,1,2,1:2:0:0:
202,221,61751,1,0,0:0:0:0:
215,137,61920,2,2,L|200:66,1,65,8|0,0:0|0:0,0:1:0:0:
269,22,62257,6,0,P|312:37|351:32,1,65,2|0,1:2|0:0,0:0:0:0:
377,107,62594,2,0,P|362:150|367:189,1,65,10|0,0:0|0:0,0:0:0:0:
438,206,62931,2,0,P|481:191|520:196,1,65,2|0,1:2|0:0,0:0:0:0:
487,275,63268,1,10,0:0:0:0:
333,346,63605,6,0,L|251:337,1,65,10|8,1:2|0:0,0:0:0:0:
208,278,63942,2,0,L|126:269,1,65,10|8,0:0|0:0,0:0:0:0:
100,198,64279,1,10,1:2:0:0:
136,121,64448,2,0,L|130:77,2,32.5,8|0|10,0:0|0:0|0:0,0:0:0:0:
301,156,64954,6,0,L|307:58,2,97.5,6|2|2,1:2|0:0|0:0,0:0:0:0:
352,221,65628,2,0,P|296:194|235:213,1,130,2|10,1:2|0:0,0:0:0:0:
292,275,66133,1,0,0:0:0:0:
228,331,66302,2,0,P|179:329|131:336,2,97.5,2|2|2,1:2|0:0|0:0,0:0:0:0:
307,358,66976,2,0,L|436:353,1,130,2|8,1:2|0:0,0:0:0:0:
491,247,67650,6,0,P|470:188|464:159,1,65,2|0,1:2|0:0,0:0:0:0:
470,101,67987,1,10,0:0:0:0:
470,101,68156,1,0,0:0:0:0:
397,55,68324,2,0,P|367:65|335:69,1,65,2|0,1:2|0:0,0:0:0:0:
270,123,68661,2,0,P|238:116|208:103,1,65,10|0,0:0|0:0,0:0:0:0:
139,53,68999,1,10,1:2:0:0:
139,53,69167,2,0,P|156:103|165:197,1,130,10|8,0:0|0:0,0:0:0:0:
128,255,69673,2,0,P|69:238|38:290,1,130,10|8,1:2|0:0,0:0:0:0:
201,335,70347,6,0,P|243:356|291:350,2,97.5,6|2|2,1:2|0:0|0:0,0:0:0:0:
259,273,71021,2,0,L|271:143,1,130,2|10,1:2|0:0,0:0:0:0:
232,68,71527,1,0,0:0:0:0:
231,68,71695,2,0,P|184:76|135:74,2,97.5,2|2|2,1:2|0:0|0:0,0:0:0:0:
310,38,72369,2,0,P|375:47|440:48,1,130,2|8,1:2|0:0,0:0:0:0:
504,203,73043,6,0,P|451:180|426:234,1,130,2|10,1:2|0:0,0:0:0:0:
457,313,73549,1,0,0:0:0:0:
385,359,73718,2,0,P|322:342|257:344,1,130,2|10,1:2|0:0,0:0:0:0:
94,301,74392,5,0,1:2:0:0:
155,243,74560,2,0,P|144:178|139:114,1,130,2|0,0:0|0:0,0:0:0:0:
80,51,75066,2,0,P|140:28|199:52,1,130,2|10,1:2|0:0,0:0:0:0:
323,25,75740,6,0,P|317:61|317:97,2,73.1250027894975,2|0|0,1:2|0:0|0:0,0:0:0:0:
439,75,76583,2,0,P|464:116|471:164,1,97.50000371933,2|2,0:0|0:0,0:0:0:0:
509,215,77088,2,0,P|504:251|506:287,2,73.1250027894975,2|0|0,0:0|0:0|0:0,0:0:0:0:
445,215,77763,2,0,P|393:210|347:209,1,97.50000371933,2|4,0:0|0:3,0:0:0:0:
236,148,78437,6,0,P|248:195|251:243,1,97.50000371933,4|8,1:1|0:0,0:0:0:0:
262,305,78942,1,0,0:0:0:0:
262,305,79111,2,0,B|209:288|213:313|165:298,1,97.50000371933,0|8,1:0|0:0,0:0:0:0:
44,334,79785,2,0,L|48:236,1,97.50000371933,0|8,1:0|0:0,0:0:0:0:
71,177,80291,1,0,0:0:0:0:
71,177,80459,2,0,P|49:149|40:128,1,48.750001859665,0|0,1:0|0:0,0:0:0:0:
70,79,80796,2,0,P|92:51|101:30,1,48.750001859665,8|0,0:0|0:0,0:0:0:0:
159,25,81133,6,0,P|206:16|254:25,1,97.50000371933,0|8,1:0|0:0,0:0:0:0:
316,13,81639,1,0,0:0:0:0:
316,13,81808,2,0,P|314:61|306:109,1,97.50000371933,0|8,1:0|0:0,0:0:0:0:
361,224,82482,2,0,P|406:239|451:225,1,97.50000371933,0|8,1:0|0:0,0:0:0:0:
508,252,82987,1,0,0:0:0:0:
508,252,83156,1,4,0:3:0:0:
461,369,83493,1,4,0:3:0:0:
339,334,83830,6,0,B|287:321|291:344|242:329,1,97.50000371933,4|8,1:1|0:0,0:0:0:0:
181,345,84336,1,0,0:0:0:0:
181,345,84504,2,0,P|191:297|191:248,1,97.50000371933,0|8,1:0|0:0,0:0:0:0:
131,137,85178,2,0,P|84:152|36:153,1,97.50000371933,0|8,1:0|0:0,0:0:0:0:
0,101,85684,1,0,0:0:0:0:
0,101,85852,2,0,L|4:52,1,48.750001859665,0|0,1:0|0:0,0:0:0:0:
58,18,86190,2,0,P|81:23|105:27,1,48.750001859665,8|0,0:0|0:0,0:0:0:0:
164,51,86527,6,0,L|269:44,1,97.50000371933,0|8,1:0|0:0,0:0:0:0:
318,70,87032,1,0,0:0:0:0:
318,70,87201,2,0,P|305:127|302:169,1,97.50000371933,0|8,1:0|0:0,0:0:0:0:
250,281,87875,2,0,L|347:278,1,97.50000371933,0|8,1:0|0:0,0:0:0:0:
464,325,88549,1,4,0:3:0:0:
449,199,88886,1,4,0:3:0:0:
503,85,89223,6,0,P|455:89|407:80,1,97.50000371933,4|8,1:1|0:0,0:0:0:0:
349,55,89729,1,0,0:0:0:0:
349,55,89897,2,0,B|308:45|308:45|252:55,1,97.50000371933,0|8,1:0|0:0,0:0:0:0:
129,30,90572,2,0,P|136:76|137:128,1,97.50000371933,0|8,1:0|0:0,0:0:0:0:
97,176,91077,1,0,0:0:0:0:
97,176,91246,2,0,P|89:222|89:274,1,97.50000371933,0|8,1:0|0:0,0:0:0:0:
190,348,91920,6,0,P|224:326|272:349,1,97.50000371933,0|8,1:0|0:0,0:0:0:0:
325,315,92426,1,0,0:0:0:0:
325,314,92594,2,0,P|313:267|307:219,1,97.50000371933,0|8,1:0|0:0,0:0:0:0:
401,134,93268,2,0,P|447:146|493:132,1,97.50000371933,0|8,1:0|0:0,0:0:0:0:
510,75,93774,1,8,0:0:0:0:
510,75,93942,2,0,P|466:53|430:21,1,97.50000371933,8|8,0:0|0:0,0:0:0:0:
308,58,94617,6,0,P|261:66|211:70,1,97.50000371933,8|8,0:0|0:0,0:0:0:0:
148,63,95122,2,0,P|129:75|112:97,1,48.750001859665,0|0,0:0|1:0,0:0:0:0:
113,159,95459,1,0,0:0:0:0:
113,159,95628,1,8,0:0:0:0:
80,281,95965,2,0,L|176:267,1,97.50000371933,0|8,1:0|0:0,0:0:0:0:
228,303,96470,2,0,L|220:358,1,48.750001859665,0|0,0:0|1:0,0:0:0:0:
281,372,96808,2,0,P|324:361|349:362,1,48.750001859665,0|8,0:0|0:0,0:0:0:0:
386,247,97313,6,0,P|378:199|380:151,1,97.50000371933,0|8,1:0|0:0,0:0:0:0:
343,107,97819,1,0,0:0:0:0:
343,107,97987,2,0,P|319:112|294:113,1,48.750001859665,0|0,1:0|0:0,0:0:0:0:
255,162,98324,1,8,0:0:0:0:
143,101,98661,5,0,0:0:0:0:
421,280,100010,5,0,1:0:0:0:
421,280,100178,2,0,L|485:287,2,48.750001859665,0|0|0,0:0|0:0|0:0,0:0:0:0:
367,314,100684,1,8,0:0:0:0:
367,314,100852,2,0,P|330:328|263:296,1,97.50000371933,0|0,0:0|0:0,0:0:0:0:
231,265,101358,6,0,L|171:260,1,48.750001859665,0|0,1:0|0:0,0:0:0:0:
139,214,101695,2,0,L|79:209,1,48.750001859665,0|0,0:0|0:0,0:0:0:0:
31,186,102032,2,0,P|14:146|29:73,1,97.50000371933,8|8,0:0|0:0,0:0:0:0:
127,28,102706,5,0,1:0:0:0:
127,28,102875,2,0,L|150:134,1,97.50000371933,0|0,0:0|0:0,0:0:0:0:
196,164,103381,1,8,0:0:0:0:
196,164,103549,2,0,P|243:157|297:181,1,97.50000371933,0|0,0:0|0:0,0:0:0:0:
328,224,104055,6,0,L|387:221,1,48.750001859665,0|0,1:0|0:0,0:0:0:0:
421,266,104392,2,0,L|424:325,1,48.750001859665,8|0,0:0|0:0,0:0:0:0:
386,366,104729,2,0,P|334:369|289:327,1,97.50000371933,0|8,0:0|0:0,0:0:0:0:
235,234,105403,5,0,1:0:0:0:
235,234,105572,2,0,L|229:298,2,48.750001859665,0|0|0,0:0|0:0|0:0,0:0:0:0:
207,177,106077,1,8,0:0:0:0:
207,177,106246,2,0,P|174:161|108:170,1,97.50000371933,0|0,0:0|0:0,0:0:0:0:
58,194,106751,6,0,L|43:126,1,48.750001859665,8|0,1:2|0:0,0:0:0:0:
4,100,107088,2,0,L|19:32,1,48.750001859665,0|0,0:0|0:0,0:0:0:0:
63,11,107426,2,0,P|99:37|163:31,1,97.50000371933,8|8,0:0|0:0,0:0:0:0:
273,4,108100,5,0,1:0:0:0:
273,4,108268,2,0,L|281:72,1,48.750001859665,0|0,0:0|0:0,0:0:0:0:
316,103,108605,1,0,0:0:0:0:
316,103,108773,2,0,L|308:171,1,48.750001859665,8|0,0:0|0:0,0:0:0:0:
337,209,109111,2,0,P|370:204|403:215,1,48.750001859665,0|0,0:0|0:0,0:0:0:0:
428,252,109448,6,0,L|380:355,1,97.50000371933,8|0,1:2|0:0,0:0:0:0:
327,364,109954,1,0,0:0:0:0:
327,364,110122,2,0,P|279:344|227:352,1,97.50000371933,8|4,0:0|0:1,0:0:0:0:
162,244,110796,5,4,1:1:0:0:
162,244,110965,2,0,L|171:173,2,48.750001859665,0|8|0,0:0|0:0|0:0,0:0:0:0:
183,298,111470,1,0,1:0:0:0:
230,332,111639,2,0,P|278:336|322:316,1,97.50000371933
370,282,112145,6,0,L|379:213,1,48.750001859665,0|0,1:0|0:0,0:0:0:0:
405,182,112482,2,0,L|396:113,1,48.750001859665,8|0,0:0|0:0,0:0:0:0:
384,72,112819,2,0,P|332:82|277:50,1,97.50000371933,0|8,1:0|0:0,0:0:0:0:
176,13,113493,5,0,1:0:0:0:
176,13,113661,2,0,L|117:7,2,48.750001859665,0|8|0,0:0|0:0|0:0,0:0:0:0:
208,67,114167,1,0,1:0:0:0:
208,67,114336,2,0,L|213:177,1,97.50000371933,0|0,0:0|0:0,0:0:0:0:
173,213,114841,6,0,P|138:217|117:229,1,48.750001859665,0|0,1:0|0:0,0:0:0:0:
75,261,115178,2,0,L|103:314,1,48.750001859665,8|8,0:0|0:0,0:0:0:0:
134,355,115515,2,0,P|173:365|234:341,1,97.50000371933,8|8,0:0|0:0,0:0:0:0:
312,254,116190,5,8,1:2:0:0:
312,254,116358,2,0,L|381:248,2,48.750001859665,0|8|0,0:0|0:0|0:0,0:0:0:0:
257,221,116864,1,0,1:0:0:0:
257,221,117032,2,0,P|239:173|248:113,1,97.50000371933,0|0,0:0|0:0,0:0:0:0:
261,67,117538,6,0,L|191:56,1,48.750001859665,0|0,1:0|0:0,0:0:0:0:
155,32,117875,2,0,L|85:43,1,48.750001859665,8|0,0:0|0:0,0:0:0:0:
44,27,118212,1,0,1:0:0:0:
8,148,118549,1,8,0:0:0:0:
8,148,118718,1,0,0:0:0:0:
8,148,118886,6,0,L|20:248,1,97.50000371933,0|8,1:0|0:0,0:0:0:0:
124,315,119560,2,0,L|136:215,1,97.50000371933,0|8,1:0|0:0,0:0:0:0:
247,158,120234,2,0,L|254:223,1,48.750001859665,0|0,1:0|0:0,0:0:0:0:
262,269,120572,6,0,P|341:264|367:282,1,97.50000371933,8|0,0:0|1:0,0:0:0:0:
399,315,121077,1,0,0:0:0:0:
399,315,121246,2,0,L|461:310,1,48.750001859665,8|0,0:0|0:0,0:0:0:0:
507,332,121583,6,0,P|493:285|487:236,1,97.50000371933,4|8,0:0|0:0,0:0:0:0:
447,195,122088,1,0,0:0:0:0:
447,195,122257,2,0,P|460:148|466:99,1,97.50000371933,0|8,0:0|0:0,0:0:0:0:
335,72,122931,1,0,0:0:0:0:
270,27,123100,1,0,0:0:0:0:
201,64,123268,1,8,0:0:0:0:
264,108,123437,1,0,0:0:0:0:
201,154,123605,2,0,P|154:140|106:132,1,97.50000371933,0|8,0:0|0:0,0:0:0:0:
60,251,124279,6,0,P|99:224|145:234,1,97.50000371933,4|8,0:0|0:0,0:0:0:0:
247,309,124954,2,0,P|255:260|269:214,1,97.50000371933,0|8,0:0|0:0,0:0:0:0:
387,192,125628,1,0,0:0:0:0:
463,207,125796,1,0,0:0:0:0:
436,280,125965,1,8,0:0:0:0:
459,354,126133,1,0,0:0:0:0:
381,365,126302,1,0,0:0:0:0:
312,328,126470,2,0,L|287:330,5,24.3750009298325,0|0|8|0|0|0,0:0|0:0|0:0|0:0|0:0|0:0,0:0:0:0:
260,347,126976,6,0,P|265:298|260:250,1,97.50000371933,4|8,0:0|0:0,0:0:0:0:
291,197,127482,1,0,0:0:0:0:
291,197,127650,2,0,P|285:148|290:100,1,97.50000371933,0|8,0:0|0:0,0:0:0:0:
199,13,128324,1,0,0:0:0:0:
129,46,128493,1,0,0:0:0:0:
67,0,128661,1,8,0:0:0:0:
4,45,128830,1,0,0:0:0:0:
32,118,128999,2,0,P|28:183|22:226,1,97.50000371933,0|8,0:0|0:0,0:0:0:0:
3,340,129673,6,0,P|46:319|94:326,1,97.50000371933,4|8,0:0|0:0,0:0:0:0:
154,358,130178,1,0,0:0:0:0:
154,358,130347,2,0,L|263:346,1,97.50000371933,0|8,0:0|0:0,0:0:0:0:
344,261,131021,2,0,P|296:265|261:233,1,97.50000371933,0|0,0:0|0:0,0:0:0:0:
195,126,131695,2,0,P|242:124|291:112,1,97.50000371933,0|4,0:0|3:1,0:0:0:0:
427,14,132369,6,0,P|403:55|405:103,2,97.5,6|2|2,1:2|0:0|0:0,0:0:0:0:
502,52,133043,2,0,P|514:115|512:180,1,130,2|10,1:2|0:0,0:0:0:0:
419,322,133718,2,0,P|466:312|511:328,2,97.5,2|2|2,1:2|0:0|0:0,0:0:0:0:
339,293,134392,1,2,1:2:0:0:
339,293,134560,1,0,0:0:0:0:
263,330,134729,2,2,P|243:303|220:280,1,65,8|0,0:0|0:0,0:1:0:0:
225,196,135066,6,0,P|160:204|96:197,1,130,2|10,1:2|0:0,0:0:0:0:
34,255,135572,1,0,0:0:0:0:
34,255,135740,2,0,P|59:194|40:129,1,130,2|10,1:2|0:0,0:0:0:0:
92,65,136246,1,0,0:0:0:0:
92,65,136414,2,0,P|46:48|0:56,2,97.5,10|10|10,1:2|0:0|0:0,0:0:0:0:
174,45,137088,2,0,P|226:49|303:40,1,130,10|8,1:2|0:0,0:0:0:0:
371,195,137763,6,0,P|331:183|275:187,2,97.5,6|2|2,1:2|0:0|0:0,0:0:0:0:
448,161,138437,2,0,B|468:227|425:221|449:288,1,130,2|10,1:2|0:0,0:0:0:0:
391,348,138942,1,0,0:0:0:0:
391,348,139111,2,0,P|433:370|481:366,2,97.5,2|2|2,1:2|0:0|0:0,0:0:0:0:
306,357,139785,2,0,B|251:345|251:345|178:358,1,130,2|8,1:2|0:0,0:0:0:0:
98,208,140459,6,0,P|39:221|4:171,1,130,2|10,1:2|0:0,0:0:0:0:
75,125,140965,1,0,0:0:0:0:
75,125,141133,2,0,P|85:73|92:-4,1,130,2|10,1:2|0:0,0:0:0:0:
234,88,141808,2,0,P|295:73|319:75,1,65,10|8,1:2|0:0,0:0:0:0:
286,157,142145,2,0,P|346:174|366:188,1,65,10|8,0:0|0:0,0:0:0:0:
295,242,142482,2,0,L|295:372,1,130,10|10,1:2|0:0,0:0:0:0:
159,271,143156,6,0,P|115:289|50:264,2,97.5,6|2|2,1:2|0:0|0:0,0:0:0:0:
215,208,143830,2,0,P|253:189|291:193,1,65,2|0,1:2|0:0,0:0:0:0:
309,111,144167,2,0,P|290:73|294:35,1,65,10|0,0:0|0:0,0:0:0:0:
207,29,144504,6,0,L|107:17,2,97.5,2|2|2,1:2|0:0|0:0,0:0:0:0:
201,113,145178,2,0,P|172:137|121:137,1,65,2|0,1:2|0:0,0:0:0:0:
61,132,145515,2,2,L|72:222,1,65,8|0,0:0|0:0,0:1:0:0:
59,280,145852,6,0,P|121:279|145:362,1,130,2|10,1:2|0:0,0:0:0:0:
233,355,146358,1,0,0:0:0:0:
233,355,146527,2,0,P|263:346|295:354,1,65,2|0,1:2|0:0,0:0:0:0:
376,377,146864,1,10,0:0:0:0:
444,328,147032,1,0,0:0:0:0:
401,254,147201,6,0,P|354:259|305:230,2,97.5,10|10|10,1:2|0:0|0:0,0:0:0:0:
473,209,147875,1,10,1:2:0:0:
506,131,148043,1,8,0:0:0:0:
427,98,148212,1,8,0:0:0:0:
394,20,148380,1,8,0:0:0:0:
325,70,148549,6,0,L|342:181,2,97.5,6|2|2,1:2|0:0|0:0,0:0:0:0:
248,34,149223,2,0,P|212:38|184:58,1,65,2|0,1:2|0:0,0:0:0:0:
122,106,149560,2,0,L|39:111,1,65,10|0,0:0|0:0,0:0:0:0:
41,193,149897,2,0,P|66:222|55:281,2,97.5,2|2|2,1:2|0:0|0:0,0:0:0:0:
5,113,150572,2,0,L|1:48,1,65,2|0,1:2|0:0,0:0:0:0:
81,20,150909,2,2,P|125:31|166:21,1,65,8|0,0:0|0:0,0:1:0:0:
220,64,151246,6,0,L|232:148,1,65,2|0,1:2|0:0,0:0:0:0:
276,198,151583,1,10,0:0:0:0:
257,280,151751,1,0,0:0:0:0:
317,338,151920,2,0,P|361:331|401:340,1,65,2|0,1:2|0:0,0:0:0:0:
462,309,152257,2,0,L|474:228,1,65,10|0,0:0|0:0,0:0:0:0:
451,162,152594,5,0,1:2:0:0:
451,162,152763,2,0,P|417:170|352:94,1,130,2|0,0:0|0:0,0:0:0:0:
366,28,153268,2,0,L|291:17,1,65,2|0,1:2|0:0,0:0:0:0:
238,74,153605,2,0,L|163:85,1,65,10|0,0:0|0:0,0:0:0:0:
101,54,153942,5,6,1:2:0:0:
101,54,164729,6,0,L|198:60,1,97.50000371933,0|0,0:0|0:0,0:0:0:0:
252,175,165403,2,0,L|154:181,1,97.50000371933,8|0,0:0|0:0,0:0:0:0:
122,304,166077,2,0,L|123:352,2,48.750001859665,0|0|0,0:0|0:0|0:0,0:0:0:0:
176,271,166583,1,0,0:0:0:0:
176,271,166751,2,0,P|235:292|290:293,1,97.50000371933,8|0,0:0|0:0,0:0:0:0:
386,343,167426,6,0,B|392:290|374:298|379:245,1,97.50000371933,0|0,0:0|0:0,0:0:0:0:
423,127,168100,2,0,P|378:145|331:135,1,97.50000371933,8|0,0:0|0:0,0:0:0:0:
247,41,168774,2,0,P|271:44|295:42,2,48.750001859665,0|0|0,0:0|0:0|0:0,0:0:0:0:
195,77,169279,1,0,0:0:0:0:
195,77,169448,2,0,P|192:124|198:174,1,97.50000371933,8|0,0:0|0:0,0:0:0:0:
230,228,169954,1,0,0:0:0:0:
230,228,170122,6,0,P|232:275|226:325,1,97.50000371933,0|0,0:0|0:0,0:0:0:0:
105,363,170796,2,0,P|61:342|38:300,1,97.50000371933,8|0,0:0|0:0,0:0:0:0:
134,217,171470,2,0,L|126:265,2,48.750001859665,0|0|0,0:0|0:0|0:0,0:0:0:0:
90,170,171976,1,0,0:0:0:0:
89,170,172145,2,0,P|42:180|-5:177,1,97.50000371933,8|0,0:0|0:0,0:0:0:0:
54,66,172819,6,0,P|102:62|149:73,1,97.50000371933,0|0,0:0|0:0,0:0:0:0:
271,36,173493,2,0,L|368:29,1,97.50000371933,8|0,0:0|0:0,0:0:0:0:
426,140,174167,2,0,P|381:125|339:147,1,97.50000371933,0|0,0:0|0:0,0:0:0:0:
346,210,174673,1,0,0:0:0:0:
346,210,174841,2,0,P|315:247|299:293,1,97.50000371933,2|2,0:0|0:0,0:0:0:0:
160,267,175515,6,0,P|106:281|51:286,1,110.50000210762,8|8,0:0|0:0,0:0:0:0:
14,232,176021,1,0,0:0:0:0:
13,232,176190,2,0,P|30:210|41:184,1,55.2500010538101,8|0,0:0|0:0,0:0:0:0:
44,40,176695,2,0,P|97:39|136:77,1,110.50000210762,0|0,0:0|0:0,0:0:0:0:
204,100,177201,2,0,L|258:92,1,55.2500010538101,8|0,0:0|0:0,0:0:0:0:
310,42,177538,2,0,P|348:56|389:53,1,82.8750015807152,8|0,0:0|0:0,0:0:0:0:
453,140,178043,1,0,0:0:0:0:
453,140,178212,6,0,P|423:143|399:159,1,55.2500010538101,8|0,0:0|0:0,0:0:0:0:
342,197,178549,2,0,P|314:194|290:180,1,55.2500010538101,8|0,0:0|0:0,0:0:0:0:
218,181,178886,2,0,L|220:263,1,82.8750015807152,8|0,0:0|0:0,0:0:0:0:
137,332,179392,1,0,0:0:0:0:
137,332,179560,2,0,P|110:324|83:317,1,55.2500010538101,8|0,0:0|0:0,0:0:0:0:
53,251,179897,2,0,P|60:224|67:197,1,55.2500010538101,8|0,0:0|0:0,0:0:0:0:
55,125,180234,2,0,P|26:98|22:57,1,82.8750015807152,8|0,0:0|0:0,0:0:0:0:
201,35,180909,6,0,L|190:145,1,110.50000210762,8|8,0:0|0:0,0:0:0:0:
217,211,181414,1,0,0:0:0:0:
217,211,181583,2,0,P|228:250|225:291,1,82.8750015807152,8|0,0:0|0:0,0:0:0:0:
323,335,182088,1,0,0:0:0:0:
323,335,182257,2,0,L|319:279,1,55.2500010538101,8|0,0:0|0:0,0:0:0:0:
334,209,182594,2,0,P|357:194|382:183,1,55.2500010538101,8|0,0:0|0:0,0:0:0:0:
434,131,182931,2,0,P|470:149|511:155,1,82.8750015807152,8|0,0:0|0:0,0:0:0:0:
377,35,183605,6,0,L|322:41,1,55.2500010538101,8|8,0:0|0:0,0:0:0:0:
261,80,183942,2,0,L|206:73,1,55.2500010538101,8|8,0:0|0:0,0:0:0:0:
155,22,184279,2,0,B|93:15|104:46|47:39,1,110.50000210762,8|8,0:0|0:0,0:0:0:0:
124,160,184954,2,0,L|121:187,3,27.6250005269051,8|0|8|0,0:0|0:0|0:0|0:0,0:0:0:0:
105,219,185291,2,0,L|119:272,1,55.2500010538101,8|8,0:0|0:0,0:0:0:0:
102,342,185628,2,0,P|74:339|47:343,2,55.2500010538101,8|8|4,0:0|0:0|3:1,0:0:0:0:
305,300,186302,6,0,P|325:244|310:185,2,97.5,6|2|2,1:2|0:0|0:0,0:0:0:0:
216,355,186976,2,0,L|134:346,1,65,2|0,1:2|0:0,0:0:0:0:
114,250,187313,2,0,L|196:241,1,65,10|0,0:0|0:0,0:0:0:0:
223,148,187650,2,0,P|203:92|218:33,2,97.5,2|2|2,1:2|0:0|0:0,0:0:0:0:
318,190,188324,2,0,L|401:184,1,65,2|0,1:2|0:0,0:0:0:0:
448,104,188661,2,2,L|442:21,1,65,8|0,0:0|0:0,0:1:0:0:
343,6,188999,6,0,P|316:39|365:123,1,130,2|10,1:2|0:0,0:0:0:0:
433,164,189504,1,0,0:0:0:0:
484,254,189673,2,0,L|497:369,2,97.5,2|2|2,1:2|0:0|0:0,0:0:0:0:
379,254,190347,2,0,P|334:276|271:258,2,97.5,10|10|10,1:2|0:0|0:0,0:0:0:0:
433,164,191021,1,10,1:2:0:0:
433,164,191190,1,8,0:0:0:0:
388,70,191358,1,8,0:0:0:0:
388,70,191527,1,8,0:0:0:0:
289,103,191695,6,0,P|255:73|258:0,2,97.5,6|2|2,1:2|0:0|0:0,0:0:0:0:
347,189,192369,2,0,P|303:189|280:195,1,65,2|0,1:2|0:0,0:0:0:0:
200,258,192706,1,10,0:0:0:0:
112,200,192875,1,0,0:0:0:0:
153,104,193043,2,0,L|148:-3,2,97.5,2|2|2,1:2|0:0|0:0,0:0:0:0:
112,200,193718,2,0,P|70:212|43:205,1,65,2|0,1:2|0:0,0:0:0:0:
11,304,194055,2,2,L|95:297,1,65,8|0,0:0|0:0,0:1:0:0:
165,352,194392,6,0,L|202:274,1,65,2|0,1:2|0:0,0:0:0:0:
295,276,194729,2,0,L|332:198,1,65,10|0,0:0|0:0,0:0:0:0:
268,128,195066,2,0,L|231:206,1,65,2|0,1:2|0:0,0:0:0:0:
140,219,195403,1,10,0:0:0:0:
76,76,195740,6,0,L|161:66,1,65,10|8,1:2|0:0,0:0:0:0:
238,31,196077,2,0,L|323:41,1,65,10|8,0:0|0:0,0:0:0:0:
368,119,196414,1,10,1:2:0:0:
456,63,196583,2,0,L|461:8,2,32.5,8|0|10,0:0|0:0|0:2,0:0:0:0:
359,246,197088,6,0,P|396:275|444:278,2,97.5,6|2|2,1:2|0:0|0:0,0:0:0:0:
271,303,197763,2,0,L|206:308,1,65,2|0,1:2|0:0,0:0:0:0:
142,226,198100,2,0,L|206:220,1,65,10|0,0:0|0:0,0:0:0:0:
253,126,198437,2,0,P|262:83|264:28,2,97.5,2|2|2,1:2|0:0|0:0,0:0:0:0:
173,59,199111,2,0,P|141:54|109:63,1,65,2|0,1:2|0:0,0:0:0:0:
8,37,199448,2,2,P|18:67|25:99,1,65,10|0,0:0|0:0,0:1:0:0:
113,156,199785,6,0,B|87:226|133:217|104:282,1,130,2|10,1:2|0:0,0:0:0:0:
35,360,200291,1,0,0:0:0:0:
138,377,200459,2,0,P|168:366|200:360,1,65,2|0,1:2|0:0,0:0:0:0:
288,304,200796,1,10,0:0:0:0:
288,304,200965,1,0,0:0:0:0:
384,342,201133,2,0,P|416:345|448:339,1,65,10|8,1:2|0:0,0:0:0:0:
409,242,201470,2,0,P|403:207|402:177,1,65,10|8,0:0|0:0,0:0:0:0:
456,87,201808,2,0,P|399:114|344:85,1,130,10|8,1:2|0:0,0:0:0:0:
141,128,202482,6,0,P|153:81|155:33,2,97.5,6|2|2,1:2|0:0|0:0,0:0:0:0:
93,222,203156,2,0,P|62:212|29:211,1,65,2|0,1:2|0:0,0:0:0:0:
43,314,203493,1,10,0:0:0:0:
43,314,203661,1,0,0:0:0:0:
146,301,203830,2,0,B|197:300|183:331|235:331,2,97.5,2|2|2,1:2|0:0|0:0,0:0:0:0:
215,223,204504,2,0,P|228:193|236:162,1,65,2|0,1:2|0:0,0:0:0:0:
198,65,204841,2,2,L|263:60,1,65,8|0,0:0|0:0,0:1:0:0:
355,108,205178,6,0,B|403:106|403:106|442:118|442:118|482:114,1,130,2|8,1:2|0:0,0:0:0:0:
449,212,205684,1,0,0:0:0:0:
449,212,205852,2,0,P|471:244|477:278,1,65,2|0,1:2|0:0,0:0:0:0:
423,359,206190,2,0,L|358:360,1,65,10|0,0:0|0:0,0:0:0:0:
268,306,206527,5,0,1:2:0:0:
268,306,206695,2,0,B|195:299|210:340|142:329,1,130,2|0,0:0|0:0,0:0:0:0:
72,251,207201,2,0,P|96:192|100:127,1,130,2|10,1:2|0:0,0:0:0:0:
176,25,207875,6,0,P|139:22|107:5,2,73.1250027894975,2|0|0,1:2|0:0|0:0,0:0:0:0:
276,103,208718,2,0,P|322:87|370:81,1,97.50000371933,2|2,0:0|0:0,0:0:0:0:
433,85,209223,2,0,P|440:49|443:12,2,73.1250027894975,2|0|0,0:0|0:0|0:0,0:0:0:0:
394,135,209897,2,0,L|390:239,1,97.50000371933,2|4,0:0|0:3,0:0:0:0:
276,289,210572,6,0,P|251:237|256:186,1,97.50000371933,4|8,1:1|0:0,0:0:0:0:
271,137,211078,1,0,0:0:0:0:
271,137,211246,2,0,L|161:127,1,97.50000371933,0|8,1:0|0:0,0:0:0:0:
109,19,211920,2,0,L|219:9,1,97.50000371933,0|8,1:0|0:0,0:0:0:0:
262,38,212426,1,0,0:0:0:0:
262,38,212594,2,0,L|324:32,1,48.750001859665,0|0,1:0|0:0,0:0:0:0:
366,63,212932,2,0,L|428:57,1,48.750001859665,8|0,0:0|0:0,0:0:0:0:
458,104,213269,6,0,P|451:145|394:186,1,97.50000371933,0|8,1:0|0:0,0:0:0:0:
367,226,213774,1,0,0:0:0:0:
367,226,213943,2,0,L|348:338,1,97.50000371933,0|8,1:0|0:0,0:0:0:0:
229,358,214617,2,0,P|182:347|150:311,1,97.50000371933,0|8,1:0|0:0,0:0:0:0:
169,251,215123,1,0,0:0:0:0:
169,251,215291,2,2,P|182:219|182:186,1,48.750001859665,4|0,0:3|0:0,0:1:0:0:
148,152,215628,2,2,P|146:121|151:97,1,48.750001859665,4|0,0:3|0:0,0:1:0:0:
174,45,215965,6,0,P|101:35|67:47,1,97.50000371933,4|8,1:1|0:0,0:0:0:0:
38,90,216471,1,0,0:0:0:0:
38,90,216639,2,0,L|50:206,1,97.50000371933,0|8,1:0|0:0,0:0:0:0:
139,275,217314,2,0,L|151:159,1,97.50000371933,0|8,1:0|0:0,0:0:0:0:
193,133,217819,1,0,0:0:0:0:
193,133,217988,2,0,L|261:140,1,48.750001859665,0|0,1:0|0:0,0:0:0:0:
278,189,218325,2,0,L|346:196,1,48.750001859665,8|0,0:0|0:0,0:0:0:0:
386,215,218662,6,0,P|401:260|373:323,1,97.50000371933,0|8,1:0|0:0,0:0:0:0:
349,356,219168,1,0,0:0:0:0:
349,356,219336,2,0,L|457:367,1,97.50000371933,0|8,1:0|0:0,0:0:0:0:
498,250,220010,2,2,L|390:261,1,97.50000371933,0|8,1:0|0:0,0:1:0:0:
316,165,220684,1,4,0:3:0:0:
316,165,220852,1,4,0:3:0:0:
316,165,221021,2,2,L|307:234,1,48.750001859665,8|0,0:0|0:0,0:1:0:0:
261,254,221358,6,0,P|210:239|164:243,1,97.50000371933,4|8,1:1|0:0,0:0:0:0:
109,272,221864,1,0,0:0:0:0:
108,271,222032,2,0,P|90:227|83:178,1,97.50000371933,0|8,1:0|0:0,0:0:0:0:
39,60,222706,2,0,L|145:60,1,97.50000371933,0|8,1:0|0:0,0:0:0:0:
194,86,223212,1,0,0:0:0:0:
194,86,223381,2,0,P|219:71|247:58,1,48.750001859665,0|0,1:0|0:0,0:0:0:0:
286,22,223718,2,0,P|311:37|339:50,1,48.750001859665,8|0,0:0|0:0,0:0:0:0:
331,109,224055,6,0,L|320:205,1,97.50000371933,0|8,1:0|0:0,0:0:0:0:
276,250,224560,1,0,0:0:0:0:
276,250,224729,2,0,L|286:346,1,97.50000371933,0|8,1:0|0:0,0:0:0:0:
400,291,225403,2,0,P|445:306|491:292,1,97.50000371933,0|8,1:0|0:0,0:0:0:0:
512,236,225909,1,0,0:0:0:0:
512,236,226077,1,4,0:3:0:0:
418,150,226414,1,4,0:3:0:0:
486,43,226751,6,0,P|441:25|392:27,1,97.50000371933,4|8,1:1|0:0,0:0:0:0:
335,55,227257,1,0,0:0:0:0:
335,55,227426,2,0,P|277:52|221:58,1,97.50000371933,0|8,1:0|0:0,0:0:0:0:
115,22,228100,2,0,P|122:70|122:119,1,97.50000371933,0|8,1:0|0:0,0:0:0:0:
142,178,228605,1,0,0:0:0:0:
142,178,228774,2,0,L|80:185,1,48.750001859665,0|0,1:0|0:0,0:0:0:0:
58,236,229111,2,0,L|65:298,1,48.750001859665,8|0,0:0|0:0,0:0:0:0:
108,327,229448,6,0,P|153:310|201:314,1,97.50000371933,0|8,1:0|0:0,0:0:0:0:
261,334,229954,1,0,0:0:0:0:
261,334,230122,2,0,L|252:219,1,97.50000371933,0|8,1:0|0:0,0:0:0:0:
321,130,230796,2,0,P|366:139|436:124,1,97.50000371933,0|8,1:0|0:0,0:0:0:0:
460,85,231302,1,0,0:0:0:0:
460,85,231470,1,4,0:3:0:0:
445,211,231808,1,4,0:3:0:0:
475,333,232145,6,0,P|428:319|379:320,1,97.50000371933,4|2,0:1|0:0,0:0:0:0:
321,343,232650,1,2,0:0:0:0:
321,343,232819,2,0,L|296:345,3,24.3750009298325,2|0|2|0,0:0|0:0|0:0|0:0,0:0:0:0:
277,323,233156,2,0,L|277:274,1,48.750001859665,2|2,0:0|0:0,0:0:0:0:
244,225,233493,2,0,P|219:224|195:222,2,48.750001859665,2|0|2,0:0|0:0|0:0,0:0:0:0:
286,184,233999,1,0,0:0:0:0:
286,184,234167,2,0,B|336:177|331:201|381:192,1,97.50000371933,4|0,0:1|0:0,0:0:0:0:
