osu file format v14

[General]
AudioFilename: audio.mp3
AudioLeadIn: 0
PreviewTime: 54108
Countdown: 0
SampleSet: Normal
StackLeniency: 0.7
Mode: 1
LetterboxInBreaks: 0
WidescreenStoryboard: 0

[Editor]
DistanceSpacing: 1.5
BeatDivisor: 4
GridSize: 4
TimelineZoom: 2

[Metadata]
Title:Party in the HOLLOWood feat. Nanahira
TitleUnicode:Party in the HOLLOWood feat. ななひら
Artist:t+pazolite
ArtistUnicode:t+pazolite
Creator:Karee Pan
Version:Oni
Source:
Tags:tpaz, good evening, yuzu__rinrin, ayyri, Comiket 93, C93, Evening CHS-0031, C.H.S, CHS, tpz
BeatmapID:1533783
BeatmapSetID:726497

[Difficulty]
HPDrainRate:6
CircleSize:2
OverallDifficulty:6
ApproachRate:5
SliderMultiplier:1.4
SliderTickRate:1

[Events]
//Background and Video events
0,0,"BG.jpg",0,0
//Break Periods
//Storyboard Layer 0 (Background)
//Storyboard Layer 1 (Fail)
//Storyboard Layer 2 (Pass)
//Storyboard Layer 3 (Foreground)
//Storyboard Sound Samples

[TimingPoints]
11132.0654498691,337.078651685393,4,1,0,70,1,0
21918,-105.263157894737,4,1,0,70,0,0
22255,-111.111111111111,4,1,0,60,0,0
32705,-100,4,1,0,70,0,0
43828,-111.111111111111,4,1,0,70,0,0
44165,-125,4,1,0,60,0,0
54278,-100,4,1,0,80,0,1
56553,-55.5555555555556,4,1,0,80,0,1
56721,-100,4,1,0,80,0,1
61946,-55.5555555555556,4,1,0,80,0,1
62115,-100,4,1,0,80,0,1
67339,-55.5555555555556,4,1,0,80,0,1
67508,-100,4,1,0,80,0,1
72733,-55.5555555555556,4,1,0,80,0,1
72901,-100,4,1,0,80,0,1
75851,-100,4,1,0,50,0,0
77199,-100,4,1,0,60,0,0
78547,-100,4,1,0,70,0,0
89334,-100,4,1,0,80,0,0
98772,-100,4,1,0,60,0,0
100373,-111.111111111111,4,1,0,60,0,0
110907,-100,4,1,0,75,0,0
122030,-111.111111111111,4,1,0,60,0,0
122368,-125,4,1,0,60,0,0
132480,-100,4,1,0,80,0,1
134755,-55.5555555555556,4,1,0,80,0,1
134924,-100,4,1,0,80,0,1
140148,-55.5555555555556,4,1,0,80,0,1
140317,-100,4,1,0,80,0,1
145542,-55.5555555555556,4,1,0,80,0,1
145710,-100,4,1,0,80,0,1
150935,-55.5555555555556,4,1,0,80,0,1
151103,-100,4,1,0,80,0,1
154221,-100,4,1,0,60,0,0
154896,-111.111111111111,4,1,0,60,0,0
155401,-125,4,1,0,60,0,0
175626,-111.111111111111,4,1,0,60,0,0
181019,-111.111111111111,4,1,0,65,0,0
183716,-105.263157894737,4,1,0,70,0,0
186412,-100,4,1,0,80,0,1
188688,-55.5555555555556,4,1,0,80,0,1
188856,-100,4,1,0,80,0,1
194081,-55.5555555555556,4,1,0,80,0,1
194250,-100,4,1,0,80,0,1
199474,-55.5555555555556,4,1,0,80,0,1
199643,-100,4,1,0,80,0,1
204868,-55.5555555555556,4,1,0,80,0,1
205036,-100,4,1,0,80,0,1
207985,-100,4,1,0,50,0,0
209334,-100,4,1,0,60,0,0
210682,-100,4,1,0,70,0,0
221469,-90.9090909090909,4,1,0,80,0,0
232255,-95.2380952380952,4,1,0,80,0,0
232592,-100,4,1,0,80,0,0

[HitObjects]
252,192,9783,5,0,0:0:0:0:
252,192,9952,1,8,0:0:0:0:
252,192,10120,1,0,0:0:0:0:
252,192,10289,1,8,0:0:0:0:
252,192,10457,1,8,0:0:0:0:
252,192,10626,1,0,0:0:0:0:
244,192,10794,1,0,0:0:0:0:
252,268,11132,1,12,0:0:0:0:
288,216,11300,1,8,0:0:0:0:
252,256,11384,1,8,0:0:0:0:
252,256,11469,1,0,0:0:0:0:
264,240,11637,1,0,0:0:0:0:
264,240,11806,1,8,0:0:0:0:
264,240,11974,1,8,0:0:0:0:
264,240,12143,1,0,0:0:0:0:
256,208,12311,1,0,0:0:0:0:
264,240,12480,1,8,0:0:0:0:
264,240,12648,1,8,0:0:0:0:
272,216,12817,1,0,0:0:0:0:
264,240,12985,1,8,0:0:0:0:
264,240,13154,1,0,0:0:0:0:
264,240,13323,1,8,0:0:0:0:
264,240,13491,1,0,0:0:0:0:
264,240,13828,1,8,0:0:0:0:
264,240,13997,1,8,0:0:0:0:
264,240,14081,1,8,0:0:0:0:
264,240,14165,1,0,0:0:0:0:
264,240,14334,1,0,0:0:0:0:
264,240,14502,1,8,0:0:0:0:
264,240,14671,1,8,0:0:0:0:
264,240,14839,1,0,0:0:0:0:
184,184,15008,1,0,0:0:0:0:
264,240,15177,1,8,0:0:0:0:
264,240,15345,1,0,0:0:0:0:
264,240,15514,1,0,0:0:0:0:
264,240,15682,1,8,0:0:0:0:
264,240,15851,1,4,0:0:0:0:
264,240,16188,1,4,0:0:0:0:
264,240,16525,1,8,0:0:0:0:
264,240,16693,1,8,0:0:0:0:
264,240,16778,1,8,0:0:0:0:
264,240,16862,1,0,0:0:0:0:
264,240,17030,1,0,0:0:0:0:
264,240,17199,1,8,0:0:0:0:
264,240,17368,1,8,0:0:0:0:
264,240,17536,1,0,0:0:0:0:
268,212,17705,1,0,0:0:0:0:
264,240,17873,1,8,0:0:0:0:
264,240,18042,1,8,0:0:0:0:
264,240,18210,1,0,0:0:0:0:
264,240,18379,1,8,0:0:0:0:
264,240,18547,1,0,0:0:0:0:
264,240,18716,1,8,0:0:0:0:
264,240,18884,1,0,0:0:0:0:
264,240,19221,1,8,0:0:0:0:
264,240,19390,1,8,0:0:0:0:
264,240,19474,1,8,0:0:0:0:
264,240,19559,1,0,0:0:0:0:
264,240,19727,1,0,0:0:0:0:
264,240,19896,1,8,0:0:0:0:
264,240,20064,1,8,0:0:0:0:
264,240,20233,1,0,0:0:0:0:
264,216,20401,1,0,0:0:0:0:
264,240,20570,1,8,0:0:0:0:
264,240,20738,1,0,0:0:0:0:
264,240,20907,1,8,0:0:0:0:
264,240,21075,1,8,0:0:0:0:
264,240,21244,1,4,0:0:0:0:
208,120,21581,1,4,0:0:0:0:
216,108,21918,1,0,0:0:0:0:
208,120,22255,1,8,0:0:0:0:
208,120,22424,1,0,0:0:0:0:
208,120,22592,1,0,0:0:0:0:
208,120,22929,1,8,0:0:0:0:
244,188,23098,1,8,0:0:0:0:
208,120,23266,1,0,0:0:0:0:
208,120,23603,1,0,0:0:0:0:
208,112,23941,5,0,0:0:0:0:
208,112,24109,1,8,0:0:0:0:
208,112,24278,1,8,0:0:0:0:
208,120,24615,1,0,0:0:0:0:
208,120,24952,1,8,0:0:0:0:
208,120,25120,1,0,0:0:0:0:
208,120,25289,1,0,0:0:0:0:
208,120,25626,1,8,0:0:0:0:
200,124,25794,1,0,0:0:0:0:
216,124,25963,1,8,0:0:0:0:
216,124,26300,1,8,0:0:0:0:
216,124,26637,1,0,0:0:0:0:
216,124,26806,1,8,0:0:0:0:
216,124,26974,1,8,0:0:0:0:
208,128,27311,1,0,0:0:0:0:
208,128,27648,1,8,0:0:0:0:
208,128,27817,1,0,0:0:0:0:
208,128,27985,1,0,0:0:0:0:
208,128,28323,1,8,0:0:0:0:
256,124,28491,1,0,0:0:0:0:
208,128,28660,1,0,0:0:0:0:
208,128,28997,1,0,0:0:0:0:
208,128,29334,1,0,0:0:0:0:
208,128,29502,1,8,0:0:0:0:
208,128,29671,1,8,0:0:0:0:
208,128,30008,1,0,0:0:0:0:
204,120,30345,1,8,0:0:0:0:
204,120,30514,1,0,0:0:0:0:
208,116,30682,1,0,0:0:0:0:
208,116,31019,1,8,0:0:0:0:
228,128,31188,1,0,0:0:0:0:
192,128,31356,1,8,0:0:0:0:
192,128,31693,1,8,0:0:0:0:
192,128,32030,1,8,0:0:0:0:
192,128,32199,1,8,0:0:0:0:
200,168,32368,1,0,0:0:0:0:
271,190,32705,5,4,0:0:0:0:
272,172,32873,1,8,0:0:0:0:
244,168,32957,1,8,0:0:0:0:
244,188,33042,1,0,0:0:0:0:
244,188,33210,1,8,0:0:0:0:
244,188,33379,1,0,0:0:0:0:
248,180,33547,1,8,0:0:0:0:
240,180,33632,1,0,0:0:0:0:
244,188,33716,1,8,0:0:0:0:
244,188,33884,1,0,0:0:0:0:
244,188,34053,1,8,0:0:0:0:
256,188,34221,1,0,0:0:0:0:
244,188,34390,1,8,0:0:0:0:
236,160,34559,1,8,0:0:0:0:
212,184,34727,1,0,0:0:0:0:
244,188,34896,1,0,0:0:0:0:
244,188,35064,1,8,0:0:0:0:
236,196,35401,1,0,0:0:0:0:
224,188,35570,1,8,0:0:0:0:
268,188,35654,1,8,0:0:0:0:
244,188,35738,1,0,0:0:0:0:
244,188,35907,1,8,0:0:0:0:
244,188,36075,1,0,0:0:0:0:
276,188,36244,1,8,0:0:0:0:
244,188,36328,1,0,0:0:0:0:
244,188,36412,1,8,0:0:0:0:
244,188,36581,1,0,0:0:0:0:
244,188,36750,1,8,0:0:0:0:
244,188,36918,1,0,0:0:0:0:
244,188,37087,1,8,0:0:0:0:
244,188,37255,1,8,0:0:0:0:
248,184,37424,1,0,0:0:0:0:
236,180,37592,1,8,0:0:0:0:
244,188,37761,1,0,0:0:0:0:
244,188,38098,1,0,0:0:0:0:
232,176,38266,1,8,0:0:0:0:
248,184,38351,1,8,0:0:0:0:
244,188,38435,1,0,0:0:0:0:
244,188,38603,1,8,0:0:0:0:
244,188,38772,1,0,0:0:0:0:
244,208,38941,1,8,0:0:0:0:
244,188,39025,1,0,0:0:0:0:
244,188,39109,1,8,0:0:0:0:
244,188,39278,1,0,0:0:0:0:
244,188,39446,1,8,0:0:0:0:
244,188,39615,1,0,0:0:0:0:
244,188,39783,1,8,0:0:0:0:
236,196,39952,1,8,0:0:0:0:
244,188,40120,1,0,0:0:0:0:
244,188,40289,1,0,0:0:0:0:
244,188,40457,1,8,0:0:0:0:
244,188,40626,1,8,0:0:0:0:
244,188,40794,1,0,0:0:0:0:
244,188,41132,1,8,0:0:0:0:
244,188,41300,1,8,0:0:0:0:
244,188,41384,1,8,0:0:0:0:
244,188,41469,1,0,0:0:0:0:
244,188,41637,1,0,0:0:0:0:
244,188,41806,1,8,0:0:0:0:
244,188,41974,1,8,0:0:0:0:
244,188,42143,1,0,0:0:0:0:
244,188,42480,1,8,0:0:0:0:
280,212,42648,1,8,0:0:0:0:
224,184,42733,1,0,0:0:0:0:
228,184,42817,1,0,0:0:0:0:
255,206,42985,1,0,0:0:0:0:
280,212,43154,1,8,0:0:0:0:
160,188,43491,1,4,0:0:0:0:
216,196,44165,1,8,0:0:0:0:
216,196,44502,1,8,0:0:0:0:
216,196,44839,1,8,0:0:0:0:
216,196,45008,1,8,0:0:0:0:
216,196,45177,1,0,0:0:0:0:
216,196,45345,1,8,0:0:0:0:
216,196,45514,1,0,0:0:0:0:
216,196,45851,1,8,0:0:0:0:
216,196,46188,1,4,0:0:0:0:
216,196,46862,1,8,0:0:0:0:
216,196,47199,1,8,0:0:0:0:
216,196,47536,1,0,0:0:0:0:
216,196,47705,1,8,0:0:0:0:
216,196,47873,1,0,0:0:0:0:
216,196,48042,1,8,0:0:0:0:
216,196,48210,1,8,0:0:0:0:
232,184,48547,1,8,0:0:0:0:
160,184,48884,1,4,0:0:0:0:
216,196,49559,1,8,0:0:0:0:
216,196,49896,1,8,0:0:0:0:
216,196,50233,1,8,0:0:0:0:
216,196,50401,1,8,0:0:0:0:
216,196,50570,1,0,0:0:0:0:
216,196,50738,1,8,0:0:0:0:
216,196,50907,1,0,0:0:0:0:
216,196,51244,1,8,0:0:0:0:
216,196,51581,1,4,0:0:0:0:
216,196,52255,1,0,0:0:0:0:
216,196,52592,1,0,0:0:0:0:
216,196,52929,1,8,0:0:0:0:
216,196,53603,1,8,0:0:0:0:
212,204,53941,5,12,0:0:0:0:
244,195,54278,1,4,0:0:0:0:
244,195,54446,1,0,0:0:0:0:
244,195,54530,1,0,0:0:0:0:
244,195,54615,1,8,0:0:0:0:
244,195,54783,1,0,0:0:0:0:
244,195,54952,1,8,0:0:0:0:
236,212,55120,1,0,0:0:0:0:
244,195,55289,1,0,0:0:0:0:
244,195,55457,1,0,0:0:0:0:
244,195,55626,1,0,0:0:0:0:
248,200,55794,1,8,0:0:0:0:
244,195,55879,1,8,0:0:0:0:
244,195,55963,1,0,0:0:0:0:
244,195,56132,1,8,0:0:0:0:
244,195,56300,1,0,0:0:0:0:
244,195,56637,1,12,0:0:0:0:
244,195,56974,1,0,0:0:0:0:
244,195,57143,1,0,0:0:0:0:
236,192,57227,1,0,0:0:0:0:
244,195,57311,1,8,0:0:0:0:
244,195,57480,1,8,0:0:0:0:
244,195,57648,1,0,0:0:0:0:
200,188,57817,1,8,0:0:0:0:
208,184,57901,1,8,0:0:0:0:
244,195,57985,1,0,0:0:0:0:
212,196,58154,1,8,0:0:0:0:
244,176,58323,1,0,0:0:0:0:
244,195,58491,1,8,0:0:0:0:
224,184,58575,1,0,0:0:0:0:
244,195,58660,1,8,0:0:0:0:
248,152,58828,1,0,0:0:0:0:
244,195,58997,1,8,0:0:0:0:
244,195,59334,1,0,0:0:0:0:
228,200,59502,1,8,0:0:0:0:
244,195,59671,1,4,0:0:0:0:
244,195,59839,1,0,0:0:0:0:
244,195,59924,1,0,0:0:0:0:
244,195,60008,1,8,0:0:0:0:
244,195,60177,1,0,0:0:0:0:
244,195,60345,1,8,0:0:0:0:
208,212,60514,1,8,0:0:0:0:
244,208,60682,1,0,0:0:0:0:
244,204,60851,1,0,0:0:0:0:
244,195,61019,1,0,0:0:0:0:
244,195,61188,5,8,0:0:0:0:
244,195,61272,1,8,0:0:0:0:
204,200,61356,1,0,0:0:0:0:
244,195,61525,1,8,0:0:0:0:
244,195,61693,1,0,0:0:0:0:
244,195,62030,1,12,0:0:0:0:
244,195,62368,1,0,0:0:0:0:
244,195,62536,1,0,0:0:0:0:
244,195,62705,1,8,0:0:0:0:
260,196,62873,1,0,0:0:0:0:
244,195,62957,1,0,0:0:0:0:
244,195,63042,1,8,0:0:0:0:
216,148,63210,1,0,0:0:0:0:
236,192,63379,1,8,0:0:0:0:
212,184,63547,1,8,0:0:0:0:
216,180,63632,1,8,0:0:0:0:
244,195,63716,1,0,0:0:0:0:
244,195,63884,1,8,0:0:0:0:
244,195,64053,1,0,0:0:0:0:
244,195,64221,1,8,0:0:0:0:
244,195,64390,1,0,0:0:0:0:
244,195,64727,1,8,0:0:0:0:
244,195,65064,1,4,0:0:0:0:
244,195,65233,1,0,0:0:0:0:
244,195,65317,1,0,0:0:0:0:
244,195,65401,1,8,0:0:0:0:
244,195,65570,1,0,0:0:0:0:
244,195,65738,1,8,0:0:0:0:
228,200,65907,1,0,0:0:0:0:
244,195,66075,1,0,0:0:0:0:
244,195,66244,1,0,0:0:0:0:
244,195,66412,1,0,0:0:0:0:
260,195,66581,1,8,0:0:0:0:
260,195,66665,1,8,0:0:0:0:
256,200,66750,1,0,0:0:0:0:
244,195,66918,1,8,0:0:0:0:
244,195,67087,1,0,0:0:0:0:
244,195,67424,1,12,0:0:0:0:
244,195,67761,1,0,0:0:0:0:
244,195,67929,1,0,0:0:0:0:
236,192,68014,1,0,0:0:0:0:
244,195,68098,1,8,0:0:0:0:
244,195,68266,1,8,0:0:0:0:
244,195,68435,1,0,0:0:0:0:
200,188,68603,1,8,0:0:0:0:
208,184,68688,1,8,0:0:0:0:
244,195,68772,1,0,0:0:0:0:
212,196,68941,1,8,0:0:0:0:
244,176,69109,1,0,0:0:0:0:
244,195,69278,1,8,0:0:0:0:
224,184,69362,1,0,0:0:0:0:
244,195,69446,1,8,0:0:0:0:
248,152,69615,1,0,0:0:0:0:
244,195,69783,1,8,0:0:0:0:
244,195,70120,1,0,0:0:0:0:
228,200,70289,1,8,0:0:0:0:
244,195,70457,1,4,0:0:0:0:
244,195,70626,1,0,0:0:0:0:
244,195,70710,1,0,0:0:0:0:
244,195,70794,1,8,0:0:0:0:
244,195,70963,1,0,0:0:0:0:
244,195,71132,1,8,0:0:0:0:
244,208,71300,1,8,0:0:0:0:
220,204,71469,1,0,0:0:0:0:
240,188,71637,1,0,0:0:0:0:
244,195,71806,1,0,0:0:0:0:
244,195,71974,1,8,0:0:0:0:
244,195,72059,1,8,0:0:0:0:
204,200,72143,1,0,0:0:0:0:
244,195,72311,1,8,0:0:0:0:
244,195,72480,1,0,0:0:0:0:
244,195,72817,1,12,0:0:0:0:
244,195,73154,1,0,0:0:0:0:
244,195,73323,1,0,0:0:0:0:
244,195,73491,1,8,0:0:0:0:
244,195,73660,1,8,0:0:0:0:
244,195,73744,1,0,0:0:0:0:
244,195,73828,1,8,0:0:0:0:
254,195,73997,1,0,0:0:0:0:
244,195,74165,1,8,0:0:0:0:
180,200,74334,1,8,0:0:0:0:
244,195,74418,1,8,0:0:0:0:
234,201,74502,1,0,0:0:0:0:
244,195,74671,1,8,0:0:0:0:
244,195,74839,5,0,0:0:0:0:
244,195,75008,1,8,0:0:0:0:
244,195,75177,1,0,0:0:0:0:
244,195,75514,1,8,0:0:0:0:
244,195,75851,1,0,0:0:0:0:
256,192,76019,12,0,78379,0:0:0:0:
252,268,78547,5,12,0:0:0:0:
288,216,78716,1,8,0:0:0:0:
252,256,78800,1,8,0:0:0:0:
252,256,78884,1,0,0:0:0:0:
264,240,79053,1,0,0:0:0:0:
264,240,79221,1,8,0:0:0:0:
264,240,79390,1,8,0:0:0:0:
264,240,79559,1,0,0:0:0:0:
264,240,79727,1,0,0:0:0:0:
264,240,79896,1,8,0:0:0:0:
264,240,80064,1,8,0:0:0:0:
264,240,80233,1,0,0:0:0:0:
264,240,80401,1,8,0:0:0:0:
264,240,80570,1,0,0:0:0:0:
264,240,80738,1,8,0:0:0:0:
264,240,80907,1,0,0:0:0:0:
264,240,81244,1,8,0:0:0:0:
264,240,81412,1,8,0:0:0:0:
264,240,81497,1,8,0:0:0:0:
264,240,81581,1,0,0:0:0:0:
264,240,81750,1,0,0:0:0:0:
264,240,81918,1,8,0:0:0:0:
264,240,82087,1,8,0:0:0:0:
264,240,82255,1,0,0:0:0:0:
264,240,82424,1,0,0:0:0:0:
264,240,82592,1,8,0:0:0:0:
264,240,82761,1,0,0:0:0:0:
264,240,82929,1,0,0:0:0:0:
264,240,83098,1,8,0:0:0:0:
264,240,83266,1,4,0:0:0:0:
264,240,83603,1,4,0:0:0:0:
264,240,83941,1,8,0:0:0:0:
264,240,84109,1,8,0:0:0:0:
264,240,84193,1,8,0:0:0:0:
264,240,84278,1,0,0:0:0:0:
264,240,84446,1,0,0:0:0:0:
264,240,84615,1,8,0:0:0:0:
264,240,84783,1,8,0:0:0:0:
264,240,84952,1,0,0:0:0:0:
264,240,85120,1,0,0:0:0:0:
264,240,85289,1,8,0:0:0:0:
264,240,85457,1,8,0:0:0:0:
264,240,85626,1,0,0:0:0:0:
264,240,85794,1,8,0:0:0:0:
264,240,85963,1,0,0:0:0:0:
264,240,86132,1,8,0:0:0:0:
264,240,86300,1,0,0:0:0:0:
264,240,86637,1,8,0:0:0:0:
264,240,86806,1,8,0:0:0:0:
264,240,86890,1,8,0:0:0:0:
264,240,86974,1,0,0:0:0:0:
264,240,87143,1,0,0:0:0:0:
264,240,87311,1,8,0:0:0:0:
264,240,87480,1,8,0:0:0:0:
264,240,87648,1,0,0:0:0:0:
264,240,87817,5,0,0:0:0:0:
264,240,87985,1,8,0:0:0:0:
264,240,88154,1,0,0:0:0:0:
264,240,88323,1,8,0:0:0:0:
264,240,88491,1,8,0:0:0:0:
264,240,88660,1,4,0:0:0:0:
264,240,88997,1,4,0:0:0:0:
228,164,89334,1,0,0:0:0:0:
244,168,89502,1,0,0:0:0:0:
244,168,89587,1,8,0:0:0:0:
240,160,89671,1,8,0:0:0:0:
240,160,89839,1,8,0:0:0:0:
240,160,90008,1,0,0:0:0:0:
240,160,90092,1,0,0:0:0:0:
240,160,90177,1,8,0:0:0:0:
240,160,90345,1,0,0:0:0:0:
240,160,90682,1,0,0:0:0:0:
208,172,90851,1,8,0:0:0:0:
208,172,90935,1,8,0:0:0:0:
236,168,91019,1,0,0:0:0:0:
240,160,91188,1,8,0:0:0:0:
240,160,91356,1,0,0:0:0:0:
240,160,91441,1,0,0:0:0:0:
240,160,91525,1,8,0:0:0:0:
240,160,91693,1,0,0:0:0:0:
240,160,92030,1,0,0:0:0:0:
264,168,92199,1,8,0:0:0:0:
264,168,92283,1,8,0:0:0:0:
244,152,92368,1,0,0:0:0:0:
244,152,92536,1,0,0:0:0:0:
244,152,92705,1,0,0:0:0:0:
244,152,92789,1,8,0:0:0:0:
212,164,92873,1,8,0:0:0:0:
244,152,93042,1,0,0:0:0:0:
264,164,93379,1,0,0:0:0:0:
244,168,93463,1,0,0:0:0:0:
264,164,93547,1,8,0:0:0:0:
264,164,93716,1,8,0:0:0:0:
264,164,93884,1,8,0:0:0:0:
264,164,94053,1,0,0:0:0:0:
264,164,94137,1,0,0:0:0:0:
264,164,94221,1,8,0:0:0:0:
280,156,94306,5,8,0:0:0:0:
264,164,94390,1,0,0:0:0:0:
244,208,94727,1,0,0:0:0:0:
252,184,94896,1,0,0:0:0:0:
252,184,94980,1,8,0:0:0:0:
252,184,95064,1,8,0:0:0:0:
252,184,95233,1,8,0:0:0:0:
252,184,95401,1,0,0:0:0:0:
256,160,95485,5,0,0:0:0:0:
252,184,95570,1,8,0:0:0:0:
216,168,95654,1,8,0:0:0:0:
252,184,95738,1,0,0:0:0:0:
288,168,95907,1,8,0:0:0:0:
280,168,95991,1,8,0:0:0:0:
216,168,96075,1,0,0:0:0:0:
252,184,96244,1,8,0:0:0:0:
192,160,96412,1,0,0:0:0:0:
192,164,96497,1,0,0:0:0:0:
264,184,96581,1,8,0:0:0:0:
252,184,96750,1,0,0:0:0:0:
236,184,96834,1,0,0:0:0:0:
240,172,96918,1,8,0:0:0:0:
240,172,97002,1,8,0:0:0:0:
252,184,97087,1,0,0:0:0:0:
252,184,97424,1,0,0:0:0:0:
224,192,97508,1,0,0:0:0:0:
252,184,97592,1,8,0:0:0:0:
240,176,97677,1,0,0:0:0:0:
228,184,97761,1,8,0:0:0:0:
252,184,97929,1,8,0:0:0:0:
252,184,98098,1,0,0:0:0:0:
232,180,98182,1,0,0:0:0:0:
252,184,98266,1,0,0:0:0:0:
252,184,98351,1,0,0:0:0:0:
252,184,98435,1,8,0:0:0:0:
252,184,98772,1,0,0:0:0:0:
252,184,98856,1,0,0:0:0:0:
252,184,98941,5,8,0:0:0:0:
252,184,99109,1,8,0:0:0:0:
252,184,99278,1,8,0:0:0:0:
252,184,99446,1,0,0:0:0:0:
252,184,99615,1,0,0:0:0:0:
252,184,99783,1,8,0:0:0:0:
220,176,99952,1,8,0:0:0:0:
188,164,100120,5,0,0:0:0:0:
260,200,100626,1,0,0:0:0:0:
244,192,100794,1,8,0:0:0:0:
224,184,101132,1,0,0:0:0:0:
244,192,101469,1,0,0:0:0:0:
216,176,101806,1,0,0:0:0:0:
244,192,102143,1,0,0:0:0:0:
244,192,102311,1,8,0:0:0:0:
244,192,102480,1,8,0:0:0:0:
244,192,102817,1,0,0:0:0:0:
228,180,103323,1,0,0:0:0:0:
228,180,103491,1,8,0:0:0:0:
228,180,103828,1,0,0:0:0:0:
228,180,104165,1,0,0:0:0:0:
228,180,104502,1,8,0:0:0:0:
264,172,104839,1,0,0:0:0:0:
264,172,105008,1,8,0:0:0:0:
264,172,105177,1,8,0:0:0:0:
264,172,105514,1,0,0:0:0:0:
220,184,106019,1,0,0:0:0:0:
264,172,106188,1,8,0:0:0:0:
264,172,106525,1,0,0:0:0:0:
264,172,106862,1,0,0:0:0:0:
248,176,107199,1,0,0:0:0:0:
264,172,107536,1,0,0:0:0:0:
264,172,107705,1,8,0:0:0:0:
264,172,107873,1,8,0:0:0:0:
264,172,108210,1,0,0:0:0:0:
224,168,108716,1,0,0:0:0:0:
264,172,108884,1,8,0:0:0:0:
264,172,109221,1,0,0:0:0:0:
264,172,109559,1,8,0:0:0:0:
264,172,109896,5,0,0:0:0:0:
264,172,110233,1,8,0:0:0:0:
264,172,110401,1,8,0:0:0:0:
208,168,110570,1,0,0:0:0:0:
160,168,110907,5,4,0:0:0:0:
176,184,111075,1,8,0:0:0:0:
208,208,111160,1,8,0:0:0:0:
176,180,111244,1,0,0:0:0:0:
176,180,111412,1,8,0:0:0:0:
176,180,111581,1,0,0:0:0:0:
176,180,111750,1,8,0:0:0:0:
176,180,111834,1,0,0:0:0:0:
176,180,111918,1,8,0:0:0:0:
176,180,112087,1,0,0:0:0:0:
176,180,112255,1,8,0:0:0:0:
168,184,112424,1,0,0:0:0:0:
176,180,112592,1,8,0:0:0:0:
176,180,112761,1,8,0:0:0:0:
184,160,112929,1,0,0:0:0:0:
176,180,113098,1,0,0:0:0:0:
176,180,113266,1,8,0:0:0:0:
176,180,113603,1,0,0:0:0:0:
176,180,113772,1,8,0:0:0:0:
176,180,113856,1,8,0:0:0:0:
176,180,113941,1,0,0:0:0:0:
176,180,114109,1,8,0:0:0:0:
176,180,114278,1,0,0:0:0:0:
176,180,114446,1,8,0:0:0:0:
200,188,114530,1,0,0:0:0:0:
176,180,114615,1,8,0:0:0:0:
176,180,114783,1,0,0:0:0:0:
176,180,114952,1,8,0:0:0:0:
176,180,115120,1,0,0:0:0:0:
176,180,115289,1,8,0:0:0:0:
176,180,115457,1,8,0:0:0:0:
176,180,115626,1,8,0:0:0:0:
176,180,115794,1,0,0:0:0:0:
176,180,115963,1,0,0:0:0:0:
184,168,116300,1,0,0:0:0:0:
188,192,116469,1,8,0:0:0:0:
188,192,116553,1,8,0:0:0:0:
180,160,116637,1,0,0:0:0:0:
180,160,116806,1,0,0:0:0:0:
180,160,116974,1,0,0:0:0:0:
180,160,117143,1,8,0:0:0:0:
200,188,117227,1,0,0:0:0:0:
200,188,117311,1,8,0:0:0:0:
200,188,117480,1,0,0:0:0:0:
200,188,117648,1,8,0:0:0:0:
200,188,117817,1,0,0:0:0:0:
200,188,117985,1,8,0:0:0:0:
200,188,118154,1,8,0:0:0:0:
200,188,118323,1,0,0:0:0:0:
200,188,118491,1,0,0:0:0:0:
200,188,118660,1,8,0:0:0:0:
200,188,118828,1,8,0:0:0:0:
200,188,118997,1,0,0:0:0:0:
172,184,119334,1,8,0:0:0:0:
208,184,119502,1,8,0:0:0:0:
208,184,119587,1,8,0:0:0:0:
172,184,119671,1,0,0:0:0:0:
172,184,119839,1,0,0:0:0:0:
172,184,120008,1,8,0:0:0:0:
172,184,120177,1,0,0:0:0:0:
120,192,120345,1,0,0:0:0:0:
160,188,120682,1,8,0:0:0:0:
160,188,120851,1,8,0:0:0:0:
208,184,120935,1,0,0:0:0:0:
208,184,121019,1,0,0:0:0:0:
160,188,121188,1,0,0:0:0:0:
160,188,121356,1,8,0:0:0:0:
160,188,121693,1,4,0:0:0:0:
216,196,122368,1,8,0:0:0:0:
216,196,122705,1,8,0:0:0:0:
216,196,123042,1,8,0:0:0:0:
216,196,123210,1,8,0:0:0:0:
216,196,123379,1,0,0:0:0:0:
216,196,123547,1,8,0:0:0:0:
216,196,123716,1,0,0:0:0:0:
216,196,124053,1,8,0:0:0:0:
216,196,124390,1,4,0:0:0:0:
216,196,125064,1,8,0:0:0:0:
216,196,125401,1,8,0:0:0:0:
216,196,125738,1,0,0:0:0:0:
216,196,125907,1,8,0:0:0:0:
216,196,126075,1,0,0:0:0:0:
216,196,126244,1,8,0:0:0:0:
216,196,126412,1,8,0:0:0:0:
220,204,126750,1,8,0:0:0:0:
160,184,127087,1,4,0:0:0:0:
216,196,127761,1,8,0:0:0:0:
216,196,128098,1,8,0:0:0:0:
216,196,128435,1,8,0:0:0:0:
216,196,128603,1,8,0:0:0:0:
216,196,128772,1,0,0:0:0:0:
216,196,128941,1,8,0:0:0:0:
216,196,129109,1,0,0:0:0:0:
216,196,129446,1,8,0:0:0:0:
216,196,129783,1,4,0:0:0:0:
216,196,130457,1,0,0:0:0:0:
216,196,130794,1,0,0:0:0:0:
216,196,131132,1,8,0:0:0:0:
216,196,131806,5,8,0:0:0:0:
216,196,132143,1,12,0:0:0:0:
244,195,132480,1,4,0:0:0:0:
244,195,132648,1,0,0:0:0:0:
244,195,132733,1,0,0:0:0:0:
244,195,132817,1,8,0:0:0:0:
244,195,132985,1,0,0:0:0:0:
244,195,133154,1,8,0:0:0:0:
244,195,133323,1,0,0:0:0:0:
244,195,133491,1,0,0:0:0:0:
244,195,133660,1,0,0:0:0:0:
244,195,133828,1,0,0:0:0:0:
248,200,133997,1,8,0:0:0:0:
244,195,134081,1,8,0:0:0:0:
244,195,134165,1,0,0:0:0:0:
244,195,134334,1,8,0:0:0:0:
244,195,134502,1,0,0:0:0:0:
244,195,134839,1,12,0:0:0:0:
244,195,135177,1,0,0:0:0:0:
244,195,135345,1,0,0:0:0:0:
236,192,135429,1,0,0:0:0:0:
244,195,135514,1,8,0:0:0:0:
244,195,135682,1,8,0:0:0:0:
244,195,135851,1,0,0:0:0:0:
200,188,136019,1,8,0:0:0:0:
208,184,136103,1,8,0:0:0:0:
244,195,136188,1,0,0:0:0:0:
212,196,136356,1,8,0:0:0:0:
244,176,136525,1,0,0:0:0:0:
224,200,136609,1,0,0:0:0:0:
244,195,136693,1,8,0:0:0:0:
224,184,136778,1,0,0:0:0:0:
244,195,136862,1,8,0:0:0:0:
248,152,137030,1,0,0:0:0:0:
244,195,137199,1,8,0:0:0:0:
244,195,137536,1,0,0:0:0:0:
228,200,137705,1,8,0:0:0:0:
244,195,137873,1,4,0:0:0:0:
244,195,138042,1,0,0:0:0:0:
244,195,138126,1,0,0:0:0:0:
244,195,138210,1,8,0:0:0:0:
244,195,138379,1,0,0:0:0:0:
244,195,138547,1,8,0:0:0:0:
220,204,138716,1,8,0:0:0:0:
244,208,138884,1,0,0:0:0:0:
244,204,139053,1,0,0:0:0:0:
200,204,139221,1,0,0:0:0:0:
244,195,139390,5,8,0:0:0:0:
244,195,139474,1,8,0:0:0:0:
204,200,139559,1,0,0:0:0:0:
244,195,139727,1,8,0:0:0:0:
244,195,139896,1,0,0:0:0:0:
244,195,140233,1,12,0:0:0:0:
244,195,140570,1,0,0:0:0:0:
244,195,140738,1,0,0:0:0:0:
244,195,140907,1,8,0:0:0:0:
260,196,141075,1,0,0:0:0:0:
244,195,141160,1,0,0:0:0:0:
244,195,141244,1,8,0:0:0:0:
216,148,141412,1,0,0:0:0:0:
236,192,141581,1,8,0:0:0:0:
212,184,141750,1,8,0:0:0:0:
216,180,141834,1,8,0:0:0:0:
244,195,141918,1,0,0:0:0:0:
244,195,142087,1,8,0:0:0:0:
244,195,142255,1,0,0:0:0:0:
244,195,142424,1,8,0:0:0:0:
244,195,142592,1,0,0:0:0:0:
244,195,142929,1,8,0:0:0:0:
244,195,143266,1,4,0:0:0:0:
244,195,143435,1,0,0:0:0:0:
244,195,143519,1,0,0:0:0:0:
244,195,143603,1,8,0:0:0:0:
244,195,143772,1,0,0:0:0:0:
244,195,143941,1,8,0:0:0:0:
244,195,144109,1,0,0:0:0:0:
244,195,144278,1,0,0:0:0:0:
244,195,144446,1,0,0:0:0:0:
244,195,144615,1,0,0:0:0:0:
260,195,144783,1,8,0:0:0:0:
260,195,144868,1,8,0:0:0:0:
256,200,144952,1,0,0:0:0:0:
244,195,145120,1,8,0:0:0:0:
244,195,145289,1,0,0:0:0:0:
244,195,145626,1,12,0:0:0:0:
244,195,145963,1,0,0:0:0:0:
244,195,146132,1,0,0:0:0:0:
236,192,146216,1,0,0:0:0:0:
244,195,146300,1,8,0:0:0:0:
244,195,146469,1,8,0:0:0:0:
244,195,146637,1,0,0:0:0:0:
200,188,146806,1,8,0:0:0:0:
208,184,146890,1,8,0:0:0:0:
244,195,146974,1,0,0:0:0:0:
212,196,147143,1,8,0:0:0:0:
244,176,147311,1,0,0:0:0:0:
216,184,147396,1,0,0:0:0:0:
244,195,147480,1,8,0:0:0:0:
224,184,147564,1,0,0:0:0:0:
244,195,147648,1,8,0:0:0:0:
248,152,147817,1,0,0:0:0:0:
244,195,147985,1,8,0:0:0:0:
244,195,148323,1,0,0:0:0:0:
228,200,148491,1,8,0:0:0:0:
244,195,148660,1,4,0:0:0:0:
244,195,148828,1,0,0:0:0:0:
244,195,148912,1,0,0:0:0:0:
244,195,148997,1,8,0:0:0:0:
244,195,149165,1,0,0:0:0:0:
244,195,149334,1,8,0:0:0:0:
244,208,149502,1,8,0:0:0:0:
220,204,149671,1,0,0:0:0:0:
244,204,149839,1,0,0:0:0:0:
244,195,150008,1,0,0:0:0:0:
244,195,150177,1,8,0:0:0:0:
244,195,150261,1,8,0:0:0:0:
204,200,150345,1,0,0:0:0:0:
244,195,150514,1,8,0:0:0:0:
244,195,150682,1,0,0:0:0:0:
244,195,151019,1,12,0:0:0:0:
244,195,151356,1,0,0:0:0:0:
244,195,151525,1,0,0:0:0:0:
244,195,151693,1,8,0:0:0:0:
244,195,151862,1,8,0:0:0:0:
244,195,151946,1,0,0:0:0:0:
244,195,152030,1,8,0:0:0:0:
254,195,152199,1,0,0:0:0:0:
244,195,152368,1,8,0:0:0:0:
180,200,152536,1,8,0:0:0:0:
244,195,152620,1,8,0:0:0:0:
234,201,152705,1,0,0:0:0:0:
244,195,152873,1,8,0:0:0:0:
244,195,153042,5,0,0:0:0:0:
244,195,153210,1,8,0:0:0:0:
244,195,153379,1,0,0:0:0:0:
244,195,153716,1,8,0:0:0:0:
244,195,154053,1,0,0:0:0:0:
204,196,154390,5,0,0:0:0:0:
204,196,154727,1,8,0:0:0:0:
204,196,155064,1,0,0:0:0:0:
204,196,155401,1,0,0:0:0:0:
204,196,155570,1,8,0:0:0:0:
204,196,155738,1,0,0:0:0:0:
204,196,155907,1,8,0:0:0:0:
204,196,156075,1,0,0:0:0:0:
204,196,156412,1,0,0:0:0:0:
256,196,156750,5,0,0:0:0:0:
256,196,157087,1,0,0:0:0:0:
256,196,157424,1,8,0:0:0:0:
256,196,157761,1,0,0:0:0:0:
256,196,158098,1,0,0:0:0:0:
256,196,158266,1,8,0:0:0:0:
256,196,158435,1,0,0:0:0:0:
256,196,158603,1,8,0:0:0:0:
256,196,158772,1,0,0:0:0:0:
256,196,159446,1,0,0:0:0:0:
256,196,159783,1,0,0:0:0:0:
256,196,160120,1,8,0:0:0:0:
256,196,160457,1,0,0:0:0:0:
256,196,160794,1,0,0:0:0:0:
256,196,160963,1,8,0:0:0:0:
256,196,161132,1,0,0:0:0:0:
256,196,161300,1,8,0:0:0:0:
256,196,161469,1,0,0:0:0:0:
256,196,161806,1,0,0:0:0:0:
256,196,162143,1,0,0:0:0:0:
256,196,162480,1,0,0:0:0:0:
256,196,162817,1,8,0:0:0:0:
256,196,163154,1,0,0:0:0:0:
256,196,163491,1,0,0:0:0:0:
256,196,163660,1,8,0:0:0:0:
256,196,163828,1,0,0:0:0:0:
256,196,163997,1,8,0:0:0:0:
256,196,164165,1,0,0:0:0:0:
280,204,164502,1,0,0:0:0:0:
280,204,164671,1,8,0:0:0:0:
280,204,164839,1,8,0:0:0:0:
280,204,165177,1,0,0:0:0:0:
292,212,165345,1,0,0:0:0:0:
280,204,165514,1,8,0:0:0:0:
280,204,165851,1,0,0:0:0:0:
280,204,166188,1,0,0:0:0:0:
280,204,166356,1,8,0:0:0:0:
280,204,166525,1,0,0:0:0:0:
280,204,166693,1,8,0:0:0:0:
280,204,166862,1,8,0:0:0:0:
280,204,167199,1,8,0:0:0:0:
280,204,167536,1,0,0:0:0:0:
264,200,167873,1,0,0:0:0:0:
292,212,168042,1,0,0:0:0:0:
280,204,168210,1,8,0:0:0:0:
280,204,168547,1,0,0:0:0:0:
292,212,168884,1,0,0:0:0:0:
292,212,169053,1,8,0:0:0:0:
292,212,169221,1,0,0:0:0:0:
292,212,169390,1,8,0:0:0:0:
292,212,169559,1,0,0:0:0:0:
292,212,169896,1,0,0:0:0:0:
292,212,170064,1,8,0:0:0:0:
292,212,170233,1,8,0:0:0:0:
292,212,170570,1,0,0:0:0:0:
292,212,170738,1,0,0:0:0:0:
292,212,170907,1,8,0:0:0:0:
292,212,171244,1,0,0:0:0:0:
292,212,171581,1,0,0:0:0:0:
292,212,171750,1,8,0:0:0:0:
292,212,171918,1,0,0:0:0:0:
292,212,172087,1,8,0:0:0:0:
300,212,172255,1,0,0:0:0:0:
300,212,172592,1,0,0:0:0:0:
300,212,172929,1,0,0:0:0:0:
196,176,173266,1,0,0:0:0:0:
300,212,173435,1,0,0:0:0:0:
300,212,173603,1,8,0:0:0:0:
300,212,173941,1,8,0:0:0:0:
300,212,174278,1,0,0:0:0:0:
312,224,174615,1,0,0:0:0:0:
312,224,174699,1,0,0:0:0:0:
312,224,174783,1,0,0:0:0:0:
312,224,174868,1,0,0:0:0:0:
248,184,175289,1,0,0:0:0:0:
264,176,175626,1,0,0:0:0:0:
264,176,175794,1,0,0:0:0:0:
248,160,175963,1,0,0:0:0:0:
264,176,176132,1,0,0:0:0:0:
264,176,176300,1,8,0:0:0:0:
264,176,176553,1,8,0:0:0:0:
248,176,176806,1,8,0:0:0:0:
248,176,176974,1,0,0:0:0:0:
248,176,177143,1,0,0:0:0:0:
252,176,177311,1,0,0:0:0:0:
252,176,177480,1,0,0:0:0:0:
248,176,177648,1,8,0:0:0:0:
248,176,177901,1,8,0:0:0:0:
248,176,178154,1,8,0:0:0:0:
252,176,178323,1,0,0:0:0:0:
252,176,178491,1,0,0:0:0:0:
248,176,178660,1,0,0:0:0:0:
248,176,178828,1,0,0:0:0:0:
248,176,178997,1,8,0:0:0:0:
252,176,179250,1,8,0:0:0:0:
252,176,179502,1,8,0:0:0:0:
248,176,179671,1,0,0:0:0:0:
248,176,179839,1,0,0:0:0:0:
248,176,180008,1,8,0:0:0:0:
252,176,180177,1,0,0:0:0:0:
252,176,180345,1,8,0:0:0:0:
232,172,180514,1,8,0:0:0:0:
232,192,180598,1,8,0:0:0:0:
240,192,180682,1,0,0:0:0:0:
248,176,181019,1,0,0:0:0:0:
252,176,181188,1,0,0:0:0:0:
252,176,181356,1,8,0:0:0:0:
248,176,181525,1,0,0:0:0:0:
248,176,181693,1,8,0:0:0:0:
264,176,181862,1,0,0:0:0:0:
252,180,181946,1,0,0:0:0:0:
248,184,182030,1,8,0:0:0:0:
252,176,182199,1,0,0:0:0:0:
252,176,182368,1,8,0:0:0:0:
252,180,182536,1,8,0:0:0:0:
252,180,182705,1,0,0:0:0:0:
252,180,182873,1,8,0:0:0:0:
252,176,183042,1,0,0:0:0:0:
264,176,183210,1,8,0:0:0:0:
240,192,183294,1,8,0:0:0:0:
264,172,183379,1,8,0:0:0:0:
240,192,183716,1,8,0:0:0:0:
224,196,183884,1,0,0:0:0:0:
232,184,183969,1,0,0:0:0:0:
240,192,184053,1,8,0:0:0:0:
256,184,184221,1,0,0:0:0:0:
256,184,184390,1,8,0:0:0:0:
232,180,184559,1,0,0:0:0:0:
228,180,184727,1,8,0:0:0:0:
232,184,184896,1,0,0:0:0:0:
232,180,185064,1,8,0:0:0:0:
232,180,185233,1,0,0:0:0:0:
232,180,185317,1,0,0:0:0:0:
248,200,185401,1,8,0:0:0:0:
228,180,185570,1,0,0:0:0:0:
232,180,185654,1,8,0:0:0:0:
228,180,185738,1,8,0:0:0:0:
232,184,185907,1,0,0:0:0:0:
248,200,186075,1,12,0:0:0:0:
244,195,186412,1,4,0:0:0:0:
232,192,186581,1,0,0:0:0:0:
244,195,186665,1,0,0:0:0:0:
244,195,186750,1,8,0:0:0:0:
244,195,186918,1,0,0:0:0:0:
244,195,187087,1,8,0:0:0:0:
244,195,187255,1,0,0:0:0:0:
244,195,187424,1,0,0:0:0:0:
244,195,187592,1,0,0:0:0:0:
244,195,187761,1,0,0:0:0:0:
244,184,187929,1,8,0:0:0:0:
244,195,188014,1,8,0:0:0:0:
244,195,188098,1,0,0:0:0:0:
244,195,188266,1,8,0:0:0:0:
244,195,188435,1,0,0:0:0:0:
244,195,188772,1,12,0:0:0:0:
244,195,189109,1,0,0:0:0:0:
244,195,189278,1,0,0:0:0:0:
236,192,189362,1,0,0:0:0:0:
244,195,189446,1,8,0:0:0:0:
244,195,189615,1,8,0:0:0:0:
244,195,189783,1,0,0:0:0:0:
200,188,189952,1,8,0:0:0:0:
204,184,190036,1,8,0:0:0:0:
208,184,190120,1,0,0:0:0:0:
212,196,190289,1,8,0:0:0:0:
244,176,190457,1,0,0:0:0:0:
232,192,190542,1,0,0:0:0:0:
244,195,190626,1,8,0:0:0:0:
224,184,190710,1,0,0:0:0:0:
244,195,190794,1,8,0:0:0:0:
248,152,190963,1,0,0:0:0:0:
244,195,191132,1,8,0:0:0:0:
240,184,191300,1,0,0:0:0:0:
244,195,191469,1,0,0:0:0:0:
228,200,191637,1,8,0:0:0:0:
244,195,191806,1,4,0:0:0:0:
236,168,191974,1,0,0:0:0:0:
244,195,192059,1,0,0:0:0:0:
244,195,192143,1,8,0:0:0:0:
244,195,192311,1,0,0:0:0:0:
244,195,192480,1,8,0:0:0:0:
220,204,192648,1,8,0:0:0:0:
244,208,192817,1,0,0:0:0:0:
244,204,192985,1,0,0:0:0:0:
216,188,193154,1,0,0:0:0:0:
244,184,193323,1,8,0:0:0:0:
220,188,193407,1,8,0:0:0:0:
204,200,193491,1,0,0:0:0:0:
244,195,193660,1,8,0:0:0:0:
244,195,193828,1,0,0:0:0:0:
244,195,194165,1,12,0:0:0:0:
244,195,194502,1,0,0:0:0:0:
244,195,194671,1,0,0:0:0:0:
244,195,194839,1,8,0:0:0:0:
260,196,195008,1,0,0:0:0:0:
244,195,195092,1,0,0:0:0:0:
244,195,195177,1,8,0:0:0:0:
216,148,195345,1,0,0:0:0:0:
236,192,195514,1,8,0:0:0:0:
212,184,195682,1,8,0:0:0:0:
216,180,195766,1,8,0:0:0:0:
244,195,195851,1,0,0:0:0:0:
244,195,196019,1,8,0:0:0:0:
244,195,196188,1,0,0:0:0:0:
244,195,196356,1,8,0:0:0:0:
244,195,196525,1,0,0:0:0:0:
244,195,196862,1,8,0:0:0:0:
244,195,197199,1,4,0:0:0:0:
236,168,197368,1,0,0:0:0:0:
244,195,197452,1,0,0:0:0:0:
244,195,197536,1,8,0:0:0:0:
244,195,197705,1,0,0:0:0:0:
244,195,197873,1,8,0:0:0:0:
244,195,198042,1,0,0:0:0:0:
244,195,198210,1,0,0:0:0:0:
244,195,198379,1,0,0:0:0:0:
244,195,198547,1,0,0:0:0:0:
244,184,198716,1,8,0:0:0:0:
260,195,198800,1,8,0:0:0:0:
256,200,198884,1,0,0:0:0:0:
244,195,199053,1,8,0:0:0:0:
244,195,199221,1,0,0:0:0:0:
244,195,199559,1,12,0:0:0:0:
244,195,199896,1,0,0:0:0:0:
244,195,200064,1,0,0:0:0:0:
236,192,200148,1,0,0:0:0:0:
244,195,200233,1,8,0:0:0:0:
244,195,200401,1,8,0:0:0:0:
244,195,200570,1,0,0:0:0:0:
200,188,200738,1,8,0:0:0:0:
208,184,200823,1,8,0:0:0:0:
244,195,200907,1,0,0:0:0:0:
212,196,201075,1,8,0:0:0:0:
244,195,201244,1,0,0:0:0:0:
244,195,201328,1,0,0:0:0:0:
244,195,201412,1,8,0:0:0:0:
224,184,201497,1,0,0:0:0:0:
244,195,201581,1,8,0:0:0:0:
248,152,201750,1,0,0:0:0:0:
244,195,201918,1,8,0:0:0:0:
248,196,202087,1,0,0:0:0:0:
244,195,202255,1,0,0:0:0:0:
228,200,202424,1,8,0:0:0:0:
244,195,202592,1,4,0:0:0:0:
236,168,202761,1,0,0:0:0:0:
244,195,202845,1,0,0:0:0:0:
244,195,202929,1,8,0:0:0:0:
244,195,203098,1,0,0:0:0:0:
244,195,203266,1,8,0:0:0:0:
244,208,203435,1,8,0:0:0:0:
220,204,203603,1,0,0:0:0:0:
244,204,203772,1,0,0:0:0:0:
244,195,203941,1,0,0:0:0:0:
200,208,204109,1,8,0:0:0:0:
244,195,204193,1,8,0:0:0:0:
204,200,204278,1,0,0:0:0:0:
244,195,204446,1,8,0:0:0:0:
244,195,204615,1,0,0:0:0:0:
244,195,204952,1,12,0:0:0:0:
244,195,205289,1,0,0:0:0:0:
244,195,205457,1,0,0:0:0:0:
244,195,205626,1,8,0:0:0:0:
244,195,205794,1,0,0:0:0:0:
244,195,205879,1,0,0:0:0:0:
244,195,205963,1,8,0:0:0:0:
254,195,206132,1,8,0:0:0:0:
244,195,206300,1,0,0:0:0:0:
180,200,206469,1,8,0:0:0:0:
244,195,206553,1,8,0:0:0:0:
234,201,206637,1,0,0:0:0:0:
244,195,206806,1,8,0:0:0:0:
244,195,206974,5,0,0:0:0:0:
244,195,207143,1,8,0:0:0:0:
244,195,207311,1,0,0:0:0:0:
244,195,207648,1,8,0:0:0:0:
244,195,207985,1,0,0:0:0:0:
256,192,208154,12,0,210345,0:0:0:0:
252,268,210682,5,12,0:0:0:0:
288,216,210851,1,8,0:0:0:0:
252,256,210935,1,8,0:0:0:0:
252,256,211019,1,0,0:0:0:0:
264,240,211188,1,0,0:0:0:0:
264,240,211356,1,8,0:0:0:0:
264,240,211525,1,8,0:0:0:0:
264,240,211693,1,0,0:0:0:0:
264,240,211862,1,0,0:0:0:0:
264,240,212030,1,8,0:0:0:0:
264,240,212199,1,8,0:0:0:0:
264,240,212368,1,0,0:0:0:0:
264,240,212536,1,8,0:0:0:0:
264,240,212705,1,0,0:0:0:0:
264,240,212873,1,8,0:0:0:0:
264,240,213042,1,0,0:0:0:0:
264,240,213379,1,8,0:0:0:0:
264,240,213547,1,8,0:0:0:0:
264,240,213632,1,8,0:0:0:0:
264,240,213716,1,0,0:0:0:0:
264,240,213884,1,0,0:0:0:0:
264,240,214053,1,8,0:0:0:0:
264,240,214221,1,8,0:0:0:0:
264,240,214390,1,0,0:0:0:0:
264,240,214559,1,0,0:0:0:0:
264,240,214727,1,8,0:0:0:0:
264,240,214896,1,0,0:0:0:0:
264,240,215064,1,8,0:0:0:0:
264,240,215233,1,8,0:0:0:0:
264,240,215401,1,4,0:0:0:0:
264,240,215738,1,4,0:0:0:0:
264,240,216075,1,8,0:0:0:0:
264,240,216244,1,8,0:0:0:0:
264,240,216328,1,8,0:0:0:0:
264,240,216412,1,0,0:0:0:0:
264,240,216581,1,0,0:0:0:0:
264,240,216750,1,8,0:0:0:0:
264,240,216918,1,8,0:0:0:0:
264,240,217087,1,0,0:0:0:0:
264,240,217255,1,0,0:0:0:0:
264,240,217424,1,8,0:0:0:0:
264,240,217592,1,8,0:0:0:0:
264,240,217761,1,0,0:0:0:0:
264,240,217929,1,8,0:0:0:0:
264,240,218098,1,0,0:0:0:0:
264,240,218266,1,8,0:0:0:0:
264,240,218435,1,0,0:0:0:0:
264,240,218772,1,8,0:0:0:0:
264,240,218941,1,8,0:0:0:0:
264,240,219025,1,8,0:0:0:0:
264,240,219109,1,0,0:0:0:0:
264,240,219278,1,0,0:0:0:0:
264,240,219446,1,8,0:0:0:0:
264,240,219615,1,8,0:0:0:0:
264,240,219783,1,0,0:0:0:0:
264,240,219952,1,0,0:0:0:0:
264,240,220120,1,8,0:0:0:0:
264,240,220289,1,0,0:0:0:0:
264,240,220457,1,8,0:0:0:0:
264,240,220626,1,8,0:0:0:0:
256,228,220794,1,0,0:0:0:0:
264,240,220963,1,0,0:0:0:0:
252,268,221469,1,12,0:0:0:0:
288,216,221637,1,8,0:0:0:0:
252,256,221721,1,8,0:0:0:0:
252,256,221806,1,0,0:0:0:0:
264,240,221974,1,0,0:0:0:0:
264,240,222143,1,8,0:0:0:0:
264,240,222311,1,8,0:0:0:0:
264,240,222480,1,0,0:0:0:0:
264,240,222648,1,0,0:0:0:0:
264,240,222817,1,8,0:0:0:0:
264,240,222985,1,0,0:0:0:0:
208,280,223070,1,0,0:0:0:0:
264,240,223154,1,0,0:0:0:0:
264,240,223323,1,8,0:0:0:0:
264,240,223491,1,0,0:0:0:0:
264,240,223660,1,8,0:0:0:0:
264,240,223828,1,0,0:0:0:0:
264,240,223997,1,0,0:0:0:0:
264,240,224165,1,8,0:0:0:0:
208,276,224250,1,8,0:0:0:0:
264,240,224334,1,8,0:0:0:0:
264,240,224418,1,8,0:0:0:0:
264,240,224502,1,0,0:0:0:0:
264,240,224671,1,0,0:0:0:0:
264,240,224839,1,8,0:0:0:0:
264,240,225008,1,8,0:0:0:0:
264,240,225177,1,0,0:0:0:0:
264,240,225345,1,0,0:0:0:0:
264,240,225514,1,8,0:0:0:0:
208,276,225682,1,0,0:0:0:0:
196,240,225766,1,0,0:0:0:0:
264,240,225851,1,0,0:0:0:0:
264,240,226019,1,8,0:0:0:0:
264,240,226188,1,4,0:0:0:0:
264,240,226525,1,4,0:0:0:0:
264,240,226862,1,8,0:0:0:0:
264,240,227030,1,8,0:0:0:0:
264,240,227115,1,8,0:0:0:0:
264,240,227199,1,0,0:0:0:0:
264,240,227368,1,0,0:0:0:0:
264,240,227536,1,8,0:0:0:0:
264,240,227705,1,8,0:0:0:0:
264,240,227873,1,0,0:0:0:0:
264,240,228042,1,0,0:0:0:0:
264,240,228210,1,8,0:0:0:0:
264,240,228379,1,0,0:0:0:0:
272,236,228463,1,0,0:0:0:0:
256,232,228547,1,0,0:0:0:0:
264,240,228716,1,8,0:0:0:0:
264,240,228884,1,0,0:0:0:0:
264,240,229053,1,8,0:0:0:0:
264,240,229221,1,0,0:0:0:0:
264,240,229390,1,0,0:0:0:0:
264,240,229559,1,8,0:0:0:0:
264,216,229643,1,8,0:0:0:0:
264,240,229727,1,8,0:0:0:0:
264,240,229811,1,8,0:0:0:0:
264,240,229896,1,0,0:0:0:0:
264,240,230064,1,0,0:0:0:0:
264,240,230233,1,8,0:0:0:0:
264,240,230401,1,8,0:0:0:0:
264,240,230570,1,0,0:0:0:0:
264,240,230738,1,0,0:0:0:0:
264,240,230907,1,8,0:0:0:0:
264,240,231075,1,0,0:0:0:0:
264,216,231160,1,0,0:0:0:0:
264,240,231244,1,8,0:0:0:0:
264,240,231412,1,8,0:0:0:0:
264,240,231581,1,4,0:0:0:0:
264,240,231918,1,4,0:0:0:0:
248,188,232255,1,8,0:0:0:0:
248,188,232592,1,8,0:0:0:0:
264,196,232677,1,8,0:0:0:0:
232,168,232761,1,0,0:0:0:0:
248,188,232845,1,0,0:0:0:0:
248,188,232929,1,8,0:0:0:0:
248,188,233098,1,8,0:0:0:0:
248,188,233266,1,0,0:0:0:0:
240,160,233351,1,0,0:0:0:0:
240,160,233435,1,8,0:0:0:0:
248,188,233603,1,8,0:0:0:0:
248,188,233772,1,0,0:0:0:0:
248,188,233941,1,0,0:0:0:0:
248,188,234109,1,8,0:0:0:0:
248,188,234278,1,4,0:0:0:0:
276,188,234615,1,8,0:0:0:0:
