osu file format v14

[General]
AudioFilename: audio.mp3
AudioLeadIn: 0
PreviewTime: 54108
Countdown: 0
SampleSet: Normal
StackLeniency: 0.7
Mode: 1
LetterboxInBreaks: 0
WidescreenStoryboard: 1

[Editor]
Bookmarks: 221464
DistanceSpacing: 1.5
BeatDivisor: 1
GridSize: 4
TimelineZoom: 1.9

[Metadata]
Title:Party in the HOLLOWood feat. Nanahira
TitleUnicode:Party in the HOLLOWood feat. ななひら
Artist:t+pazolite
ArtistUnicode:t+pazolite
Creator:Karee Pan
Version:Kantan
Source:
Tags:tpaz, good evening, yuzu__rinrin, ayyri, Comiket 93, C93, Evening CHS-0031, C.H.S, CHS, tpz
BeatmapID:1533781
BeatmapSetID:726497

[Difficulty]
HPDrainRate:7
CircleSize:2
OverallDifficulty:3
ApproachRate:5
SliderMultiplier:1.4
SliderTickRate:1

[Events]
//Background and Video events
0,0,"BG.jpg",0,0
//Break Periods
2,154253,163302
//Storyboard Layer 0 (Background)
//Storyboard Layer 1 (Fail)
//Storyboard Layer 2 (Pass)
//Storyboard Layer 3 (Foreground)
//Storyboard Sound Samples

[TimingPoints]
11132.0654498691,337.078651685393,4,1,0,70,1,0
22255,-100,4,1,0,60,0,0
32705,-100,4,1,0,70,0,0
43828,-100,4,1,0,70,0,0
44165,-100,4,1,0,60,0,0
54278,-100,4,1,0,80,0,1
75851,-100,4,1,0,50,0,0
77199,-100,4,1,0,60,0,0
78547,-100,4,1,0,70,0,0
89334,-100,4,1,0,80,0,0
98772,-100,4,1,0,60,0,0
100373,-100,4,1,0,60,0,0
110907,-100,4,1,0,75,0,0
122030,-100,4,1,0,60,0,0
122368,-100,4,1,0,60,0,0
132480,-100,4,1,0,80,0,1
154221,-100,4,1,0,60,0,0
154896,-100,4,1,0,60,0,0
155401,-100,4,1,0,60,0,0
175626,-100,4,1,0,60,0,0
181019,-100,4,1,0,65,0,0
183716,-100,4,1,0,70,0,0
186412,-100,4,1,0,80,0,1
207985,-100,4,1,0,50,0,0
209334,-100,4,1,0,60,0,0
210682,-100,4,1,0,70,0,0
221469,-100,4,1,0,80,0,0
232255,-100,4,1,0,80,0,0
232592,-100,4,1,0,80,0,0

[HitObjects]
246,192,9783,5,0,0:0:0:0:
252,192,10457,1,8,0:0:0:0:
224,184,11132,1,12,0:0:0:0:
224,184,11806,1,0,0:0:0:0:
224,184,12480,1,0,0:0:0:0:
224,184,12817,1,8,0:0:0:0:
224,184,13154,1,0,0:0:0:0:
224,184,13828,1,8,0:0:0:0:
224,184,14502,1,0,0:0:0:0:
224,184,15177,1,0,0:0:0:0:
224,184,15851,1,0,0:0:0:0:
244,176,16188,1,0,0:0:0:0:
224,184,16525,1,8,0:0:0:0:
224,184,17199,1,0,0:0:0:0:
224,184,17873,1,0,0:0:0:0:
224,184,18210,1,8,0:0:0:0:
224,184,18547,1,0,0:0:0:0:
224,184,19221,1,8,0:0:0:0:
224,184,19896,1,0,0:0:0:0:
224,184,20570,1,0,0:0:0:0:
224,184,21244,1,0,0:0:0:0:
224,184,21581,1,0,0:0:0:0:
224,184,21918,1,0,0:0:0:0:
224,184,23266,1,0,0:0:0:0:
224,192,23941,1,0,0:0:0:0:
224,184,24278,1,8,0:0:0:0:
224,184,24615,1,0,0:0:0:0:
224,184,25963,1,0,0:0:0:0:
224,184,26637,1,8,0:0:0:0:
128,164,26974,1,0,0:0:0:0:
224,184,27311,1,0,0:0:0:0:
224,184,28660,1,0,0:0:0:0:
224,184,29334,1,0,0:0:0:0:
224,184,29671,1,8,0:0:0:0:
224,184,30008,1,0,0:0:0:0:
224,184,31356,1,0,0:0:0:0:
224,184,32030,1,8,0:0:0:0:
224,184,32705,1,0,0:0:0:0:
224,184,33379,1,0,0:0:0:0:
224,184,34053,1,0,0:0:0:0:
224,184,34727,1,0,0:0:0:0:
224,184,35064,1,8,0:0:0:0:
224,184,35401,1,0,0:0:0:0:
224,184,36075,1,0,0:0:0:0:
224,184,36750,1,0,0:0:0:0:
223,167,37424,1,8,0:0:0:0:
224,184,37761,1,8,0:0:0:0:
224,184,38098,1,0,0:0:0:0:
224,184,38772,1,0,0:0:0:0:
224,184,39446,1,0,0:0:0:0:
224,184,40120,1,0,0:0:0:0:
234,190,40457,1,8,0:0:0:0:
224,184,40794,1,8,0:0:0:0:
236,180,42143,1,0,0:0:0:0:
184,219,43491,1,4,0:0:0:0:
184,218,44839,1,0,0:0:0:0:
184,218,45851,1,8,0:0:0:0:
184,218,46188,1,4,0:0:0:0:
184,218,47536,1,0,0:0:0:0:
184,218,48547,1,8,0:0:0:0:
184,218,48884,1,4,0:0:0:0:
184,218,50233,1,0,0:0:0:0:
184,218,51244,1,8,0:0:0:0:
184,218,51581,1,4,0:0:0:0:
184,218,52929,1,0,0:0:0:0:
184,218,53603,1,8,0:0:0:0:
184,218,54278,1,4,0:0:0:0:
184,218,54952,1,8,0:0:0:0:
184,218,55626,1,0,0:0:0:0:
184,218,55963,1,8,0:0:0:0:
184,218,56300,1,0,0:0:0:0:
184,218,56974,1,0,0:0:0:0:
184,218,57648,1,8,0:0:0:0:
184,218,58323,1,0,0:0:0:0:
184,218,58660,1,0,0:0:0:0:
184,218,58997,1,8,0:0:0:0:
184,218,59671,1,0,0:0:0:0:
184,218,60345,1,8,0:0:0:0:
184,218,61019,1,0,0:0:0:0:
184,218,61356,1,8,0:0:0:0:
184,218,61693,1,8,0:0:0:0:
184,218,62368,1,0,0:0:0:0:
184,218,63042,1,8,0:0:0:0:
184,218,63716,1,0,0:0:0:0:
184,218,65064,1,4,0:0:0:0:
184,218,65738,1,8,0:0:0:0:
184,218,66412,1,0,0:0:0:0:
184,218,66750,1,8,0:0:0:0:
184,218,67087,1,0,0:0:0:0:
184,218,67761,1,0,0:0:0:0:
184,218,68435,1,8,0:0:0:0:
184,218,69109,1,0,0:0:0:0:
184,218,69446,5,0,0:0:0:0:
184,218,69783,1,8,0:0:0:0:
184,218,70457,1,0,0:0:0:0:
184,218,71132,1,8,0:0:0:0:
184,218,71806,1,0,0:0:0:0:
184,218,72143,1,8,0:0:0:0:
184,218,72480,1,0,0:0:0:0:
184,218,73154,1,0,0:0:0:0:
184,218,73828,1,8,0:0:0:0:
184,218,74502,1,0,0:0:0:0:
218,210,75514,1,8,0:0:0:0:
184,218,75851,1,0,0:0:0:0:
224,184,78547,5,12,0:0:0:0:
224,184,79221,1,0,0:0:0:0:
224,184,79896,1,0,0:0:0:0:
224,184,80233,1,8,0:0:0:0:
224,184,80570,1,0,0:0:0:0:
224,184,81244,1,8,0:0:0:0:
224,184,81918,1,0,0:0:0:0:
224,184,82592,1,0,0:0:0:0:
224,184,83266,1,0,0:0:0:0:
224,184,83603,1,0,0:0:0:0:
224,184,83941,1,8,0:0:0:0:
224,184,84615,1,0,0:0:0:0:
224,184,85289,1,0,0:0:0:0:
224,184,85626,1,8,0:0:0:0:
224,184,85963,1,0,0:0:0:0:
224,184,86637,1,8,0:0:0:0:
224,184,87311,1,0,0:0:0:0:
224,184,87985,1,0,0:0:0:0:
224,184,88660,1,0,0:0:0:0:
224,184,88997,1,0,0:0:0:0:
224,184,89334,1,0,0:0:0:0:
217,194,90008,1,0,0:0:0:0:
224,184,90345,1,8,0:0:0:0:
228,196,90682,1,8,0:0:0:0:
217,194,91356,1,0,0:0:0:0:
228,196,92030,5,0,0:0:0:0:
217,194,92705,1,0,0:0:0:0:
217,194,93042,1,8,0:0:0:0:
208,160,93379,1,8,0:0:0:0:
232,165,94053,1,0,0:0:0:0:
232,165,94727,1,0,0:0:0:0:
232,165,95064,1,8,0:0:0:0:
232,165,95401,1,0,0:0:0:0:
232,165,96075,5,8,0:0:0:0:
232,165,96412,1,0,0:0:0:0:
232,165,96750,1,0,0:0:0:0:
232,165,97424,1,0,0:0:0:0:
232,165,98098,1,0,0:0:0:0:
220,172,98435,1,8,0:0:0:0:
232,165,98772,1,0,0:0:0:0:
224,184,100120,1,0,0:0:0:0:
224,184,101469,1,0,0:0:0:0:
224,184,102143,1,0,0:0:0:0:
224,184,102480,1,8,0:0:0:0:
224,184,102817,1,0,0:0:0:0:
224,184,104165,1,0,0:0:0:0:
224,184,104839,1,8,0:0:0:0:
236,176,105177,1,0,0:0:0:0:
224,184,105514,1,0,0:0:0:0:
224,184,106862,1,0,0:0:0:0:
224,184,107536,1,0,0:0:0:0:
232,180,107873,1,8,0:0:0:0:
224,184,108210,1,0,0:0:0:0:
224,184,109559,1,0,0:0:0:0:
224,184,110233,1,8,0:0:0:0:
144,176,110570,1,0,0:0:0:0:
224,184,110907,1,0,0:0:0:0:
224,184,111581,1,0,0:0:0:0:
224,184,112255,1,0,0:0:0:0:
224,184,112929,1,0,0:0:0:0:
203,157,113266,1,8,0:0:0:0:
224,184,113603,1,0,0:0:0:0:
224,184,114278,1,0,0:0:0:0:
224,184,114952,1,0,0:0:0:0:
223,167,115626,1,8,0:0:0:0:
224,184,115963,1,8,0:0:0:0:
224,184,116300,1,0,0:0:0:0:
224,184,116974,1,0,0:0:0:0:
224,184,117648,1,0,0:0:0:0:
224,184,118323,1,0,0:0:0:0:
234,190,118660,1,8,0:0:0:0:
224,184,118997,1,8,0:0:0:0:
236,200,120345,1,0,0:0:0:0:
184,219,121693,1,4,0:0:0:0:
184,218,123042,1,0,0:0:0:0:
184,218,124053,1,8,0:0:0:0:
184,218,124390,1,4,0:0:0:0:
184,218,125738,1,0,0:0:0:0:
184,218,126750,1,8,0:0:0:0:
184,218,127087,1,4,0:0:0:0:
184,218,128435,1,0,0:0:0:0:
184,218,129446,1,8,0:0:0:0:
184,218,129783,1,4,0:0:0:0:
184,218,131132,1,0,0:0:0:0:
184,218,131806,1,8,0:0:0:0:
184,218,132480,1,4,0:0:0:0:
184,218,133154,1,8,0:0:0:0:
184,218,133828,1,0,0:0:0:0:
184,218,134165,1,8,0:0:0:0:
184,218,134502,1,0,0:0:0:0:
184,218,135177,1,0,0:0:0:0:
184,218,135851,1,8,0:0:0:0:
184,218,136525,1,0,0:0:0:0:
184,218,136862,1,0,0:0:0:0:
184,218,137199,1,8,0:0:0:0:
184,218,137873,1,0,0:0:0:0:
184,218,138547,1,8,0:0:0:0:
184,218,139221,1,0,0:0:0:0:
184,218,139559,1,8,0:0:0:0:
184,218,139896,1,0,0:0:0:0:
184,218,140570,1,0,0:0:0:0:
184,218,141244,1,8,0:0:0:0:
184,218,141918,1,0,0:0:0:0:
184,218,143266,1,4,0:0:0:0:
184,218,143941,1,8,0:0:0:0:
184,218,144615,1,0,0:0:0:0:
184,218,144952,1,8,0:0:0:0:
184,218,145289,1,0,0:0:0:0:
184,218,145963,1,0,0:0:0:0:
184,218,146637,1,8,0:0:0:0:
184,218,147311,1,0,0:0:0:0:
184,218,147648,5,0,0:0:0:0:
184,218,147985,1,8,0:0:0:0:
184,218,148660,1,0,0:0:0:0:
184,218,149334,1,8,0:0:0:0:
184,218,150008,1,0,0:0:0:0:
184,218,150345,1,8,0:0:0:0:
184,218,150682,1,0,0:0:0:0:
184,218,151356,1,0,0:0:0:0:
184,218,152030,1,8,0:0:0:0:
184,218,152705,1,0,0:0:0:0:
218,210,153716,1,8,0:0:0:0:
184,218,154053,1,0,0:0:0:0:
234,208,164502,5,0,0:0:0:0:
234,208,164839,1,8,0:0:0:0:
232,216,166188,1,0,0:0:0:0:
234,208,166862,1,8,0:0:0:0:
234,208,167536,1,0,0:0:0:0:
234,208,169896,1,0,0:0:0:0:
234,208,170233,1,8,0:0:0:0:
236,224,171581,5,0,0:0:0:0:
234,208,172255,5,0,0:0:0:0:
234,208,172929,1,8,0:0:0:0:
234,208,174278,1,0,0:0:0:0:
237,184,175626,5,8,0:0:0:0:
237,185,176974,1,8,0:0:0:0:
237,185,178323,1,8,0:0:0:0:
237,185,179671,1,8,0:0:0:0:
237,185,181019,1,8,0:0:0:0:
237,185,181693,1,0,0:0:0:0:
237,185,182368,1,8,0:0:0:0:
237,185,183042,1,8,0:0:0:0:
237,185,183716,1,0,0:0:0:0:
237,185,184390,1,8,0:0:0:0:
236,152,184727,1,8,0:0:0:0:
20,136,185064,2,8,L|448:128,1,420
184,218,186412,1,4,0:0:0:0:
184,218,187087,1,8,0:0:0:0:
184,218,187761,1,0,0:0:0:0:
184,218,188098,1,8,0:0:0:0:
184,218,188435,1,0,0:0:0:0:
184,218,189109,1,8,0:0:0:0:
240,192,189446,1,8,0:0:0:0:
184,218,189783,1,0,0:0:0:0:
184,218,190457,1,0,0:0:0:0:
184,218,190794,1,0,0:0:0:0:
184,218,191132,1,8,0:0:0:0:
184,218,191806,1,0,0:0:0:0:
184,218,192480,1,8,0:0:0:0:
184,218,193154,1,0,0:0:0:0:
184,218,193491,1,8,0:0:0:0:
184,218,193828,1,0,0:0:0:0:
184,218,194502,1,0,0:0:0:0:
200,216,194839,1,0,0:0:0:0:
184,218,195177,1,8,0:0:0:0:
184,218,195851,1,0,0:0:0:0:
184,218,197199,1,4,0:0:0:0:
184,218,197873,1,8,0:0:0:0:
184,218,198547,1,0,0:0:0:0:
184,218,198884,1,8,0:0:0:0:
184,218,199221,1,0,0:0:0:0:
184,218,199896,1,8,0:0:0:0:
184,218,200233,1,8,0:0:0:0:
228,216,200570,1,0,0:0:0:0:
204,228,201244,1,0,0:0:0:0:
204,232,201581,1,0,0:0:0:0:
184,218,201918,1,8,0:0:0:0:
184,218,202592,1,0,0:0:0:0:
184,218,203266,1,8,0:0:0:0:
184,218,203941,1,0,0:0:0:0:
184,218,204278,1,8,0:0:0:0:
184,218,204615,1,0,0:0:0:0:
184,218,205289,1,0,0:0:0:0:
232,224,205626,1,0,0:0:0:0:
184,218,205963,1,8,0:0:0:0:
184,218,206637,1,0,0:0:0:0:
218,210,207648,1,8,0:0:0:0:
184,218,207985,1,0,0:0:0:0:
224,184,210682,5,12,0:0:0:0:
224,184,211356,1,0,0:0:0:0:
224,184,212030,1,0,0:0:0:0:
224,184,212368,1,8,0:0:0:0:
224,184,212705,1,0,0:0:0:0:
224,184,213379,1,8,0:0:0:0:
224,184,214053,1,0,0:0:0:0:
224,184,214727,1,0,0:0:0:0:
224,184,215401,1,0,0:0:0:0:
224,184,215738,1,0,0:0:0:0:
224,184,216075,1,8,0:0:0:0:
224,184,216750,1,0,0:0:0:0:
224,184,217424,1,0,0:0:0:0:
224,184,217761,1,8,0:0:0:0:
224,184,218098,1,0,0:0:0:0:
224,184,218772,1,8,0:0:0:0:
224,184,219446,1,0,0:0:0:0:
224,184,220120,1,0,0:0:0:0:
224,184,221469,1,12,0:0:0:0:
224,184,222143,1,0,0:0:0:0:
224,184,222817,1,0,0:0:0:0:
224,184,223154,1,8,0:0:0:0:
224,184,223491,1,0,0:0:0:0:
224,184,224165,1,8,0:0:0:0:
224,184,224839,1,0,0:0:0:0:
224,184,225514,1,0,0:0:0:0:
224,184,226188,1,0,0:0:0:0:
224,184,226525,1,0,0:0:0:0:
224,184,226862,1,8,0:0:0:0:
224,184,227536,1,0,0:0:0:0:
224,184,228210,1,0,0:0:0:0:
224,184,228547,1,8,0:0:0:0:
224,184,228884,1,0,0:0:0:0:
224,184,229559,1,8,0:0:0:0:
224,184,230233,1,0,0:0:0:0:
224,184,230907,1,0,0:0:0:0:
224,184,231581,1,0,0:0:0:0:
224,184,231918,1,0,0:0:0:0:
216,195,232255,1,12,0:0:0:0:
208,190,232929,1,0,0:0:0:0:
208,190,233603,1,8,0:0:0:0:
208,190,234278,1,4,0:0:0:0:
208,190,234615,1,8,0:0:0:0:
