osu file format v14

[General]
AudioFilename: audio.mp3
AudioLeadIn: 0
PreviewTime: 40805
Countdown: 0
SampleSet: Normal
StackLeniency: 0.7
Mode: 1
LetterboxInBreaks: 0
WidescreenStoryboard: 0

[Editor]
Bookmarks: 1205,10805,20405,30005,42005,51305,51605,61205,63605,73205,82805,92405,104405,113705,114005,123605,133205,142805,152405,161705,162005,171605,174005,183605,193205,195005,197705
DistanceSpacing: 1.2
BeatDivisor: 4
GridSize: 32
TimelineZoom: 2.8

[Metadata]
Title:Party in the HOLLOWood feat. Nanahira (HOLLOWeen Sitchaka Metchaka Remix)
TitleUnicode:Party in the HOLLOWood feat. ななひら (HOLLOWeen Sitchaka Metchaka Remix)
Artist:t+pazolite
ArtistUnicode:t+pazolite
Creator:eiri-
Version:FUTsuu
Source:
Tags:Ayyri I WANNA WANNA WANNA REMIX !!! E.P. CHS-0034 C95 Comiket 93 95 C93 Good Evening, Evening CHS-0031 C.H.S CHS tpz
BeatmapID:1913435
BeatmapSetID:916198

[Difficulty]
HPDrainRate:6
CircleSize:2
OverallDifficulty:4
ApproachRate:10
SliderMultiplier:1.4
SliderTickRate:1

[Events]
//Background and Video events
0,0,"HOLLOWood.jpg",0,50
//Break Periods
//Storyboard Layer 0 (Background)
//Storyboard Layer 1 (Fail)
//Storyboard Layer 2 (Pass)
//Storyboard Layer 3 (Foreground)
//Storyboard Sound Samples

[TimingPoints]
1205,300,4,1,0,100,1,0
42005,-100,4,1,0,100,0,1
51305,-100,4,1,0,100,0,0
51605,-100,4,1,0,100,0,1
61205,-100,4,1,0,100,0,0
104405,-100,4,1,0,100,0,1
113705,-100,4,1,0,100,0,0
114005,-100,4,1,0,100,0,1
123605,-100,4,1,0,100,0,0
152405,-100,4,1,0,100,0,1
161705,-100,4,1,0,100,0,0
162005,-100,4,1,0,100,0,1
171605,-100,4,1,0,100,0,0

[HitObjects]
256,192,1205,1,0,0:0:0:0:
256,192,2405,1,0,0:0:0:0:
256,192,3605,1,0,0:0:0:0:
256,192,4805,1,0,0:0:0:0:
256,192,6005,1,12,0:0:0:0:
256,192,6305,1,0,0:0:0:0:
256,192,6605,1,0,0:0:0:0:
256,192,6755,1,0,0:0:0:0:
256,192,6905,1,0,0:0:0:0:
256,192,7205,1,8,0:0:0:0:
256,192,7505,1,0,0:0:0:0:
256,192,7805,1,8,0:0:0:0:
256,192,7955,1,0,0:0:0:0:
256,192,8105,1,0,0:0:0:0:
256,192,8405,1,8,0:0:0:0:
256,192,8555,1,8,0:0:0:0:
256,192,8705,1,0,0:0:0:0:
256,192,9005,1,0,0:0:0:0:
256,192,9155,1,8,0:0:0:0:
256,192,9305,1,8,0:0:0:0:
256,192,9605,1,8,0:0:0:0:
256,192,10205,1,8,0:0:0:0:
256,192,10355,1,0,0:0:0:0:
256,192,10505,1,8,0:0:0:0:
256,192,10805,1,4,0:0:0:0:
256,192,12005,1,8,0:0:0:0:
256,192,12605,1,0,0:0:0:0:
256,192,13205,1,8,0:0:0:0:
256,192,14405,1,0,0:0:0:0:
256,192,15005,1,8,0:0:0:0:
256,192,15605,1,0,0:0:0:0:
256,192,16805,1,8,0:0:0:0:
256,192,17405,1,0,0:0:0:0:
256,192,18005,1,8,0:0:0:0:
256,192,18155,1,0,0:0:0:0:
256,192,18455,1,0,0:0:0:0:
256,192,18605,1,8,0:0:0:0:
256,192,18905,1,8,0:0:0:0:
256,192,19205,1,0,0:0:0:0:
256,192,19505,1,8,0:0:0:0:
256,192,19805,1,0,0:0:0:0:
256,192,20405,1,4,0:0:0:0:
256,192,20705,1,8,0:0:0:0:
256,192,20855,1,0,0:0:0:0:
256,192,21005,1,0,0:0:0:0:
256,192,21305,1,8,0:0:0:0:
256,192,21605,1,0,0:0:0:0:
256,192,22205,1,8,0:0:0:0:
256,192,22355,1,8,0:0:0:0:
256,192,22505,1,0,0:0:0:0:
256,192,22805,1,4,0:0:0:0:
256,192,23105,1,8,0:0:0:0:
256,192,23255,1,0,0:0:0:0:
256,192,23405,1,8,0:0:0:0:
256,192,23705,1,8,0:0:0:0:
256,192,24005,1,0,0:0:0:0:
256,192,24305,1,8,0:0:0:0:
256,192,24605,1,0,0:0:0:0:
256,192,25205,1,4,0:0:0:0:
256,192,25505,1,8,0:0:0:0:
256,192,25655,1,0,0:0:0:0:
256,192,25805,1,0,0:0:0:0:
256,192,26105,1,8,0:0:0:0:
256,192,26405,1,0,0:0:0:0:
256,192,27005,1,8,0:0:0:0:
256,192,27305,1,8,0:0:0:0:
256,192,27455,1,0,0:0:0:0:
256,192,27605,1,0,0:0:0:0:
256,192,27905,1,8,0:0:0:0:
256,192,28505,1,8,0:0:0:0:
256,192,28655,1,8,0:0:0:0:
256,192,28805,1,0,0:0:0:0:
256,192,29105,1,8,0:0:0:0:
256,192,29255,1,0,0:0:0:0:
256,192,29405,1,8,0:0:0:0:
256,192,29705,1,0,0:0:0:0:
256,192,30005,1,8,0:0:0:0:
256,192,30605,1,8,0:0:0:0:
256,192,31205,1,8,0:0:0:0:
256,192,31505,1,8,0:0:0:0:
256,192,31805,1,8,0:0:0:0:
256,192,32405,1,0,0:0:0:0:
256,192,33005,1,0,0:0:0:0:
256,192,33305,1,8,0:0:0:0:
256,192,33605,1,0,0:0:0:0:
256,192,33905,1,0,0:0:0:0:
256,192,34205,1,8,0:0:0:0:
256,192,34505,1,8,0:0:0:0:
256,192,34655,1,8,0:0:0:0:
256,192,34805,1,8,0:0:0:0:
256,192,35105,1,8,0:0:0:0:
256,192,35405,1,8,0:0:0:0:
256,192,36005,1,8,0:0:0:0:
256,192,36155,1,0,0:0:0:0:
256,192,36305,1,8,0:0:0:0:
256,192,36605,1,8,0:0:0:0:
256,192,37205,1,8,0:0:0:0:
256,192,37505,1,8,0:0:0:0:
256,192,37805,1,8,0:0:0:0:
256,192,37955,1,8,0:0:0:0:
256,192,38105,1,0,0:0:0:0:
256,192,38405,1,8,0:0:0:0:
256,192,38705,1,8,0:0:0:0:
256,192,39005,1,8,0:0:0:0:
256,192,39155,1,8,0:0:0:0:
256,192,39305,1,0,0:0:0:0:
256,192,39605,1,8,0:0:0:0:
256,192,39755,1,0,0:0:0:0:
256,192,39905,1,8,0:0:0:0:
256,192,40205,1,8,0:0:0:0:
256,192,40355,1,8,0:0:0:0:
256,192,40505,1,0,0:0:0:0:
256,192,40805,1,8,0:0:0:0:
256,192,41405,1,8,0:0:0:0:
256,192,41705,1,4,0:0:0:0:
256,192,42005,1,12,0:0:0:0:
256,192,42455,1,0,0:0:0:0:
256,192,42605,1,8,0:0:0:0:
256,192,42905,1,0,0:0:0:0:
256,192,43205,1,8,0:0:0:0:
256,192,43655,1,8,0:0:0:0:
256,192,43805,1,0,0:0:0:0:
256,192,44105,1,12,0:0:0:0:
256,192,44405,1,0,0:0:0:0:
256,192,44705,1,8,0:0:0:0:
256,192,44855,1,0,0:0:0:0:
256,192,45005,1,8,0:0:0:0:
256,192,45455,1,0,0:0:0:0:
256,192,45605,1,8,0:0:0:0:
256,192,46205,1,8,0:0:0:0:
256,192,46355,1,0,0:0:0:0:
256,192,46505,1,0,0:0:0:0:
256,192,46805,1,12,0:0:0:0:
256,192,47255,1,0,0:0:0:0:
256,192,47405,1,8,0:0:0:0:
256,192,47705,1,8,0:0:0:0:
256,192,47855,1,8,0:0:0:0:
256,192,48005,1,0,0:0:0:0:
256,192,48455,1,8,0:0:0:0:
256,192,48605,1,0,0:0:0:0:
256,192,48905,1,12,0:0:0:0:
256,192,49205,1,8,0:0:0:0:
256,192,49355,1,0,0:0:0:0:
256,192,49505,1,8,0:0:0:0:
256,192,49805,1,8,0:0:0:0:
256,192,50405,1,8,0:0:0:0:
256,192,50705,1,0,0:0:0:0:
256,192,51005,1,8,0:0:0:0:
256,192,51305,1,4,0:0:0:0:
256,192,51605,1,12,0:0:0:0:
256,192,52055,1,0,0:0:0:0:
256,192,52205,1,8,0:0:0:0:
256,192,52505,1,0,0:0:0:0:
256,192,52805,1,8,0:0:0:0:
256,192,53405,1,0,0:0:0:0:
256,192,53705,1,12,0:0:0:0:
256,192,54005,1,0,0:0:0:0:
256,192,54305,1,8,0:0:0:0:
256,192,54455,1,8,0:0:0:0:
256,192,54605,1,0,0:0:0:0:
256,192,54905,1,8,0:0:0:0:
256,192,55055,1,0,0:0:0:0:
256,192,55205,1,8,0:0:0:0:
256,192,55805,1,8,0:0:0:0:
256,192,55955,1,0,0:0:0:0:
256,192,56105,1,0,0:0:0:0:
256,192,56405,1,12,0:0:0:0:
256,192,56855,1,0,0:0:0:0:
256,192,57005,1,8,0:0:0:0:
256,192,57305,1,0,0:0:0:0:
256,192,57605,1,8,0:0:0:0:
256,192,58055,1,8,0:0:0:0:
256,192,58205,1,0,0:0:0:0:
256,192,58505,1,12,0:0:0:0:
256,192,58805,1,0,0:0:0:0:
256,192,59405,1,8,0:0:0:0:
256,192,59705,1,8,0:0:0:0:
256,192,60005,1,0,0:0:0:0:
256,192,60155,1,8,0:0:0:0:
256,192,60455,1,0,0:0:0:0:
256,192,60605,1,8,0:0:0:0:
256,192,60905,1,0,0:0:0:0:
256,192,61205,1,12,0:0:0:0:
256,192,61955,1,0,0:0:0:0:
256,192,62405,1,8,0:0:0:0:
256,192,63005,1,8,0:0:0:0:
256,192,63305,1,0,0:0:0:0:
256,192,63605,1,12,0:0:0:0:
256,192,63755,1,0,0:0:0:0:
256,192,63905,1,0,0:0:0:0:
256,192,64205,1,8,0:0:0:0:
256,192,64505,1,0,0:0:0:0:
256,192,64655,1,0,0:0:0:0:
256,192,64805,1,8,0:0:0:0:
256,192,65105,1,0,0:0:0:0:
256,192,65405,1,8,0:0:0:0:
256,192,66005,1,8,0:0:0:0:
256,192,66155,1,0,0:0:0:0:
256,192,66305,1,0,0:0:0:0:
256,192,66605,1,8,0:0:0:0:
256,192,66905,1,0,0:0:0:0:
256,192,67205,1,8,0:0:0:0:
256,192,67355,1,8,0:0:0:0:
256,192,67505,1,0,0:0:0:0:
256,192,67805,1,8,0:0:0:0:
256,192,68105,1,0,0:0:0:0:
256,192,68405,1,8,0:0:0:0:
256,192,68555,1,0,0:0:0:0:
256,192,68705,1,0,0:0:0:0:
256,192,69005,1,8,0:0:0:0:
256,192,69305,1,0,0:0:0:0:
256,192,69455,1,0,0:0:0:0:
256,192,69605,1,8,0:0:0:0:
256,192,69905,1,0,0:0:0:0:
256,192,70205,1,8,0:0:0:0:
256,192,70805,1,8,0:0:0:0:
256,192,70955,1,0,0:0:0:0:
256,192,71105,1,8,0:0:0:0:
256,192,71405,1,8,0:0:0:0:
256,192,71555,1,8,0:0:0:0:
256,192,71705,1,0,0:0:0:0:
256,192,72005,1,0,0:0:0:0:
256,192,72605,1,8,0:0:0:0:
256,192,73205,1,8,0:0:0:0:
256,192,73505,1,0,0:0:0:0:
256,192,73805,1,8,0:0:0:0:
256,192,74105,1,0,0:0:0:0:
256,192,74705,1,8,0:0:0:0:
256,192,75005,1,0,0:0:0:0:
256,192,75605,1,0,0:0:0:0:
256,192,75905,1,0,0:0:0:0:
256,192,76205,1,8,0:0:0:0:
256,192,76505,1,0,0:0:0:0:
256,192,77105,1,8,0:0:0:0:
256,192,77405,1,0,0:0:0:0:
256,192,78005,1,0,0:0:0:0:
256,192,78305,1,0,0:0:0:0:
256,192,78605,1,8,0:0:0:0:
256,192,78905,1,0,0:0:0:0:
256,192,79505,1,8,0:0:0:0:
256,192,79805,1,0,0:0:0:0:
256,192,80105,1,8,0:0:0:0:
256,192,80705,1,0,0:0:0:0:
256,192,81005,1,8,0:0:0:0:
256,192,81305,1,8,0:0:0:0:
256,192,81605,1,4,0:0:0:0:
256,192,82205,1,8,0:0:0:0:
256,192,82355,1,8,0:0:0:0:
256,192,82505,1,0,0:0:0:0:
256,192,82805,1,4,0:0:0:0:
256,192,83105,1,8,0:0:0:0:
256,192,83255,1,0,0:0:0:0:
256,192,83405,1,0,0:0:0:0:
256,192,83705,1,8,0:0:0:0:
256,192,84005,1,0,0:0:0:0:
256,192,84605,1,8,0:0:0:0:
256,192,84755,1,8,0:0:0:0:
256,192,84905,1,0,0:0:0:0:
256,192,85205,1,4,0:0:0:0:
256,192,85505,1,8,0:0:0:0:
256,192,85655,1,0,0:0:0:0:
256,192,85805,1,8,0:0:0:0:
256,192,86105,1,8,0:0:0:0:
256,192,86405,1,0,0:0:0:0:
256,192,86705,1,8,0:0:0:0:
256,192,87005,1,0,0:0:0:0:
256,192,87605,1,4,0:0:0:0:
256,192,87905,1,8,0:0:0:0:
256,192,88055,1,0,0:0:0:0:
256,192,88205,1,0,0:0:0:0:
256,192,88505,1,8,0:0:0:0:
256,192,88805,1,0,0:0:0:0:
256,192,89405,1,8,0:0:0:0:
256,192,89705,1,8,0:0:0:0:
256,192,89855,1,0,0:0:0:0:
256,192,90005,1,0,0:0:0:0:
256,192,90305,1,8,0:0:0:0:
256,192,90905,1,8,0:0:0:0:
256,192,91055,1,8,0:0:0:0:
256,192,91205,1,0,0:0:0:0:
256,192,91505,1,8,0:0:0:0:
256,192,91655,1,0,0:0:0:0:
256,192,91805,1,8,0:0:0:0:
256,192,92105,1,0,0:0:0:0:
256,192,92405,1,8,0:0:0:0:
256,192,93005,1,8,0:0:0:0:
256,192,93605,1,8,0:0:0:0:
256,192,93905,1,8,0:0:0:0:
256,192,94205,1,8,0:0:0:0:
256,192,94805,1,0,0:0:0:0:
256,192,95405,1,0,0:0:0:0:
256,192,95705,1,8,0:0:0:0:
256,192,96005,1,0,0:0:0:0:
256,192,96305,1,0,0:0:0:0:
256,192,96605,1,8,0:0:0:0:
256,192,96905,1,8,0:0:0:0:
256,192,97055,1,8,0:0:0:0:
256,192,97205,1,8,0:0:0:0:
256,192,97505,1,8,0:0:0:0:
256,192,97805,1,8,0:0:0:0:
256,192,98405,1,8,0:0:0:0:
256,192,98555,1,0,0:0:0:0:
256,192,98705,1,8,0:0:0:0:
256,192,99005,1,8,0:0:0:0:
256,192,99605,1,8,0:0:0:0:
256,192,99905,1,8,0:0:0:0:
256,192,100205,1,8,0:0:0:0:
256,192,100355,1,8,0:0:0:0:
256,192,100505,1,0,0:0:0:0:
256,192,100805,1,8,0:0:0:0:
256,192,101105,1,8,0:0:0:0:
256,192,101405,1,8,0:0:0:0:
256,192,101555,1,8,0:0:0:0:
256,192,101705,1,0,0:0:0:0:
256,192,102005,1,8,0:0:0:0:
256,192,102155,1,0,0:0:0:0:
256,192,102305,1,8,0:0:0:0:
256,192,102605,1,8,0:0:0:0:
256,192,102755,1,8,0:0:0:0:
256,192,102905,1,0,0:0:0:0:
256,192,103205,1,8,0:0:0:0:
256,192,103805,1,8,0:0:0:0:
256,192,104105,1,4,0:0:0:0:
256,192,104405,1,12,0:0:0:0:
256,192,104855,1,0,0:0:0:0:
256,192,105005,1,8,0:0:0:0:
256,192,105305,1,0,0:0:0:0:
256,192,105605,1,8,0:0:0:0:
256,192,106055,1,8,0:0:0:0:
256,192,106205,1,0,0:0:0:0:
256,192,106505,1,12,0:0:0:0:
256,192,106805,1,0,0:0:0:0:
256,192,107105,1,8,0:0:0:0:
256,192,107255,1,0,0:0:0:0:
256,192,107405,1,8,0:0:0:0:
256,192,107855,1,0,0:0:0:0:
256,192,108005,1,8,0:0:0:0:
256,192,108605,1,8,0:0:0:0:
256,192,108755,1,0,0:0:0:0:
256,192,108905,1,0,0:0:0:0:
256,192,109205,1,12,0:0:0:0:
256,192,109655,1,0,0:0:0:0:
256,192,109805,1,8,0:0:0:0:
256,192,110405,1,0,0:0:0:0:
256,192,110855,1,8,0:0:0:0:
256,192,111005,1,0,0:0:0:0:
256,192,111305,1,12,0:0:0:0:
256,192,111605,1,0,0:0:0:0:
256,192,111905,1,8,0:0:0:0:
256,192,112055,1,0,0:0:0:0:
256,192,112205,1,8,0:0:0:0:
256,192,112505,1,0,0:0:0:0:
256,192,112805,1,8,0:0:0:0:
256,192,112955,1,8,0:0:0:0:
256,192,113105,1,0,0:0:0:0:
256,192,113405,1,8,0:0:0:0:
256,192,113705,1,4,0:0:0:0:
256,192,114005,1,12,0:0:0:0:
256,192,114455,1,0,0:0:0:0:
256,192,114605,1,8,0:0:0:0:
256,192,114905,1,0,0:0:0:0:
256,192,115205,1,8,0:0:0:0:
256,192,115805,1,0,0:0:0:0:
256,192,116105,1,12,0:0:0:0:
256,192,116405,1,0,0:0:0:0:
256,192,116705,1,8,0:0:0:0:
256,192,116855,1,0,0:0:0:0:
256,192,117005,1,8,0:0:0:0:
256,192,117305,1,0,0:0:0:0:
256,192,117605,1,8,0:0:0:0:
256,192,118205,1,8,0:0:0:0:
256,192,118355,1,0,0:0:0:0:
256,192,118505,1,0,0:0:0:0:
256,192,118805,1,12,0:0:0:0:
256,192,119255,1,0,0:0:0:0:
256,192,119405,1,8,0:0:0:0:
256,192,119705,1,0,0:0:0:0:
256,192,120005,1,8,0:0:0:0:
256,192,120455,1,8,0:0:0:0:
256,192,120605,1,0,0:0:0:0:
256,192,120905,1,12,0:0:0:0:
256,192,121205,1,0,0:0:0:0:
256,192,121505,1,8,0:0:0:0:
256,192,121805,1,8,0:0:0:0:
256,192,121955,1,0,0:0:0:0:
256,192,122105,1,8,0:0:0:0:
256,192,122405,1,0,0:0:0:0:
256,192,122555,1,0,0:0:0:0:
256,192,122705,1,8,0:0:0:0:
256,192,123005,1,8,0:0:0:0:
256,192,123155,1,0,0:0:0:0:
256,192,123305,1,0,0:0:0:0:
256,192,123605,1,12,0:0:0:0:
256,192,124055,1,0,0:0:0:0:
256,192,124205,1,8,0:0:0:0:
256,192,125105,1,0,0:0:0:0:
256,192,125405,1,8,0:0:0:0:
256,192,126005,1,0,0:0:0:0:
256,192,126455,1,0,0:0:0:0:
256,192,126605,1,8,0:0:0:0:
256,192,126905,1,0,0:0:0:0:
256,192,127505,1,0,0:0:0:0:
256,192,127805,1,8,0:0:0:0:
256,192,128405,1,0,0:0:0:0:
256,192,128855,1,0,0:0:0:0:
256,192,129005,1,8,0:0:0:0:
256,192,129905,1,0,0:0:0:0:
256,192,130205,1,8,0:0:0:0:
256,192,130805,1,0,0:0:0:0:
256,192,131255,1,0,0:0:0:0:
256,192,131405,1,8,0:0:0:0:
256,192,131705,1,0,0:0:0:0:
256,192,132305,1,0,0:0:0:0:
256,192,132605,1,8,0:0:0:0:
256,192,132755,1,0,0:0:0:0:
256,192,133205,1,12,0:0:0:0:
256,192,133655,1,0,0:0:0:0:
256,192,133805,1,8,0:0:0:0:
256,192,134705,1,0,0:0:0:0:
256,192,135005,1,8,0:0:0:0:
256,192,135605,1,0,0:0:0:0:
256,192,136055,1,0,0:0:0:0:
256,192,136205,1,8,0:0:0:0:
256,192,136505,1,0,0:0:0:0:
256,192,137105,1,0,0:0:0:0:
256,192,137405,1,8,0:0:0:0:
256,192,138005,1,0,0:0:0:0:
256,192,138455,1,0,0:0:0:0:
256,192,138605,1,8,0:0:0:0:
256,192,139505,1,0,0:0:0:0:
256,192,139805,1,8,0:0:0:0:
256,192,140405,1,0,0:0:0:0:
256,192,140855,1,0,0:0:0:0:
256,192,141005,1,8,0:0:0:0:
256,192,141305,1,0,0:0:0:0:
256,192,141605,1,12,0:0:0:0:
256,192,142805,1,4,0:0:0:0:
256,192,142955,1,8,0:0:0:0:
256,192,143105,1,0,0:0:0:0:
256,192,143405,1,0,0:0:0:0:
256,192,143855,1,8,0:0:0:0:
256,192,144005,1,0,0:0:0:0:
256,192,144305,1,0,0:0:0:0:
256,192,144605,1,0,0:0:0:0:
256,192,145055,1,8,0:0:0:0:
256,192,145205,1,0,0:0:0:0:
256,192,145505,1,0,0:0:0:0:
256,192,145655,1,8,0:0:0:0:
256,192,145805,1,0,0:0:0:0:
256,192,146255,1,8,0:0:0:0:
256,192,146405,1,0,0:0:0:0:
256,192,146705,1,0,0:0:0:0:
256,192,147005,1,0,0:0:0:0:
256,192,147605,1,0,0:0:0:0:
256,192,147905,1,8,0:0:0:0:
256,192,148205,1,0,0:0:0:0:
256,192,148355,1,0,0:0:0:0:
256,192,148505,1,8,0:0:0:0:
256,192,148805,1,0,0:0:0:0:
256,192,149105,1,8,0:0:0:0:
256,192,149405,1,0,0:0:0:0:
256,192,149555,1,0,0:0:0:0:
256,192,149705,1,8,0:0:0:0:
256,192,150005,1,8,0:0:0:0:
256,192,150155,1,0,0:0:0:0:
256,192,150305,1,8,0:0:0:0:
256,192,150605,1,8,0:0:0:0:
256,192,150755,1,8,0:0:0:0:
256,192,150905,1,0,0:0:0:0:
256,192,151205,1,8,0:0:0:0:
256,192,151805,1,12,0:0:0:0:
256,192,152105,1,4,0:0:0:0:
256,192,152405,1,12,0:0:0:0:
256,192,152855,1,0,0:0:0:0:
256,192,153005,1,8,0:0:0:0:
256,192,153305,1,0,0:0:0:0:
256,192,153605,1,8,0:0:0:0:
256,192,154055,1,8,0:0:0:0:
256,192,154205,1,0,0:0:0:0:
256,192,154505,1,12,0:0:0:0:
256,192,154805,1,0,0:0:0:0:
256,192,155105,1,8,0:0:0:0:
256,192,155255,1,0,0:0:0:0:
256,192,155405,1,8,0:0:0:0:
256,192,155855,1,0,0:0:0:0:
256,192,156005,1,8,0:0:0:0:
256,192,156605,1,8,0:0:0:0:
256,192,156755,1,0,0:0:0:0:
256,192,156905,1,0,0:0:0:0:
256,192,157205,1,12,0:0:0:0:
256,192,157655,1,0,0:0:0:0:
256,192,157805,1,8,0:0:0:0:
256,192,158105,1,8,0:0:0:0:
256,192,158255,1,8,0:0:0:0:
256,192,158405,1,0,0:0:0:0:
256,192,158855,1,8,0:0:0:0:
256,192,159005,1,0,0:0:0:0:
256,192,159305,1,12,0:0:0:0:
256,192,159605,1,8,0:0:0:0:
256,192,159755,1,0,0:0:0:0:
256,192,159905,1,8,0:0:0:0:
256,192,160205,1,8,0:0:0:0:
256,192,160805,1,8,0:0:0:0:
256,192,161105,1,0,0:0:0:0:
256,192,161405,1,8,0:0:0:0:
256,192,161705,1,4,0:0:0:0:
256,192,162005,1,12,0:0:0:0:
256,192,162455,1,0,0:0:0:0:
256,192,162605,1,8,0:0:0:0:
256,192,162905,1,0,0:0:0:0:
256,192,163205,1,8,0:0:0:0:
256,192,163805,1,0,0:0:0:0:
256,192,164105,1,12,0:0:0:0:
256,192,164405,1,0,0:0:0:0:
256,192,164705,1,0,0:0:0:0:
256,192,164855,1,8,0:0:0:0:
256,192,165005,1,0,0:0:0:0:
256,192,165305,1,8,0:0:0:0:
256,192,165455,1,0,0:0:0:0:
256,192,165605,1,8,0:0:0:0:
256,192,166205,1,8,0:0:0:0:
256,192,166355,1,0,0:0:0:0:
256,192,166505,1,0,0:0:0:0:
256,192,166805,1,12,0:0:0:0:
256,192,167255,1,0,0:0:0:0:
256,192,167405,1,8,0:0:0:0:
256,192,167705,1,0,0:0:0:0:
256,192,168005,1,8,0:0:0:0:
256,192,168455,1,8,0:0:0:0:
256,192,168605,1,0,0:0:0:0:
256,192,168905,1,12,0:0:0:0:
256,192,169205,1,0,0:0:0:0:
256,192,169805,1,8,0:0:0:0:
256,192,170105,1,8,0:0:0:0:
256,192,170405,1,0,0:0:0:0:
256,192,170555,1,8,0:0:0:0:
256,192,171005,1,8,0:0:0:0:
256,192,171305,1,0,0:0:0:0:
256,192,171605,1,12,0:0:0:0:
256,192,172355,1,0,0:0:0:0:
256,192,172505,1,8,0:0:0:0:
256,192,172805,1,8,0:0:0:0:
256,192,173405,1,8,0:0:0:0:
256,192,173705,1,0,0:0:0:0:
256,192,174005,1,12,0:0:0:0:
256,192,174155,1,0,0:0:0:0:
256,192,174305,1,0,0:0:0:0:
256,192,174605,1,8,0:0:0:0:
256,192,174905,1,0,0:0:0:0:
256,192,175055,1,0,0:0:0:0:
256,192,175205,1,8,0:0:0:0:
256,192,175505,1,0,0:0:0:0:
256,192,175805,1,8,0:0:0:0:
256,192,176405,1,8,0:0:0:0:
256,192,176555,1,0,0:0:0:0:
256,192,176705,1,0,0:0:0:0:
256,192,177005,1,8,0:0:0:0:
256,192,177305,1,0,0:0:0:0:
256,192,177605,1,8,0:0:0:0:
256,192,177755,1,8,0:0:0:0:
256,192,177905,1,0,0:0:0:0:
256,192,178205,1,8,0:0:0:0:
256,192,178505,1,0,0:0:0:0:
256,192,178805,1,8,0:0:0:0:
256,192,178955,1,0,0:0:0:0:
256,192,179105,1,0,0:0:0:0:
256,192,179405,1,8,0:0:0:0:
256,192,179705,1,0,0:0:0:0:
256,192,179855,1,0,0:0:0:0:
256,192,180005,1,8,0:0:0:0:
256,192,180305,1,0,0:0:0:0:
256,192,180605,1,8,0:0:0:0:
256,192,181205,1,8,0:0:0:0:
256,192,181355,1,0,0:0:0:0:
256,192,181505,1,0,0:0:0:0:
256,192,181805,1,8,0:0:0:0:
256,192,182105,1,0,0:0:0:0:
256,192,182255,1,0,0:0:0:0:
256,192,182405,1,8,0:0:0:0:
256,192,183005,1,8,0:0:0:0:
256,192,183305,1,4,0:0:0:0:
256,192,183605,1,12,0:0:0:0:
256,192,183755,1,0,0:0:0:0:
256,192,183905,1,0,0:0:0:0:
256,192,184205,1,8,0:0:0:0:
256,192,184505,1,0,0:0:0:0:
256,192,184655,1,0,0:0:0:0:
256,192,184805,1,8,0:0:0:0:
256,192,185105,1,0,0:0:0:0:
256,192,185405,1,8,0:0:0:0:
256,192,186005,1,8,0:0:0:0:
256,192,186155,1,0,0:0:0:0:
256,192,186305,1,0,0:0:0:0:
256,192,186605,1,8,0:0:0:0:
256,192,186905,1,0,0:0:0:0:
256,192,187205,1,8,0:0:0:0:
256,192,187355,1,8,0:0:0:0:
256,192,187505,1,0,0:0:0:0:
256,192,187805,1,8,0:0:0:0:
256,192,188105,1,0,0:0:0:0:
256,192,188405,1,8,0:0:0:0:
256,192,188555,1,0,0:0:0:0:
256,192,188705,1,0,0:0:0:0:
256,192,189005,1,8,0:0:0:0:
256,192,189155,1,0,0:0:0:0:
256,192,189305,1,8,0:0:0:0:
256,192,189605,1,8,0:0:0:0:
256,192,189755,1,0,0:0:0:0:
256,192,189905,1,8,0:0:0:0:
256,192,190205,1,8,0:0:0:0:
256,192,190805,1,8,0:0:0:0:
256,192,190955,1,0,0:0:0:0:
256,192,191105,1,0,0:0:0:0:
256,192,191405,1,8,0:0:0:0:
256,192,191705,1,0,0:0:0:0:
256,192,192005,1,8,0:0:0:0:
256,192,192155,1,0,0:0:0:0:
256,192,192305,1,8,0:0:0:0:
256,192,192455,1,8,0:0:0:0:
256,192,192605,1,0,0:0:0:0:
256,192,192905,1,8,0:0:0:0:
256,192,193055,1,8,0:0:0:0:
256,192,193205,1,0,0:0:0:0:
256,192,193505,1,0,0:0:0:0:
256,192,193805,1,8,0:0:0:0:
256,192,194405,1,0,0:0:0:0:
256,192,194555,1,8,0:0:0:0:
256,192,194705,1,0,0:0:0:0:
256,192,195005,1,4,0:0:0:0:
256,192,195155,8,0,197705,0:0:0:0:
