osu file format v14

[General]
AudioFilename: audio.mp3
AudioLeadIn: 0
PreviewTime: 41770
Countdown: 0
SampleSet: Soft
StackLeniency: 0.4
Mode: 0
LetterboxInBreaks: 1
WidescreenStoryboard: 1

[Editor]
DistanceSpacing: 1.9
BeatDivisor: 4
GridSize: 32
TimelineZoom: 4.399998

[Metadata]
Title:Oshama Scramble!
TitleUnicode:Oshama Scramble!
Artist:t+pazolite
ArtistUnicode:t+pazolite
Creator:MiruHong
Version:Washi Washi
Source:maimai
Tags:Reggae Illegal Content
BeatmapID:1568031
BeatmapSetID:743539

[Difficulty]
HPDrainRate:4
CircleSize:4
OverallDifficulty:8.5
ApproachRate:9.6
SliderMultiplier:1.8
SliderTickRate:1

[Events]
//Background and Video events
0,0,"thumb-1920-267001.jpg",0,0
//Break Periods
2,62101,71261
//Storyboard Layer 0 (Background)
//Storyboard Layer 1 (Fail)
//Storyboard Layer 2 (Pass)
//Storyboard Layer 3 (Foreground)
//Storyboard Sound Samples

[TimingPoints]
86,315.789473684211,4,1,0,30,1,0
86,-166.666666666667,4,3,0,30,0,0
717,-100,4,3,0,30,0,0
11770,-133.333333333333,4,2,0,30,0,0
12401,-100,4,2,0,30,0,0
13033,-83.3333333333333,4,2,0,30,0,0
13664,-100,4,2,0,30,0,0
20928,-83.3333333333333,4,2,0,30,0,0
21243,-62.5,4,2,0,30,0,0
21559,-100,4,2,0,30,0,0
26612,-600,4,2,0,30,0,0
27717,-400,4,2,0,30,0,0
29138,-133.333333333333,4,2,0,30,0,0
29612,-100,4,2,0,30,0,0
41454,-33.333333333,4,2,0,40,0,0
41770,-66.6666666666667,4,1,0,50,0,1
46191,-125,4,1,0,30,0,1
46822,-66.6666666666667,4,1,0,50,0,1
50375,-133.333333333333,4,1,0,50,0,1
50612,-66.6666666666667,4,1,0,50,0,1
52191,-133.333333333333,4,1,0,50,0,1
52507,-66.6666666666667,4,1,0,50,0,1
61980,-100,4,2,0,30,0,0
79033,-133.333333333333,4,2,0,30,0,0
79349,-100,4,2,0,30,0,0
81875,-133.333333333333,4,2,0,30,0,0
91980,-100,4,2,0,30,0,0
102401,-100,4,2,0,30,0,0
103664,-66.6666666666667,4,3,0,50,0,1
112507,-133.333333333333,4,3,0,50,0,1
112822,-66.6666666666667,4,3,0,50,0,1
113612,-50,4,3,0,60,0,1
132796,-133.333333333333,4,3,0,70,0,1
133191,-50,4,3,0,70,0,1
133980,-33.3333333333333,4,3,0,70,0,1
140928,-12.6666666666667,4,3,0,20,0,1
141559,-100,4,3,0,70,0,1
141875,-66.6666666666667,4,3,0,70,0,1
142191,-50,4,3,0,70,0,1
142507,-33.3333333333333,4,3,0,70,0,1
142822,-50,4,2,0,10,0,0
144086,-100,4,2,0,20,0,0
151664,-100,4,2,0,30,0,0
153875,-50,4,2,0,45,0,0
154191,-100,4,2,0,60,0,0
175664,-66.6666666666667,4,2,0,30,0,0
184507,-100,4,1,0,70,0,1
186717,-66.6666666666667,4,1,0,70,0,1
195717,-33.3333333333333,4,1,0,70,0,1
197296,-66.6666666666667,4,1,0,70,0,1
207243,-50,4,3,0,70,0,0
209770,-33.3333333333333,4,3,0,70,0,0
212296,-50,4,3,0,70,0,0
217349,-33.3333333333333,4,3,0,70,0,0
224928,-100,4,3,0,70,0,0
225243,-66.6666666666667,4,3,0,70,0,0
225559,-50,4,3,0,70,0,0
225875,-33.3333333333333,4,3,0,70,0,0
226191,-33.3333333333333,4,2,0,70,0,0
227454,-66.6666666666667,4,2,0,70,0,0
235980,-133.333333333333,4,2,0,70,0,0
236296,-66.6666666666667,4,2,0,70,0,0
237954,-133.333333333333,4,2,0,70,0,0
238033,-66.6666666666667,4,2,0,70,0,0

[Colours]
Combo1 : 155,94,0
Combo2 : 114,114,114
Combo3 : 119,119,0
Combo4 : 157,0,106

[HitObjects]
247,197,86,6,0,L|372:210,1,107.999996704102
247,197,559,1,0,0:0:0:0:
280,119,717,2,0,P|231:120|186:135,1,90
358,82,1033,1,0,0:0:0:0:
96,216,1349,6,0,P|143:224|184:251,1,90
262,276,1664,2,0,P|214:267|173:240,1,90
96,216,1980,1,0,0:0:0:0:
107,300,2138,1,0,0:0:0:0:
241,195,2296,1,0,0:0:0:0:
212,345,2454,1,0,0:0:0:0:
369,207,2612,6,0,L|356:103,1,90
378,215,2928,6,0,L|365:111,1,90
386,223,3243,6,0,L|373:119,1,90
454,322,3559,5,0,0:0:0:0:
409,315,3637,1,0,0:0:0:0:
364,309,3716,1,0,0:0:0:0:
320,302,3795,1,0,0:0:0:0:
143,269,3875,6,0,L|247:287,1,90
138,256,4191,6,0,L|242:274,1,90
134,243,4507,6,0,L|238:261,1,90
231,173,4822,6,0,L|221:69,1,90
252,185,5138,6,0,L|242:81,1,90
269,198,5454,6,0,L|259:94,1,90
133,149,5770,5,0,0:0:0:0:
133,149,5849,1,0,0:0:0:0:
133,149,5928,1,0,0:0:0:0:
157,160,6006,1,0,0:0:0:0:
191,177,6086,1,0,0:0:0:0:
217,192,6165,1,0,0:0:0:0:
251,209,6244,1,0,0:0:0:0:
295,65,6401,6,0,P|340:67|383:80,1,90
505,46,6717,6,0,P|480:83|448:114,1,90
416,237,7033,6,0,P|395:197|384:153,1,90
295,65,7349,5,0,0:0:0:0:
390,327,7507,1,0,0:0:0:0:
440,155,7664,6,0,L|434:52,1,90
449,163,7980,6,0,L|443:60,1,90
460,174,8296,6,0,L|454:71,1,90
157,179,8612,5,0,0:0:0:0:
201,186,8691,1,0,0:0:0:0:
246,192,8770,1,0,0:0:0:0:
291,199,8848,1,0,0:0:0:0:
67,167,8928,6,0,L|167:180,1,90
61,151,9243,6,0,L|161:164,1,90
199,95,9559,1,0,0:0:0:0:
212,100,9638,1,0,0:0:0:0:
224,105,9717,6,0,L|267:39,1,45
326,110,9875,1,0,0:0:0:0:
315,118,9954,1,0,0:0:0:0:
304,126,10033,6,0,L|339:196,1,45
245,210,10191,1,0,0:0:0:0:
243,196,10270,1,0,0:0:0:0:
242,182,10349,6,0,L|163:177,1,45
316,218,10507,1,0,0:0:0:0:
404,194,10664,5,0,0:0:0:0:
494,179,10822,1,0,0:0:0:0:
494,179,10901,1,0,0:0:0:0:
490,204,10980,1,0,0:0:0:0:
485,229,11059,1,0,0:0:0:0:
482,249,11138,1,0,0:0:0:0:
478,272,11217,1,0,0:0:0:0:
502,132,11296,5,0,0:0:0:0:
213,118,11454,6,0,P|265:113|312:127,1,90
252,187,11770,2,0,P|208:197|165:191,1,67.5000025749208
133,133,12086,2,0,P|99:132|66:141,1,67.5000025749208
333,200,12401,6,0,P|326:244|340:299,1,90
401,238,12717,6,0,P|409:194|403:149,1,90
335,288,13033,2,0,P|281:288|231:270,1,107.999996704102
178,182,13349,2,0,P|232:181|282:200,1,107.999996704102
143,256,13664,5,0,0:0:0:0:
107,249,13743,1,0,0:0:0:0:
71,241,13822,1,0,0:0:0:0:
35,233,13901,1,0,0:0:0:0:
0,227,13980,1,0,0:0:0:0:
55,72,14138,5,0,0:0:0:0:
316,41,14296,2,0,L|221:24,1,90
327,139,14612,2,0,L|232:122,1,90
417,88,14928,2,0,L|400:182,1,90
512,78,15243,2,0,L|495:172,1,90
337,233,15559,2,0,L|242:216,1,90
477,317,15875,5,0,0:0:0:0:
442,308,15954,1,0,0:0:0:0:
406,299,16033,1,0,0:0:0:0:
370,291,16112,1,0,0:0:0:0:
334,283,16191,1,0,0:0:0:0:
496,166,16349,1,0,0:0:0:0:
322,96,16507,5,0,0:0:0:0:
155,157,16664,1,0,0:0:0:0:
417,98,16822,5,0,0:0:0:0:
241,67,16979,1,0,0:0:0:0:
502,76,17138,5,0,0:0:0:0:
156,75,17296,1,0,0:0:0:0:
370,164,17454,5,0,0:0:0:0:
28,222,17612,1,0,0:0:0:0:
243,244,17770,5,0,0:0:0:0:
189,5,17928,1,0,0:0:0:0:
298,186,18086,5,0,0:0:0:0:
388,2,18244,1,0,0:0:0:0:
164,272,18401,5,0,0:0:0:0:
35,120,18559,1,0,0:0:0:0:
288,323,18717,5,0,0:0:0:0:
265,107,18875,1,0,0:0:0:0:
413,286,19033,6,0,L|465:281,3,45
485,166,19349,6,0,L|440:169,3,45
315,189,19664,6,0,L|310:136,3,45
195,117,19980,6,0,L|198:161,3,45
233,270,20296,5,0,0:0:0:0:
199,257,20375,1,0,0:0:0:0:
165,245,20454,1,0,0:0:0:0:
131,233,20533,1,0,0:0:0:0:
45,241,20612,5,0,0:0:0:0:
52,205,20691,1,0,0:0:0:0:
58,169,20770,1,0,0:0:0:0:
63,134,20849,1,0,0:0:0:0:
182,127,20928,6,0,L|213:119,6,26.9999991760254
305,163,21243,6,0,L|349:173,9,24
310,32,21559,5,0,0:0:0:0:
415,246,21717,1,0,0:0:0:0:
201,351,22033,1,0,0:0:0:0:
96,137,22349,1,0,0:0:0:0:
449,311,22664,5,0,0:0:0:0:
360,339,22980,5,0,0:0:0:0:
314,321,23138,1,0,0:0:0:0:
265,303,23296,1,0,0:0:0:0:
145,307,23454,5,0,0:0:0:0:
206,217,23612,1,0,0:0:0:0:
115,165,23770,1,0,0:0:0:0:
56,249,23928,1,0,0:0:0:0:
26,157,24086,6,0,P|18:101|63:27,1,135
34,164,24559,1,0,0:0:0:0:
200,119,24875,1,0,0:0:0:0:
91,82,25191,1,0,0:0:0:0:
297,81,25507,5,0,0:0:0:0:
445,76,25664,1,0,0:0:0:0:
380,184,25822,1,0,0:0:0:0:
91,82,25980,5,0,0:0:0:0:
242,199,26138,1,0,0:0:0:0:
132,175,26296,1,0,0:0:0:0:
303,84,26454,5,0,0:0:0:0:
446,80,26612,2,0,L|443:103,1,22.5
380,184,27086,1,0,0:0:0:0:
318,280,27401,1,0,0:0:0:0:
442,285,27717,2,0,L|430:332,1,45
509,186,28191,5,0,0:0:0:0:
474,80,28349,1,0,0:0:0:0:
369,107,28507,1,0,0:0:0:0:
400,208,28664,1,0,0:0:0:0:
269,68,28822,5,0,0:0:0:0:
302,174,28980,1,0,0:0:0:0:
238,262,29138,2,0,B|196:209|204:156,1,101.250003862381
238,262,29612,6,0,P|141:280|61:256,1,180
247,269,30243,1,0,0:0:0:0:
297,48,30559,5,0,0:0:0:0:
339,152,30717,1,0,0:0:0:0:
459,171,30875,1,0,0:0:0:0:
303,52,31033,1,0,0:0:0:0:
416,65,31191,1,0,0:0:0:0:
310,56,31349,1,0,0:0:0:0:
234,130,31507,1,0,0:0:0:0:
198,15,31664,2,0,B|193:61|193:61|162:76|162:76|156:129,1,135
138,260,32138,5,0,0:0:0:0:
142,264,32454,1,0,0:0:0:0:
147,268,32770,1,0,0:0:0:0:
252,208,33086,5,0,0:0:0:0:
260,314,33244,1,0,0:0:0:0:
354,255,33402,1,0,0:0:0:0:
169,167,33560,1,0,0:0:0:0:
268,319,33717,1,0,0:0:0:0:
349,157,33875,1,0,0:0:0:0:
92,127,34034,1,0,0:0:0:0:
307,236,34192,6,0,P|253:237|175:293,1,135
313,242,34664,1,0,0:0:0:0:
220,143,34980,1,0,0:0:0:0:
179,257,35296,1,0,0:0:0:0:
303,158,35612,5,0,0:0:0:0:
145,181,35770,1,0,0:0:0:0:
254,302,35928,1,0,0:0:0:0:
273,83,36086,5,0,0:0:0:0:
101,246,36243,1,0,0:0:0:0:
328,317,36401,1,0,0:0:0:0:
237,214,36559,1,0,0:0:0:0:
388,125,36717,5,0,0:0:0:0:
429,226,36875,1,0,0:0:0:0:
504,133,37033,1,0,0:0:0:0:
498,101,37111,1,0,0:0:0:0:
484,72,37190,1,0,0:0:0:0:
463,48,37269,1,0,0:0:0:0:
436,31,37348,1,0,0:0:0:0:
405,21,37427,1,0,0:0:0:0:
373,21,37506,1,0,0:0:0:0:
342,29,37585,1,0,0:0:0:0:
288,108,37664,6,0,P|243:90|222:72,1,45
179,127,37822,2,0,P|172:80|181:44,1,45
100,51,37980,2,0,P|137:21|163:11,1,45
223,16,38138,6,0,B|248:9|248:9|283:19,1,45
375,111,38296,5,0,0:0:0:0:
376,150,38375,1,0,0:0:0:0:
347,186,38454,1,0,0:0:0:0:
309,204,38533,1,0,0:0:0:0:
264,201,38612,1,0,0:0:0:0:
231,170,38691,1,0,0:0:0:0:
203,81,38770,6,0,L|257:98,1,45
297,36,38928,2,0,L|353:29,1,45
431,68,39086,1,0,0:0:0:0:
452,111,39164,1,0,0:0:0:0:
477,154,39243,6,0,L|512:182,3,45
429,230,39559,5,0,0:0:0:0:
400,265,39638,1,0,0:0:0:0:
356,285,39717,1,0,0:0:0:0:
308,283,39796,1,0,0:0:0:0:
272,258,39875,6,0,L|226:265,3,45
292,226,40191,5,0,0:0:0:0:
279,182,40270,1,0,0:0:0:0:
241,163,40349,1,0,0:0:0:0:
199,165,40428,1,0,0:0:0:0:
256,192,40507,12,0,41414,0:0:0:0:
59,108,41454,6,0,B|84:48|84:48|117:101|117:101|146:48|146:48|176:121|176:121|176:159|176:159|176:98|176:98|229:128|229:128|229:84|229:84|229:181|229:181,1,540.000020599366
72,304,41928,6,0,L|140:320,1,67.5000025749208
221,319,42086,1,0,0:0:0:0:
216,268,42164,1,0,0:0:0:0:
262,245,42243,2,0,L|425:280,1,135.000005149842
464,191,42559,5,0,0:0:0:0:
332,167,42717,1,0,0:0:0:0:
408,91,42875,2,0,L|340:77,1,67.5000025749208
312,95,43033,5,0,0:0:0:0:
267,78,43112,1,0,0:0:0:0:
217,80,43191,1,0,0:0:0:0:
171,95,43270,1,0,0:0:0:0:
176,42,43349,1,0,0:0:0:0:
60,60,43507,5,0,0:0:0:0:
51,241,43664,1,0,0:0:0:0:
78,278,43743,1,0,0:0:0:0:
119,286,43822,1,0,0:0:0:0:
160,261,43901,1,0,0:0:0:0:
175,218,43980,2,0,L|159:146,1,67.5000025749208
225,75,44138,1,0,0:0:0:0:
235,121,44217,1,0,0:0:0:0:
244,166,44296,2,0,B|261:236|261:236|285:257|285:257|300:310,1,135.000005149842
342,111,44612,6,0,L|350:43,1,67.5000025749208
449,93,44770,2,0,L|439:161,1,67.5000025749208
333,103,44928,2,0,L|341:35,1,67.5000025749208
460,99,45086,2,0,L|450:167,1,67.5000025749208
320,91,45243,5,0,0:0:0:0:
214,54,45401,1,0,0:0:0:0:
73,79,45559,2,0,P|142:54|216:54,1,135.000005149842
164,114,45796,5,0,0:0:0:0:
200,110,45875,1,0,0:0:0:0:
234,122,45954,1,0,0:0:0:0:
257,155,46033,1,0,0:0:0:0:
295,106,46112,1,0,0:0:0:0:
350,196,46191,6,0,L|433:188,1,72
474,286,46507,2,0,L|389:292,1,72
198,266,46822,5,0,0:0:0:0:
153,294,46901,1,0,0:0:0:0:
109,274,46980,2,0,P|74:285|26:288,1,67.5000025749208
27,247,47138,1,0,0:0:0:0:
69,211,47217,1,0,0:0:0:0:
78,160,47296,1,0,0:0:0:0:
44,116,47375,1,0,0:0:0:0:
105,101,47454,1,0,0:0:0:0:
299,126,47612,5,0,0:0:0:0:
414,255,47770,2,0,L|262:233,1,135.000005149842
33,250,48086,1,0,0:0:0:0:
69,264,48164,1,0,0:0:0:0:
112,279,48243,1,0,0:0:0:0:
144,302,48322,1,0,0:0:0:0:
181,266,48401,1,0,0:0:0:0:
197,174,48559,5,0,0:0:0:0:
308,309,48717,2,0,L|350:256,1,67.5000025749208
326,170,48875,2,0,L|277:227,1,67.5000025749208
332,305,49033,2,0,L|377:252,1,67.5000025749208
319,146,49191,2,0,L|275:200,1,67.5000025749208
445,151,49349,5,0,0:0:0:0:
426,78,49428,1,0,0:0:0:0:
356,64,49507,1,0,0:0:0:0:
311,120,49586,1,0,0:0:0:0:
336,189,49664,6,0,P|265:167|257:128,1,67.5000025749208
130,194,49822,2,0,P|144:163|172:145,1,67.5000025749208
218,26,49980,2,0,P|237:52|239:86,1,67.5000025749208,0|0,2:0|2:0,2:0:0:0:
212,275,50138,1,0,0:0:0:0:
94,292,50296,1,0,0:0:0:0:
51,282,50375,2,0,L|35:305,1,16.8750006437302
28,241,50454,2,0,L|1:247,1,16.8750006437302
40,43,50612,5,0,0:0:0:0:
95,35,50691,1,0,0:0:0:0:
140,49,50770,1,0,0:0:0:0:
169,82,50849,1,0,0:0:0:0:
170,120,50928,1,0,0:0:0:0:
133,148,51007,5,0,0:0:0:0:
160,183,51086,1,0,0:0:0:0:
163,226,51164,1,0,0:0:0:0:
250,215,51243,6,0,L|295:188,6,33.7500012874604
239,338,51559,2,0,L|286:330,6,33.7500012874604
364,279,51875,6,0,P|399:294|454:290,1,67.5000025749208
417,212,52033,5,0,0:0:0:0:
459,185,52112,1,0,0:0:0:0:
459,131,52191,2,0,L|487:124,1,16.8750006437302
434,82,52270,2,0,L|452:66,1,16.8750006437302
387,71,52349,2,0,L|392:45,1,16.8750006437302
198,80,52507,5,0,0:0:0:0:
352,149,52664,1,0,0:0:0:0:
209,237,52822,1,0,0:0:0:0:
451,265,52980,1,0,0:0:0:0:
368,307,53138,5,0,0:0:0:0:
323,330,53217,1,0,0:0:0:0:
273,312,53296,1,0,0:0:0:0:
237,274,53375,1,0,0:0:0:0:
213,329,53454,1,0,0:0:0:0:
29,117,53612,5,0,0:0:0:0:
127,103,53770,2,0,L|200:119,1,67.5000025749208
97,223,53928,2,0,L|15:202,1,67.5000025749208
128,113,54086,2,0,L|198:129,1,67.5000025749208
101,230,54243,2,0,L|19:209,1,67.5000025749208
223,197,54401,5,0,0:0:0:0:
269,212,54480,1,0,0:0:0:0:
317,195,54559,2,0,P|312:155|281:126,1,67.5000025749208
351,109,54717,5,0,0:0:0:0:
351,109,54796,1,0,0:0:0:0:
351,109,54875,1,0,0:0:0:0:
423,183,55033,5,0,0:0:0:0:
409,283,55191,1,0,0:0:0:0:
512,253,55349,1,0,0:0:0:0:
428,189,55507,5,0,0:0:0:0:
317,217,55664,2,0,L|239:232,1,67.5000025749208
218,317,55822,2,0,L|304:302,1,67.5000025749208
155,224,55980,1,0,0:0:0:0:
116,354,56138,1,0,0:0:0:0:
27,250,56296,6,0,P|69:173|74:110,1,135.000005149842
27,250,56612,6,0,P|32:202|48:177,1,67.5000025749208
74,127,56770,1,0,0:0:0:0:
234,37,56928,6,0,L|215:112,1,67.5000025749208
257,153,57086,1,0,0:0:0:0:
270,107,57164,1,0,0:0:0:0:
284,59,57243,1,0,0:0:0:0:
393,150,57401,6,0,L|466:134,1,67.5000025749208
506,179,57559,1,0,0:0:0:0:
460,194,57638,1,0,0:0:0:0:
409,208,57717,2,0,B|369:214|369:214|351:246,1,67.5000025749208
402,275,57875,1,0,0:0:0:0:
358,300,57954,1,0,0:0:0:0:
315,324,58033,2,0,B|307:294|307:294|264:247|288:195|288:195,1,135.000005149842
208,308,58349,5,0,0:0:0:0:
207,170,58507,5,0,0:0:0:0:
240,136,58586,1,0,0:0:0:0:
284,123,58664,1,0,0:0:0:0:
330,131,58743,1,0,0:0:0:0:
363,164,58822,1,0,0:0:0:0:
412,160,58901,5,0,0:0:0:0:
412,160,58980,1,0,0:0:0:0:
412,160,59059,1,0,0:0:0:0:
412,160,59138,1,0,0:0:0:0:
198,50,59296,5,0,0:0:0:0:
42,106,59454,2,0,L|135:80,1,67.5000025749208
188,151,59612,2,0,L|105:172,1,67.5000025749208
51,253,59770,2,0,P|63:292|107:308,1,67.5000025749208
171,265,59928,2,0,P|209:284|265:279,1,67.5000025749208
286,205,60086,2,0,P|329:210|377:200,1,67.5000025749208
365,106,60243,2,0,L|434:70,1,67.5000025749208
491,173,60401,2,0,L|417:213,1,67.5000025749208
451,316,60559,2,0,L|520:280,1,67.5000025749208
337,320,60717,5,0,0:0:0:0:
293,300,60796,1,0,0:0:0:0:
245,302,60875,1,0,0:0:0:0:
201,319,60954,1,0,0:0:0:0:
216,267,61033,5,0,0:0:0:0:
249,224,61112,1,0,0:0:0:0:
298,202,61191,1,0,0:0:0:0:
352,202,61270,1,0,0:0:0:0:
417,219,61349,5,0,0:0:0:0:
472,181,61428,1,0,0:0:0:0:
476,113,61507,1,0,0:0:0:0:
415,83,61586,1,0,0:0:0:0:
348,127,61664,5,0,0:0:0:0:
269,108,61743,1,0,0:0:0:0:
189,94,61822,1,0,0:0:0:0:
109,107,61901,1,0,0:0:0:0:
226,208,71770,6,0,L|260:196,4,22.5
233,217,72086,5,0,0:0:0:0:
345,151,72559,1,0,0:0:0:0:
349,266,72875,1,0,0:0:0:0:
237,221,73191,1,0,0:0:0:0:
252,336,73507,1,0,0:0:0:0:
341,154,73664,1,0,0:0:0:0:
122,157,74296,5,0,0:0:0:0:
235,101,74454,1,0,0:0:0:0:
130,33,74612,1,0,0:0:0:0:
349,266,74928,5,0,0:0:0:0:
365,363,75086,1,0,0:0:0:0:
453,299,75243,1,0,0:0:0:0:
311,148,75559,5,0,0:0:0:0:
227,229,75717,1,0,0:0:0:0:
407,187,75875,1,0,0:0:0:0:
260,335,76033,1,0,0:0:0:0:
391,81,76191,1,0,0:0:0:0:
155,304,76349,1,0,0:0:0:0:
345,264,76507,2,0,L|385:271,2,22.5
25,202,76822,6,0,L|124:215,1,90
180,135,77138,1,0,0:0:0:0:
49,68,77296,1,0,0:0:0:0:
188,140,77454,1,0,0:0:0:0:
188,140,77612,1,0,0:0:0:0:
222,279,77928,5,0,0:0:0:0:
324,184,78243,1,0,0:0:0:0:
360,305,78401,2,0,L|464:288,1,90
466,149,78717,1,0,0:0:0:0:
429,224,78875,1,0,0:0:0:0:
506,79,79033,2,0,L|515:63,1,16.8750006437302
400,69,79349,5,0,0:0:0:0:
300,26,79507,1,0,0:0:0:0:
294,131,79664,1,0,0:0:0:0:
200,108,79822,1,0,0:0:0:0:
200,108,79980,1,0,0:0:0:0:
200,108,80138,1,0,0:0:0:0:
214,205,80454,5,0,0:0:0:0:
115,164,80612,1,0,0:0:0:0:
311,175,80770,1,0,0:0:0:0:
374,103,80928,1,0,0:0:0:0:
256,192,81007,12,0,81717,0:0:0:0:
121,122,81875,6,0,L|196:96,1,67.5000025749208
306,142,82191,2,0,L|236:171,1,67.5000025749208
144,219,82507,1,0,0:0:0:0:
144,219,82664,1,0,0:0:0:0:
230,298,82980,5,0,0:0:0:0:
443,202,83296,2,0,L|371:233,1,67.5000025749208
254,106,83612,1,0,0:0:0:0:
258,110,83770,1,0,0:0:0:0:
68,122,84401,6,0,L|142:80,1,67.5000025749208
68,122,84716,1,0,0:0:0:0:
313,147,84875,1,0,0:0:0:0:
191,237,85033,1,0,0:0:0:0:
444,262,85191,2,0,L|373:303,1,67.5000025749208
444,262,85506,1,0,0:0:0:0:
210,147,85664,1,0,0:0:0:0:
311,230,85822,1,0,0:0:0:0:
304,114,85980,5,0,0:0:0:0:
206,263,86138,1,0,0:0:0:0:
388,166,86296,1,0,0:0:0:0:
124,213,86454,1,0,0:0:0:0:
296,182,86612,6,0,B|264:173|264:173|236:203|236:203|161:204,1,135.000005149842
106,102,87086,2,0,L|200:127,1,67.5000025749208
208,50,87401,1,0,0:0:0:0:
254,63,87559,1,0,0:0:0:0:
300,77,87717,1,0,0:0:0:0:
396,120,88033,5,0,0:0:0:0:
512,108,88349,2,0,L|484:210,1,101.250003862381
460,279,88664,1,0,0:0:0:0:
441,39,88822,1,0,0:0:0:0:
399,206,88980,1,0,0:0:0:0:
349,17,89138,1,0,0:0:0:0:
82,154,89454,6,0,P|116:174|158:183,1,67.5000025749208
162,107,89770,2,0,P|194:116|218:133,1,33.7500012874604
240,132,89928,1,0,0:0:0:0:
287,118,90007,1,0,0:0:0:0:
312,78,90086,1,0,0:0:0:0:
214,22,90243,1,0,0:0:0:0:
72,61,90401,5,0,0:0:0:0:
82,154,90559,2,0,P|114:163|142:181,1,67.5000025749208
89,243,90875,2,0,P|117:260|149:270,1,67.5000025749208
225,384,91191,2,0,P|226:350|218:317,1,67.5000025749208
281,195,91507,2,0,P|251:210|226:233,1,67.5000025749208
142,91,91822,1,0,0:0:0:0:
314,48,91980,6,0,L|348:35,1,22.5
425,141,92138,2,0,L|397:148,1,22.5
149,95,92296,1,0,0:0:0:0:
288,200,92454,1,0,0:0:0:0:
121,238,92612,1,0,0:0:0:0:
1,334,92770,1,0,0:0:0:0:
394,332,93086,5,0,0:0:0:0:
299,207,93401,1,0,0:0:0:0:
125,243,93717,1,0,0:0:0:0:
46,122,93875,1,0,0:0:0:0:
320,51,94507,1,0,0:0:0:0:
304,211,94664,1,0,0:0:0:0:
430,146,94822,2,0,L|477:168,2,45
154,101,95138,5,0,0:0:0:0:
308,216,95296,1,0,0:0:0:0:
141,257,95454,1,0,0:0:0:0:
141,257,95533,1,0,0:0:0:0:
141,257,95612,1,0,0:0:0:0:
162,102,95770,5,0,0:0:0:0:
313,220,95928,1,0,0:0:0:0:
326,50,96086,2,0,L|341:14,2,22.5
231,234,96243,1,0,0:0:0:0:
132,137,96401,2,0,L|96:123,2,22.5
258,155,96559,1,0,0:0:0:0:
375,281,96717,1,0,0:0:0:0:
375,281,96770,1,0,0:0:0:0:
375,281,96822,1,0,0:0:0:0:
375,281,96875,1,0,0:0:0:0:
424,140,97033,1,0,0:0:0:0:
272,0,97191,5,0,0:0:0:0:
61,230,97349,1,0,0:0:0:0:
132,99,97507,1,0,0:0:0:0:
122,286,97664,1,0,0:0:0:0:
331,145,97822,1,0,0:0:0:0:
180,353,98138,1,0,0:0:0:0:
489,290,98454,1,0,0:0:0:0:
244,28,98770,5,0,0:0:0:0:
277,151,98928,1,0,0:0:0:0:
383,53,99086,1,0,0:0:0:0:
78,184,99243,1,0,0:0:0:0:
78,184,99296,1,0,0:0:0:0:
78,184,99349,1,0,0:0:0:0:
78,184,99401,1,0,0:0:0:0:
78,184,99454,1,0,0:0:0:0:
161,298,99559,5,0,0:0:0:0:
274,260,99717,1,0,0:0:0:0:
249,365,99875,1,0,0:0:0:0:
390,219,100033,1,0,0:0:0:0:
424,110,100191,1,0,0:0:0:0:
424,110,100349,1,0,0:0:0:0:
132,99,100664,5,0,0:0:0:0:
168,304,100822,1,0,0:0:0:0:
334,165,100980,1,0,0:0:0:0:
138,102,101138,6,0,L|112:89,4,22.5
168,304,101454,2,0,L|161:329,4,22.5
338,169,101770,2,0,L|377:185,4,22.5
138,102,102086,2,0,L|106:85,4,22.5
217,197,102401,5,0,0:0:0:0:
175,242,102875,5,0,0:0:0:0:
175,242,102954,2,0,L|205:271,1,22.5
318,138,103033,2,0,P|343:190|333:256,1,112.5
332,312,103349,2,0,P|365:275|374:224,1,90
171,132,103664,6,0,L|202:272,1,135.000005149842
341,132,103980,2,0,L|310:272,1,135.000005149842
117,109,104296,2,0,L|185:235,1,135.000005149842
395,109,104612,2,0,L|326:235,1,135.000005149842
58,105,104928,2,0,L|168:196,1,135.000005149842
454,105,105243,2,0,L|343:196,1,135.000005149842
49,216,105559,5,0,0:0:0:0:
463,216,105717,1,0,0:0:0:0:
130,298,105875,1,0,0:0:0:0:
382,298,106033,1,0,0:0:0:0:
254,342,106191,6,0,L|205:186,1,135.000005149842
349,127,106507,2,0,L|203:81,1,135.000005149842
258,342,106822,2,0,L|307:186,1,135.000005149842
163,127,107138,2,0,L|309:81,1,135.000005149842
256,193,107454,2,0,B|230:158|272:161|284:145|238:218|263:281,1,135.000005149842
113,97,107770,5,0,0:0:0:0:
392,248,107928,1,0,0:0:0:0:
150,85,108086,1,0,0:0:0:0:
279,338,108243,1,0,0:0:0:0:
160,59,108401,1,0,0:0:0:0:
116,339,108559,1,0,0:0:0:0:
41,255,108717,6,0,P|111:298|200:311,1,135.000005149842
471,129,109033,2,0,P|401:86|312:73,1,135.000005149842
134,230,109349,2,0,P|94:302|86:391,1,135.000005149842,0|0,3:3|3:3,3:3:0:0:
378,154,109664,2,0,P|417:81|425:-7,1,135.000005149842,0|0,3:3|3:3,3:3:0:0:
117,163,109980,2,0,P|140:241|197:311,1,135.000005149842,0|0,3:3|3:3,3:3:0:0:
395,221,110296,2,0,P|371:142|314:72,1,135.000005149842,0|0,3:3|3:3,3:3:0:0:
191,204,110612,5,0,0:0:0:0:
321,180,110770,1,0,0:0:0:0:
108,104,110928,1,0,0:0:0:0:
404,280,111086,1,0,0:0:0:0:
14,32,111243,6,0,P|78:57|149:68,1,135.000005149842
472,375,111559,2,0,P|408:348|336:338,1,135.000005149842
112,274,111875,2,0,P|144:205|148:139,1,135.000005149842
399,109,112191,2,0,P|366:166|363:244,1,135.000005149842
185,196,112507,6,0,B|227:186|227:186|292:198|292:198|333:186,1,135.000005149842
256,130,112980,5,0,0:0:0:0:
379,207,113138,2,0,P|256:256|169:225,1,202.500007724762
145,210,113454,1,0,0:0:0:0:
259,138,113612,1,0,0:0:0:0:
43,105,113770,6,0,P|200:74|303:82,1,180
148,309,114086,2,0,P|305:340|408:332,1,180
111,23,114401,2,0,P|265:63|354:116,1,180
116,253,114717,2,0,P|243:349|339:387,1,180
469,105,115033,2,0,P|312:74|209:82,1,180
364,309,115349,2,0,P|207:340|104:332,1,180
131,95,115664,5,0,0:0:0:0:
381,289,115822,1,0,0:0:0:0:
381,91,115980,1,0,0:0:0:0:
128,282,116138,1,0,0:0:0:0:
423,190,116296,6,0,P|324:201|206:190,1,180
375,308,116612,2,0,B|332:250|332:250|278:220|278:220|222:155,1,180,0|0,0:3|0:3,0:3:0:0:
257,359,116928,2,0,B|270:290|270:290|249:220|258:141,1,180,0|0,0:3|0:3,0:3:0:0:
137,308,117243,2,0,B|180:250|180:250|234:220|234:220|290:155,1,180,0|0,0:3|0:3,0:3:0:0:
89,193,117559,2,0,B|130:206|265:180|265:180|306:194,1,180,0|0,0:3|0:3,0:3:0:0:
430,118,117875,5,0,0:0:0:0:
82,118,118033,1,0,0:0:0:0:
364,36,118191,1,0,0:0:0:0:
148,36,118349,1,0,0:0:0:0:
325,140,118507,1,0,0:0:0:0:
187,140,118664,1,0,0:0:0:0:
51,336,118822,6,0,P|141:256|236:223,1,180
407,60,119138,2,0,P|440:147|433:239,1,180
98,171,119454,2,0,P|166:90|251:47,1,180
365,325,119770,2,0,P|294:239|302:154,1,180
375,57,120086,2,0,P|243:107|206:175,1,180
76,195,120401,2,0,P|148:283|255:314,1,180
459,142,120717,5,0,0:0:0:0:
244,237,120875,1,0,0:0:0:0:
475,88,121033,1,0,0:0:0:0:
93,192,121191,1,0,0:0:0:0:
463,250,121349,6,0,P|333:177|289:129,1,180
310,317,121664,2,0,P|154:333|88:362,1,180
250,55,121980,2,0,P|150:124|96:181,1,180
485,114,122296,2,0,P|386:235|342:266,1,180
178,160,122612,5,0,0:0:0:0:
217,127,122691,1,0,0:0:0:0:
265,119,122770,1,0,0:0:0:0:
304,137,122849,1,0,0:0:0:0:
339,168,122928,1,0,0:0:0:0:
406,226,123086,6,0,P|365:250|319:244,1,90
337,330,123243,1,0,0:0:0:0:
337,330,123322,2,0,P|248:277|204:206,1,180
130,244,123559,2,0,P|178:325|243:381,1,180
371,85,123875,5,0,0:0:0:0:
425,103,123954,1,0,0:0:0:0:
463,147,124033,2,0,L|415:162,1,45
317,165,124191,1,0,0:0:0:0:
367,248,124349,1,0,0:0:0:0:
217,131,124507,5,0,0:0:0:0:
167,138,124586,1,0,0:0:0:0:
119,159,124664,2,0,L|104:207,1,45
76,290,124822,1,0,0:0:0:0:
170,265,124980,1,0,0:0:0:0:
274,332,125138,5,0,0:0:0:0:
328,313,125217,1,0,0:0:0:0:
378,295,125296,1,0,0:0:0:0:
357,244,125375,1,0,0:0:0:0:
335,193,125454,1,0,0:0:0:0:
423,182,125612,5,0,0:0:0:0:
435,73,125770,6,0,L|233:148,1,180
117,103,126086,2,0,L|307:28,1,180
411,278,126401,6,0,P|349:326|311:336,1,90
303,340,126559,1,0,0:0:0:0:
256,324,126638,1,0,0:0:0:0:
220,289,126717,1,0,0:0:0:0:
196,245,126796,1,0,0:0:0:0:
186,198,126875,1,0,0:0:0:0:
205,152,126954,1,0,0:0:0:0:
240,123,127033,2,0,P|277:159|340:173,1,90
342,136,127191,1,0,0:0:0:0:
333,86,127270,1,0,0:0:0:0:
296,52,127349,1,0,0:0:0:0:
250,33,127428,1,0,0:0:0:0:
199,41,127507,1,0,0:0:0:0:
460,114,127664,6,0,P|410:193|317:270,1,180
63,319,127980,1,0,0:0:0:0:
81,170,128138,1,0,0:0:0:0:
107,333,128296,1,0,0:0:0:0:
202,130,128454,1,0,0:0:0:0:
141,358,128612,1,0,0:0:0:0:
360,102,128770,1,0,0:0:0:0:
318,267,128928,5,0,0:0:0:0:
275,287,129007,1,0,0:0:0:0:
314,313,129086,1,0,0:0:0:0:
413,266,129243,2,0,P|380:182|287:191,1,180
93,187,129559,5,0,0:0:0:0:
84,143,129638,1,0,0:0:0:0:
127,155,129717,1,0,0:0:0:0:
151,253,129875,2,0,P|58:282|5:210,1,180
236,100,130191,6,0,L|368:246,1,180
351,83,130507,2,0,L|477:225,1,180
350,330,130822,1,0,0:0:0:0:
94,333,130980,1,0,0:0:0:0:
19,263,131138,1,0,0:0:0:0:
405,263,131296,1,0,0:0:0:0:
65,132,131454,6,0,P|102:219|181:274,1,180
385,112,131770,2,0,P|280:99|199:134,1,180
328,384,132086,2,0,P|307:286|244:231,1,180
192,88,132401,5,0,0:0:0:0:
250,234,132559,1,0,0:0:0:0:
371,109,132717,1,0,0:0:0:0:
371,109,132875,2,0,B|332:128|301:118|280:138,1,67.5000025749208
88,189,133191,6,0,L|135:270,1,90
191,207,133349,2,0,P|286:264|391:275,1,180
431,199,133664,2,0,P|316:188|207:106,1,180
454,79,133980,6,0,L|362:337,1,270.000010299683
58,79,134296,2,0,L|150:337,1,270.000010299683
495,174,134612,2,0,B|372:135|459:368|280:358,1,270.000010299683
17,174,134928,2,0,B|140:135|53:368|232:358,1,270.000010299683
316,154,135243,2,0,B|365:323|365:323|496:276,1,270.000010299683
196,154,135559,2,0,B|147:323|147:323|58:291,1,270.000010299683
431,55,135875,5,0,0:0:0:0:
58,260,136033,1,0,0:0:0:0:
154,47,136191,1,0,0:0:0:0:
379,343,136349,1,0,0:0:0:0:
488,256,136507,6,0,P|308:229|226:318,1,270.000010299683
31,46,136822,2,0,P|202:94|260:172,1,270.000010299683
192,369,137138,2,0,P|84:264|78:137,1,270.000010299683
324,27,137454,2,0,P|305:212|390:285,1,270.000010299683
52,85,137770,2,0,P|108:178|150:77,1,270.000010299683
41,253,138086,5,0,0:0:0:0:
170,20,138243,1,0,0:0:0:0:
218,340,138401,1,0,0:0:0:0:
230,24,138559,1,0,0:0:0:0:
446,360,138717,1,0,0:0:0:0:
291,13,138875,1,0,0:0:0:0:
344,209,139033,6,0,P|355:338|475:323,1,270.000010299683
297,127,139349,2,0,P|418:126|421:248,1,270.000010299683
214,82,139664,2,0,L|239:363,1,270.000010299683
147,26,139980,2,0,L|64:309,1,270.000010299683
444,55,140296,5,0,0:0:0:0:
389,77,140375,1,0,0:0:0:0:
352,124,140454,1,0,0:0:0:0:
355,186,140533,1,0,0:0:0:0:
294,196,140612,1,0,0:0:0:0:
226,283,140770,1,0,0:0:0:0:
355,295,140928,6,0,B|345:298|345:298|415:279|415:279|346:298,8,88.8157872447017
156,88,141243,6,0,B|166:85|166:85|96:104|96:104|165:85,8,88.8157872447017
205,194,141559,6,0,L|245:241,1,45
304,193,141717,2,0,L|267:150,1,45
232,276,141875,6,0,L|171:249,1,67.5000025749208
269,120,142033,2,0,L|332:147,1,67.5000025749208
293,320,142191,6,0,L|169:343,1,90
213,67,142349,2,0,L|318:42,1,90
358,356,142507,6,0,L|218:356,1,135.000005149842
157,13,142664,2,0,L|335:13,1,135.000005149842
291,175,142822,6,0,B|226:203|226:203|267:248|267:248|250:182|250:182,1,180
256,192,143138,12,0,143928,0:0:0:0:
96,314,144086,6,0,B|32:160|96:32|96:32|192:96|256:224|256:224|320:96|416:32|416:32|480:160|416:320,1,1080
179,78,146612,2,0,B|245:229|216:311|96:286|22:140|284:132|284:132|358:210|281:267|281:267|378:314,1,720
138,328,148507,2,0,P|239:343|333:329,1,180
399,96,149138,2,0,B|302:47|302:47|241:84|432:248|432:248|220:227|185:66|185:66|103:122|150:280|325:332|325:332|206:357|133:326,1,1260
245,196,151664,6,0,L|221:162,3,30
276,198,151980,2,0,L|295:115,2,60
305,207,152296,2,0,L|372:142,2,90
249,257,152770,5,0,0:0:0:0:
318,309,152928,2,0,L|403:261,1,90
465,208,153164,1,0,0:0:0:0:
489,300,153243,2,0,L|401:355,1,90
396,264,153559,2,0,P|367:235|351:228,1,45
256,271,153875,6,0,L|311:188,1,90
94,56,154191,6,0,P|101:112|127:135,1,90
194,69,154507,1,0,0:0:0:0:
312,68,154664,1,0,0:0:0:0:
447,83,154822,2,0,P|408:130|369:152,1,90
274,173,155138,2,0,P|316:229|353:246,1,90
165,208,155454,1,0,0:0:0:0:
165,208,155533,1,0,0:0:0:0:
165,208,155612,1,0,0:0:0:0:
348,336,155770,5,0,0:0:0:0:
453,240,155928,1,0,0:0:0:0:
333,217,156086,1,0,0:0:0:0:
313,200,156164,1,0,0:0:0:0:
290,180,156243,1,0,0:0:0:0:
192,98,156401,1,0,0:0:0:0:
430,46,156559,5,0,0:0:0:0:
428,151,156717,1,0,0:0:0:0:
327,84,156875,1,0,0:0:0:0:
301,62,156954,1,0,0:0:0:0:
278,41,157033,1,0,0:0:0:0:
144,40,157191,6,0,L|45:40,1,90
9,105,157428,1,0,0:0:0:0:
98,132,157507,2,0,L|200:132,1,90
256,194,157743,1,0,0:0:0:0:
166,234,157822,2,0,L|204:268,1,45
274,323,157980,1,0,0:0:0:0:
396,326,158138,1,0,0:0:0:0:
387,233,158296,6,0,L|425:223,4,22.5
310,131,158612,5,0,0:0:0:0:
424,85,158770,2,0,L|455:74,2,22.5
310,131,158928,5,0,0:0:0:0:
267,220,159086,5,0,0:0:0:0:
352,299,159243,1,0,0:0:0:0:
163,194,159401,1,0,0:0:0:0:
238,309,159559,2,0,P|198:304|148:273,1,90
66,263,159875,5,0,0:0:0:0:
62,152,160033,1,0,0:0:0:0:
134,67,160191,2,0,L|224:35,1,90
324,88,160507,2,0,L|231:125,1,90
183,206,160822,5,0,0:0:0:0:
287,289,160980,1,0,0:0:0:0:
322,184,161138,1,0,0:0:0:0:
363,176,161217,1,0,0:0:0:0:
404,192,161296,1,0,0:0:0:0:
441,291,161454,1,0,0:0:0:0:
368,383,161612,1,0,0:0:0:0:
250,271,161770,6,0,L|276:314,1,45
165,306,161928,2,0,L|134:258,1,45
303,274,162086,2,0,L|342:309,1,45
118,304,162243,2,0,L|86:272,1,45
353,261,162401,2,0,L|403:268,1,45
73,321,162559,2,0,L|20:319,1,45
413,211,162717,5,0,0:0:0:0:
464,195,162796,1,0,0:0:0:0:
486,145,162875,1,0,0:0:0:0:
323,188,163033,1,0,0:0:0:0:
393,39,163191,1,0,0:0:0:0:
337,50,163270,1,0,0:0:0:0:
323,101,163349,2,0,B|296:88|264:100|233:89,1,90
104,75,163664,5,0,0:0:0:0:
232,207,163822,1,0,0:0:0:0:
22,96,163980,1,0,0:0:0:0:
321,172,164138,1,0,0:0:0:0:
86,298,164296,6,0,B|111:291|111:291|124:314|124:314|146:298|146:298|161:315|161:315,1,90
239,254,164612,2,0,L|292:263,1,45
314,291,164770,1,0,0:0:0:0:
357,320,164849,1,0,0:0:0:0:
392,282,164928,1,0,0:0:0:0:
406,232,165007,5,0,0:0:0:0:
423,181,165086,1,0,0:0:0:0:
373,164,165164,1,0,0:0:0:0:
358,215,165243,1,0,0:0:0:0:
239,254,165401,5,0,0:0:0:0:
145,69,165559,1,0,0:0:0:0:
95,82,165638,1,0,0:0:0:0:
62,120,165717,1,0,0:0:0:0:
102,151,165796,1,0,0:0:0:0:
121,197,165875,1,0,0:0:0:0:
35,203,166033,5,0,0:0:0:0:
233,331,166191,2,0,L|149:277,1,90
65,326,166507,2,0,L|149:379,1,90
444,71,166822,5,0,0:0:0:0:
406,64,166901,1,0,0:0:0:0:
371,81,166980,1,0,0:0:0:0:
358,114,167059,1,0,0:0:0:0:
305,92,167138,5,0,0:0:0:0:
250,86,167217,1,0,0:0:0:0:
198,97,167296,1,0,0:0:0:0:
155,126,167375,1,0,0:0:0:0:
133,57,167454,5,0,0:0:0:0:
47,164,167612,1,0,0:0:0:0:
183,0,167770,1,0,0:0:0:0:
0,222,167928,1,0,0:0:0:0:
258,270,168086,2,0,L|221:240,1,45
122,259,168243,2,0,L|157:292,1,45
259,244,168401,2,0,L|222:214,1,45
122,285,168559,2,0,L|163:326,1,45
132,128,168717,6,0,L|63:67,1,90
220,58,169033,2,0,L|293:125,1,90
428,241,169349,5,0,0:0:0:0:
381,224,169428,1,0,0:0:0:0:
331,235,169507,1,0,0:0:0:0:
303,276,169586,1,0,0:0:0:0:
257,263,169664,5,0,0:0:0:0:
93,88,169822,2,0,L|128:133,1,45
132,85,169980,2,0,L|161:126,1,45
261,125,170138,2,0,L|233:89,1,45
298,123,170296,2,0,L|272:86,1,45
400,190,170454,1,0,0:0:0:0:
203,234,170612,5,0,0:0:0:0:
217,283,170691,1,0,0:0:0:0:
192,330,170770,1,0,0:0:0:0:
140,348,170849,1,0,0:0:0:0:
108,257,170928,5,0,0:0:0:0:
117,133,171086,1,0,0:0:0:0:
158,95,171164,1,0,0:0:0:0:
211,99,171243,1,0,0:0:0:0:
76,49,171401,5,0,0:0:0:0:
197,181,171559,1,0,0:0:0:0:
343,174,171717,1,0,0:0:0:0:
422,57,171875,5,0,0:0:0:0:
363,61,171954,1,0,0:0:0:0:
311,92,172033,1,0,0:0:0:0:
287,146,172112,1,0,0:0:0:0:
236,142,172191,6,0,P|186:147|145:177,1,90
276,251,172507,5,0,0:0:0:0:
343,213,172586,1,0,0:0:0:0:
421,237,172664,1,0,0:0:0:0:
181,212,172822,1,0,0:0:0:0:
97,227,172980,2,0,P|137:207|196:220,1,90
154,295,173296,6,0,P|112:314|59:311,1,90
4,181,173612,1,0,0:0:0:0:
81,140,173691,1,0,0:0:0:0:
172,147,173770,1,0,0:0:0:0:
309,114,173928,1,0,0:0:0:0:
218,79,174086,2,0,P|257:30|299:26,1,90
399,146,174401,6,0,P|377:186|331:205,1,90
375,61,174717,1,0,0:0:0:0:
342,209,174875,1,0,0:0:0:0:
238,109,175033,1,0,0:0:0:0:
181,167,175112,1,0,0:0:0:0:
153,90,175191,1,0,0:0:0:0:
252,299,175349,5,0,0:0:0:0:
183,263,175428,1,0,0:0:0:0:
103,256,175507,1,0,0:0:0:0:
36,292,175586,1,0,0:0:0:0:
33,185,175664,6,0,B|51:159|45:117|45:117|121:164,1,135.000005149842
118,165,175901,1,0,0:0:0:0:
57,96,175980,1,0,0:0:0:0:
209,135,176138,5,0,0:0:0:0:
195,47,176217,1,0,0:0:0:0:
106,16,176296,1,0,0:0:0:0:
186,205,176454,5,0,0:0:0:0:
22,22,176612,1,0,0:0:0:0:
269,80,176770,1,0,0:0:0:0:
33,199,176928,2,0,B|51:225|45:267|45:267|121:220,1,135.000005149842
113,237,177164,1,0,0:0:0:0:
43,280,177243,1,0,0:0:0:0:
181,285,177401,5,0,0:0:0:0:
149,364,177480,1,0,0:0:0:0:
65,360,177559,1,0,0:0:0:0:
193,201,177717,5,0,0:0:0:0:
252,167,177796,1,0,0:0:0:0:
286,232,177875,1,0,0:0:0:0:
360,241,177954,1,0,0:0:0:0:
413,189,178033,1,0,0:0:0:0:
432,114,178112,6,0,B|450:75|450:75|414:105|375:111|375:111|336:84|336:84|293:81,1,202.500007724762
386,32,178507,1,0,0:0:0:0:
327,165,178664,1,0,0:0:0:0:
308,82,178822,2,0,B|336:84|336:84|375:111|375:111|414:105|450:75|450:75|432:114,1,202.500007724762
432,113,179138,1,0,0:0:0:0:
333,170,179296,1,0,0:0:0:0:
392,36,179454,1,0,0:0:0:0:
108,189,179612,6,0,B|146:193|146:193|177:177,1,67.5000025749208
131,114,179770,1,0,0:0:0:0:
61,102,179928,2,0,B|58:140|58:140|76:170,1,67.5000025749208
137,121,180086,1,0,0:0:0:0:
169,60,180243,2,0,B|131:56|131:56|100:72,1,67.5000025749208
146,134,180401,1,0,0:0:0:0:
216,147,180559,2,0,B|218:108|218:108|200:78,1,67.5000025749208
140,127,180717,1,0,0:0:0:0:
206,311,180875,6,0,P|235:345|271:348,1,67.5000025749208
287,283,181033,1,0,0:0:0:0:
282,212,181191,2,0,P|238:220|217:249,1,67.5000025749208
291,290,181349,1,0,0:0:0:0:
353,340,181507,2,0,P|367:297|352:265,1,67.5000025749208
295,299,181664,1,0,0:0:0:0:
175,311,181822,5,0,0:0:0:0:
125,321,181901,1,0,0:0:0:0:
91,284,181980,1,0,0:0:0:0:
99,237,182059,1,0,0:0:0:0:
152,157,182138,2,0,L|110:140,1,33.7500012874604
170,135,182217,2,0,L|148:108,1,33.7500012874604
201,117,182296,2,0,L|188:75,1,33.7500012874604
234,107,182375,2,0,L|233:65,1,33.7500012874604
271,102,182454,6,0,L|282:63,1,33.7500012874604
306,107,182533,2,0,L|337:74,1,33.7500012874604
333,181,182612,2,0,L|350:214,1,33.7500012874604
371,188,182691,2,0,L|377:231,1,33.7500012874604
413,178,182770,2,0,L|399:217,1,33.7500012874604
445,156,182849,2,0,L|418:202,1,33.7500012874604
470,134,182928,2,0,L|441:160,1,33.7500012874604
391,73,183086,5,0,0:0:0:0:
270,15,183243,1,0,0:0:0:0:
193,18,183322,1,0,0:0:0:0:
117,41,183401,1,0,0:0:0:0:
54,79,183480,1,0,0:0:0:0:
7,136,183559,1,0,0:0:0:0:
93,153,183638,5,0,0:0:0:0:
137,140,183717,1,0,0:0:0:0:
171,154,183796,1,0,0:0:0:0:
192,181,183875,1,0,0:0:0:0:
198,211,183954,1,0,0:0:0:0:
118,238,184033,5,0,0:0:0:0:
163,308,184112,1,0,0:0:0:0:
241,323,184191,1,0,0:0:0:0:
308,276,184270,1,0,0:0:0:0:
340,208,184349,1,0,0:0:0:0:
410,280,184428,5,0,0:0:0:0:
256,192,184507,12,0,185612,0:0:0:0:
162,80,185770,6,0,B|189:117|189:117|223:86|223:86|189:117|189:117|180:173,1,180
336,103,186243,1,0,0:0:0:0:
269,163,186322,1,0,0:0:0:0:
245,238,186401,1,0,0:0:0:0:
344,207,186559,5,0,0:0:0:0:
175,88,186717,1,0,0:0:0:0:
167,272,186875,1,0,0:0:0:0:
330,113,187033,5,0,0:0:0:0:
256,161,187112,1,0,0:0:0:0:
174,166,187191,1,0,0:0:0:0:
308,265,187349,5,0,0:0:0:0:
430,276,187507,1,0,0:0:0:0:
380,177,187664,2,0,P|436:167|512:203,1,135.000005149842
453,79,187980,1,0,0:0:0:0:
323,73,188138,2,0,P|280:114|259:204,1,135.000005149842
386,184,188454,1,0,0:0:0:0:
199,99,188612,1,0,0:0:0:0:
18,182,188770,5,0,0:0:0:0:
86,234,188849,1,0,0:0:0:0:
96,157,188928,1,0,0:0:0:0:
119,60,189086,1,0,0:0:0:0:
192,11,189164,1,0,0:0:0:0:
270,46,189243,1,0,0:0:0:0:
349,124,189401,5,0,0:0:0:0:
206,338,189559,1,0,0:0:0:0:
508,345,189717,1,0,0:0:0:0:
353,129,189875,5,0,0:0:0:0:
353,129,190033,1,0,0:0:0:0:
343,340,190191,1,0,0:0:0:0:
501,130,190349,1,0,0:0:0:0:
203,125,190507,1,0,0:0:0:0:
203,125,190586,1,0,0:0:0:0:
203,125,190664,1,0,0:0:0:0:
106,83,190822,5,0,0:0:0:0:
89,264,190980,1,0,0:0:0:0:
225,46,191138,1,0,0:0:0:0:
127,286,191296,1,0,0:0:0:0:
359,59,191454,1,0,0:0:0:0:
357,249,191612,5,0,0:0:0:0:
295,300,191691,1,0,0:0:0:0:
280,220,191770,1,0,0:0:0:0:
368,326,191928,1,0,0:0:0:0:
344,175,192086,1,0,0:0:0:0:
430,283,192243,5,0,0:0:0:0:
219,269,192401,1,0,0:0:0:0:
219,269,192559,1,0,0:0:0:0:
344,175,192717,5,0,0:0:0:0:
285,121,192796,1,0,0:0:0:0:
211,110,192875,1,0,0:0:0:0:
147,71,192954,1,0,0:0:0:0:
68,43,193033,5,0,0:0:0:0:
76,120,193112,1,0,0:0:0:0:
78,195,193191,1,0,0:0:0:0:
38,263,193270,1,0,0:0:0:0:
111,262,193349,6,0,B|126:311|126:311|161:334,1,67.5000025749208
197,273,193507,1,0,0:0:0:0:
209,347,193586,1,0,0:0:0:0:
290,348,193664,1,0,0:0:0:0:
370,348,193743,1,0,0:0:0:0:
430,296,193822,2,0,B|398:233|398:233|343:198,1,135.000005149842
92,117,194138,5,0,0:0:0:0:
212,48,194296,1,0,0:0:0:0:
1,56,194454,1,0,0:0:0:0:
296,123,194612,5,0,0:0:0:0:
296,123,194691,1,0,0:0:0:0:
300,127,194770,1,0,0:0:0:0:
381,83,194928,2,0,P|384:162|339:222,1,135.000005149842
254,233,195243,1,0,0:0:0:0:
364,300,195401,2,0,P|420:264|451:204,1,135.000005149842
434,40,195717,6,0,L|160:101,1,270.000010299683
82,205,196033,2,0,L|348:142,1,270.000010299683
425,207,196349,2,0,L|162:269,1,270.000010299683
78,371,196664,2,0,L|261:328,1,135.000005149842
335,307,196822,1,0,0:0:0:0:
237,230,196980,5,0,0:0:0:0:
244,142,197059,1,0,0:0:0:0:
320,194,197138,1,0,0:0:0:0:
433,207,197296,5,0,0:0:0:0:
289,36,197454,1,0,0:0:0:0:
289,36,197612,1,0,0:0:0:0:
126,185,197770,1,0,0:0:0:0:
278,139,197928,2,0,B|242:141|242:141|253:177|253:177,1,67.5000025749208
267,245,198086,1,0,0:0:0:0:
153,299,198243,6,0,B|141:341|141:341|174:375,1,67.5000025749208
233,319,198401,1,0,0:0:0:0:
209,244,198480,1,0,0:0:0:0:
133,226,198559,2,0,B|91:213|91:213|79:181,1,67.5000025749208
157,151,198717,5,0,0:0:0:0:
47,270,198875,1,0,0:0:0:0:
20,135,199033,1,0,0:0:0:0:
20,135,199191,1,0,0:0:0:0:
20,135,199349,1,0,0:0:0:0:
126,29,199507,6,0,L|193:63,1,67.5000025749208
218,162,199664,2,0,L|150:125,1,67.5000025749208
303,34,199822,1,0,0:0:0:0:
303,34,199980,1,0,0:0:0:0:
242,311,200138,5,0,0:0:0:0:
426,240,200296,2,0,L|373:316,1,67.5000025749208
329,219,200454,2,0,L|375:151,1,67.5000025749208
473,261,200612,2,0,L|411:296,1,67.5000025749208
300,190,200770,2,0,L|364:150,1,67.5000025749208
419,24,200928,5,0,0:0:0:0:
469,161,201086,1,0,0:0:0:0:
275,23,201243,1,0,0:0:0:0:
437,186,201401,1,0,0:0:0:0:
162,69,201559,1,0,0:0:0:0:
210,192,201717,5,0,0:0:0:0:
266,270,201796,1,0,0:0:0:0:
175,272,201875,1,0,0:0:0:0:
73,196,202033,1,0,0:0:0:0:
76,36,202191,6,0,L|156:147,1,135.000005149842
276,148,202507,2,0,L|196:38,1,135.000005149842
359,61,202822,1,0,0:0:0:0:
408,166,202980,1,0,0:0:0:0:
480,278,203138,5,0,0:0:0:0:
411,279,203217,1,0,0:0:0:0:
357,324,203296,1,0,0:0:0:0:
287,304,203375,1,0,0:0:0:0:
222,337,203454,1,0,0:0:0:0:
54,231,203612,5,0,0:0:0:0:
258,162,203770,1,0,0:0:0:0:
16,195,203928,1,0,0:0:0:0:
242,45,204086,1,0,0:0:0:0:
86,120,204243,5,0,0:0:0:0:
147,159,204322,1,0,0:0:0:0:
161,228,204401,1,0,0:0:0:0:
110,281,204480,1,0,0:0:0:0:
163,330,204559,1,0,0:0:0:0:
480,127,204717,5,0,0:0:0:0:
417,133,204796,1,0,0:0:0:0:
375,182,204875,1,0,0:0:0:0:
364,245,204954,1,0,0:0:0:0:
304,193,205033,1,0,0:0:0:0:
235,151,205112,1,0,0:0:0:0:
154,156,205191,1,0,0:0:0:0:
88,203,205270,1,0,0:0:0:0:
94,62,205349,5,0,0:0:0:0:
375,48,205507,1,0,0:0:0:0:
17,150,205664,1,0,0:0:0:0:
465,13,205822,1,0,0:0:0:0:
4,18,205980,2,0,L|28:55,8,33.7500012874604
465,197,206454,5,0,0:0:0:0:
372,185,206533,2,0,P|429:193|446:219,1,67.5000025749208
394,261,206770,2,0,L|258:290,1,135.000005149842
174,169,207086,1,0,0:0:0:0:
29,34,207243,6,0,L|60:248,1,180
266,61,207559,2,0,L|236:263,1,180
131,312,207875,2,0,L|105:133,1,180
315,338,208191,2,0,L|341:159,1,180
161,63,208507,2,0,L|186:241,1,180
398,90,208823,2,0,L|371:268,1,180
185,141,209138,6,0,P|131:152|107:185,1,90
174,221,209296,2,0,P|156:273|173:310,1,90
240,277,209454,2,0,P|276:318|317:323,1,90
322,248,209612,2,0,P|376:237|400:204,1,90
458,61,209770,6,0,P|366:45|173:83,1,270.000010299683
52,141,210086,2,0,P|183:170|316:153,1,270.000010299683
458,323,210401,6,0,P|366:339|173:301,1,270.000010299683
52,243,210717,2,0,P|183:213|316:230,1,270.000010299683
95,128,211033,6,0,P|190:189|71:242,1,270.000010299683
433,36,211349,5,0,0:0:0:0:
260,143,211507,1,0,0:0:0:0:
470,193,211664,1,0,0:0:0:0:
119,191,211822,1,0,0:0:0:0:
260,249,211980,1,0,0:0:0:0:
34,344,212138,1,0,0:0:0:0:
253,76,212296,6,0,B|170:35|170:35|180:91|112:108,1,180
86,32,212612,2,0,P|50:89|109:181,1,180
218,140,212928,2,0,B|201:157|186:165|186:165|190:224|134:257|134:257|163:276,1,180
60,245,213243,6,0,B|26:232|9:213|9:213|36:281|36:281|55:301|93:323,1,180
290,132,213559,2,0,B|298:152|286:186|286:186|261:197|261:197|255:235|228:272|228:272|240:284,1,180
164,332,213875,2,0,B|209:362|279:359|279:359|320:325|315:288|315:288,1,180
114,171,214191,6,0,P|145:140|189:135,1,90
202,59,214349,2,0,P|245:70|271:106,1,90
344,79,214507,2,0,P|355:122|338:163,1,90
401,206,214665,2,0,P|370:238|327:243,1,90
18,322,214822,6,0,L|212:333,1,180
67,251,215138,2,0,B|186:257|186:257|192:164,1,180
494,322,215454,2,0,L|300:333,1,180
445,251,215770,2,0,B|326:257|326:257|320:164,1,180
249,80,216086,6,0,B|222:101|222:101|229:125|229:125|185:99|185:99|182:27,1,180
249,80,216401,1,0,0:0:0:0:
404,69,216559,5,0,0:0:0:0:
359,148,216717,2,0,L|245:210,1,90
125,189,216875,2,0,L|294:92,1,180
216,263,217191,1,0,0:0:0:0:
455,291,217349,6,0,P|323:342|302:244,1,270.000010299683
381,262,217664,2,0,P|323:156|224:224,1,270.000010299683
106,342,217980,2,0,L|-15:90,1,270.000010299683
159,266,218296,2,0,L|93:1,1,270.000010299683
340,23,218612,6,0,B|183:58|183:58|213:176,1,270.000010299683
440,94,218928,2,0,B|283:129|283:129|313:247,1,270.000010299683
104,273,219243,6,0,B|147:285|147:285|145:315|145:315|85:348,1,135.000005149842
105,122,219401,2,0,B|116:165|116:165|89:179|89:179|30:143,1,135.000005149842
255,60,219559,2,0,B|223:91|223:91|189:69|189:69|199:7,1,135.000005149842
395,134,219717,2,0,B|352:123|352:123|354:93|354:93|414:60,1,135.000005149842
500,300,219875,6,0,P|359:278|202:311,1,270.000010299683
404,191,220191,2,0,P|271:211|138:189,1,270.000010299683
12,300,220507,6,0,P|153:278|310:311,1,270.000010299683
108,191,220823,2,0,P|240:211|373:189,1,270.000010299683
260,96,221138,6,0,B|303:49|245:20|205:83|262:148|249:296,1,270.000010299683
445,133,221454,6,0,P|377:168|374:234,1,135.000005149842
401,327,221612,2,0,P|337:285|278:316,1,135.000005149842
211,385,221770,2,0,P|215:308|159:273,1,135.000005149842
66,250,221928,2,0,P|134:215|137:149,1,135.000005149842
110,57,222086,2,0,P|174:99|234:68,1,135.000005149842
300,0,222243,2,0,P|296:75|352:110,1,135.000005149842
465,98,222401,6,0,L|409:383,1,270.000010299683
312,13,222717,2,0,L|354:285,1,270.000010299683
232,105,223033,2,0,L|176:390,1,270.000010299683
79,20,223349,2,0,L|121:292,1,270.000010299683
473,35,223664,6,0,L|191:128,1,270.000010299683
37,140,223980,2,0,L|319:233,1,270.000010299683
412,314,224296,6,0,P|413:240|437:272,1,135.000005149842
304,193,224454,2,0,P|270:242|324:269,1,135.000005149842
315,349,224612,6,0,P|316:275|340:307,1,135.000005149842
207,228,224770,2,0,P|173:277|227:304,1,135.000005149842
269,146,224928,6,0,L|224:161,1,45
243,238,225086,2,0,L|285:223,1,45
252,115,225243,6,0,L|169:109,1,67.5000025749208
260,269,225401,2,0,L|343:275,1,67.5000025749208
288,105,225559,6,0,L|176:74,1,90
224,279,225717,2,0,L|336:310,1,90
274,70,225875,6,0,L|103:5,1,135.000005149842
230,315,226033,2,0,L|401:380,1,135.000005149842
256,192,226191,6,0,B|258:166|258:166|231:192|231:192|256:220|256:220|284:193|284:193|260:168|260:168|230:194|230:194|255:218|255:218|283:193|283:193,1,270.000010299683
258,124,226507,2,0,B|259:146|259:146|255:158|255:158|260:166|260:166|256:171|256:171|260:178|260:178|256:186|256:186|260:197|260:197|256:201|256:201|259:206|259:206|256:212|256:212|259:217|259:217|256:222|256:222|259:228|259:228|258:233|258:233|260:240|260:240|258:250,1,135.000005149842
256,192,226664,12,0,227296,0:0:0:0:
434,171,227454,6,0,L|511:187,1,67.5000025749208
485,99,227612,2,0,L|417:83,1,67.5000025749208
359,130,227770,1,0,0:0:0:0:
332,60,227848,1,0,0:0:0:0:
273,118,227928,2,0,L|112:82,1,135.000005149842
94,207,228243,5,0,0:0:0:0:
106,294,228401,1,0,0:0:0:0:
174,236,228559,2,0,L|245:253,1,67.5000025749208
322,269,228717,1,0,0:0:0:0:
365,291,228796,1,0,0:0:0:0:
414,300,228875,1,0,0:0:0:0:
461,290,228954,1,0,0:0:0:0:
446,340,229033,1,0,0:0:0:0:
439,184,229191,5,0,0:0:0:0:
447,86,229349,2,0,L|380:58,1,67.5000025749208
362,131,229506,1,0,0:0:0:0:
302,68,229585,1,0,0:0:0:0:
287,144,229664,2,0,L|269:210,1,67.5000025749208
201,250,229822,1,0,0:0:0:0:
199,173,229901,1,0,0:0:0:0:
131,206,229980,2,0,L|103:65,1,135.000005149842
12,314,230296,6,0,L|-1:243,1,67.5000025749208
124,285,230454,2,0,L|137:354,1,67.5000025749208
31,321,230612,2,0,L|18:250,1,67.5000025749208
136,291,230770,2,0,L|149:360,1,67.5000025749208
240,329,230928,5,0,0:0:0:0:
333,291,231085,1,0,0:0:0:0:
426,325,231243,2,0,P|397:366|359:375,1,67.5000025749208
453,287,231401,5,0,0:0:0:0:
493,265,231480,1,0,0:0:0:0:
507,223,231559,1,0,0:0:0:0:
480,187,231638,1,0,0:0:0:0:
434,184,231717,1,0,0:0:0:0:
399,207,231796,1,0,0:0:0:0:
329,178,231875,6,0,L|173:136,1,135.000005149842
131,33,232191,2,0,L|295:76,1,135.000005149842
95,151,232506,5,0,0:0:0:0:
46,167,232585,1,0,0:0:0:0:
59,218,232664,2,0,P|65:260|104:288,1,67.5000025749208
128,337,232822,1,0,0:0:0:0:
172,310,232901,1,0,0:0:0:0:
200,353,232980,1,0,0:0:0:0:
242,325,233059,1,0,0:0:0:0:
271,370,233138,1,0,0:0:0:0:
346,254,233296,5,0,0:0:0:0:
351,258,233454,2,0,L|499:239,1,135.000005149842
450,187,233770,5,0,0:0:0:0:
392,195,233848,1,0,0:0:0:0:
335,205,233927,1,0,0:0:0:0:
301,246,234006,1,0,0:0:0:0:
254,217,234085,1,0,0:0:0:0:
178,284,234243,5,0,0:0:0:0:
289,87,234401,6,0,L|333:33,1,67.5000025749208
191,44,234559,2,0,L|149:97,1,67.5000025749208
266,92,234717,2,0,L|314:29,1,67.5000025749208
166,48,234875,2,0,L|126:102,1,67.5000025749208
244,95,235033,5,0,0:0:0:0:
213,109,235112,1,0,0:0:0:0:
194,142,235191,1,0,0:0:0:0:
206,176,235270,1,0,0:0:0:0:
238,201,235349,6,0,P|278:200|307:236,1,67.5000025749208
444,196,235507,2,0,P|427:231|386:251,1,67.5000025749208
356,364,235664,2,0,P|337:338|335:304,1,67.5000025749208,0|0,2:0|2:0,2:0:0:0:
312,136,235822,1,0,0:0:0:0:
349,96,235901,1,0,0:0:0:0:
396,79,235980,2,0,L|391:57,1,16.8750006437302
439,80,236059,2,0,L|445:51,1,16.8750006437302
476,93,236138,2,0,L|496:72,1,16.8750006437302
490,256,236296,5,0,0:0:0:0:
512,305,236375,1,0,0:0:0:0:
488,348,236454,1,0,0:0:0:0:
409,306,236533,5,0,0:0:0:0:
399,255,236612,1,0,0:0:0:0:
418,205,236691,1,0,0:0:0:0:
423,153,236770,1,0,0:0:0:0:
387,119,236848,1,0,0:0:0:0:
292,113,236927,6,0,L|253:85,6,33.7500012874604
195,168,237243,2,0,L|148:187,6,33.7500012874604
181,274,237559,6,0,L|95:250,1,67.5000025749208
60,241,237717,1,0,0:0:0:0:
45,292,237796,1,0,0:0:0:0:
93,305,237875,1,0,0:0:0:0:
136,321,237954,2,0,L|128:350,1,16.8750006437302
182,333,238033,1,0,0:0:0:0:
348,312,238191,6,0,L|268:312,1,67.5000025749208
308,270,238348,1,0,0:0:0:0:
341,230,238427,1,0,0:0:0:0:
296,223,238507,2,0,P|252:196|244:156,1,67.5000025749208
304,172,238664,1,0,0:0:0:0:
284,130,238743,1,0,0:0:0:0:
254,97,238822,1,0,0:0:0:0:
207,95,238901,1,0,0:0:0:0:
194,176,238980,5,0,0:0:0:0:
145,176,239059,1,0,0:0:0:0:
108,206,239138,1,0,0:0:0:0:
97,246,239217,1,0,0:0:0:0:
40,210,239296,1,0,0:0:0:0:
387,228,239454,2,0,L|471:243,1,67.5000025749208
301,286,239612,2,0,L|231:270,1,67.5000025749208
410,214,239770,2,0,L|499:229,1,67.5000025749208
270,302,239928,2,0,L|200:286,1,67.5000025749208
270,141,240086,5,0,0:0:0:0:
360,105,240243,1,0,0:0:0:0:
322,66,240322,1,0,0:0:0:0:
268,45,240401,1,0,0:0:0:0:
214,59,240480,1,0,0:0:0:0:
178,97,240559,1,0,0:0:0:0:
53,74,240717,1,0,0:0:0:0:
91,171,240875,5,0,0:0:0:0:
64,194,240954,1,0,0:0:0:0:
66,248,241033,1,0,0:0:0:0:
102,271,241112,1,0,0:0:0:0:
229,288,241191,2,0,L|293:252,1,67.5000025749208
282,165,241349,2,0,L|223:199,1,67.5000025749208
228,311,241507,2,0,L|292:275,1,67.5000025749208
281,139,241664,2,0,L|222:173,1,67.5000025749208
416,252,241822,5,0,0:0:0:0:
416,252,241980,2,0,P|472:221|511:154,1,135.000005149842
416,252,242296,2,0,P|420:200|438:161,1,67.5000025749208
443,138,242454,1,0,0:0:0:0:
28,304,242612,6,0,L|74:233,1,67.5000025749208
104,297,242770,1,0,0:0:0:0:
128,256,242848,1,0,0:0:0:0:
115,210,242927,1,0,0:0:0:0:
198,52,243085,6,0,L|130:52,1,67.5000025749208
98,75,243243,1,0,0:0:0:0:
127,99,243322,1,0,0:0:0:0:
173,108,243401,2,0,P|211:176|245:186,1,67.5000025749208
246,131,243559,1,0,0:0:0:0:
291,148,243638,1,0,0:0:0:0:
309,196,243717,1,0,0:0:0:0:
373,147,243796,1,0,0:0:0:0:
240,256,244033,5,0,0:0:0:0:
248,338,244191,2,0,L|327:294,1,67.5000025749208
350,321,244348,1,0,0:0:0:0:
382,281,244427,1,0,0:0:0:0:
426,270,244507,2,0,P|454:241|485:231,1,67.5000025749208
512,278,244664,1,0,0:0:0:0:
512,229,244743,1,0,0:0:0:0:
486,187,244822,1,0,0:0:0:0:
252,338,244980,5,0,0:0:0:0:
444,335,245138,2,0,L|347:335,1,67.5000025749208
314,253,245296,2,0,L|399:253,1,67.5000025749208
461,131,245454,2,0,P|442:86|405:76,1,67.5000025749208
341,119,245612,2,0,P|291:98|247:105,1,67.5000025749208
226,179,245770,2,0,P|162:178|135:184,1,67.5000025749208
147,278,245928,2,0,L|78:314,1,67.5000025749208
21,211,246085,2,0,L|95:171,1,67.5000025749208
61,68,246243,2,0,L|-8:104,1,67.5000025749208
161,169,246401,5,0,0:0:0:0:
198,148,246480,1,0,0:0:0:0:
236,141,246559,1,0,0:0:0:0:
270,143,246638,1,0,0:0:0:0:
239,220,246717,5,0,0:0:0:0:
285,224,246796,1,0,0:0:0:0:
332,216,246875,1,0,0:0:0:0:
367,196,246954,1,0,0:0:0:0:
367,108,247033,5,0,0:0:0:0:
136,253,247191,1,0,0:0:0:0:
376,205,247349,1,0,0:0:0:0:
150,161,247507,1,0,0:0:0:0:
256,192,247664,5,0,0:0:0:0:
256,192,247822,12,0,252243,0:0:0:0:
286,196,252401,6,0,B|267:185|267:185|247:195|247:195|219:176,1,67.5000025749208
