osu file format v14

[General]
AudioFilename: t+pazolite - Oshama Scramble!.mp3
AudioLeadIn: 0
PreviewTime: 94907
Countdown: 0
SampleSet: Normal
StackLeniency: 0.4
Mode: 0
LetterboxInBreaks: 1
EpilepsyWarning: 1
WidescreenStoryboard: 0

[Editor]
Bookmarks: 486,10591,20696,30801,40907,42170,52275,62380,72486,82591,92696,95222,105328,115433
DistanceSpacing: 1.2
BeatDivisor: 2
GridSize: 4
TimelineZoom: 2.999999

[Metadata]
Title:Oshama Scramble!
TitleUnicode:Oshama Scramble!
Artist:t+pazolite
ArtistUnicode:t+pazolite
Creator:Hathz
Version:Master
Source:maimai
Tags:RikiH_ wa_ orange plus
BeatmapID:761724
BeatmapSetID:344859

[Difficulty]
HPDrainRate:7
CircleSize:4
OverallDifficulty:8.3
ApproachRate:9.2
SliderMultiplier:1.5
SliderTickRate:1

[Events]
//Background and Video events
Video,-1608,"bgv.avi"
0,0,"background.png",0,0
//Break Periods
//Storyboard Layer 0 (Background)
//Storyboard Layer 1 (Fail)
//Storyboard Layer 2 (Pass)
//Storyboard Layer 3 (Foreground)
//Storyboard Sound Samples

[TimingPoints]
486,315.789473684211,4,1,1,60,1,0
10591,-100,4,1,1,80,0,1
20696,-133.333333333333,4,1,1,50,0,0
30801,-100,4,1,1,80,0,0
42170,-100,4,1,1,90,0,1
51012,-100,4,1,2,90,0,1
52275,-100,4,1,1,90,0,1
62380,-133.333333333333,4,1,1,70,0,0
66170,-200,4,1,1,70,0,0
66801,-133.333333333333,4,1,1,70,0,0
71222,-100,4,1,1,70,0,0
72486,-100,4,1,1,80,0,1
72801,-100,4,1,1,80,0,0
82591,-100,4,1,1,80,0,1
82907,-100,4,1,1,80,0,0
92696,-100,4,1,1,80,0,1
93012,-100,4,1,1,80,0,0
95222,-100,4,1,1,90,0,1
115433,-100,4,1,1,90,0,0
120170,-100,4,1,1,5,0,0

[Colours]
Combo1 : 253,153,179
Combo2 : 241,170,3
Combo3 : 49,167,223
Combo4 : 127,127,127

[HitObjects]
304,244,486,6,0,L|307:126,1,112.5,8|0,0:0|0:0,0:0:0:0:
306,131,801,1,8,0:0:0:0:
239,92,959,1,0,0:0:0:0:
166,109,1117,2,0,B|160:150|160:150|178:201,1,75,8|0,0:0|0:0,0:0:0:0:
136,18,1433,1,8,0:0:0:0:
65,87,1591,6,0,P|54:164|113:211,1,150,8|0,0:0|0:0,0:0:0:0:
177,212,2064,1,8,0:0:0:0:
242,176,2222,1,0,0:0:0:0:
310,206,2380,5,8,0:0:0:0:
408,240,2538,1,8,0:0:0:0:
285,254,2696,1,0,0:0:0:0:
366,314,2854,1,0,0:0:0:0:
337,176,3012,6,0,B|330:130|330:130|349:62,1,112.5,8|0,0:0|0:0,0:0:0:0:
347,66,3328,1,8,0:0:0:0:
414,98,3486,1,0,0:0:0:0:
423,172,3643,2,0,L|420:259,2,75,8|0|8,0:0|0:0|0:0,0:0:0:0:
323,98,4117,6,0,L|158:89,1,150,8|0,0:0|0:0,0:0:0:0:
103,119,4591,1,8,0:0:0:0:
67,185,4749,1,0,0:0:0:0:
71,259,4907,5,8,0:0:0:0:
183,306,5064,1,0,0:0:0:0:
218,189,5222,1,8,0:0:0:0:
99,195,5380,1,0,0:0:0:0:
176,112,5538,6,0,L|180:12,1,75,10|0,0:0|0:0,0:0:0:0:
194,221,5854,2,0,L|201:303,1,75,2|2,0:0|0:0,0:0:0:0:
308,227,6170,1,2,0:0:0:0:
323,223,6249,1,0,0:0:0:0:
339,223,6328,1,2,0:0:0:0:
355,226,6407,1,0,0:0:0:0:
371,230,6486,2,0,B|406:235|406:235|462:230,1,75,2|2,0:0|0:0,0:0:0:0:
462,143,6801,5,2,0:0:0:0:
370,56,6959,1,2,0:0:0:0:
370,49,7038,1,0,0:0:0:0:
369,41,7117,1,2,0:0:0:0:
332,160,7275,1,2,0:0:0:0:
332,179,7354,1,0,0:0:0:0:
332,197,7433,1,2,0:0:0:0:
319,216,7512,1,0,0:0:0:0:
312,238,7591,1,2,0:0:0:0:
313,261,7670,1,0,0:0:0:0:
327,280,7749,2,0,L|412:287,1,75,2|2,0:0|0:0,0:0:0:0:
236,326,8064,5,2,0:0:0:0:
216,331,8143,1,2,0:0:0:0:
196,334,8222,1,2,0:0:0:0:
175,332,8301,1,2,0:0:0:0:
155,325,8380,1,2,0:0:0:0:
138,313,8459,1,2,0:0:0:0:
124,297,8538,1,2,0:0:0:0:
117,277,8617,1,2,0:0:0:0:
114,256,8696,6,2,L|110:193,3,37.5
177,159,9012,2,2,L|169:122,3,37.5
116,58,9328,2,0,L|17:52,2,75,2|0|0,0:0|0:0|0:0,0:0:0:0:
55,160,9801,5,0,0:0:0:0:
55,160,9880,1,0,0:0:0:0:
55,160,9959,2,0,L|83:135,1,37.5,0|0,0:0|0:0,0:0:0:0:
122,199,10117,2,0,L|161:194,1,37.5,0|0,0:0|0:0,0:0:0:0:
160,267,10275,2,0,B|176:290|176:290|168:358,1,75
284,354,10591,6,0,L|401:352,1,112.5,6|0,0:0|0:0,0:0:0:0:
396,352,10907,1,8,0:0:0:0:
355,271,11064,1,0,0:0:0:0:
378,171,11222,2,0,P|383:132|366:73,1,75,2|0,0:0|0:0,0:0:0:0:
278,95,11538,1,8,0:0:0:0:
232,195,11696,1,0,0:0:0:0:
327,281,11854,5,2,0:0:0:0:
329,306,11933,1,0,0:0:0:0:
324,332,12012,1,0,0:0:0:0:
310,354,12091,1,0,0:0:0:0:
297,366,12170,5,8,0:0:0:0:
268,354,12249,1,0,0:0:0:0:
239,350,12328,1,0,0:0:0:0:
209,355,12407,1,0,0:0:0:0:
182,367,12486,2,0,B|149:373|149:373|79:355,1,75,2|0,0:0|0:0,0:0:0:0:
76,256,12722,1,0,0:0:0:0:
74,241,12801,2,0,L|72:136,1,75,8|0,0:0|0:0,0:0:0:0:
199,112,13117,6,0,B|197:160|197:160|185:193|185:193|185:228,1,112.5,2|0,0:0|0:0,0:0:0:0:
185,222,13433,1,8,0:0:0:0:
273,149,13591,1,0,0:0:0:0:
254,59,13749,2,0,B|359:63,1,75,2|0,0:0|0:0,0:0:0:0:
426,107,14064,1,8,0:0:0:0:
376,213,14222,1,0,0:0:0:0:
293,136,14380,5,2,0:0:0:0:
268,145,14459,1,0,0:0:0:0:
242,149,14538,1,0,0:0:0:0:
216,148,14617,1,0,0:0:0:0:
191,141,14696,5,8,0:0:0:0:
172,169,14775,1,0,0:0:0:0:
165,202,14854,1,0,0:0:0:0:
178,232,14933,1,0,0:0:0:0:
208,246,15012,6,0,P|216:281|193:338,1,75,2|0,0:0|0:0,0:0:0:0:
125,277,15328,1,8,0:0:0:0:
250,274,15486,1,0,0:0:0:0:
226,177,15643,6,0,B|221:128|221:128|230:65,1,112.5,2|0,0:0|0:0,0:0:0:0:
229,65,15959,1,8,0:0:0:0:
316,124,16117,1,0,0:0:0:0:
203,134,16275,2,0,B|162:137|162:137|108:130,1,75,2|0,0:0|0:0,0:0:0:0:
12,110,16591,1,8,0:0:0:0:
35,196,16749,1,0,0:0:0:0:
106,66,16907,5,2,0:0:0:0:
132,62,16986,1,0,0:0:0:0:
157,65,17064,1,0,0:0:0:0:
179,77,17143,1,0,0:0:0:0:
195,97,17222,6,0,L|208:162,3,37.5,8|0|0|0,0:0|0:0|0:0|0:0,0:0:0:0:
205,243,17538,2,0,B|202:294|202:294|209:346,1,75,2|0,0:0|0:0,0:0:0:0:
346,319,17775,1,0,0:0:0:0:
359,308,17854,2,0,B|367:274|367:274|359:213,1,75,8|0,0:0|0:0,0:0:0:0:
320,126,18170,5,2,0:0:0:0:
390,28,18328,1,2,0:0:0:0:
409,146,18486,1,2,0:0:0:0:
299,101,18643,1,2,0:0:0:0:
430,71,18801,1,2,0:0:0:0:
465,205,18959,1,2,0:0:0:0:
335,176,19117,1,2,0:0:0:0:
430,71,19275,1,2,0:0:0:0:
432,210,19433,5,2,0:0:0:0:
432,232,19512,1,2,0:0:0:0:
435,254,19591,1,2,0:0:0:0:
441,275,19670,1,2,0:0:0:0:
448,296,19749,1,2,0:0:0:0:
416,307,19828,1,2,0:0:0:0:
383,315,19907,1,2,0:0:0:0:
349,317,19986,1,2,0:0:0:0:
315,318,20064,6,0,L|230:305,2,75,2|0|0,0:0|0:0|0:0,0:0:0:0:
341,198,20538,1,0,0:0:0:0:
388,67,20696,6,0,L|323:69,1,56.2500021457673,6|0,0:0|0:0,0:0:0:0:
303,49,21012,1,0,0:0:0:0:
260,34,21170,1,0,0:0:0:0:
216,44,21328,2,0,B|155:65|155:65|88:68,1,112.500004291535,8|0,0:0|0:0,0:0:0:0:
57,181,21801,2,0,B|117:176|117:176|187:198,1,112.500004291535,2|0,0:0|0:0,0:0:0:0:
205,215,22275,2,0,L|195:344,1,112.500004291535,0|8,0:0|0:0,0:0:0:0:
306,305,22907,2,0,L|301:248,1,56.2500021457673,2|0,0:0|0:0,0:0:0:0:
290,159,23222,6,0,P|301:106|369:79,1,112.500004291535,2|0,0:0|0:0,0:0:0:0:
348,78,23696,1,0,0:0:0:0:
438,143,23854,2,0,P|427:196|359:223,1,112.500004291535,8|0,0:0|0:0,0:0:0:0:
380,224,24328,1,2,0:0:0:0:
290,261,24486,2,0,L|207:259,1,56.2500021457673
190,246,24801,1,2,0:0:0:0:
147,260,24959,1,0,0:0:0:0:
124,299,25117,2,0,B|62:304|62:304|13:282,1,112.500004291535,8|0,0:0|0:0,0:0:0:0:
16,283,25591,1,0,0:0:0:0:
68,171,25749,6,0,L|73:95,2,56.2500021457673,2|0|0,0:0|0:0|0:0,0:0:0:0:
73,215,26222,1,0,0:0:0:0:
72,259,26380,2,0,P|73:321|120:346,1,112.500004291535,8|0,0:0|0:0,0:0:0:0:
195,342,26854,2,0,L|322:336,1,112.500004291535,2|0,0:0|0:0,0:0:0:0:
352,336,27328,2,0,B|355:305|355:305|347:256,1,56.2500021457673,2|0,0:0|0:0,0:0:0:0:
305,215,27643,2,0,B|302:246|302:246|310:295,1,56.2500021457673,8|0,0:0|0:0,0:0:0:0:
386,194,27959,2,0,L|408:193,4,14.0625005364418,0|0|0|0|0,3:1|3:1|3:1|3:1|3:1,3:1:0:0:
324,95,28275,6,0,B|327:29,1,56.2500021457673,2|0,0:0|0:0,0:0:0:0:
457,168,28591,2,0,P|457:224|402:270,1,112.500004291535,0|8,0:0|0:0,0:0:0:0:
378,277,29064,1,2,0:0:0:0:
333,270,29222,2,0,L|253:250,1,56.2500021457673,0|2,0:0|0:0,0:0:0:0:
252,206,29538,2,0,L|307:221,1,56.2500021457673
253,116,29854,2,0,L|199:132,1,56.2500021457673
218,86,30170,2,0,L|287:66,1,56.2500021457673,8|0,0:0|0:0,0:0:0:0:
365,52,30486,1,0,0:0:0:0:
399,80,30643,1,0,0:0:0:0:
406,116,30801,6,0,B|411:156|411:156|404:217,1,75,6|0,0:0|0:0,0:0:0:0:
427,286,31117,1,8,0:0:0:0:
343,335,31275,1,0,0:0:0:0:
330,241,31433,2,0,B|309:232|309:232|236:244,2,75,8|0|8,0:0|0:0|0:0,0:0:0:0:
502,340,31907,6,0,P|518:271|456:200,1,150,8|0,0:0|0:0,0:0:0:0:
371,148,32380,2,0,L|280:153,1,75,8|0,0:0|0:0,0:0:0:0:
135,219,32696,2,0,L|226:214,1,75,8|0,0:0|0:0,0:0:0:0:
362,133,33012,2,0,L|271:138,1,75,8|2,0:0|0:0,0:0:0:0:
150,91,33328,6,0,B|139:56|139:56|149:-4,1,75,6|0,0:0|0:0,0:0:0:0:
275,87,33643,1,8,0:0:0:0:
276,199,33801,1,0,0:0:0:0:
424,130,33959,2,0,B|431:93|431:93|420:58,1,75,14|0,0:0|0:0,0:0:0:0:
260,78,34275,1,0,0:0:0:0:
259,189,34433,1,8,0:0:0:0:
150,91,34591,6,0,L|40:90,1,75,14|0,0:0|3:1,0:0:0:0:
75,90,34828,1,0,3:1:0:0:
75,90,34907,1,10,3:1:0:0:
50,194,35064,2,0,L|49:223,4,18.75,0|0|0|0|10,3:1|3:1|3:1|3:1|3:1,3:1:0:0:
159,261,35380,6,0,L|220:258,1,37.5,2|0,0:0|0:0,0:0:0:0:
250,184,35538,2,0,L|195:187,1,37.5,10|0,0:0|0:0,0:0:0:0:
125,288,35696,2,0,L|186:285,1,37.5,2|0,0:0|0:0,0:0:0:0:
280,270,35854,6,0,B|319:269|319:269|384:285,1,75,14|0,0:0|0:0,0:0:0:0:
414,336,36170,1,8,0:0:0:0:
213,326,36328,2,0,P|193:265|256:187,1,150,8|2,0:0|0:0,0:0:0:0:
353,101,36801,1,8,0:0:0:0:
353,101,36959,6,0,B|300:98|300:98|254:105|254:105|173:100,1,150,10|0,0:0|0:0,0:0:0:0:
79,92,37433,1,8,0:0:0:0:
139,15,37591,1,0,0:0:0:0:
113,185,37749,2,0,B|73:192|73:192|21:187,1,75,10|0,0:0|0:0,0:0:0:0:
335,152,38064,2,0,L|375:149,1,37.5,2|0,0:0|0:0,0:0:0:0:
265,193,38222,2,0,L|217:197,1,37.5,2|0,0:0|0:0,0:0:0:0:
335,65,38380,6,0,L|336:17,2,37.5,10|0|0,0:0|0:0|0:0,0:0:0:0:
314,162,38696,1,8,0:0:0:0:
411,190,38854,1,2,0:0:0:0:
409,284,39012,2,0,L|423:339,2,37.5,10|0|0,0:0|0:0|0:0,0:0:0:0:
303,283,39328,1,8,0:0:0:0:
275,183,39486,1,2,0:0:0:0:
334,108,39643,6,2,L|325:45,3,37.5,10|2|2|2,0:0|0:0|0:0|0:0,0:0:0:0:
415,152,39959,2,2,L|409:207,3,37.5,10|2|2|2,0:0|0:0|0:0|0:0,0:0:0:0:
365,265,40275,6,0,L|368:296,2,18.75,10|0|0,3:1|3:1|3:1,3:1:0:0:
291,241,40433,1,8,0:0:0:0:
222,269,40591,2,0,L|219:300,2,18.75,10|0|0,3:1|3:1|3:1,3:1:0:0:
154,241,40749,1,8,0:0:0:0:
82,260,40907,1,10,0:0:0:0:
76,257,41380,5,0,0:0:0:0:
72,172,41538,2,0,L|70:50,1,112.5
70,59,41854,1,0,0:0:0:0:
247,179,42170,6,0,L|240:68,1,75,6|0,0:0|0:0,0:0:0:0:
470,231,42486,2,0,L|474:305,1,75,10|0,0:0|0:0,0:0:0:0:
368,182,42801,2,0,L|361:71,1,75,2|0,0:0|0:0,0:0:0:0:
140,228,43117,2,0,L|144:302,1,75,10|0,0:0|0:0,0:0:0:0:
123,85,43433,6,0,L|210:88,1,75,2|0,0:0|0:0,0:0:0:0:
429,248,43749,2,0,L|342:245,1,75,10|0,0:0|0:0,0:0:0:0:
140,228,44064,1,2,0:0:0:0:
133,323,44222,1,0,0:0:0:0:
58,224,44380,1,10,0:0:0:0:
215,180,44538,1,0,0:0:0:0:
204,277,44696,6,0,L|302:272,1,75,2|0,0:0|0:0,0:0:0:0:
114,73,45012,2,0,L|212:68,1,75,10|0,0:0|0:0,0:0:0:0:
359,228,45328,2,0,L|261:223,1,75,2|0,0:0|0:0,0:0:0:0:
449,24,45643,2,0,L|351:19,1,75,10|0,0:0|0:0,0:0:0:0:
175,163,45959,6,0,B|161:92|161:92|177:43,1,112.5,2|0,0:0|0:0,0:0:0:0:
181,39,46275,1,10,0:0:0:0:
295,54,46433,1,0,0:0:0:0:
284,173,46591,1,2,0:0:0:0:
237,96,46749,1,0,0:0:0:0:
370,123,46907,1,10,0:0:0:0:
274,223,47064,1,2,0:0:0:0:
390,320,47222,6,0,L|375:224,1,75,2|0,0:0|0:0,0:0:0:0:
122,320,47538,2,0,L|137:224,1,75,10|0,0:0|0:0,0:0:0:0:
296,84,47854,2,0,L|281:180,1,75,2|0,0:0|0:0,0:0:0:0:
28,84,48170,2,0,L|43:180,1,75,10|0,0:0|0:0,0:0:0:0:
201,196,48486,6,0,L|302:203,1,75,2|0,0:0|0:0,0:0:0:0:
417,336,48801,2,0,L|316:329,1,75,10|0,0:0|0:0,0:0:0:0:
177,268,49117,1,2,0:0:0:0:
179,147,49275,1,0,0:0:0:0:
282,208,49433,1,10,0:0:0:0:
173,264,49591,1,0,0:0:0:0:
47,330,49749,6,0,L|129:346,1,75,2|0,0:0|0:0,0:0:0:0:
368,315,50064,2,0,L|294:299,1,75,10|0,0:0|0:0,0:0:0:0:
337,96,50380,2,0,L|331:175,1,75,2|0,0:0|0:0,0:0:0:0:
160,313,50696,2,0,L|166:234,1,75,10|0,0:0|0:0,0:0:0:0:
112,70,51012,6,0,P|141:18|216:110,1,225
193,210,51643,2,0,L|196:252,3,37.5
211,268,51959,1,0,0:0:0:0:
236,264,52038,1,0,0:0:0:0:
261,259,52117,1,0,0:0:0:0:
286,264,52196,1,0,0:0:0:0:
312,271,52275,6,0,L|417:274,1,75,6|0,0:0|0:0,0:0:0:0:
424,158,52591,1,10,0:0:0:0:
267,150,52749,1,0,0:0:0:0:
267,150,52828,1,0,0:0:0:0:
267,150,52907,2,0,L|253:63,1,75,2|0,0:0|0:0,0:0:0:0:
111,130,53222,1,10,0:0:0:0:
101,158,53301,1,0,0:0:0:0:
91,186,53380,1,0,0:0:0:0:
82,214,53459,1,0,0:0:0:0:
82,244,53538,6,0,P|65:291|109:352,1,112.5,2|0,0:0|0:0,0:0:0:0:
92,343,53854,2,0,B|147:336|147:336|227:345,1,112.5,10|0,0:0|0:0,0:0:0:0:
203,342,54170,1,2,0:0:0:0:
329,310,54328,1,0,0:0:0:0:
322,160,54486,1,10,0:0:0:0:
242,272,54643,1,0,0:0:0:0:
390,255,54801,6,0,L|483:259,1,75,2|0,0:0|0:0,0:0:0:0:
392,161,55117,1,10,0:0:0:0:
273,239,55275,1,0,0:0:0:0:
273,239,55354,1,0,0:0:0:0:
273,239,55433,2,0,B|233:241|233:241|184:238,1,75,2|0,0:0|0:0,0:0:0:0:
114,114,55749,1,10,0:0:0:0:
121,88,55828,1,0,0:0:0:0:
138,68,55907,1,0,0:0:0:0:
162,57,55986,1,0,0:0:0:0:
187,54,56064,6,0,L|303:61,1,112.5,2|0,0:0|0:0,0:0:0:0:
299,60,56380,1,10,0:0:0:0:
336,175,56538,1,0,0:0:0:0:
301,290,56696,1,2,0:0:0:0:
416,324,56854,1,0,0:0:0:0:
451,209,57012,1,10,0:0:0:0:
336,175,57170,1,2,0:0:0:0:
216,159,57328,6,0,L|209:63,1,75,2|0,0:0|0:0,0:0:0:0:
92,37,57643,1,10,0:0:0:0:
80,60,57722,1,0,0:0:0:0:
72,85,57801,1,0,0:0:0:0:
73,111,57880,1,0,0:0:0:0:
79,136,57959,2,0,B|93:168|93:168|93:218,1,75,2|0,0:0|0:0,0:0:0:0:
135,324,58275,2,0,L|195:331,3,37.5,10|0|0|0,0:0|0:0|0:0|0:0,0:0:0:0:
202,328,58591,6,0,B|238:322|238:322|343:325,1,112.5,2|0,0:0|0:0,0:0:0:0:
313,324,58907,1,10,0:0:0:0:
336,206,59064,1,0,0:0:0:0:
219,178,59222,2,0,P|208:138|221:83,1,75,2|0,0:0|0:0,0:0:0:0:
358,60,59538,2,0,B|363:80|363:80|365:107,3,37.5,10|0|0|0,0:0|0:0|0:0|0:0,0:0:0:0:
371,120,59854,5,2,0:0:0:0:
378,251,60012,1,2,0:0:0:0:
220,276,60170,1,2,0:0:0:0:
276,177,60328,1,2,0:0:0:0:
317,301,60486,1,2,0:0:0:0:
192,279,60643,1,2,0:0:0:0:
345,207,60801,1,2,0:0:0:0:
189,198,60959,2,0,L|157:196,2,18.75,2|0|0,3:1|3:1|3:1,3:1:0:0:
166,100,61117,1,2,0:0:0:0:
256,192,61275,12,2,62380,0:0:0:0:
148,178,62696,6,0,L|143:250,1,56.2500021457673
146,310,63012,2,0,P|194:334|260:303,1,112.500004291535,8|0,0:0|0:0,0:0:0:0:
400,237,63643,2,0,L|270:230,1,112.500004291535,2|0,0:0|0:0,0:0:0:0:
98,200,64117,1,0,3:1:0:0:
92,200,64196,1,0,3:1:0:0:
86,200,64275,1,8,3:1:0:0:
305,143,64591,1,0,0:0:0:0:
309,147,64907,6,0,B|323:95|323:95|311:23,1,112.500004291535,2|0,0:0|0:0,0:0:0:0:
270,33,65380,1,0,0:0:0:0:
226,34,65538,2,0,L|146:36,1,56.2500021457673,8|0,0:0|0:0,0:0:0:0:
111,82,65854,2,0,L|31:84,1,56.2500021457673
36,158,66170,2,0,B|25:212|25:212|51:267,1,112.5,2|0,0:0|0:0,0:0:0:0:
302,338,66801,6,0,L|335:332,1,28.1250010728836,8|0,3:1|3:1,3:1:0:0:
176,340,67117,2,0,L|148:345,1,28.1250010728836,8|0,3:1|3:1,3:1:0:0:
30,358,67433,1,2,0:0:0:0:
26,354,67749,6,0,L|19:275,1,56.2500021457673,8|0,0:0|0:0,0:0:0:0:
38,169,68064,2,0,L|45:248,1,56.2500021457673,0|2,0:0|0:0,0:0:0:0:
173,289,68380,2,0,L|168:212,1,56.2500021457673,8|0,0:0|0:0,0:0:0:0:
176,152,68696,2,0,P|227:168|300:137,1,112.500004291535,0|8,0:0|0:0,0:0:0:0:
363,86,69170,1,0,0:0:0:0:
363,86,69249,1,0,0:0:0:0:
363,86,69328,2,0,P|389:126|367:208,1,112.500004291535,0|8,0:0|0:0,0:0:0:0:
382,188,69801,1,0,0:0:0:0:
321,311,69959,5,2,0:0:0:0:
202,295,70117,1,2,0:0:0:0:
276,207,70275,1,2,0:0:0:0:
280,331,70433,1,2,0:0:0:0:
123,312,70591,1,2,0:0:0:0:
103,308,70670,1,2,0:0:0:0:
85,299,70749,1,2,0:0:0:0:
72,284,70828,1,2,0:0:0:0:
74,258,70907,5,2,0:0:0:0:
80,233,70986,1,2,0:0:0:0:
87,209,71064,1,2,0:0:0:0:
78,185,71143,1,2,0:0:0:0:
64,161,71222,6,0,B|52:126|52:126|54:73,1,75,2|0,0:0|0:0,0:0:0:0:
152,50,71538,2,0,L|147:5,2,37.5
148,146,71854,1,0,0:0:0:0:
236,225,72012,1,0,0:0:0:0:
122,263,72170,1,0,0:0:0:0:
148,146,72328,1,0,0:0:0:0:
220,81,72486,6,0,B|242:74|242:74|333:70,1,112.5,6|0,0:0|0:0,0:0:0:0:
331,70,72801,1,0,0:0:0:0:
351,225,72959,1,0,0:0:0:0:
348,315,73117,1,0,0:0:0:0:
381,145,73275,1,0,0:0:0:0:
304,163,73433,2,0,L|241:162,1,37.5
426,209,73591,2,0,L|466:211,1,37.5
456,113,73749,5,0,0:0:0:0:
457,101,73828,1,0,0:0:0:0:
455,89,73907,1,0,0:0:0:0:
452,78,73986,1,0,0:0:0:0:
446,68,74064,1,0,0:0:0:0:
331,70,74222,1,0,0:0:0:0:
251,139,74380,2,0,B|214:148|214:148|156:145,1,75,8|0,0:0|0:0,0:0:0:0:
53,293,74696,2,0,B|90:284|90:284|148:287,1,75,8|0,0:0|0:0,0:0:0:0:
104,100,75012,6,0,P|91:141|122:212,1,112.5,6|0,0:0|0:0,0:0:0:0:
113,204,75328,1,0,0:0:0:0:
268,240,75486,1,0,0:0:0:0:
357,231,75643,1,0,0:0:0:0:
197,296,75801,1,0,0:0:0:0:
195,182,75959,2,0,L|200:128,1,37.5
249,42,76117,2,0,L|244:98,1,37.5
157,56,76275,6,0,L|91:66,3,37.5
94,69,76591,1,0,0:0:0:0:
76,88,76670,1,0,0:0:0:0:
74,114,76749,1,0,0:0:0:0:
73,140,76828,1,0,0:0:0:0:
63,164,76907,6,0,B|60:203|60:203|71:256,1,75,8|0,0:0|0:0,0:0:0:0:
273,231,77222,2,0,B|276:192|276:192|265:139,1,75,8|0,0:0|0:0,0:0:0:0:
170,222,77538,6,0,B|169:274|169:274|181:349,1,112.5,6|0,0:0|0:0,0:0:0:0:
178,333,77854,1,0,0:0:0:0:
331,345,78012,1,0,0:0:0:0:
416,316,78170,1,0,0:0:0:0:
335,261,78328,1,0,0:0:0:0:
247,274,78486,1,0,0:0:0:0:
280,189,78643,1,0,0:0:0:0:
118,260,78801,6,0,B|104:213|104:213|104:119,1,112.5,6|0,0:0|0:0,0:0:0:0:
104,149,79117,1,0,0:0:0:0:
192,49,79275,1,0,0:0:0:0:
281,40,79433,1,0,0:0:0:0:
226,133,79591,1,0,0:0:0:0:
137,121,79749,1,0,0:0:0:0:
171,210,79907,1,0,0:0:0:0:
192,345,80064,6,0,L|331:350,1,112.5,6|0,0:0|0:0,0:0:0:0:
304,349,80380,2,0,L|338:345,2,18.75,0|0|0,3:1|3:1|3:1,3:1:0:0:
424,226,80696,2,0,L|285:231,1,112.5,6|0,0:0|0:0,0:0:0:0:
311,231,81012,2,0,L|277:226,2,18.75,0|0|0,3:1|3:1|3:1,3:1:0:0:
242,152,81170,1,0,0:0:0:0:
310,92,81328,6,0,P|341:82|393:93,1,75,2|0,0:0|0:0,0:0:0:0:
282,220,81643,2,0,P|250:229|198:218,1,75,2|0,0:0|0:0,0:0:0:0:
140,138,81959,1,2,0:0:0:0:
252,77,82117,1,0,0:0:0:0:
238,199,82275,1,2,0:0:0:0:
81,189,82433,1,0,0:0:0:0:
64,52,82591,6,0,B|95:50|95:50|141:61|141:61|199:57,1,112.5,6|0,0:0|0:0,0:0:0:0:
175,58,82907,1,0,0:0:0:0:
315,147,83064,1,0,0:0:0:0:
401,120,83222,1,0,0:0:0:0:
246,107,83380,1,0,0:0:0:0:
233,210,83538,2,0,L|227:266,1,37.5
236,294,83696,2,0,L|230:350,1,37.5
199,365,83854,6,0,B|131:368|131:368|58:339,1,112.5,2|0,0:0|0:0,0:0:0:0:
89,351,84170,1,0,0:0:0:0:
37,232,84328,1,0,0:0:0:0:
66,144,84486,1,0,0:0:0:0:
128,209,84643,1,0,0:0:0:0:
37,232,84801,2,0,L|35:287,1,37.5
110,315,84959,2,0,L|111:277,1,37.5
187,272,85117,6,0,B|247:266|247:266|321:279,1,112.5,6|0,0:0|0:0,0:0:0:0:
298,275,85433,1,0,0:0:0:0:
443,327,85591,1,0,0:0:0:0:
478,244,85749,1,0,0:0:0:0:
459,155,85907,1,0,0:0:0:0:
375,123,86064,2,0,L|371:66,1,37.5
355,196,86222,2,0,L|359:253,1,37.5
280,181,86380,6,0,L|179:176,1,75,2|0,0:0|0:0,0:0:0:0:
48,217,86696,2,0,L|11:203,3,37.5
70,223,87012,2,0,L|171:228,1,75,2|0,0:0|0:0,0:0:0:0:
308,294,87328,2,0,L|316:331,3,37.5
308,276,87643,6,0,L|312:182,1,75,4|0,0:0|0:0,0:0:0:0:
229,95,87959,2,0,L|233:189,1,75,2|0,0:0|0:0,0:0:0:0:
399,241,88275,2,0,L|395:147,1,75,2|0,0:0|0:0,0:0:0:0:
143,142,88591,2,0,L|139:236,1,75,2|0,0:0|0:0,0:0:0:0:
243,317,88907,6,0,B|283:325|283:325|316:318,1,75,6|0,0:0|0:0,0:0:0:0:
269,67,89222,2,0,B|229:59|229:59|195:65,1,75,2|0,0:0|0:0,0:0:0:0:
381,205,89538,2,0,B|389:165|389:165|377:102,1,75,2|0,0:0|0:0,0:0:0:0:
131,179,89854,2,0,B|123:219|123:219|135:282,1,75,2|0,0:0|0:0,0:0:0:0:
261,287,90170,5,6,0:0:0:0:
322,183,90328,1,2,0:0:0:0:
206,151,90486,1,2,0:0:0:0:
262,256,90643,1,2,0:0:0:0:
275,105,90801,1,2,0:0:0:0:
129,115,90959,1,2,0:0:0:0:
210,235,91117,1,2,0:0:0:0:
275,105,91275,1,2,0:0:0:0:
183,49,91433,5,2,0:0:0:0:
165,53,91512,1,2,0:0:0:0:
146,54,91591,1,2,0:0:0:0:
127,51,91670,1,2,0:0:0:0:
108,46,91749,1,2,0:0:0:0:
36,98,91907,1,2,0:0:0:0:
89,183,92064,1,2,0:0:0:0:
65,276,92222,6,0,L|61:308,2,18.75,2|0|0,3:1|3:1|3:1,3:1:0:0:
143,307,92380,1,2,0:0:0:0:
217,272,92538,2,0,L|214:253,2,18.75,2|0|0,3:1|3:1|3:1,3:1:0:0:
294,299,92696,1,2,0:0:0:0:
115,196,93959,6,0,B|154:203|154:203|243:189,1,112.5,2|0,0:0|0:0,0:0:0:0:
237,163,94275,1,0,0:0:0:0:
290,252,94433,1,0,0:0:0:0:
295,102,94591,6,0,L|296:52,1,37.5,8|0,0:0|0:0,0:0:0:0:
315,179,94749,2,0,L|314:229,1,37.5
375,117,94907,2,0,B|397:114|397:114|412:117,1,37.5,8|0,0:0|0:0,0:0:0:0:
237,163,95064,2,0,B|215:165|215:165|199:162,1,37.5
129,217,95222,5,6,0:0:0:0:
74,288,95380,1,0,0:0:0:0:
162,375,95538,2,0,B|211:371|211:371|261:376|261:376|340:370,1,150,10|2,0:0|0:0,0:0:0:0:
394,309,96012,1,0,0:0:0:0:
394,309,96091,1,0,0:0:0:0:
394,309,96170,2,0,L|398:227,1,75,10|0,0:0|0:0,0:0:0:0:
349,160,96486,5,2,0:0:0:0:
446,220,96643,1,0,0:0:0:0:
296,225,96801,2,0,P|256:218|190:234,1,75,10|0,0:0|0:0,0:0:0:0:
85,276,97117,2,0,P|125:283|191:267,1,75,2|0,0:0|0:0,0:0:0:0:
67,151,97433,1,10,0:0:0:0:
24,231,97591,1,0,0:0:0:0:
65,311,97749,6,0,L|179:318,1,112.5,4|0,0:0|0:0,0:0:0:0:
177,317,98064,1,10,0:0:0:0:
371,314,98222,2,0,L|355:272,1,37.5
345,258,98380,2,0,L|231:251,1,112.5,6|0,0:0|0:0,0:0:0:0:
232,251,98696,1,10,0:0:0:0:
84,222,98854,2,0,L|73:177,1,37.5
75,162,99012,5,6,0:0:0:0:
149,68,99170,1,0,0:0:0:0:
304,107,99328,1,10,0:0:0:0:
214,114,99486,1,0,0:0:0:0:
392,98,99643,1,6,0:0:0:0:
398,100,99959,5,0,0:0:0:0:
419,187,100117,1,0,0:0:0:0:
386,271,100275,1,6,0:0:0:0:
296,258,100433,1,0,0:0:0:0:
326,122,100591,2,0,B|382:116|382:116|482:134,1,150,10|0,0:0|0:0,0:0:0:0:
373,38,101064,1,0,0:0:0:0:
373,38,101143,1,0,0:0:0:0:
373,38,101222,2,0,L|267:37,1,75,10|0,0:0|0:0,0:0:0:0:
213,70,101538,5,2,0:0:0:0:
202,180,101696,1,0,0:0:0:0:
296,110,101854,1,10,0:0:0:0:
128,131,102012,1,0,0:0:0:0:
295,198,102170,2,0,B|306:227|306:227|310:291,1,75,2|0,0:0|0:0,0:0:0:0:
206,345,102486,1,10,0:0:0:0:
119,366,102643,1,0,0:0:0:0:
35,333,102801,6,0,P|25:289|39:235,1,75,2|0,0:0|0:0,0:0:0:0:
118,168,103117,2,0,L|165:171,1,37.5,10|0,0:0|0:0,0:0:0:0:
253,221,103275,2,0,L|206:218,1,37.5
106,140,103433,1,2,0:0:0:0:
130,260,103591,5,0,0:0:0:0:
165,90,103749,1,10,0:0:0:0:
130,260,103907,1,2,0:0:0:0:
262,325,104222,6,0,L|354:312,1,75,2|0,0:0|0:0,0:0:0:0:
425,296,104538,1,2,0:0:0:0:
278,288,104696,2,0,L|370:275,1,75,0|2,0:0|0:0,0:0:0:0:
441,261,105012,1,0,0:0:0:0:
479,179,105170,2,0,L|479:160,2,18.75,8|0|0,3:1|3:1|3:1,3:1:0:0:
413,96,105328,5,6,0:0:0:0:
371,184,105486,1,0,0:0:0:0:
422,277,105643,2,0,L|329:282,1,75,10|0,0:0|0:0,0:0:0:0:
260,307,105959,1,2,0:0:0:0:
256,145,106117,1,0,0:0:0:0:
256,145,106196,1,0,0:0:0:0:
256,145,106275,2,0,L|271:228,1,75,10|0,0:0|0:0,0:0:0:0:
157,322,106591,5,2,0:0:0:0:
256,352,106749,1,0,0:0:0:0:
76,348,106907,2,0,L|66:256,1,75,10|0,0:0|0:0,0:0:0:0:
138,139,107222,2,0,L|128:231,1,75,2|0,0:0|0:0,0:0:0:0:
110,319,107538,1,10,0:0:0:0:
41,232,107696,1,0,0:0:0:0:
202,262,107854,6,0,B|261:268|261:268|340:250,1,112.5,6|0,0:0|0:0,0:0:0:0:
312,256,108170,1,10,0:0:0:0:
310,106,108328,2,0,L|303:70,1,37.5
297,51,108486,2,0,B|238:45|238:45|159:63,1,112.5,6|0,0:0|0:0,0:0:0:0:
186,56,108801,1,10,0:0:0:0:
147,238,108959,2,0,L|146:284,1,37.5
151,298,109117,5,6,0:0:0:0:
231,337,109275,1,0,0:0:0:0:
262,182,109433,1,10,0:0:0:0:
275,265,109591,1,0,0:0:0:0:
248,98,109749,1,6,0:0:0:0:
244,92,110064,5,0,0:0:0:0:
167,137,110222,1,0,0:0:0:0:
84,105,110380,1,6,0:0:0:0:
80,288,110538,1,0,0:0:0:0:
17,199,110696,5,10,0:0:0:0:
17,199,110854,2,0,L|181:212,1,150,2|2,0:0|0:0,0:0:0:0:
355,175,111328,1,0,0:0:0:0:
361,153,111407,1,0,0:0:0:0:
363,130,111486,1,2,0:0:0:0:
362,107,111564,1,0,0:0:0:0:
355,85,111643,6,0,B|308:75|308:75|246:83,1,75,0|2,0:0|0:0,0:0:0:0:
157,299,111959,2,0,B|204:309|204:309|266:301,1,75,0|2,0:0|0:0,0:0:0:0:
182,172,112275,2,0,L|177:48,1,112.5,10|0,0:0|0:0,0:0:0:0:
177,59,112591,1,2,0:0:0:0:
86,138,112749,2,0,L|78:184,1,37.5
78,195,112907,5,2,0:0:0:0:
187,242,113064,1,2,0:0:0:0:
349,183,113222,1,10,0:0:0:0:
284,275,113380,1,2,0:0:0:0:
266,134,113538,1,2,0:0:0:0:
263,110,113617,1,2,0:0:0:0:
260,87,113696,1,2,0:0:0:0:
257,64,113775,1,2,0:0:0:0:
253,41,113854,1,10,0:0:0:0:
163,37,114012,1,2,0:0:0:0:
118,115,114170,6,0,L|118:148,2,18.75,2|0|0,3:1|3:1|3:1,3:1:0:0:
169,193,114328,1,2,0:0:0:0:
215,105,114486,2,0,L|216:86,2,18.75,2|0|0,3:1|3:1|3:1,3:1:0:0:
244,201,114643,1,2,0:0:0:0:
219,289,114801,2,0,B|219:330|219:330|228:381,1,75,2|0,0:0|0:0,0:0:0:0:
364,326,115117,1,10,0:0:0:0:
111,316,115433,5,6,0:0:0:0:
256,192,115591,12,0,120170,0:0:0:0:
