osu file format v14

[General]
AudioFilename: t+pazolite - Oshama Scramble!.mp3
AudioLeadIn: 0
PreviewTime: 94907
Countdown: 0
SampleSet: Normal
StackLeniency: 0.4
Mode: 0
LetterboxInBreaks: 1
EpilepsyWarning: 1
WidescreenStoryboard: 0

[Editor]
Bookmarks: 486,10591,20696,30801,40907,42170,52275,62380,72486,82591,92696,95222,105328,115433
DistanceSpacing: 1
BeatDivisor: 2
GridSize: 4
TimelineZoom: 1.5

[Metadata]
Title:Oshama Scramble!
TitleUnicode:Oshama Scramble!
Artist:t+pazolite
ArtistUnicode:t+pazolite
Creator:Hathz
Version:Basic
Source:maimai
Tags:RikiH_ wa_ orange plus
BeatmapID:761998
BeatmapSetID:344859

[Difficulty]
HPDrainRate:4
CircleSize:3
OverallDifficulty:4
ApproachRate:5
SliderMultiplier:0.9
SliderTickRate:1

[Events]
//Background and Video events
Video,-1608,"bgv.avi"
0,0,"background.png",0,0
//Break Periods
//Storyboard Layer 0 (Background)
//Storyboard Layer 1 (Fail)
//Storyboard Layer 2 (Pass)
//Storyboard Layer 3 (Foreground)
//Storyboard Sound Samples

[TimingPoints]
486,315.789473684211,4,1,1,60,1,0
10591,-100,4,1,1,80,0,1
20696,-100,4,1,1,50,0,0
30801,-100,4,1,1,80,0,0
42170,-100,4,1,1,90,0,1
51012,-100,4,1,2,90,0,1
52275,-100,4,1,1,90,0,1
62380,-100,4,1,1,70,0,0
72486,-100,4,1,1,80,0,1
72801,-100,4,1,1,80,0,0
82591,-100,4,1,1,80,0,1
82907,-100,4,1,1,80,0,0
92696,-100,4,1,1,80,0,1
93012,-100,4,1,1,80,0,0
95222,-100,4,1,1,90,0,1
115433,-100,4,1,1,90,0,0
120170,-100,4,1,1,5,0,0

[Colours]
Combo1 : 253,153,179
Combo2 : 241,170,3
Combo3 : 49,167,223
Combo4 : 127,127,127

[HitObjects]
306,353,486,6,0,L|310:223,1,90,8|8,0:0|0:0,0:0:0:0:
311,173,1117,1,8,0:0:0:0:
162,71,1749,2,0,P|117:132|146:238,1,180,8|8,0:0|0:0,0:0:0:0:
311,273,3012,6,0,L|436:277,1,90,8|8,0:0|0:0,0:0:0:0:
491,280,3643,1,8,0:0:0:0:
327,359,4275,2,0,B|237:372|237:372|134:354,1,180,8|8,0:0|0:0,0:0:0:0:
68,193,5538,6,0,L|79:74,1,90,10|2,0:0|0:0,0:0:0:0:
161,69,6170,2,0,L|150:188,1,90,2|2,0:0|0:0,0:0:0:0:
204,232,6801,2,0,P|275:269|373:230,1,180,2|2,0:0|0:0,0:0:0:0:
399,155,7749,1,2,0:0:0:0:
418,67,8064,6,0,P|381:48|319:58,1,90,2|2,0:0|0:0,0:0:0:0:
246,75,8696,2,0,B|247:123|247:123|283:165,1,90,2|2,0:0|0:0,0:0:0:0:
362,131,9328,1,2,0:0:0:0:
362,131,10591,6,0,L|355:275,1,90,6|8,0:0|0:0,0:0:0:0:
294,285,11222,2,0,P|249:295|183:279,1,90,2|8,0:0|0:0,0:0:0:0:
122,255,11854,2,0,B|98:206|98:206|41:192,1,90,2|8,0:0|0:0,0:0:0:0:
59,107,12486,2,0,B|93:98|93:98|117:49,1,90,2|8,0:0|0:0,0:0:0:0:
162,45,12959,1,0,0:0:0:0:
207,46,13117,6,0,P|255:54|328:32,1,90,2|8,0:0|0:0,0:0:0:0:
366,103,13749,2,0,L|376:216,1,90,2|8,0:0|0:0,0:0:0:0:
349,279,14380,1,2,0:0:0:0:
416,338,14696,1,8,0:0:0:0:
489,286,15012,1,2,0:0:0:0:
463,199,15328,1,8,0:0:0:0:
418,192,15486,1,0,0:0:0:0:
373,192,15643,6,0,L|221:201,1,90,2|8,0:0|0:0,0:0:0:0:
192,198,16275,2,0,L|78:196,1,90,2|8,0:0|0:0,0:0:0:0:
50,122,16907,2,0,P|40:79|56:28,1,90,2|8,0:0|0:0,0:0:0:0:
129,80,17538,2,0,P|139:123|123:174,1,90,2|8,0:0|0:0,0:0:0:0:
107,207,18012,1,0,0:0:0:0:
95,251,18170,6,0,P|91:303|210:355,1,180,2|2,0:0|0:0,0:0:0:0:
272,330,19117,1,2,0:0:0:0:
359,352,19433,2,0,B|401:343|401:343|449:311,1,90,2|2,0:0|0:0,0:0:0:0:
477,234,20064,1,2,0:0:0:0:
468,144,20380,1,0,0:0:0:0:
448,103,20538,1,0,0:0:0:0:
413,74,20696,6,0,L|222:75,1,180,6|8,0:0|0:0,0:0:0:0:
80,171,21959,2,0,P|78:259|177:315,1,180,0|8,0:0|0:0,0:0:0:0:
244,162,23222,6,0,L|158:221,2,90,2|0|8,0:0|0:0|0:0,0:0:0:0:
320,113,24170,1,0,0:0:0:0:
405,143,24486,2,0,P|427:189|392:319,1,180,0|8,0:0|0:0,0:0:0:0:
220,322,25749,6,0,P|188:239|215:154,1,180,2|8,0:0|0:0,0:0:0:0:
380,103,27012,2,0,B|390:162|390:162|377:227|377:227|389:314,1,180,0|8,0:0|0:0,0:0:0:0:
209,325,28275,6,0,L|80:318,2,90,2|0|8,0:0|0:0|0:0,0:0:0:0:
298,333,29222,1,0,0:0:0:0:
378,291,29538,2,0,P|438:268|481:356,1,180,0|8,0:0|0:0,0:0:0:0:
298,333,30801,6,0,P|287:287|319:221,1,90,6|8,0:0|0:0,0:0:0:0:
352,174,31433,2,0,P|373:144|372:66,1,90,8|8,0:0|0:0,0:0:0:0:
340,11,32064,1,0,0:0:0:0:
160,18,32696,1,8,0:0:0:0:
81,180,33328,6,0,P|68:222|81:275,1,90,6|8,0:0|0:0,0:0:0:0:
160,302,33959,2,0,B|203:309|203:309|276:301,1,90,14|8,0:0|0:0,0:0:0:0:
337,286,34591,1,14,0:0:0:0:
411,122,35222,1,10,3:1:0:0:
247,45,35854,6,0,P|150:40|123:140,1,180,14|0,0:0|0:0,0:0:0:0:
219,252,37117,2,0,L|339:263,2,90,0|8|10,0:0|0:0|0:0,0:0:0:0:
136,216,38064,1,2,0:0:0:0:
85,290,38380,6,0,P|124:343|249:328,1,180,10|10,0:0|0:0,0:0:0:0:
281,268,39328,1,8,0:0:0:0:
314,184,39643,2,0,L|325:-5,2,180,10|10|10,0:0|3:1|0:0,0:0:0:0:
107,268,42170,6,0,L|225:275,1,90,6|10,0:0|0:0,0:0:0:0:
286,271,42801,2,0,L|233:165,1,90,2|10,0:0|0:0,0:0:0:0:
198,113,43433,2,0,L|132:211,1,90,2|10,0:0|0:0,0:0:0:0:
107,268,44064,1,2,0:0:0:0:
167,334,44380,1,10,0:0:0:0:
211,327,44538,1,0,0:0:0:0:
255,320,44696,6,0,L|377:308,1,90,2|10,0:0|0:0,0:0:0:0:
385,230,45328,2,0,L|263:218,1,90,2|10,0:0|0:0,0:0:0:0:
259,138,45959,2,0,L|381:126,1,90,2|10,0:0|0:0,0:0:0:0:
438,131,46591,1,2,0:0:0:0:
479,210,46907,1,10,0:0:0:0:
457,249,47064,1,2,0:0:0:0:
425,281,47222,6,0,L|307:294,1,90,2|10,0:0|0:0,0:0:0:0:
247,293,47854,2,0,L|294:184,1,90,2|10,0:0|0:0,0:0:0:0:
326,130,48485,2,0,L|396:225,1,90,2|10,0:0|0:0,0:0:0:0:
425,281,49116,1,2,0:0:0:0:
369,349,49432,1,10,0:0:0:0:
324,342,49591,1,0,0:0:0:0:
279,343,49748,6,0,P|233:350|161:329,1,90,2|10,0:0|0:0,0:0:0:0:
133,272,50380,2,0,P|126:226|147:154,1,90,2|10,0:0|0:0,0:0:0:0:
188,111,51012,2,0,P|233:104|306:125,2,90,0|0|0,0:0|0:0|0:0,0:0:0:0:
100,89,51959,1,0,0:0:0:0:
56,168,52275,6,0,L|52:275,1,90,6|10,0:0|0:0,0:0:0:0:
127,309,52907,2,0,B|170:297|170:297|213:250,1,90,2|10,0:0|0:0,0:0:0:0:
234,180,53538,2,0,L|230:73,1,90,2|10,0:0|0:0,0:0:0:0:
303,37,54170,1,2,0:0:0:0:
386,71,54486,1,10,0:0:0:0:
400,113,54643,1,0,0:0:0:0:
410,157,54801,6,0,L|416:262,1,90,2|10,0:0|0:0,0:0:0:0:
342,299,55433,2,0,B|295:308|295:308|248:303,1,90,2|10,0:0|0:0,0:0:0:0:
175,258,56064,2,0,L|169:153,1,90,2|10,0:0|0:0,0:0:0:0:
243,116,56696,1,2,0:0:0:0:
331,111,57012,1,10,0:0:0:0:
366,140,57170,1,2,0:0:0:0:
397,173,57328,6,0,P|405:243|392:282,1,90,2|10,0:0|0:0,0:0:0:0:
316,230,57959,2,0,P|308:300|321:339,1,90,2|10,0:0|0:0,0:0:0:0:
231,358,58591,2,0,L|98:367,1,90,2|10,0:0|0:0,0:0:0:0:
60,324,59222,1,2,0:0:0:0:
49,234,59538,1,10,0:0:0:0:
59,190,59696,1,0,0:0:0:0:
84,152,59854,6,0,B|142:128|142:128|197:141|197:141|236:187,1,180,2|2,0:0|0:0,0:0:0:0:
256,192,61117,12,2,62380,0:0:0:0:
336,276,63012,6,0,P|344:220|292:168,1,90,8|0,0:0|0:0,0:0:0:0:
257,137,63643,2,0,L|101:129,1,90,2|0,0:0|0:0,0:0:0:0:
76,126,64275,1,8,3:1:0:0:
55,305,64907,6,0,P|96:324|173:302,1,90,2|0,0:0|0:0,0:0:0:0:
227,300,65538,2,0,P|294:289|346:301,1,90,8|0,0:0|0:0,0:0:0:0:
396,330,66170,1,2,0:0:0:0:
432,154,66801,1,8,3:1:0:0:
284,50,67433,6,0,L|141:63,1,90,2|8,0:0|0:0,0:0:0:0:
121,111,68064,2,0,L|100:240,1,90,0|8,0:0|0:0,0:0:0:0:
126,288,68696,2,0,P|227:332|305:286,1,180,0|0,0:0|0:0,0:0:0:0:
330,228,69643,1,8,0:0:0:0:
299,143,69959,6,0,L|294:34,2,90,2|2|2,0:0|0:0|0:0,0:0:0:0:
286,232,70907,1,2,0:0:0:0:
218,290,71222,2,0,B|174:278|129:296|129:296|84:276|32:289,1,180,2|0,0:0|0:0,0:0:0:0:
108,122,72486,6,0,L|121:12,1,90,6|0,0:0|0:0,0:0:0:0:
222,179,73433,1,0,0:0:0:0:
222,179,73749,2,0,L|209:289,1,90,0|0,0:0|0:0,0:0:0:0:
280,326,74380,1,8,0:0:0:0:
369,316,74696,1,8,0:0:0:0:
428,248,75012,6,0,L|416:141,1,90,6|0,0:0|0:0,0:0:0:0:
261,69,75959,1,0,0:0:0:0:
261,69,76275,2,0,L|273:176,1,90,0|0,0:0|0:0,0:0:0:0:
238,242,76907,1,8,0:0:0:0:
151,266,77222,1,8,0:0:0:0:
65,236,77538,6,0,P|52:163|93:85,1,90,6|0,0:0|0:0,0:0:0:0:
124,90,78170,1,0,0:0:0:0:
210,115,78486,1,0,0:0:0:0:
298,128,78801,2,0,L|480:107,2,180,6|0|6,0:0|0:0|0:0,0:0:0:0:
298,128,80696,1,6,0:0:0:0:
164,249,81328,6,0,B|156:294|156:294|164:349,1,90,2|2,0:0|0:0,0:0:0:0:
240,292,81959,2,0,B|246:248|246:248|238:203,1,90,2|2,0:0|0:0,0:0:0:0:
198,121,82591,6,0,P|178:83|185:30,1,90,6|0,0:0|0:0,0:0:0:0:
357,76,83538,1,0,0:0:0:0:
357,76,83854,2,0,B|401:72|401:72|462:86,1,90,2|0,0:0|0:0,0:0:0:0:
450,172,84485,1,0,0:0:0:0:
412,254,84801,1,0,0:0:0:0:
333,301,85117,6,0,L|234:310,1,90,6|0,0:0|0:0,0:0:0:0:
77,238,86064,1,0,0:0:0:0:
77,238,86380,2,0,L|176:229,1,90,2|0,0:0|0:0,0:0:0:0:
243,181,87012,1,2,0:0:0:0:
256,92,87327,1,0,0:0:0:0:
175,53,87643,6,0,B|129:49|129:49|71:61,2,90,4|2|2,0:0|0:0|0:0,0:0:0:0:
256,92,88591,1,2,0:0:0:0:
337,53,88907,2,0,B|383:49|383:49|441:61,2,90,6|2|2,0:0|0:0|0:0,0:0:0:0:
256,92,89854,1,2,0:0:0:0:
205,166,90170,6,0,P|195:226|209:267,1,90,6|2,0:0|0:0,0:0:0:0:
271,311,90801,2,0,L|399:317,1,90,2|2,0:0|0:0,0:0:0:0:
404,236,91433,2,0,L|276:230,1,90,2|2,0:0|0:0,0:0:0:0:
224,226,92064,2,0,L|96:220,1,90,2|2,0:0|0:0,0:0:0:0:
44,214,92696,1,2,0:0:0:0:
44,214,93959,5,2,0:0:0:0:
100,42,94591,1,8,0:0:0:0:
188,27,94907,1,8,0:0:0:0:
230,40,95064,1,0,0:0:0:0:
270,61,95222,6,0,P|282:102|263:169,1,90,6|10,0:0|0:0,0:0:0:0:
219,219,95854,1,2,0:0:0:0:
226,308,96170,1,10,0:0:0:0:
305,350,96486,2,0,L|422:358,2,90,2|10|2,0:0|0:0|0:0,0:0:0:0:
226,308,97433,1,10,0:0:0:0:
139,284,97749,6,0,P|128:249|137:194,1,90,4|10,0:0|0:0,0:0:0:0:
164,162,98222,1,0,0:0:0:0:
189,124,98380,2,0,B|204:89|204:89|186:11,1,90,6|10,0:0|0:0,0:0:0:0:
149,23,98854,1,0,0:0:0:0:
104,30,99012,2,0,L|14:42,2,90,6|10|6,0:0|0:0|0:0,0:0:0:0:
284,29,100275,6,0,L|293:136,1,90,6|10,0:0|0:0,0:0:0:0:
344,192,100907,1,0,0:0:0:0:
347,281,101222,1,10,0:0:0:0:
280,342,101538,2,0,P|219:348|167:328,1,90,2|10,0:0|0:0,0:0:0:0:
154,315,102012,1,0,0:0:0:0:
121,284,102170,1,2,0:0:0:0:
113,194,102486,1,10,0:0:0:0:
148,111,102801,6,0,P|220:99|271:119,1,90,2|10,0:0|0:0,0:0:0:0:
276,121,103275,1,0,0:0:0:0:
318,134,103433,2,0,B|389:139|389:139|474:103,2,135,2|2|0,0:0|0:0|0:0,0:0:0:0:
232,161,104696,2,0,L|223:272,1,90,0|0,0:0|0:0,0:0:0:0:
184,331,105328,6,0,P|127:340|72:322,1,90,6|10,0:0|0:0,0:0:0:0:
54,253,105959,1,2,0:0:0:0:
58,163,106275,1,10,0:0:0:0:
108,88,106591,2,0,B|155:81|155:81|223:97,1,90,2|10,0:0|0:0,0:0:0:0:
276,132,107222,1,2,0:0:0:0:
362,108,107538,1,10,0:0:0:0:
324,26,107854,6,0,P|273:17|207:38,1,90,6|10,0:0|0:0,0:0:0:0:
195,45,108328,1,0,0:0:0:0:
168,81,108486,2,0,L|155:174,1,90,6|10,0:0|0:0,0:0:0:0:
150,214,108959,1,0,0:0:0:0:
154,258,109117,2,0,B|173:306|173:306|168:358,2,90,6|10|6,0:0|0:0|0:0,0:0:0:0:
319,187,110380,6,0,P|383:172|476:196,2,135,6|2|0,0:0|0:0|0:0,0:0:0:0:
232,211,111643,2,0,B|189:219|189:219|118:210,1,90,0|0,0:0|0:0,0:0:0:0:
107,185,112117,1,2,0:0:0:0:
79,149,112275,2,0,P|83:84|128:54,1,90,10|2,0:0|0:0,0:0:0:0:
186,51,112907,6,0,L|248:55,2,45,2|2|10,0:0|0:0|0:0,0:0:0:0:
211,137,113538,2,0,L|242:178,2,45,2|2|10,0:0|0:0|0:0,0:0:0:0:
146,199,114170,2,0,P|139:263|166:316,1,90,2|2,3:1|3:1,0:0:0:0:
230,318,114801,2,0,L|358:323,1,90,2|10,0:0|0:0,0:0:0:0:
410,323,115433,1,6,0:0:0:0:
256,192,115749,12,0,120170,0:0:0:0:
