osu file format v14

[General]
AudioFilename: audio.mp3
AudioLeadIn: 0
PreviewTime: 96100
Countdown: 0
SampleSet: Normal
StackLeniency: 0.7
Mode: 1
LetterboxInBreaks: 0
WidescreenStoryboard: 0

[Editor]
DistanceSpacing: 1
BeatDivisor: 4
GridSize: 8
TimelineZoom: 1

[Metadata]
Title:Oshama Scramble!
TitleUnicode:Oshama Scramble!
Artist:t+pazolite
ArtistUnicode:t+pazolite
Creator:GNKait
Version:Oni
Source:maimai ORANGE PLUS
Tags:SEGA Ponko2 Girlish 3rd Album CHUNITHM
BeatmapID:1165351
BeatmapSetID:549757

[Difficulty]
HPDrainRate:6
CircleSize:2
OverallDifficulty:6
ApproachRate:5
SliderMultiplier:1.4
SliderTickRate:1

[Events]
//Background and Video events
0,0,"BG.jpg",0,0
//Break Periods
//Storyboard Layer 0 (Background)
//Storyboard Layer 1 (Fail)
//Storyboard Layer 2 (Pass)
//Storyboard Layer 3 (Foreground)
//Storyboard Sound Samples

[TimingPoints]
45,315.789473684211,4,1,0,85,1,0
21518,-125,4,1,0,50,0,0
31623,-111.111111111111,4,1,0,60,0,0
36676,-105.263157894737,4,1,0,70,0,0
40466,-102.040816326531,4,1,0,80,0,0
42045,-100,4,1,0,80,0,0
42518,-66.6666666666667,4,1,0,80,0,0
42992,-100,4,1,0,100,0,1
51834,-100,4,1,0,75,0,0
53097,-100,4,1,0,100,0,1
61939,-100,4,1,0,75,0,0
63202,-125,4,1,0,50,0,0
68255,-111.111111111111,4,1,0,60,0,0
73308,-100,4,1,0,90,0,1
83413,-100,4,1,0,75,0,0
88466,-100,4,1,0,85,0,0
90992,-100,4,1,0,95,0,0
96045,-100,4,1,0,100,0,1
116255,-117.647058823529,4,1,0,60,0,0
120676,-80,4,1,0,85,0,0

[HitObjects]
255,190,1308,5,2,0:0:0:0:
255,190,1623,1,2,0:0:0:0:
255,190,1939,1,2,0:0:0:0:
255,190,2255,1,2,0:0:0:0:
255,190,2571,1,2,0:0:0:0:
255,190,2887,1,2,0:0:0:0:
255,190,3202,1,2,0:0:0:0:
256,192,3518,1,2,0:0:0:0:
255,190,3834,1,2,0:0:0:0:
255,190,4150,1,2,0:0:0:0:
256,192,4466,1,2,0:0:0:0:
255,190,4781,1,2,0:0:0:0:
255,190,5097,1,2,0:0:0:0:
256,192,5413,1,2,0:0:0:0:
255,190,5729,1,2,0:0:0:0:
256,192,6045,1,2,0:0:0:0:
256,192,6360,1,4,0:0:0:0:
256,192,6676,1,0,0:0:0:0:
256,192,6992,1,0,0:0:0:0:
256,192,7308,1,0,0:0:0:0:
256,192,7623,1,0,0:0:0:0:
256,192,7781,1,0,0:0:0:0:
256,192,7939,1,0,0:0:0:0:
256,192,8097,1,0,0:0:0:0:
256,192,8255,1,0,0:0:0:0:
256,192,8413,1,0,0:0:0:0:
256,192,8571,1,0,0:0:0:0:
256,192,8729,1,0,0:0:0:0:
256,192,8887,1,0,0:0:0:0:
256,192,8966,1,0,0:0:0:0:
256,192,9045,1,0,0:0:0:0:
256,192,9123,1,0,0:0:0:0:
256,192,9202,1,2,0:0:0:0:
256,192,9360,1,0,0:0:0:0:
256,192,9518,1,2,0:0:0:0:
256,192,9597,1,2,0:0:0:0:
256,192,9676,1,0,0:0:0:0:
256,192,9755,1,0,0:0:0:0:
256,192,9834,1,2,0:0:0:0:
256,192,9992,1,0,0:0:0:0:
256,192,10150,1,0,0:0:0:0:
256,192,10781,1,0,0:0:0:0:
256,192,11097,1,6,0:0:0:0:
256,192,11413,1,0,0:0:0:0:
256,192,11650,1,2,0:0:0:0:
256,192,11729,1,0,0:0:0:0:
256,192,11887,1,2,0:0:0:0:
256,192,12045,1,0,0:0:0:0:
256,192,12202,1,2,0:0:0:0:
256,192,12281,1,2,0:0:0:0:
256,192,12360,1,0,0:0:0:0:
256,192,12518,1,2,0:0:0:0:
256,192,12676,1,0,0:0:0:0:
256,192,12755,1,0,0:0:0:0:
256,192,12834,1,0,0:0:0:0:
256,192,12992,1,2,0:0:0:0:
256,192,13150,1,2,0:0:0:0:
256,192,13308,1,0,0:0:0:0:
256,192,13466,1,0,0:0:0:0:
256,192,13545,1,2,0:0:0:0:
256,192,13623,1,0,0:0:0:0:
256,192,13781,1,2,0:0:0:0:
256,192,13939,1,0,0:0:0:0:
256,192,14176,1,2,0:0:0:0:
256,192,14255,1,0,0:0:0:0:
256,192,14413,1,2,0:0:0:0:
256,192,14571,1,0,0:0:0:0:
256,192,14729,1,2,0:0:0:0:
256,192,14808,1,2,0:0:0:0:
256,192,14887,1,0,0:0:0:0:
256,192,15045,1,2,0:0:0:0:
256,192,15202,1,0,0:0:0:0:
256,192,15281,1,0,0:0:0:0:
256,192,15360,1,0,0:0:0:0:
256,192,15518,1,2,0:0:0:0:
256,192,15676,1,2,0:0:0:0:
256,192,15834,1,0,0:0:0:0:
256,192,16150,1,2,0:0:0:0:
256,192,16308,1,2,0:0:0:0:
256,192,16466,1,0,0:0:0:0:
256,192,16702,1,2,0:0:0:0:
256,192,16781,1,0,0:0:0:0:
256,192,16939,1,2,0:0:0:0:
256,192,17097,1,0,0:0:0:0:
256,192,17255,1,2,0:0:0:0:
256,192,17334,1,2,0:0:0:0:
256,192,17413,1,0,0:0:0:0:
256,192,17571,1,2,0:0:0:0:
256,192,17729,1,0,0:0:0:0:
256,192,17808,1,0,0:0:0:0:
256,192,17887,1,0,0:0:0:0:
256,192,18045,1,2,0:0:0:0:
256,192,18202,1,2,0:0:0:0:
256,192,18360,1,0,0:0:0:0:
256,192,18518,1,0,0:0:0:0:
256,192,18597,1,2,0:0:0:0:
256,192,18676,1,0,0:0:0:0:
256,192,18834,1,2,0:0:0:0:
256,192,18992,1,0,0:0:0:0:
256,192,19150,1,0,0:0:0:0:
256,192,19308,1,2,0:0:0:0:
256,192,19466,1,2,0:0:0:0:
256,192,19623,1,0,0:0:0:0:
256,192,19781,1,0,0:0:0:0:
256,192,19939,1,2,0:0:0:0:
256,192,20097,1,0,0:0:0:0:
256,192,20255,1,2,0:0:0:0:
256,192,20334,1,2,0:0:0:0:
256,192,20413,1,0,0:0:0:0:
256,192,20492,1,0,0:0:0:0:
224,176,20571,1,2,0:0:0:0:
256,192,20729,1,0,0:0:0:0:
256,192,20808,1,0,0:0:0:0:
256,192,20887,1,0,0:0:0:0:
256,192,21202,1,6,0:0:0:0:
256,192,21518,1,0,0:0:0:0:
256,192,21834,1,2,0:0:0:0:
256,192,21992,1,0,0:0:0:0:
256,192,22308,1,0,0:0:0:0:
256,192,22623,1,2,0:0:0:0:
256,192,23097,1,0,0:0:0:0:
256,192,23255,1,0,0:0:0:0:
256,192,23413,1,2,0:0:0:0:
256,192,23729,1,2,0:0:0:0:
256,192,24045,1,0,0:0:0:0:
256,192,24360,1,2,0:0:0:0:
256,192,24518,1,0,0:0:0:0:
256,192,24834,1,2,0:0:0:0:
256,192,25150,1,0,0:0:0:0:
256,192,25623,1,0,0:0:0:0:
256,192,25939,1,2,0:0:0:0:
256,192,26097,1,2,0:0:0:0:
256,192,26255,1,2,0:0:0:0:
256,192,26571,1,0,0:0:0:0:
256,192,26887,1,2,0:0:0:0:
256,192,27045,1,0,0:0:0:0:
256,192,27360,1,0,0:0:0:0:
256,192,27676,1,2,0:0:0:0:
256,192,28150,1,0,0:0:0:0:
256,192,28308,1,0,0:0:0:0:
256,192,28466,1,2,0:0:0:0:
256,192,28781,1,2,0:0:0:0:
256,192,28939,1,2,0:0:0:0:
256,192,29097,1,0,0:0:0:0:
256,192,29413,1,2,0:0:0:0:
256,192,29571,1,0,0:0:0:0:
256,192,29887,1,2,0:0:0:0:
256,192,30202,1,0,0:0:0:0:
256,192,30676,1,0,0:0:0:0:
256,192,30834,1,0,0:0:0:0:
256,192,30992,1,2,0:0:0:0:
256,192,31308,1,2,0:0:0:0:
256,192,31623,1,4,0:0:0:0:
256,192,31781,1,2,0:0:0:0:
256,192,31860,1,2,0:0:0:0:
256,192,31939,1,0,0:0:0:0:
256,192,32097,1,2,0:0:0:0:
256,192,32413,1,0,0:0:0:0:
256,192,32729,1,2,0:0:0:0:
256,192,32887,1,0,0:0:0:0:
256,192,33045,1,2,0:0:0:0:
256,192,33123,1,2,0:0:0:0:
256,192,33202,1,0,0:0:0:0:
256,192,33360,1,2,0:0:0:0:
256,192,33676,1,0,0:0:0:0:
256,192,33992,1,0,0:0:0:0:
256,192,34150,1,4,0:0:0:0:
256,192,34387,1,0,0:0:0:0:
256,192,34466,1,2,0:0:0:0:
256,192,34623,1,2,0:0:0:0:
256,192,34781,1,4,0:0:0:0:
256,192,35018,1,0,0:0:0:0:
256,192,35097,1,2,0:0:0:0:
256,192,35255,1,0,0:0:0:0:
256,192,35413,1,4,0:0:0:0:
256,192,35571,1,2,0:0:0:0:
256,192,35729,1,4,0:0:0:0:
256,192,35887,1,2,0:0:0:0:
256,192,36045,1,4,0:0:0:0:
256,192,36360,1,2,0:0:0:0:
256,192,36518,1,2,0:0:0:0:
256,192,36676,1,4,0:0:0:0:
256,192,36834,1,2,0:0:0:0:
256,192,36913,1,2,0:0:0:0:
256,192,36992,1,0,0:0:0:0:
256,192,37150,1,2,0:0:0:0:
256,192,37466,1,0,0:0:0:0:
256,192,37781,1,0,0:0:0:0:
256,192,37939,1,0,0:0:0:0:
256,192,38097,1,2,0:0:0:0:
256,192,38176,1,2,0:0:0:0:
256,192,38255,1,0,0:0:0:0:
256,192,38413,1,2,0:0:0:0:
256,192,38571,1,0,0:0:0:0:
256,192,38808,1,0,0:0:0:0:
256,192,39045,1,0,0:0:0:0:
256,192,39202,1,4,0:0:0:0:
256,192,39439,1,2,0:0:0:0:
256,192,39518,1,2,0:0:0:0:
256,192,39676,1,2,0:0:0:0:
256,192,39834,1,4,0:0:0:0:
256,192,40071,1,2,0:0:0:0:
256,192,40150,1,2,0:0:0:0:
256,192,40308,1,0,0:0:0:0:
256,192,40466,1,0,0:0:0:0:
256,192,40623,1,0,0:0:0:0:
256,192,40781,1,2,0:0:0:0:
256,192,40939,1,0,0:0:0:0:
256,192,41097,1,2,0:0:0:0:
256,192,41176,1,2,0:0:0:0:
256,192,41255,1,0,0:0:0:0:
256,192,41413,1,2,0:0:0:0:
256,192,41492,1,2,0:0:0:0:
256,192,41571,1,0,0:0:0:0:
256,192,41650,1,0,0:0:0:0:
256,192,41729,1,0,0:0:0:0:
256,192,42202,1,0,0:0:0:0:
256,192,42281,1,0,0:0:0:0:
256,192,42360,1,0,0:0:0:0:
256,192,42676,1,6,0:0:0:0:
256,192,42992,1,0,0:0:0:0:
256,192,43150,1,2,0:0:0:0:
256,192,43229,1,2,0:0:0:0:
256,192,43308,1,0,0:0:0:0:
256,192,43466,1,2,0:0:0:0:
256,192,43623,1,0,0:0:0:0:
256,192,43781,1,2,0:0:0:0:
256,192,43860,1,2,0:0:0:0:
256,192,43939,1,0,0:0:0:0:
256,192,44097,1,2,0:0:0:0:
256,192,44255,1,0,0:0:0:0:
256,192,44413,1,2,0:0:0:0:
256,192,44492,1,2,0:0:0:0:
256,192,44571,1,0,0:0:0:0:
256,192,44887,1,2,0:0:0:0:
256,192,45045,1,0,0:0:0:0:
256,192,45202,1,2,0:0:0:0:
256,192,45360,1,2,0:0:0:0:
256,192,45518,1,0,0:0:0:0:
256,192,45676,1,2,0:0:0:0:
256,192,45755,1,0,0:0:0:0:
256,192,45834,1,0,0:0:0:0:
256,192,45992,1,2,0:0:0:0:
256,192,46150,1,0,0:0:0:0:
256,192,46308,1,2,0:0:0:0:
256,192,46387,1,0,0:0:0:0:
256,192,46466,1,0,0:0:0:0:
256,192,46623,1,2,0:0:0:0:
256,192,46781,1,0,0:0:0:0:
256,192,47097,1,0,0:0:0:0:
256,192,47255,1,0,0:0:0:0:
256,192,47334,1,0,0:0:0:0:
256,192,47413,1,2,0:0:0:0:
256,192,47571,1,2,0:0:0:0:
256,192,47729,1,0,0:0:0:0:
256,192,47887,1,0,0:0:0:0:
256,192,48045,1,0,0:0:0:0:
256,192,48202,1,2,0:0:0:0:
256,192,48281,1,2,0:0:0:0:
256,192,48360,1,0,0:0:0:0:
256,192,48518,1,2,0:0:0:0:
256,192,48676,1,0,0:0:0:0:
256,192,48834,1,2,0:0:0:0:
256,192,48913,1,2,0:0:0:0:
256,192,48992,1,0,0:0:0:0:
256,192,49150,1,2,0:0:0:0:
256,192,49308,1,0,0:0:0:0:
256,192,49466,1,2,0:0:0:0:
256,192,49545,1,2,0:0:0:0:
256,192,49623,1,0,0:0:0:0:
256,192,49939,1,2,0:0:0:0:
256,192,50097,1,0,0:0:0:0:
256,192,50255,1,2,0:0:0:0:
256,192,50413,1,2,0:0:0:0:
256,192,50571,1,0,0:0:0:0:
256,192,50729,1,2,0:0:0:0:
256,192,50808,1,0,0:0:0:0:
256,192,50887,1,0,0:0:0:0:
256,192,51045,1,2,0:0:0:0:
256,192,51202,1,0,0:0:0:0:
256,192,51360,1,2,0:0:0:0:
256,192,51439,1,0,0:0:0:0:
256,192,51518,1,0,0:0:0:0:
256,192,51676,1,2,0:0:0:0:
256,192,51834,12,2,52781,0:0:0:0:
256,192,53097,5,0,0:0:0:0:
256,192,53176,1,0,0:0:0:0:
256,192,53334,1,2,0:0:0:0:
256,192,53413,1,0,0:0:0:0:
256,192,53571,1,2,0:0:0:0:
256,192,53729,1,0,0:0:0:0:
256,192,53808,1,0,0:0:0:0:
256,192,53966,1,2,0:0:0:0:
256,192,54045,1,0,0:0:0:0:
256,192,54202,1,2,0:0:0:0:
256,192,54360,1,0,0:0:0:0:
256,192,54439,1,0,0:0:0:0:
256,192,54597,1,2,0:0:0:0:
256,192,54676,1,0,0:0:0:0:
256,192,54992,1,2,0:0:0:0:
256,192,55150,1,0,0:0:0:0:
256,192,55308,1,2,0:0:0:0:
256,192,55466,1,2,0:0:0:0:
256,192,55623,1,0,0:0:0:0:
256,192,55702,1,2,0:0:0:0:
256,192,55860,1,2,0:0:0:0:
256,192,55939,1,0,0:0:0:0:
256,192,56097,1,2,0:0:0:0:
256,192,56255,1,0,0:0:0:0:
256,192,56334,1,2,0:0:0:0:
256,192,56492,1,2,0:0:0:0:
256,192,56571,1,0,0:0:0:0:
256,192,56729,1,2,0:0:0:0:
256,192,56887,1,0,0:0:0:0:
256,192,57202,1,2,0:0:0:0:
256,192,57360,1,2,0:0:0:0:
256,192,57439,1,2,0:0:0:0:
256,192,57518,1,0,0:0:0:0:
256,192,57676,1,0,0:0:0:0:
256,192,57834,1,2,0:0:0:0:
256,192,57992,1,0,0:0:0:0:
256,192,58150,1,0,0:0:0:0:
256,192,58229,1,0,0:0:0:0:
256,192,58387,1,2,0:0:0:0:
256,192,58466,1,0,0:0:0:0:
256,192,58623,1,2,0:0:0:0:
256,192,58781,1,0,0:0:0:0:
256,192,58860,1,0,0:0:0:0:
256,192,59018,1,2,0:0:0:0:
256,192,59097,1,0,0:0:0:0:
256,192,59255,1,2,0:0:0:0:
256,192,59413,1,0,0:0:0:0:
256,192,59492,1,0,0:0:0:0:
256,192,59650,1,2,0:0:0:0:
256,192,59729,1,0,0:0:0:0:
256,192,60045,1,2,0:0:0:0:
256,192,60202,1,0,0:0:0:0:
256,192,60360,1,2,0:0:0:0:
256,192,60518,1,2,0:0:0:0:
256,192,60676,1,0,0:0:0:0:
256,192,60834,1,0,0:0:0:0:
256,192,60913,1,0,0:0:0:0:
256,192,60992,1,2,0:0:0:0:
256,192,61150,1,2,0:0:0:0:
256,192,61308,1,0,0:0:0:0:
256,192,61387,1,0,0:0:0:0:
256,192,61466,1,2,0:0:0:0:
256,192,61545,1,2,0:0:0:0:
256,192,61623,1,2,0:0:0:0:
256,192,61781,1,2,0:0:0:0:
256,192,61860,1,2,0:0:0:0:
256,192,61939,1,0,0:0:0:0:
256,192,62255,12,0,62887,0:0:0:0:
256,192,63202,5,4,0:0:0:0:
256,192,63676,1,0,0:0:0:0:
256,192,63834,1,2,0:0:0:0:
256,192,64150,1,2,0:0:0:0:
256,192,64466,1,0,0:0:0:0:
256,192,64781,1,2,0:0:0:0:
256,192,64939,1,2,0:0:0:0:
256,192,65097,1,0,0:0:0:0:
256,192,65413,1,0,0:0:0:0:
256,192,65571,1,2,0:0:0:0:
256,192,65729,1,0,0:0:0:0:
256,192,66202,1,0,0:0:0:0:
256,192,66360,1,2,0:0:0:0:
256,192,66676,1,0,0:0:0:0:
256,192,66992,1,0,0:0:0:0:
256,192,67308,1,2,0:0:0:0:
256,192,67623,1,4,0:0:0:0:
256,192,67939,1,4,0:0:0:0:
256,192,68255,1,0,0:0:0:0:
256,192,68571,1,2,0:0:0:0:
256,192,69045,1,0,0:0:0:0:
256,192,69202,1,2,0:0:0:0:
256,192,69518,1,0,0:0:0:0:
256,192,69676,1,2,0:0:0:0:
256,192,69834,1,0,0:0:0:0:
256,192,70150,1,0,0:0:0:0:
256,192,70466,1,2,0:0:0:0:
256,192,70781,1,0,0:0:0:0:
256,192,70939,1,0,0:0:0:0:
256,192,71097,1,0,0:0:0:0:
256,192,71255,1,0,0:0:0:0:
256,192,71413,1,0,0:0:0:0:
256,192,71492,1,0,0:0:0:0:
256,192,71571,1,0,0:0:0:0:
256,192,71650,1,0,0:0:0:0:
256,192,71729,1,2,0:0:0:0:
256,192,71808,1,2,0:0:0:0:
256,192,71887,1,0,0:0:0:0:
256,192,72045,1,4,0:0:0:0:
256,192,72202,1,2,0:0:0:0:
256,192,72281,1,0,0:0:0:0:
256,192,72360,1,2,0:0:0:0:
256,192,72518,1,0,0:0:0:0:
256,192,72676,1,2,0:0:0:0:
256,192,72834,1,2,0:0:0:0:
256,192,72992,1,0,0:0:0:0:
256,192,73150,1,0,0:0:0:0:
256,192,73308,12,0,74255,0:0:0:0:
256,192,74571,5,0,0:0:0:0:
256,192,74729,1,0,0:0:0:0:
256,192,74808,1,0,0:0:0:0:
256,192,75045,1,0,0:0:0:0:
256,192,75202,1,2,0:0:0:0:
256,192,75281,1,2,0:0:0:0:
256,192,75360,1,0,0:0:0:0:
256,192,75518,1,2,0:0:0:0:
256,192,75597,1,2,0:0:0:0:
256,192,75676,1,0,0:0:0:0:
256,192,75834,12,0,76781,0:0:0:0:
256,192,77097,5,0,0:0:0:0:
256,192,77255,1,0,0:0:0:0:
256,192,77334,1,2,0:0:0:0:
256,192,77413,1,0,0:0:0:0:
256,192,77492,1,2,0:0:0:0:
256,192,77571,1,0,0:0:0:0:
256,192,77729,1,2,0:0:0:0:
256,192,77808,1,2,0:0:0:0:
256,192,77887,1,0,0:0:0:0:
256,192,78045,1,2,0:0:0:0:
256,192,78202,1,2,0:0:0:0:
256,192,78281,1,2,0:0:0:0:
256,192,78360,12,0,78992,0:0:0:0:
256,192,79308,5,2,0:0:0:0:
256,192,79466,1,2,0:0:0:0:
256,192,79545,1,2,0:0:0:0:
256,192,79623,12,0,80255,0:0:0:0:
256,192,80571,5,2,0:0:0:0:
256,192,80650,1,2,0:0:0:0:
256,192,80729,1,0,0:0:0:0:
256,192,80887,1,0,0:0:0:0:
256,192,81123,1,0,0:0:0:0:
256,192,81202,1,2,0:0:0:0:
256,192,81360,1,0,0:0:0:0:
256,192,81518,1,2,0:0:0:0:
256,192,81834,1,2,0:0:0:0:
256,192,81992,1,2,0:0:0:0:
256,192,82071,1,2,0:0:0:0:
256,192,82150,1,0,0:0:0:0:
256,192,82308,1,0,0:0:0:0:
256,192,82387,1,0,0:0:0:0:
256,192,82466,1,2,0:0:0:0:
312,152,82623,1,0,0:0:0:0:
256,192,82781,1,0,0:0:0:0:
256,192,82939,1,2,0:0:0:0:
256,192,83097,1,6,0:0:0:0:
256,192,83413,1,0,0:0:0:0:
256,192,83650,1,0,0:0:0:0:
256,192,83729,1,0,0:0:0:0:
256,192,83887,1,2,0:0:0:0:
256,192,84202,1,2,0:0:0:0:
256,192,84360,1,0,0:0:0:0:
256,192,84518,1,2,0:0:0:0:
256,192,84676,1,0,0:0:0:0:
256,192,84913,1,0,0:0:0:0:
256,192,84992,1,0,0:0:0:0:
256,192,85150,1,2,0:0:0:0:
256,192,85308,1,0,0:0:0:0:
256,192,85387,1,2,0:0:0:0:
256,192,85466,1,2,0:0:0:0:
256,192,85623,1,0,0:0:0:0:
256,192,85939,1,0,0:0:0:0:
256,192,86176,1,0,0:0:0:0:
256,192,86255,1,0,0:0:0:0:
256,192,86413,1,2,0:0:0:0:
256,192,86571,1,0,0:0:0:0:
256,192,86808,1,0,0:0:0:0:
256,192,86887,1,2,0:0:0:0:
256,192,87045,1,2,0:0:0:0:
256,192,87202,1,0,0:0:0:0:
256,192,87281,1,0,0:0:0:0:
256,192,87360,1,0,0:0:0:0:
256,192,87518,1,2,0:0:0:0:
256,192,87676,1,2,0:0:0:0:
256,192,87755,1,2,0:0:0:0:
256,192,87834,1,0,0:0:0:0:
256,192,88150,1,2,0:0:0:0:
256,192,88229,1,2,0:0:0:0:
256,192,88308,1,0,0:0:0:0:
256,192,88466,1,0,0:0:0:0:
256,192,88623,1,2,0:0:0:0:
256,192,88702,1,0,0:0:0:0:
256,192,88781,1,0,0:0:0:0:
256,192,88939,1,2,0:0:0:0:
256,192,89097,1,0,0:0:0:0:
256,192,89255,1,2,0:0:0:0:
256,192,89334,1,0,0:0:0:0:
256,192,89413,1,0,0:0:0:0:
256,192,89571,1,2,0:0:0:0:
256,192,89729,1,0,0:0:0:0:
256,192,89887,1,2,0:0:0:0:
256,192,89966,1,2,0:0:0:0:
256,192,90045,1,0,0:0:0:0:
256,192,90202,1,2,0:0:0:0:
256,192,90360,1,0,0:0:0:0:
256,192,90518,1,2,0:0:0:0:
256,192,90597,1,2,0:0:0:0:
256,192,90676,1,2,0:0:0:0:
256,192,90834,1,2,0:0:0:0:
256,192,90992,1,0,0:0:0:0:
256,192,91308,1,0,0:0:0:0:
256,192,91466,1,0,0:0:0:0:
256,192,91623,1,2,0:0:0:0:
256,192,91781,1,2,0:0:0:0:
256,192,91939,1,2,0:0:0:0:
256,192,92097,1,2,0:0:0:0:
256,192,92255,1,0,0:0:0:0:
256,192,92334,1,0,0:0:0:0:
256,192,92413,1,0,0:0:0:0:
256,192,92571,1,2,0:0:0:0:
256,192,92650,1,2,0:0:0:0:
256,192,92729,1,0,0:0:0:0:
256,192,92808,1,0,0:0:0:0:
256,192,92887,1,0,0:0:0:0:
256,192,93045,1,2,0:0:0:0:
256,192,93202,1,0,0:0:0:0:
256,192,93281,1,0,0:0:0:0:
256,192,93360,1,2,0:0:0:0:
256,192,93518,12,0,94466,0:0:0:0:
256,192,94781,5,0,0:0:0:0:
256,192,95097,1,2,0:0:0:0:
256,192,95255,1,2,0:0:0:0:
256,192,95413,1,0,0:0:0:0:
256,192,95492,1,0,0:0:0:0:
256,192,95571,1,0,0:0:0:0:
256,192,95729,1,6,0:0:0:0:
256,192,96045,1,0,0:0:0:0:
256,192,96281,1,2,0:0:0:0:
256,192,96360,1,0,0:0:0:0:
256,192,96518,1,2,0:0:0:0:
232,176,96676,1,0,0:0:0:0:
256,192,96755,1,0,0:0:0:0:
256,192,96834,1,0,0:0:0:0:
256,192,96992,1,2,0:0:0:0:
256,192,97150,1,0,0:0:0:0:
256,192,97308,1,2,0:0:0:0:
256,192,97387,1,2,0:0:0:0:
256,192,97466,1,0,0:0:0:0:
256,192,97623,1,2,0:0:0:0:
256,192,97781,1,0,0:0:0:0:
256,192,97860,1,2,0:0:0:0:
256,192,97939,1,0,0:0:0:0:
256,192,98255,1,2,0:0:0:0:
256,192,98413,1,2,0:0:0:0:
256,192,98571,1,0,0:0:0:0:
256,192,98808,1,2,0:0:0:0:
256,192,98887,1,0,0:0:0:0:
256,192,99045,1,2,0:0:0:0:
256,192,99202,1,0,0:0:0:0:
256,192,99439,1,2,0:0:0:0:
256,192,99518,1,0,0:0:0:0:
256,192,99676,1,2,0:0:0:0:
256,192,99834,1,0,0:0:0:0:
256,192,99992,1,2,0:0:0:0:
256,192,100071,1,0,0:0:0:0:
256,192,100150,1,2,0:0:0:0:
256,192,100308,1,0,0:0:0:0:
256,192,100466,1,2,0:0:0:0:
256,192,100781,1,6,0:0:0:0:
256,192,101097,1,0,0:0:0:0:
256,192,101334,1,2,0:0:0:0:
256,192,101413,1,0,0:0:0:0:
256,192,101571,1,2,0:0:0:0:
256,192,101729,1,0,0:0:0:0:
256,192,101808,1,0,0:0:0:0:
256,192,101887,1,0,0:0:0:0:
256,192,102045,1,2,0:0:0:0:
256,192,102202,1,0,0:0:0:0:
256,192,102360,1,2,0:0:0:0:
256,192,102518,1,0,0:0:0:0:
256,192,102597,1,0,0:0:0:0:
256,192,102676,1,2,0:0:0:0:
256,192,102834,1,2,0:0:0:0:
256,192,102992,1,0,0:0:0:0:
256,192,103308,1,0,0:0:0:0:
256,192,103466,1,2,0:0:0:0:
256,192,103623,1,0,0:0:0:0:
256,192,103939,1,2,0:0:0:0:
256,192,104097,1,2,0:0:0:0:
256,192,104255,1,0,0:0:0:0:
256,192,104413,1,2,0:0:0:0:
256,192,104492,1,2,0:0:0:0:
256,192,104571,1,0,0:0:0:0:
256,192,104729,1,0,0:0:0:0:
256,192,105045,1,2,0:0:0:0:
256,192,105360,1,2,0:0:0:0:
256,192,105676,1,0,0:0:0:0:
256,192,105834,1,2,0:0:0:0:
256,192,105913,1,2,0:0:0:0:
256,192,105992,1,2,0:0:0:0:
256,192,106071,1,2,0:0:0:0:
256,192,106150,1,0,0:0:0:0:
256,192,106387,1,2,0:0:0:0:
256,192,106466,1,0,0:0:0:0:
256,192,106623,1,2,0:0:0:0:
256,192,106781,1,0,0:0:0:0:
256,192,106860,1,0,0:0:0:0:
256,192,106939,1,0,0:0:0:0:
256,192,107097,1,2,0:0:0:0:
256,192,107255,1,0,0:0:0:0:
256,192,107413,1,2,0:0:0:0:
256,192,107492,1,2,0:0:0:0:
256,192,107571,1,0,0:0:0:0:
256,192,107729,1,2,0:0:0:0:
256,192,107887,1,0,0:0:0:0:
256,192,107966,1,2,0:0:0:0:
256,192,108045,1,0,0:0:0:0:
256,192,108360,1,2,0:0:0:0:
256,192,108518,1,2,0:0:0:0:
256,192,108676,1,0,0:0:0:0:
256,192,108913,1,2,0:0:0:0:
256,192,108992,1,0,0:0:0:0:
256,192,109150,1,2,0:0:0:0:
256,192,109229,1,0,0:0:0:0:
256,192,109308,1,0,0:0:0:0:
256,192,109545,1,2,0:0:0:0:
256,192,109623,1,0,0:0:0:0:
256,192,109781,1,2,0:0:0:0:
256,192,109860,1,2,0:0:0:0:
256,192,109939,1,0,0:0:0:0:
256,192,110097,1,2,0:0:0:0:
256,192,110176,1,0,0:0:0:0:
256,192,110255,1,2,0:0:0:0:
256,192,110413,1,0,0:0:0:0:
256,192,110571,1,2,0:0:0:0:
256,192,110887,1,6,0:0:0:0:
256,192,111202,1,0,0:0:0:0:
256,192,111518,1,2,0:0:0:0:
256,192,111676,1,0,0:0:0:0:
256,192,111992,1,0,0:0:0:0:
256,192,112071,1,2,0:0:0:0:
256,192,112150,1,0,0:0:0:0:
256,192,112308,1,2,0:0:0:0:
256,192,112623,1,0,0:0:0:0:
256,192,112702,1,0,0:0:0:0:
256,192,112781,1,2,0:0:0:0:
256,192,112939,1,2,0:0:0:0:
256,192,113097,1,2,0:0:0:0:
256,192,113413,1,2,0:0:0:0:
256,192,113571,1,0,0:0:0:0:
256,192,113729,1,2,0:0:0:0:
256,192,113887,1,0,0:0:0:0:
256,192,113966,1,0,0:0:0:0:
256,192,114045,1,2,0:0:0:0:
256,192,114202,1,0,0:0:0:0:
256,192,114360,1,2,0:0:0:0:
256,192,114439,1,2,0:0:0:0:
256,192,114518,1,0,0:0:0:0:
256,192,114597,1,0,0:0:0:0:
256,192,114676,1,0,0:0:0:0:
256,192,114834,1,0,0:0:0:0:
256,192,114992,1,2,0:0:0:0:
256,192,115150,1,0,0:0:0:0:
256,192,115229,1,0,0:0:0:0:
256,192,115308,1,2,0:0:0:0:
256,192,115466,1,0,0:0:0:0:
256,192,115545,1,0,0:0:0:0:
256,192,115623,1,0,0:0:0:0:
256,192,115939,1,6,0:0:0:0:
256,192,116255,12,6,120360,0:0:0:0:
255,191,120992,5,2,0:0:0:0:
