osu file format v14

[General]
AudioFilename: audio.mp3
AudioLeadIn: 0
PreviewTime: 96100
Countdown: 0
SampleSet: Normal
StackLeniency: 0.7
Mode: 1
LetterboxInBreaks: 0
WidescreenStoryboard: 0

[Editor]
DistanceSpacing: 1
BeatDivisor: 2
GridSize: 8
TimelineZoom: 0.9

[Metadata]
Title:Oshama Scramble!
TitleUnicode:Oshama Scramble!
Artist:t+pazolite
ArtistUnicode:t+pazolite
Creator:GNKait
Version:Futsuu
Source:maimai ORANGE PLUS
Tags:SEGA Ponko2 Girlish 3rd Album CHUNITHM
BeatmapID:1165591
BeatmapSetID:549757

[Difficulty]
HPDrainRate:6
CircleSize:5
OverallDifficulty:4
ApproachRate:5
SliderMultiplier:1.4
SliderTickRate:1

[Events]
//Background and Video events
0,0,"BG.jpg",0,0
//Break Periods
//Storyboard Layer 0 (Background)
//Storyboard Layer 1 (Fail)
//Storyboard Layer 2 (Pass)
//Storyboard Layer 3 (Foreground)
//Storyboard Sound Samples

[TimingPoints]
45,315.789473684211,4,1,0,85,1,0
21518,-100,4,1,0,50,0,0
31623,-100,4,1,0,60,0,0
36676,-100,4,1,0,70,0,0
40466,-100,4,1,0,80,0,0
42992,-100,4,1,0,100,0,1
51834,-100,4,1,0,75,0,0
53097,-100,4,1,0,100,0,1
61939,-100,4,1,0,75,0,0
63202,-100,4,1,0,50,0,0
68255,-100,4,1,0,60,0,0
73308,-100,4,1,0,90,0,1
83413,-100,4,1,0,75,0,0
88466,-100,4,1,0,85,0,0
90992,-100,4,1,0,95,0,0
96045,-100,4,1,0,100,0,1
116255,-100,4,1,0,60,0,0

[HitObjects]
256,191,1308,5,2,0:0:0:0:
256,191,1939,1,2,0:0:0:0:
256,191,2571,1,2,0:0:0:0:
256,191,3202,1,2,0:0:0:0:
256,191,3834,1,2,0:0:0:0:
256,191,4466,1,2,0:0:0:0:
256,191,5097,1,2,0:0:0:0:
256,191,5729,1,2,0:0:0:0:
256,191,6360,1,4,0:0:0:0:
256,191,6992,1,0,0:0:0:0:
256,191,7623,1,0,0:0:0:0:
256,191,8255,1,0,0:0:0:0:
256,191,8571,1,0,0:0:0:0:
256,191,8887,1,0,0:0:0:0:
256,191,9045,1,0,0:0:0:0:
256,191,9202,1,0,0:0:0:0:
256,191,9518,1,0,0:0:0:0:
256,191,9676,1,0,0:0:0:0:
256,191,9834,1,0,0:0:0:0:
256,191,10150,1,0,0:0:0:0:
256,191,11097,1,6,0:0:0:0:
256,191,11413,1,0,0:0:0:0:
256,191,11729,1,0,0:0:0:0:
256,191,11887,1,0,0:0:0:0:
256,191,12202,1,0,0:0:0:0:
256,191,12518,1,2,0:0:0:0:
256,191,12676,1,0,0:0:0:0:
256,191,12992,1,2,0:0:0:0:
256,191,13308,1,0,0:0:0:0:
256,191,13939,1,0,0:0:0:0:
256,191,14255,1,0,0:0:0:0:
256,191,14413,1,0,0:0:0:0:
256,191,14729,1,2,0:0:0:0:
256,191,15045,1,2,0:0:0:0:
256,191,15202,1,0,0:0:0:0:
256,191,15518,1,0,0:0:0:0:
256,191,15834,1,2,0:0:0:0:
256,191,16466,1,0,0:0:0:0:
256,191,16781,1,0,0:0:0:0:
256,191,16939,1,0,0:0:0:0:
256,191,17255,1,0,0:0:0:0:
256,191,17571,1,2,0:0:0:0:
256,191,17729,1,0,0:0:0:0:
256,191,18045,1,2,0:0:0:0:
256,191,18360,1,0,0:0:0:0:
256,191,18992,1,0,0:0:0:0:
256,191,19308,1,0,0:0:0:0:
256,191,19623,1,0,0:0:0:0:
256,191,19939,1,0,0:0:0:0:
256,191,20097,1,0,0:0:0:0:
256,192,20255,12,0,20887,0:0:0:0:
256,191,21202,5,6,0:0:0:0:
256,191,21518,1,0,0:0:0:0:
256,191,22150,1,2,0:0:0:0:
256,191,22781,1,0,0:0:0:0:
256,191,23097,1,0,0:0:0:0:
256,191,23413,1,2,0:0:0:0:
256,191,24045,1,0,0:0:0:0:
256,191,24676,1,2,0:0:0:0:
256,191,25308,1,0,0:0:0:0:
256,191,25623,1,2,0:0:0:0:
256,191,25781,1,2,0:0:0:0:
256,191,25939,1,2,0:0:0:0:
256,191,26571,1,0,0:0:0:0:
256,191,27202,1,2,0:0:0:0:
256,191,27834,1,0,0:0:0:0:
256,191,28150,1,2,0:0:0:0:
256,191,28466,1,2,0:0:0:0:
256,191,29097,1,0,0:0:0:0:
256,191,29729,1,2,0:0:0:0:
256,191,30202,1,0,0:0:0:0:
256,191,30992,1,2,0:0:0:0:
256,191,31308,1,2,0:0:0:0:
256,191,31623,1,4,0:0:0:0:
256,191,32255,1,2,0:0:0:0:
256,191,32887,1,2,0:0:0:0:
256,191,33202,1,0,0:0:0:0:
256,191,33518,1,2,0:0:0:0:
256,191,33834,1,2,0:0:0:0:
256,191,34150,1,4,0:0:0:0:
256,191,34781,1,4,0:0:0:0:
256,191,35413,1,4,0:0:0:0:
256,191,35729,1,4,0:0:0:0:
256,191,36045,1,4,0:0:0:0:
256,191,36676,1,4,0:0:0:0:
256,191,36992,1,2,0:0:0:0:
256,191,37466,1,0,0:0:0:0:
256,191,37781,1,0,0:0:0:0:
256,191,37939,1,0,0:0:0:0:
256,191,38571,1,0,0:0:0:0:
256,191,38887,1,2,0:0:0:0:
256,191,39202,1,4,0:0:0:0:
256,191,39834,1,4,0:0:0:0:
256,191,40466,1,0,0:0:0:0:
256,191,40623,1,0,0:0:0:0:
256,191,40781,1,0,0:0:0:0:
256,191,41097,1,2,0:0:0:0:
256,191,41413,1,2,0:0:0:0:
256,191,41571,1,0,0:0:0:0:
256,192,41729,12,0,42360,0:0:0:0:
254,191,42992,5,0,0:0:0:0:
254,191,43308,1,0,0:0:0:0:
254,191,43623,1,2,0:0:0:0:
254,191,44255,1,0,0:0:0:0:
254,191,44571,1,0,0:0:0:0:
254,191,44887,1,2,0:0:0:0:
254,191,45045,1,0,0:0:0:0:
254,191,45202,1,2,0:0:0:0:
254,191,45518,1,0,0:0:0:0:
254,191,45834,1,0,0:0:0:0:
254,191,46150,1,2,0:0:0:0:
254,191,46781,1,0,0:0:0:0:
254,191,47097,1,0,0:0:0:0:
254,191,47255,1,2,0:0:0:0:
254,191,47413,1,0,0:0:0:0:
254,191,47729,1,2,0:0:0:0:
254,191,48045,1,0,0:0:0:0:
254,191,48360,1,0,0:0:0:0:
254,191,48676,1,2,0:0:0:0:
254,191,49308,1,0,0:0:0:0:
254,191,49623,1,0,0:0:0:0:
254,191,49939,1,2,0:0:0:0:
254,191,50097,1,0,0:0:0:0:
254,191,50255,1,2,0:0:0:0:
254,191,50571,1,0,0:0:0:0:
254,191,50887,1,0,0:0:0:0:
254,191,51202,1,2,0:0:0:0:
256,192,51834,12,0,52781,0:0:0:0:
254,191,53097,5,4,0:0:0:0:
254,191,53729,1,2,0:0:0:0:
254,191,54045,1,2,0:0:0:0:
254,191,54360,1,0,0:0:0:0:
254,191,54676,1,0,0:0:0:0:
254,191,54992,1,2,0:0:0:0:
254,191,55150,1,2,0:0:0:0:
254,191,55308,1,2,0:0:0:0:
254,191,55623,1,0,0:0:0:0:
254,191,56255,1,2,0:0:0:0:
254,191,56571,1,2,0:0:0:0:
254,191,56887,1,0,0:0:0:0:
254,191,57202,1,0,0:0:0:0:
254,191,57360,1,2,0:0:0:0:
254,191,57518,1,0,0:0:0:0:
254,191,57834,1,2,0:0:0:0:
254,191,58150,1,0,0:0:0:0:
254,191,58781,1,2,0:0:0:0:
254,191,59097,1,2,0:0:0:0:
254,191,59413,1,0,0:0:0:0:
254,191,59729,1,0,0:0:0:0:
254,191,60045,1,2,0:0:0:0:
254,191,60202,1,2,0:0:0:0:
254,191,60360,1,2,0:0:0:0:
254,191,60676,1,0,0:0:0:0:
254,191,60992,1,0,0:0:0:0:
254,191,61308,1,2,0:0:0:0:
254,191,61623,1,2,0:0:0:0:
254,191,61781,1,2,0:0:0:0:
254,191,61939,1,0,0:0:0:0:
256,192,62255,12,0,62887,0:0:0:0:
256,192,63202,5,4,0:0:0:0:
256,192,63518,5,2,0:0:0:0:
256,192,63676,1,0,0:0:0:0:
256,192,63834,1,2,0:0:0:0:
256,192,64150,1,2,0:0:0:0:
256,192,64466,1,0,0:0:0:0:
256,192,65097,1,2,0:0:0:0:
256,192,65729,1,0,0:0:0:0:
256,192,66045,1,0,0:0:0:0:
256,192,66202,1,0,0:0:0:0:
256,192,66360,1,2,0:0:0:0:
256,192,66676,1,2,0:0:0:0:
256,192,66992,1,0,0:0:0:0:
256,192,67623,1,4,0:0:0:0:
256,192,67939,1,4,0:0:0:0:
256,192,68255,1,0,0:0:0:0:
248,192,68571,1,2,0:0:0:0:
248,192,68729,1,0,0:0:0:0:
248,192,68887,1,2,0:0:0:0:
248,192,69202,1,2,0:0:0:0:
248,192,69518,1,0,0:0:0:0:
248,192,70150,1,2,0:0:0:0:
248,192,70466,1,2,0:0:0:0:
248,192,70781,1,0,0:0:0:0:
248,192,71097,1,0,0:0:0:0:
248,192,71413,1,0,0:0:0:0:
248,192,71571,1,0,0:0:0:0:
248,192,71729,1,0,0:0:0:0:
248,192,72045,1,4,0:0:0:0:
256,192,73308,12,0,74255,0:0:0:0:
256,192,74571,5,0,0:0:0:0:
256,192,75202,1,2,0:0:0:0:
256,192,75518,1,2,0:0:0:0:
256,192,75834,12,0,76781,0:0:0:0:
256,192,77097,5,0,0:0:0:0:
256,192,77729,1,2,0:0:0:0:
256,192,78045,1,2,0:0:0:0:
256,192,78202,1,2,0:0:0:0:
256,192,78360,12,0,78992,0:0:0:0:
256,192,79308,5,2,0:0:0:0:
256,192,79623,12,0,80255,0:0:0:0:
256,192,80571,5,2,0:0:0:0:
256,192,80887,5,0,0:0:0:0:
256,192,81518,1,2,0:0:0:0:
256,192,81834,1,2,0:0:0:0:
256,192,81992,1,2,0:0:0:0:
256,192,82150,1,0,0:0:0:0:
256,192,82466,1,0,0:0:0:0:
256,192,82781,1,2,0:0:0:0:
256,192,83097,1,6,0:0:0:0:
256,192,83413,1,0,0:0:0:0:
256,192,84045,1,0,0:0:0:0:
256,192,84360,1,0,0:0:0:0:
256,192,84676,1,0,0:0:0:0:
256,192,85308,1,0,0:0:0:0:
256,192,85939,1,2,0:0:0:0:
256,192,86571,1,2,0:0:0:0:
256,192,86887,1,2,0:0:0:0:
256,192,87202,1,2,0:0:0:0:
256,192,87834,1,2,0:0:0:0:
256,192,88466,1,0,0:0:0:0:
256,192,88781,1,2,0:0:0:0:
256,192,89097,1,0,0:0:0:0:
256,192,89255,1,0,0:0:0:0:
256,192,89413,1,2,0:0:0:0:
256,192,89729,1,0,0:0:0:0:
256,192,90045,1,2,0:0:0:0:
256,192,90360,1,0,0:0:0:0:
256,192,90518,1,2,0:0:0:0:
256,192,90676,1,2,0:0:0:0:
256,192,90992,1,0,0:0:0:0:
256,192,91623,1,2,0:0:0:0:
256,192,91939,1,2,0:0:0:0:
256,192,92255,1,0,0:0:0:0:
256,192,92413,1,0,0:0:0:0:
256,192,92571,1,0,0:0:0:0:
256,192,92887,1,0,0:0:0:0:
256,192,93202,1,0,0:0:0:0:
256,192,93360,1,2,0:0:0:0:
256,192,93518,12,0,94466,0:0:0:0:
256,192,94781,5,0,0:0:0:0:
256,192,95729,5,6,0:0:0:0:
256,192,96045,1,0,0:0:0:0:
256,192,96676,1,0,0:0:0:0:
256,192,96992,1,0,0:0:0:0:
256,192,97150,1,0,0:0:0:0:
256,192,97308,1,2,0:0:0:0:
256,192,97623,1,0,0:0:0:0:
256,192,97939,1,2,0:0:0:0:
256,192,98255,1,2,0:0:0:0:
256,192,98571,1,0,0:0:0:0:
256,192,99202,1,2,0:0:0:0:
256,192,99518,1,2,0:0:0:0:
256,192,99834,1,0,0:0:0:0:
256,192,99992,1,2,0:0:0:0:
256,192,100150,1,0,0:0:0:0:
256,192,100466,1,2,0:0:0:0:
256,192,101097,1,0,0:0:0:0:
256,192,101729,1,0,0:0:0:0:
256,192,102045,1,0,0:0:0:0:
256,192,102202,1,0,0:0:0:0:
256,192,102360,1,2,0:0:0:0:
256,192,102676,1,0,0:0:0:0:
256,192,102992,1,2,0:0:0:0:
256,192,103308,1,2,0:0:0:0:
256,192,103623,1,0,0:0:0:0:
256,192,103939,1,2,0:0:0:0:
256,192,104413,1,2,0:0:0:0:
256,192,104571,1,2,0:0:0:0:
256,192,104729,1,0,0:0:0:0:
256,192,105045,1,2,0:0:0:0:
256,192,105360,1,2,0:0:0:0:
256,192,105676,1,2,0:0:0:0:
256,192,106150,1,0,0:0:0:0:
256,192,106466,1,2,0:0:0:0:
256,192,106781,1,0,0:0:0:0:
256,192,107097,1,0,0:0:0:0:
256,192,107255,1,0,0:0:0:0:
256,192,107413,1,2,0:0:0:0:
256,192,107729,1,0,0:0:0:0:
256,192,108045,1,2,0:0:0:0:
256,192,108676,1,0,0:0:0:0:
256,192,108992,1,0,0:0:0:0:
256,192,109308,1,2,0:0:0:0:
256,192,109623,1,2,0:0:0:0:
256,192,109939,1,0,0:0:0:0:
256,192,110097,1,2,0:0:0:0:
256,192,110255,1,0,0:0:0:0:
256,192,110571,1,2,0:0:0:0:
256,192,111202,1,0,0:0:0:0:
256,192,111676,1,0,0:0:0:0:
256,192,111992,1,0,0:0:0:0:
256,192,112308,1,2,0:0:0:0:
256,192,112781,1,0,0:0:0:0:
256,192,113097,1,2,0:0:0:0:
256,192,113413,1,0,0:0:0:0:
256,192,113729,1,2,0:0:0:0:
256,192,114045,1,2,0:0:0:0:
256,192,114360,1,0,0:0:0:0:
256,192,114518,1,0,0:0:0:0:
256,192,114676,1,0,0:0:0:0:
256,192,114992,1,2,0:0:0:0:
256,192,115308,1,2,0:0:0:0:
256,192,115466,1,0,0:0:0:0:
256,192,115623,1,0,0:0:0:0:
256,192,115939,1,6,0:0:0:0:
256,192,116255,12,6,120992,0:0:0:0:
