osu file format v14

[General]
AudioFilename: audio.mp3
AudioLeadIn: 0
PreviewTime: 95906
Countdown: 0
SampleSet: None
StackLeniency: 0.7
Mode: 1
LetterboxInBreaks: 0
WidescreenStoryboard: 1

[Editor]
Bookmarks: 31,8031,16031,24031,32031,40031,48031,56031,64031,72031,80031,88031,96031,104031,112031,120031,128031,136031,144031,152031,160031,168031,176031,184031,192031,200031,208031,216031,224031,232031,240031
DistanceSpacing: 0.7
BeatDivisor: 4
GridSize: 32
TimelineZoom: 2.699999

[Metadata]
Title:Ofcourse I neeD and neEd and nEed and Need and NEED YOU.
TitleUnicode:Ofcourse I neeD and neEd and nEed and Need and NEED YOU.
Artist:t+pazolite
ArtistUnicode:t+pazolite
Creator:Greenshell
Version:Reliance (No SV)
Source:
Tags:HARDCORE TANO*C SYNDROME X TCPLUS-0020 TCPLUS-0021 Comiket 90 C90 tpz
BeatmapID:1748259
BeatmapSetID:834581

[Difficulty]
HPDrainRate:6
CircleSize:3
OverallDifficulty:7
ApproachRate:10
SliderMultiplier:1.4
SliderTickRate:1

[Events]
//Background and Video events
0,0,"Ofcourse I NEED THIS BG.png",0,0
//Break Periods
2,60031,63531
//Storyboard Layer 0 (Background)
//Storyboard Layer 1 (Fail)
//Storyboard Layer 2 (Pass)
//Storyboard Layer 3 (Foreground)
//Storyboard Sound Samples

[TimingPoints]
31,250,4,1,0,50,1,0
31,-133.333333333333,4,1,0,50,0,0
15531,-133.333333333333,4,1,0,40,0,0
16031,-100,4,1,0,75,0,0
20031,-100,4,1,0,80,0,0
23781,-100,4,1,0,90,0,0
24031,-100,4,1,0,75,0,0
27531,-100,4,1,0,85,0,0
27781,-100,4,1,0,85,0,0
28031,-100,4,1,0,75,0,0
35531,-100,4,1,0,85,0,0
35781,-100,4,1,0,85,0,0
36031,-100,4,1,0,75,0,0
39781,-100,4,1,0,90,0,0
40031,-100,4,1,0,80,0,0
43531,-100,4,1,0,85,0,0
43781,-100,4,1,0,85,0,0
44031,-100,4,1,0,80,0,0
51531,-100,4,1,0,85,0,0
51781,-100,4,1,0,85,0,0
52031,-100,4,1,0,80,0,0
52781,-100,4,1,0,85,0,0
53031,-100,4,1,0,80,0,0
53781,-100,4,1,0,85,0,0
54031,-100,4,1,0,80,0,0
54281,-100,4,1,0,85,0,0
54406,-100,4,1,0,80,0,0
56156,-74.0740740740741,4,1,0,60,0,0
57031,-86.9565217391304,4,1,0,60,0,0
58031,-105.263157894737,4,1,0,60,0,0
58906,-133.333333333333,4,1,0,30,0,0
64031,-133.333333333333,4,1,0,50,0,0
72031,-100,4,1,0,75,0,0
88031,-100,4,1,0,60,0,0
90031,-100,4,1,0,65,0,0
91031,-100,4,1,0,70,0,0
92031,-100,4,1,0,80,0,0
94906,-100,4,1,0,90,0,0
95156,-100,4,1,0,80,0,0
95281,-100,4,1,0,83,0,0
95406,-100,4,1,0,87,0,0
95531,-100,4,1,0,90,0,0
95656,-100,4,1,0,93,0,0
95781,-100,4,1,0,100,0,0
96031,-100,4,1,0,90,0,1
128031,-100,4,1,0,80,0,0
128093,-133.333333333333,4,1,0,50,0,0
136031,-100,4,1,0,75,0,0
143781,-100,4,1,0,90,0,0
144031,-100,4,1,0,80,0,0
160031,-100,4,1,0,100,0,1
163531,-100,4,1,0,100,0,0
164031,-100,4,1,0,100,0,1
167031,-100,4,1,0,80,0,0
167781,-100,4,1,0,90,0,0
168031,-100,4,1,0,80,0,0
175781,-100,4,1,0,90,0,0
176031,-100,4,1,0,75,0,0
184031,-100,4,1,0,80,0,0
190906,-100,4,1,0,90,0,0
191156,-100,4,1,0,80,0,0
191281,-100,4,1,0,83,0,0
191406,-100,4,1,0,87,0,0
191531,-100,4,1,0,90,0,0
191656,-100,4,1,0,93,0,0
191781,-100,4,1,0,100,0,0
192031,-100,4,1,0,90,0,1
224031,-100,4,1,0,80,0,0
240156,-71.4285714285714,4,1,0,60,0,0
241031,-83.3333333333333,4,1,0,60,0,0
242031,-111.111111111111,4,1,0,50,0,0
242281,-133.333333333333,4,1,0,40,0,0
242531,-133.333333333333,4,1,0,30,0,0
242781,-133.333333333333,4,1,0,20,0,0
242906,-133.333333333333,4,1,0,10,0,0

[HitObjects]
288,160,31,5,8,0:0:0:0:
224,160,781,1,0,0:0:0:0:
288,160,1031,1,8,0:0:0:0:
288,160,1531,1,8,0:0:0:0:
288,160,2031,1,8,0:0:0:0:
224,160,2781,1,0,0:0:0:0:
288,160,3031,1,8,0:0:0:0:
224,160,3531,1,0,0:0:0:0:
288,160,4031,1,8,0:0:0:0:
224,160,4781,1,0,0:0:0:0:
288,160,5031,1,8,0:0:0:0:
288,160,5531,1,8,0:0:0:0:
288,160,6031,1,8,0:0:0:0:
224,160,6281,1,0,0:0:0:0:
288,160,6364,1,8,0:0:0:0:
224,160,6447,1,0,0:0:0:0:
288,160,6531,1,8,0:0:0:0:
224,160,6614,1,0,0:0:0:0:
288,160,6697,1,8,0:0:0:0:
224,160,6781,1,0,0:0:0:0:
288,160,6864,1,8,0:0:0:0:
224,160,6947,1,0,0:0:0:0:
288,160,7031,1,8,0:0:0:0:
224,160,7531,1,0,0:0:0:0:
288,160,8031,1,8,0:0:0:0:
224,160,8781,1,0,0:0:0:0:
288,160,9031,1,8,0:0:0:0:
288,160,9531,1,8,0:0:0:0:
224,160,9781,1,0,0:0:0:0:
288,160,10031,1,8,0:0:0:0:
224,160,10781,1,0,0:0:0:0:
288,160,11031,1,8,0:0:0:0:
224,160,11531,1,0,0:0:0:0:
224,160,11781,1,0,0:0:0:0:
288,160,12031,1,8,0:0:0:0:
224,160,12781,1,0,0:0:0:0:
288,160,13031,1,8,0:0:0:0:
288,160,13531,1,8,0:0:0:0:
224,160,13781,1,0,0:0:0:0:
288,160,14031,1,8,0:0:0:0:
224,160,14781,1,0,0:0:0:0:
288,160,15031,1,8,0:0:0:0:
386,121,15531,2,8,B|404:111|404:111|406:109,9,17.5
224,224,16031,1,4,0:0:0:0:
288,160,16281,1,8,0:0:0:0:
288,160,16531,1,8,0:0:0:0:
224,160,16781,1,0,0:0:0:0:
288,160,16906,1,8,0:0:0:0:
224,160,17031,1,0,0:0:0:0:
288,160,17156,1,8,0:0:0:0:
224,160,17281,1,0,0:0:0:0:
288,160,17531,1,8,0:0:0:0:
224,160,17781,1,0,0:0:0:0:
288,160,17906,1,8,0:0:0:0:
224,224,18031,1,4,0:0:0:0:
288,160,18281,1,8,0:0:0:0:
288,160,18531,1,8,0:0:0:0:
224,160,18781,1,0,0:0:0:0:
288,160,18906,1,8,0:0:0:0:
224,160,19031,1,0,0:0:0:0:
288,160,19156,1,8,0:0:0:0:
224,160,19281,1,0,0:0:0:0:
288,160,19531,1,8,0:0:0:0:
288,160,19781,1,8,0:0:0:0:
288,160,19906,1,8,0:0:0:0:
224,224,20031,1,4,0:0:0:0:
288,160,20156,1,8,0:0:0:0:
288,160,20281,1,8,0:0:0:0:
224,160,20406,1,0,0:0:0:0:
224,160,20468,1,0,0:0:0:0:
288,160,20531,1,8,0:0:0:0:
288,160,20656,1,8,0:0:0:0:
224,224,20781,1,4,0:0:0:0:
288,160,20906,1,8,0:0:0:0:
224,160,21031,1,0,0:0:0:0:
288,160,21093,1,8,0:0:0:0:
224,160,21156,1,0,0:0:0:0:
224,160,21218,1,0,0:0:0:0:
288,160,21281,1,8,0:0:0:0:
224,160,21406,1,0,0:0:0:0:
288,160,21531,1,8,0:0:0:0:
288,160,21593,1,8,0:0:0:0:
224,160,21656,1,0,0:0:0:0:
224,160,21718,1,0,0:0:0:0:
288,160,21781,1,8,0:0:0:0:
288,160,21906,1,8,0:0:0:0:
224,160,22031,1,0,0:0:0:0:
288,160,22093,1,8,0:0:0:0:
288,160,22156,1,8,0:0:0:0:
288,160,22218,1,8,0:0:0:0:
224,160,22281,1,0,0:0:0:0:
288,160,22343,1,8,0:0:0:0:
224,160,22406,1,0,0:0:0:0:
224,160,22468,1,0,0:0:0:0:
288,160,22531,1,8,0:0:0:0:
288,160,22593,1,8,0:0:0:0:
224,160,22656,1,0,0:0:0:0:
224,160,22718,1,0,0:0:0:0:
288,160,22781,1,8,0:0:0:0:
224,160,22843,1,0,0:0:0:0:
288,160,22906,1,8,0:0:0:0:
224,224,23031,1,4,0:0:0:0:
288,224,23781,1,12,0:0:0:0:
224,224,24031,1,4,0:0:0:0:
224,160,24281,1,0,0:0:0:0:
288,160,24406,1,8,0:0:0:0:
224,160,24531,1,0,0:0:0:0:
288,160,24781,1,8,0:0:0:0:
224,160,25031,1,0,0:0:0:0:
288,160,25156,1,8,0:0:0:0:
288,160,25218,1,8,0:0:0:0:
288,160,25281,1,8,0:0:0:0:
224,160,25406,1,0,0:0:0:0:
288,160,25531,1,8,0:0:0:0:
288,160,25593,1,8,0:0:0:0:
224,160,25656,1,0,0:0:0:0:
288,160,25781,1,8,0:0:0:0:
224,160,26031,1,0,0:0:0:0:
224,160,26281,1,0,0:0:0:0:
288,160,26406,1,8,0:0:0:0:
224,160,26531,1,0,0:0:0:0:
288,160,26781,1,8,0:0:0:0:
224,160,27031,1,0,0:0:0:0:
288,160,27156,1,8,0:0:0:0:
288,160,27281,1,8,0:0:0:0:
224,160,27406,1,0,0:0:0:0:
224,224,27531,1,4,0:0:0:0:
288,224,27781,1,12,0:0:0:0:
224,224,28031,1,4,0:0:0:0:
224,160,28281,1,0,0:0:0:0:
288,160,28406,1,8,0:0:0:0:
224,160,28531,1,0,0:0:0:0:
288,160,28781,1,8,0:0:0:0:
224,160,29031,1,0,0:0:0:0:
288,160,29156,1,8,0:0:0:0:
288,160,29218,1,8,0:0:0:0:
288,160,29281,1,8,0:0:0:0:
224,160,29406,1,0,0:0:0:0:
288,160,29531,1,8,0:0:0:0:
288,160,29593,1,8,0:0:0:0:
288,160,29656,1,8,0:0:0:0:
224,160,29781,1,0,0:0:0:0:
224,160,30031,1,0,0:0:0:0:
224,160,30281,1,0,0:0:0:0:
288,160,30406,1,8,0:0:0:0:
224,160,30531,1,0,0:0:0:0:
288,160,30781,1,8,0:0:0:0:
224,160,31031,1,0,0:0:0:0:
224,160,31281,1,0,0:0:0:0:
288,160,31406,1,8,0:0:0:0:
224,160,31531,1,0,0:0:0:0:
288,160,31593,1,8,0:0:0:0:
224,160,31656,1,0,0:0:0:0:
224,160,31718,1,0,0:0:0:0:
288,160,31781,1,8,0:0:0:0:
288,160,31906,1,8,0:0:0:0:
224,224,32031,1,4,0:0:0:0:
224,160,32281,1,0,0:0:0:0:
288,160,32406,1,8,0:0:0:0:
224,160,32531,1,0,0:0:0:0:
224,160,32656,1,0,0:0:0:0:
224,160,32718,1,0,0:0:0:0:
288,160,32781,1,8,0:0:0:0:
224,160,33031,1,0,0:0:0:0:
288,160,33156,1,8,0:0:0:0:
288,160,33218,1,8,0:0:0:0:
288,160,33281,1,8,0:0:0:0:
224,160,33406,1,0,0:0:0:0:
288,160,33531,1,8,0:0:0:0:
288,160,33593,1,8,0:0:0:0:
224,160,33656,1,0,0:0:0:0:
224,160,33718,1,0,0:0:0:0:
288,160,33781,1,8,0:0:0:0:
224,160,34031,1,0,0:0:0:0:
224,160,34281,1,0,0:0:0:0:
288,160,34406,1,8,0:0:0:0:
224,160,34531,1,0,0:0:0:0:
224,160,34656,1,0,0:0:0:0:
224,160,34718,1,0,0:0:0:0:
288,160,34781,1,8,0:0:0:0:
224,160,35031,1,0,0:0:0:0:
288,160,35156,1,8,0:0:0:0:
288,160,35281,1,8,0:0:0:0:
224,160,35406,1,0,0:0:0:0:
224,224,35531,1,4,0:0:0:0:
288,224,35781,1,12,0:0:0:0:
224,224,36031,1,4,0:0:0:0:
224,160,36281,1,0,0:0:0:0:
288,160,36406,1,8,0:0:0:0:
224,160,36531,1,0,0:0:0:0:
224,160,36656,1,0,0:0:0:0:
224,160,36718,1,0,0:0:0:0:
288,160,36781,1,8,0:0:0:0:
224,160,37031,1,0,0:0:0:0:
288,160,37156,1,8,0:0:0:0:
288,160,37218,1,8,0:0:0:0:
288,160,37281,1,8,0:0:0:0:
224,160,37406,1,0,0:0:0:0:
288,160,37531,1,8,0:0:0:0:
288,160,37593,1,8,0:0:0:0:
288,160,37656,1,8,0:0:0:0:
288,160,37718,1,8,0:0:0:0:
224,160,37781,1,0,0:0:0:0:
224,160,38031,1,0,0:0:0:0:
288,160,38281,1,8,0:0:0:0:
288,160,38343,1,8,0:0:0:0:
288,160,38406,1,8,0:0:0:0:
224,160,38531,1,0,0:0:0:0:
288,160,38656,1,8,0:0:0:0:
224,160,38781,1,0,0:0:0:0:
288,160,38843,1,8,0:0:0:0:
224,160,38906,1,0,0:0:0:0:
288,224,39031,1,12,0:0:0:0:
288,224,39781,1,12,0:0:0:0:
224,224,40031,1,4,0:0:0:0:
224,160,40156,1,0,0:0:0:0:
224,160,40218,1,0,0:0:0:0:
288,160,40281,1,8,0:0:0:0:
288,160,40406,1,8,0:0:0:0:
224,160,40531,1,0,0:0:0:0:
224,160,40656,1,0,0:0:0:0:
288,160,40781,1,8,0:0:0:0:
224,160,41031,1,0,0:0:0:0:
288,160,41093,1,8,0:0:0:0:
224,160,41156,1,0,0:0:0:0:
224,160,41218,1,0,0:0:0:0:
288,160,41281,1,8,0:0:0:0:
288,160,41406,1,8,0:0:0:0:
224,160,41531,1,0,0:0:0:0:
224,160,41593,1,0,0:0:0:0:
288,160,41718,1,8,0:0:0:0:
224,160,41781,1,0,0:0:0:0:
288,160,41906,1,8,0:0:0:0:
224,160,42031,1,0,0:0:0:0:
288,160,42156,1,8,0:0:0:0:
288,160,42218,1,8,0:0:0:0:
224,160,42281,1,0,0:0:0:0:
288,160,42406,1,8,0:0:0:0:
224,160,42531,1,0,0:0:0:0:
224,160,42593,1,0,0:0:0:0:
224,160,42656,1,0,0:0:0:0:
224,160,42718,1,0,0:0:0:0:
288,160,42781,1,8,0:0:0:0:
224,160,42906,1,0,0:0:0:0:
288,160,43031,1,8,0:0:0:0:
224,160,43156,1,0,0:0:0:0:
224,160,43218,1,0,0:0:0:0:
288,160,43281,1,8,0:0:0:0:
288,160,43406,1,8,0:0:0:0:
224,224,43531,1,4,0:0:0:0:
288,224,43781,1,12,0:0:0:0:
224,160,44031,1,0,0:0:0:0:
224,160,44156,1,0,0:0:0:0:
288,160,44218,1,8,0:0:0:0:
224,160,44281,1,0,0:0:0:0:
288,160,44406,1,8,0:0:0:0:
224,160,44531,1,0,0:0:0:0:
288,160,44593,1,8,0:0:0:0:
224,160,44656,1,0,0:0:0:0:
224,160,44718,1,0,0:0:0:0:
288,160,44781,1,8,0:0:0:0:
288,160,44906,1,8,0:0:0:0:
224,160,45031,1,0,0:0:0:0:
288,160,45156,1,8,0:0:0:0:
288,160,45218,1,8,0:0:0:0:
288,160,45281,1,8,0:0:0:0:
224,160,45406,1,0,0:0:0:0:
288,160,45531,1,8,0:0:0:0:
288,160,45593,1,8,0:0:0:0:
224,160,45656,1,0,0:0:0:0:
224,160,45718,1,0,0:0:0:0:
288,160,45781,1,8,0:0:0:0:
224,160,46031,1,0,0:0:0:0:
288,160,46156,1,8,0:0:0:0:
224,160,46218,1,0,0:0:0:0:
224,160,46281,1,0,0:0:0:0:
288,160,46406,1,8,0:0:0:0:
224,160,46531,1,0,0:0:0:0:
288,160,46593,1,8,0:0:0:0:
288,160,46718,1,8,0:0:0:0:
224,160,46781,1,0,0:0:0:0:
288,160,46906,1,8,0:0:0:0:
224,160,47031,1,0,0:0:0:0:
288,160,47093,1,8,0:0:0:0:
288,160,47156,1,8,0:0:0:0:
224,160,47281,1,0,0:0:0:0:
288,160,47406,1,8,0:0:0:0:
224,160,47531,1,0,0:0:0:0:
224,160,47593,1,0,0:0:0:0:
288,160,47656,1,8,0:0:0:0:
224,160,47781,1,0,0:0:0:0:
288,160,47843,1,8,0:0:0:0:
224,160,47906,1,0,0:0:0:0:
224,224,48031,1,4,0:0:0:0:
224,160,48156,1,0,0:0:0:0:
224,160,48218,1,0,0:0:0:0:
288,160,48281,1,8,0:0:0:0:
288,160,48406,1,8,0:0:0:0:
224,160,48531,1,0,0:0:0:0:
224,160,48656,1,0,0:0:0:0:
288,160,48781,1,8,0:0:0:0:
288,160,48843,1,8,0:0:0:0:
224,160,48906,1,0,0:0:0:0:
288,160,48968,1,8,0:0:0:0:
224,160,49031,1,0,0:0:0:0:
288,160,49156,1,8,0:0:0:0:
288,160,49281,1,8,0:0:0:0:
288,160,49343,1,8,0:0:0:0:
224,160,49406,1,0,0:0:0:0:
288,160,49468,1,8,0:0:0:0:
288,160,49531,1,8,0:0:0:0:
224,160,49656,1,0,0:0:0:0:
288,160,49781,1,8,0:0:0:0:
224,160,50031,1,0,0:0:0:0:
288,160,50156,1,8,0:0:0:0:
288,160,50218,1,8,0:0:0:0:
224,160,50281,1,0,0:0:0:0:
288,160,50406,1,8,0:0:0:0:
224,160,50531,1,0,0:0:0:0:
288,160,50593,1,8,0:0:0:0:
288,160,50718,1,8,0:0:0:0:
224,160,50781,1,0,0:0:0:0:
224,160,50843,1,0,0:0:0:0:
288,160,50906,1,8,0:0:0:0:
288,160,51031,1,8,0:0:0:0:
224,160,51156,1,0,0:0:0:0:
224,160,51218,1,0,0:0:0:0:
288,160,51281,1,8,0:0:0:0:
288,160,51343,1,8,0:0:0:0:
224,160,51406,1,0,0:0:0:0:
224,224,51531,1,4,0:0:0:0:
288,224,51781,1,12,0:0:0:0:
224,160,52031,1,0,0:0:0:0:
224,160,52156,1,0,0:0:0:0:
288,160,52281,1,8,0:0:0:0:
224,160,52406,1,0,0:0:0:0:
224,160,52531,1,0,0:0:0:0:
224,160,52656,1,0,0:0:0:0:
288,224,52781,1,12,0:0:0:0:
224,160,53031,1,0,0:0:0:0:
224,160,53156,1,0,0:0:0:0:
288,160,53281,1,8,0:0:0:0:
288,160,53343,1,8,0:0:0:0:
224,160,53406,1,0,0:0:0:0:
288,160,53468,1,8,0:0:0:0:
224,160,53531,1,0,0:0:0:0:
224,160,53656,1,0,0:0:0:0:
288,224,53781,1,12,0:0:0:0:
224,160,54031,1,0,0:0:0:0:
224,160,54156,1,0,0:0:0:0:
288,224,54281,1,12,0:0:0:0:
224,160,54406,1,0,0:0:0:0:
224,160,54468,1,0,0:0:0:0:
224,160,54531,1,0,0:0:0:0:
288,160,54656,1,8,0:0:0:0:
224,160,54781,1,0,0:0:0:0:
288,160,54843,1,8,0:0:0:0:
288,160,54968,1,8,0:0:0:0:
224,160,55031,1,0,0:0:0:0:
288,160,55156,1,8,0:0:0:0:
224,160,55281,1,0,0:0:0:0:
224,160,55343,1,0,0:0:0:0:
288,160,55406,1,8,0:0:0:0:
224,160,55468,1,0,0:0:0:0:
288,160,55531,1,8,0:0:0:0:
288,160,55593,1,8,0:0:0:0:
224,160,55656,1,0,0:0:0:0:
224,160,55718,1,0,0:0:0:0:
288,160,55781,1,8,0:0:0:0:
224,160,55906,1,0,0:0:0:0:
288,224,56031,1,12,0:0:0:0:
256,192,56156,12,0,58906,0:0:0:0:
288,160,64031,5,8,0:0:0:0:
288,160,65031,1,8,0:0:0:0:
288,160,65531,1,8,0:0:0:0:
288,160,66031,1,8,0:0:0:0:
288,160,67031,1,8,0:0:0:0:
288,160,68031,1,8,0:0:0:0:
288,160,69031,1,8,0:0:0:0:
288,160,69531,1,8,0:0:0:0:
288,160,70031,1,8,0:0:0:0:
288,160,71031,1,8,0:0:0:0:
224,224,72031,1,4,0:0:0:0:
224,160,72281,1,0,0:0:0:0:
224,160,72406,1,0,0:0:0:0:
288,160,72531,1,8,0:0:0:0:
288,160,72656,1,8,0:0:0:0:
224,160,72781,1,0,0:0:0:0:
288,160,72906,1,8,0:0:0:0:
224,160,73156,1,0,0:0:0:0:
288,160,73281,1,8,0:0:0:0:
224,160,73406,1,0,0:0:0:0:
288,160,73531,1,8,0:0:0:0:
224,160,73656,1,0,0:0:0:0:
288,160,73718,1,8,0:0:0:0:
224,160,73781,1,0,0:0:0:0:
288,160,73906,1,8,0:0:0:0:
224,160,74031,1,0,0:0:0:0:
224,160,74281,1,0,0:0:0:0:
224,160,74406,1,0,0:0:0:0:
288,160,74531,1,8,0:0:0:0:
288,160,74656,1,8,0:0:0:0:
224,160,74781,1,0,0:0:0:0:
288,160,74906,1,8,0:0:0:0:
224,160,75156,1,0,0:0:0:0:
288,160,75281,1,8,0:0:0:0:
288,160,75406,1,8,0:0:0:0:
288,160,75531,1,8,0:0:0:0:
224,160,75656,1,0,0:0:0:0:
224,160,75718,1,0,0:0:0:0:
288,160,75781,1,8,0:0:0:0:
288,160,75906,1,8,0:0:0:0:
224,160,76031,1,0,0:0:0:0:
224,160,76281,1,0,0:0:0:0:
224,160,76406,1,0,0:0:0:0:
288,160,76531,1,8,0:0:0:0:
224,160,76656,1,0,0:0:0:0:
224,160,76781,1,0,0:0:0:0:
288,160,76906,1,8,0:0:0:0:
224,160,77156,1,0,0:0:0:0:
288,160,77281,1,8,0:0:0:0:
224,160,77406,1,0,0:0:0:0:
288,160,77531,1,8,0:0:0:0:
224,160,77656,1,0,0:0:0:0:
288,160,77718,1,8,0:0:0:0:
224,160,77781,1,0,0:0:0:0:
288,160,77906,1,8,0:0:0:0:
224,160,78031,1,0,0:0:0:0:
224,160,78281,1,0,0:0:0:0:
224,160,78406,1,0,0:0:0:0:
288,160,78531,1,8,0:0:0:0:
224,160,78656,1,0,0:0:0:0:
224,160,78781,1,0,0:0:0:0:
288,160,78906,1,8,0:0:0:0:
224,160,79156,1,0,0:0:0:0:
288,160,79281,1,8,0:0:0:0:
288,160,79406,1,8,0:0:0:0:
224,160,79531,1,0,0:0:0:0:
288,160,79593,1,8,0:0:0:0:
288,160,79656,1,8,0:0:0:0:
224,160,79718,1,0,0:0:0:0:
288,160,79781,1,8,0:0:0:0:
224,160,79906,1,0,0:0:0:0:
224,224,80031,1,4,0:0:0:0:
224,224,80406,1,4,0:0:0:0:
224,224,80781,1,4,0:0:0:0:
224,224,81031,1,4,0:0:0:0:
288,160,81281,1,8,0:0:0:0:
288,160,81406,1,8,0:0:0:0:
224,160,81531,1,0,0:0:0:0:
288,160,81593,1,8,0:0:0:0:
224,160,81656,1,0,0:0:0:0:
288,160,81718,1,8,0:0:0:0:
288,160,81781,1,8,0:0:0:0:
224,160,81906,1,0,0:0:0:0:
288,224,82031,1,12,0:0:0:0:
288,224,82406,1,12,0:0:0:0:
288,224,82781,1,12,0:0:0:0:
288,224,83031,1,12,0:0:0:0:
224,160,83156,1,0,0:0:0:0:
288,160,83281,1,8,0:0:0:0:
288,160,83406,1,8,0:0:0:0:
224,160,83531,1,0,0:0:0:0:
288,160,83593,1,8,0:0:0:0:
224,160,83656,1,0,0:0:0:0:
288,160,83718,1,8,0:0:0:0:
224,160,83781,1,0,0:0:0:0:
288,160,83906,1,8,0:0:0:0:
288,160,83947,1,8,0:0:0:0:
288,160,83989,1,8,0:0:0:0:
224,160,84031,1,0,0:0:0:0:
224,224,84406,1,4,0:0:0:0:
288,160,84531,1,8,0:0:0:0:
288,160,84656,1,8,0:0:0:0:
224,160,84781,1,0,0:0:0:0:
288,160,84843,1,8,0:0:0:0:
224,160,84906,1,0,0:0:0:0:
288,224,85031,1,12,0:0:0:0:
288,224,85406,1,12,0:0:0:0:
224,160,85531,1,0,0:0:0:0:
288,160,85656,1,8,0:0:0:0:
224,160,85781,1,0,0:0:0:0:
288,160,85843,1,8,0:0:0:0:
288,160,85906,1,8,0:0:0:0:
288,160,85968,1,8,0:0:0:0:
224,160,86031,1,0,0:0:0:0:
224,160,86281,1,0,0:0:0:0:
288,160,86531,1,8,0:0:0:0:
224,160,86781,1,0,0:0:0:0:
288,160,86906,1,8,0:0:0:0:
224,160,87031,1,0,0:0:0:0:
288,160,87156,1,8,0:0:0:0:
224,160,87281,1,0,0:0:0:0:
224,160,87406,1,0,0:0:0:0:
288,160,87531,1,8,0:0:0:0:
288,224,88031,1,12,0:0:0:0:
224,160,88281,1,0,0:0:0:0:
288,160,88531,1,8,0:0:0:0:
224,160,88781,1,0,0:0:0:0:
288,160,88906,1,8,0:0:0:0:
224,160,89031,1,0,0:0:0:0:
288,160,89156,1,8,0:0:0:0:
224,160,89281,1,0,0:0:0:0:
288,160,89531,1,8,0:0:0:0:
224,160,89781,1,0,0:0:0:0:
288,160,89906,1,8,0:0:0:0:
224,160,90031,1,0,0:0:0:0:
224,160,90156,1,0,0:0:0:0:
288,160,90281,1,8,0:0:0:0:
224,160,90406,1,0,0:0:0:0:
288,160,90531,1,8,0:0:0:0:
224,160,90781,1,0,0:0:0:0:
288,160,90906,1,8,0:0:0:0:
224,160,91031,1,0,0:0:0:0:
224,160,91156,1,0,0:0:0:0:
288,160,91281,1,8,0:0:0:0:
224,160,91406,1,0,0:0:0:0:
288,160,91531,1,8,0:0:0:0:
288,160,91656,1,8,0:0:0:0:
224,160,91781,1,0,0:0:0:0:
288,160,92031,1,8,0:0:0:0:
224,160,92156,1,0,0:0:0:0:
224,160,92281,1,0,0:0:0:0:
288,160,92406,1,8,0:0:0:0:
288,160,92531,1,8,0:0:0:0:
224,160,92656,1,0,0:0:0:0:
224,160,92718,1,0,0:0:0:0:
224,160,92781,1,0,0:0:0:0:
288,160,92906,1,8,0:0:0:0:
288,160,93031,1,8,0:0:0:0:
224,160,93156,1,0,0:0:0:0:
288,160,93218,1,8,0:0:0:0:
224,160,93281,1,0,0:0:0:0:
224,160,93343,1,0,0:0:0:0:
288,160,93406,1,8,0:0:0:0:
288,160,93531,1,8,0:0:0:0:
288,160,93593,1,8,0:0:0:0:
224,160,93656,1,0,0:0:0:0:
288,160,93718,1,8,0:0:0:0:
224,160,93781,1,0,0:0:0:0:
224,160,93906,1,0,0:0:0:0:
288,160,94031,1,8,0:0:0:0:
224,160,94093,1,0,0:0:0:0:
224,160,94156,1,0,0:0:0:0:
288,160,94218,1,8,0:0:0:0:
224,160,94281,1,0,0:0:0:0:
288,160,94343,1,8,0:0:0:0:
288,160,94406,1,8,0:0:0:0:
288,160,94468,1,8,0:0:0:0:
224,160,94531,1,0,0:0:0:0:
224,160,94593,1,0,0:0:0:0:
288,160,94656,1,8,0:0:0:0:
288,160,94718,1,8,0:0:0:0:
224,160,94781,1,0,0:0:0:0:
288,224,94906,1,12,0:0:0:0:
224,160,95156,1,0,0:0:0:0:
288,224,95281,1,12,0:0:0:0:
288,160,95406,1,8,0:0:0:0:
224,224,95531,1,4,0:0:0:0:
224,160,95656,1,0,0:0:0:0:
288,224,95781,1,12,0:0:0:0:
224,224,96031,1,4,0:0:0:0:
224,160,96156,1,0,0:0:0:0:
224,160,96218,1,0,0:0:0:0:
288,160,96281,1,8,0:0:0:0:
224,160,96406,1,0,0:0:0:0:
288,160,96531,1,8,0:0:0:0:
288,160,96593,1,8,0:0:0:0:
224,160,96656,1,0,0:0:0:0:
224,160,96718,1,0,0:0:0:0:
288,160,96781,1,8,0:0:0:0:
288,160,96906,1,8,0:0:0:0:
224,160,97031,1,0,0:0:0:0:
224,160,97093,1,0,0:0:0:0:
288,160,97156,1,8,0:0:0:0:
224,160,97281,1,0,0:0:0:0:
288,160,97406,1,8,0:0:0:0:
224,160,97531,1,0,0:0:0:0:
288,160,97593,1,8,0:0:0:0:
288,160,97718,1,8,0:0:0:0:
224,160,97781,1,0,0:0:0:0:
288,160,97906,1,8,0:0:0:0:
224,160,98031,1,0,0:0:0:0:
288,160,98156,1,8,0:0:0:0:
224,160,98281,1,0,0:0:0:0:
288,160,98406,1,8,0:0:0:0:
224,160,98468,1,0,0:0:0:0:
288,160,98531,1,8,0:0:0:0:
288,160,98593,1,8,0:0:0:0:
224,160,98656,1,0,0:0:0:0:
288,160,98781,1,8,0:0:0:0:
224,160,98906,1,0,0:0:0:0:
288,160,98968,1,8,0:0:0:0:
224,160,99031,1,0,0:0:0:0:
288,160,99156,1,8,0:0:0:0:
288,160,99218,1,8,0:0:0:0:
288,160,99281,1,8,0:0:0:0:
224,160,99406,1,0,0:0:0:0:
288,224,99531,1,12,0:0:0:0:
288,224,99781,1,12,0:0:0:0:
224,160,100031,1,0,0:0:0:0:
224,160,100093,1,0,0:0:0:0:
224,160,100156,1,0,0:0:0:0:
288,160,100281,1,8,0:0:0:0:
224,160,100406,1,0,0:0:0:0:
288,160,100531,1,8,0:0:0:0:
224,160,100593,1,0,0:0:0:0:
224,160,100656,1,0,0:0:0:0:
224,160,100718,1,0,0:0:0:0:
288,160,100781,1,8,0:0:0:0:
224,160,100906,1,0,0:0:0:0:
288,160,100968,1,8,0:0:0:0:
224,160,101031,1,0,0:0:0:0:
288,160,101156,1,8,0:0:0:0:
224,160,101281,1,0,0:0:0:0:
288,160,101406,1,8,0:0:0:0:
224,160,101531,1,0,0:0:0:0:
224,160,101593,1,0,0:0:0:0:
288,160,101718,1,8,0:0:0:0:
224,160,101781,1,0,0:0:0:0:
288,160,101906,1,8,0:0:0:0:
224,160,102031,1,0,0:0:0:0:
288,160,102156,1,8,0:0:0:0:
224,160,102281,1,0,0:0:0:0:
224,160,102343,1,0,0:0:0:0:
288,160,102406,1,8,0:0:0:0:
288,160,102531,1,8,0:0:0:0:
224,160,102656,1,0,0:0:0:0:
288,160,102718,1,8,0:0:0:0:
224,160,102781,1,0,0:0:0:0:
288,160,102906,1,8,0:0:0:0:
224,160,103031,1,0,0:0:0:0:
288,160,103093,1,8,0:0:0:0:
224,160,103156,1,0,0:0:0:0:
224,160,103218,1,0,0:0:0:0:
288,160,103281,1,8,0:0:0:0:
288,160,103343,1,8,0:0:0:0:
224,160,103406,1,0,0:0:0:0:
288,160,103468,1,8,0:0:0:0:
288,160,103531,1,8,0:0:0:0:
224,160,103656,1,0,0:0:0:0:
288,224,103781,1,12,0:0:0:0:
224,224,104031,1,4,0:0:0:0:
288,160,104156,1,8,0:0:0:0:
224,160,104218,1,0,0:0:0:0:
288,160,104281,1,8,0:0:0:0:
224,160,104406,1,0,0:0:0:0:
224,160,104468,1,0,0:0:0:0:
288,160,104531,1,8,0:0:0:0:
288,160,104593,1,8,0:0:0:0:
224,160,104656,1,0,0:0:0:0:
288,160,104781,1,8,0:0:0:0:
288,160,104906,1,8,0:0:0:0:
224,160,104968,1,0,0:0:0:0:
224,160,105031,1,0,0:0:0:0:
224,160,105093,1,0,0:0:0:0:
288,160,105156,1,8,0:0:0:0:
224,160,105281,1,0,0:0:0:0:
288,160,105406,1,8,0:0:0:0:
224,160,105531,1,0,0:0:0:0:
288,160,105593,1,8,0:0:0:0:
288,160,105718,1,8,0:0:0:0:
224,160,105781,1,0,0:0:0:0:
224,160,105843,1,0,0:0:0:0:
288,160,105906,1,8,0:0:0:0:
224,160,106031,1,0,0:0:0:0:
288,160,106156,1,8,0:0:0:0:
288,160,106218,1,8,0:0:0:0:
288,160,106281,1,8,0:0:0:0:
224,160,106406,1,0,0:0:0:0:
288,160,106531,1,8,0:0:0:0:
224,160,106656,1,0,0:0:0:0:
288,160,106718,1,8,0:0:0:0:
224,160,106781,1,0,0:0:0:0:
288,160,106906,1,8,0:0:0:0:
288,160,106969,1,8,0:0:0:0:
224,160,107031,1,0,0:0:0:0:
288,160,107156,1,8,0:0:0:0:
288,160,107218,1,8,0:0:0:0:
288,160,107281,1,8,0:0:0:0:
224,160,107406,1,0,0:0:0:0:
288,224,107531,1,12,0:0:0:0:
288,224,107781,1,12,0:0:0:0:
224,160,108031,1,0,0:0:0:0:
288,160,108093,1,8,0:0:0:0:
288,160,108156,1,8,0:0:0:0:
224,160,108218,1,0,0:0:0:0:
288,160,108281,1,8,0:0:0:0:
224,160,108406,1,0,0:0:0:0:
288,160,108531,1,8,0:0:0:0:
288,160,108593,1,8,0:0:0:0:
224,160,108656,1,0,0:0:0:0:
288,160,108781,1,8,0:0:0:0:
224,160,108906,1,0,0:0:0:0:
288,160,108968,1,8,0:0:0:0:
224,160,109031,1,0,0:0:0:0:
224,160,109093,1,0,0:0:0:0:
288,160,109156,1,8,0:0:0:0:
224,160,109281,1,0,0:0:0:0:
288,160,109406,1,8,0:0:0:0:
224,160,109531,1,0,0:0:0:0:
224,160,109593,1,0,0:0:0:0:
288,160,109718,1,8,0:0:0:0:
224,160,109781,1,0,0:0:0:0:
288,160,109906,1,8,0:0:0:0:
224,160,110031,1,0,0:0:0:0:
288,160,110093,1,8,0:0:0:0:
288,160,110156,1,8,0:0:0:0:
224,160,110218,1,0,0:0:0:0:
288,160,110281,1,8,0:0:0:0:
224,160,110343,1,0,0:0:0:0:
224,160,110406,1,0,0:0:0:0:
288,160,110468,1,8,0:0:0:0:
288,160,110531,1,8,0:0:0:0:
288,160,110593,1,8,0:0:0:0:
224,160,110656,1,0,0:0:0:0:
224,160,110718,1,0,0:0:0:0:
288,160,110781,1,8,0:0:0:0:
224,160,110843,1,0,0:0:0:0:
288,160,110906,1,8,0:0:0:0:
224,160,111031,1,0,0:0:0:0:
224,160,111093,1,0,0:0:0:0:
224,160,111156,1,0,0:0:0:0:
288,160,111218,1,8,0:0:0:0:
288,160,111281,1,8,0:0:0:0:
288,160,111343,1,8,0:0:0:0:
224,160,111406,1,0,0:0:0:0:
288,160,111468,1,8,0:0:0:0:
224,160,111531,1,0,0:0:0:0:
288,160,111593,1,8,0:0:0:0:
288,160,111656,1,8,0:0:0:0:
224,160,111718,1,0,0:0:0:0:
288,160,111781,1,8,0:0:0:0:
224,224,112031,1,4,0:0:0:0:
288,160,112156,1,8,0:0:0:0:
288,160,112218,1,8,0:0:0:0:
224,160,112281,1,0,0:0:0:0:
288,160,112406,1,8,0:0:0:0:
224,160,112531,1,0,0:0:0:0:
224,160,112593,1,0,0:0:0:0:
288,160,112656,1,8,0:0:0:0:
288,160,112718,1,8,0:0:0:0:
224,160,112781,1,0,0:0:0:0:
288,160,112906,1,8,0:0:0:0:
224,160,113031,1,0,0:0:0:0:
224,160,113093,1,0,0:0:0:0:
288,160,113156,1,8,0:0:0:0:
288,160,113218,1,8,0:0:0:0:
224,160,113281,1,0,0:0:0:0:
224,160,113343,1,0,0:0:0:0:
288,160,113406,1,8,0:0:0:0:
224,160,113531,1,0,0:0:0:0:
224,160,113656,1,0,0:0:0:0:
288,160,113718,1,8,0:0:0:0:
288,160,113781,1,8,0:0:0:0:
288,160,113843,1,8,0:0:0:0:
224,160,113906,1,0,0:0:0:0:
224,160,113968,1,0,0:0:0:0:
288,160,114031,1,8,0:0:0:0:
288,160,114156,1,8,0:0:0:0:
224,160,114281,1,0,0:0:0:0:
224,160,114343,1,0,0:0:0:0:
288,160,114406,1,8,0:0:0:0:
288,160,114468,1,8,0:0:0:0:
224,160,114531,1,0,0:0:0:0:
288,160,114593,1,8,0:0:0:0:
224,160,114656,1,0,0:0:0:0:
224,160,114718,1,0,0:0:0:0:
288,160,114781,1,8,0:0:0:0:
224,160,114906,1,0,0:0:0:0:
288,160,114968,1,8,0:0:0:0:
288,160,115031,1,8,0:0:0:0:
288,160,115156,1,8,0:0:0:0:
224,160,115218,1,0,0:0:0:0:
288,160,115281,1,8,0:0:0:0:
288,160,115343,1,8,0:0:0:0:
224,160,115406,1,0,0:0:0:0:
288,224,115531,1,12,0:0:0:0:
288,224,115781,1,12,0:0:0:0:
224,160,116031,1,0,0:0:0:0:
224,160,116093,1,0,0:0:0:0:
288,160,116156,1,8,0:0:0:0:
224,160,116281,1,0,0:0:0:0:
288,160,116406,1,8,0:0:0:0:
224,160,116468,1,0,0:0:0:0:
224,160,116531,1,0,0:0:0:0:
224,160,116593,1,0,0:0:0:0:
288,160,116656,1,8,0:0:0:0:
224,160,116781,1,0,0:0:0:0:
224,160,116906,1,0,0:0:0:0:
288,160,116968,1,8,0:0:0:0:
224,160,117031,1,0,0:0:0:0:
224,160,117093,1,0,0:0:0:0:
288,160,117156,1,8,0:0:0:0:
224,160,117281,1,0,0:0:0:0:
288,160,117406,1,8,0:0:0:0:
224,160,117468,1,0,0:0:0:0:
224,160,117531,1,0,0:0:0:0:
288,160,117593,1,8,0:0:0:0:
288,160,117656,1,8,0:0:0:0:
224,160,117718,1,0,0:0:0:0:
288,160,117781,1,8,0:0:0:0:
224,160,117906,1,0,0:0:0:0:
288,160,118031,1,8,0:0:0:0:
288,160,118093,1,8,0:0:0:0:
224,160,118156,1,0,0:0:0:0:
288,160,118218,1,8,0:0:0:0:
224,160,118281,1,0,0:0:0:0:
224,160,118343,1,0,0:0:0:0:
288,160,118406,1,8,0:0:0:0:
288,160,118468,1,8,0:0:0:0:
288,160,118531,1,8,0:0:0:0:
224,160,118593,1,0,0:0:0:0:
224,160,118656,1,0,0:0:0:0:
288,160,118718,1,8,0:0:0:0:
224,160,118781,1,0,0:0:0:0:
224,160,118843,1,0,0:0:0:0:
288,160,118906,1,8,0:0:0:0:
224,160,119031,1,0,0:0:0:0:
288,160,119093,1,8,0:0:0:0:
224,160,119156,1,0,0:0:0:0:
224,160,119218,1,0,0:0:0:0:
288,160,119281,1,8,0:0:0:0:
224,160,119343,1,0,0:0:0:0:
288,160,119406,1,8,0:0:0:0:
288,160,119468,1,8,0:0:0:0:
224,160,119531,1,0,0:0:0:0:
288,160,119593,1,8,0:0:0:0:
224,160,119656,1,0,0:0:0:0:
224,160,119718,1,0,0:0:0:0:
288,160,119781,1,8,0:0:0:0:
224,224,120031,1,4,0:0:0:0:
224,224,120406,1,4,0:0:0:0:
224,224,120781,1,4,0:0:0:0:
224,224,121156,1,4,0:0:0:0:
224,224,121531,1,4,0:0:0:0:
224,224,121781,1,4,0:0:0:0:
224,224,121906,1,4,0:0:0:0:
224,224,122031,1,4,0:0:0:0:
288,160,122156,1,8,0:0:0:0:
288,160,122218,1,8,0:0:0:0:
224,160,122281,1,0,0:0:0:0:
288,160,122406,1,8,0:0:0:0:
224,160,122531,1,0,0:0:0:0:
288,160,122593,1,8,0:0:0:0:
224,160,122656,1,0,0:0:0:0:
224,160,122718,1,0,0:0:0:0:
288,160,122781,1,8,0:0:0:0:
224,160,122906,1,0,0:0:0:0:
288,160,122968,1,8,0:0:0:0:
288,160,123031,1,8,0:0:0:0:
288,160,123156,1,8,0:0:0:0:
224,160,123218,1,0,0:0:0:0:
288,160,123281,1,8,0:0:0:0:
288,160,123343,1,8,0:0:0:0:
224,160,123406,1,0,0:0:0:0:
288,224,123531,1,12,0:0:0:0:
288,224,123781,1,12,0:0:0:0:
224,224,124031,1,4,0:0:0:0:
224,160,124156,1,0,0:0:0:0:
288,160,124281,1,8,0:0:0:0:
224,160,124406,1,0,0:0:0:0:
224,160,124531,1,0,0:0:0:0:
224,160,124656,1,0,0:0:0:0:
288,160,124781,1,8,0:0:0:0:
224,160,124906,1,0,0:0:0:0:
224,224,125031,1,4,0:0:0:0:
224,160,125156,1,0,0:0:0:0:
288,160,125281,1,8,0:0:0:0:
224,160,125406,1,0,0:0:0:0:
224,160,125468,1,0,0:0:0:0:
224,160,125531,1,0,0:0:0:0:
288,160,125656,1,8,0:0:0:0:
224,160,125781,1,0,0:0:0:0:
288,160,125906,1,8,0:0:0:0:
224,160,126031,1,0,0:0:0:0:
224,160,126093,1,0,0:0:0:0:
224,160,126156,1,0,0:0:0:0:
288,160,126218,1,8,0:0:0:0:
224,160,126281,1,0,0:0:0:0:
224,160,126343,1,0,0:0:0:0:
288,160,126406,1,8,0:0:0:0:
288,160,126468,1,8,0:0:0:0:
224,160,126531,1,0,0:0:0:0:
224,160,126593,1,0,0:0:0:0:
224,160,126656,1,8,0:0:0:0:
224,160,126718,1,0,0:0:0:0:
288,160,126781,1,8,0:0:0:0:
288,160,126843,1,8,0:0:0:0:
224,160,126906,1,0,0:0:0:0:
288,160,126968,1,8,0:0:0:0:
288,160,127031,1,8,0:0:0:0:
224,160,127093,1,0,0:0:0:0:
288,160,127156,1,8,0:0:0:0:
224,160,127218,1,0,0:0:0:0:
288,160,127281,1,8,0:0:0:0:
288,160,127343,1,8,0:0:0:0:
288,160,127406,1,8,0:0:0:0:
224,160,127468,1,0,0:0:0:0:
224,160,127531,1,0,0:0:0:0:
288,160,127593,1,8,0:0:0:0:
224,160,127656,1,0,0:0:0:0:
288,160,127718,1,8,0:0:0:0:
288,160,127781,1,8,0:0:0:0:
224,224,128031,1,4,0:0:0:0:
224,160,130031,1,0,0:0:0:0:
224,160,132031,1,0,0:0:0:0:
224,160,134031,1,0,0:0:0:0:
224,224,136031,5,4,0:0:0:0:
288,160,136281,1,8,0:0:0:0:
288,160,136531,1,8,0:0:0:0:
224,160,136781,1,0,0:0:0:0:
288,160,136906,1,8,0:0:0:0:
224,160,137031,1,0,0:0:0:0:
288,160,137156,1,8,0:0:0:0:
224,160,137281,1,0,0:0:0:0:
288,160,137531,1,8,0:0:0:0:
224,160,137781,1,0,0:0:0:0:
288,160,137906,1,8,0:0:0:0:
224,224,138031,1,4,0:0:0:0:
288,160,138281,1,8,0:0:0:0:
288,160,138531,1,8,0:0:0:0:
224,160,138781,1,0,0:0:0:0:
288,160,138906,1,8,0:0:0:0:
224,160,139031,1,0,0:0:0:0:
288,160,139156,1,8,0:0:0:0:
224,160,139281,1,0,0:0:0:0:
288,160,139531,1,8,0:0:0:0:
288,160,139781,1,8,0:0:0:0:
288,160,139906,1,8,0:0:0:0:
224,224,140031,1,4,0:0:0:0:
288,160,140281,1,8,0:0:0:0:
224,160,140406,1,0,0:0:0:0:
288,160,140531,1,8,0:0:0:0:
224,224,140781,1,4,0:0:0:0:
288,160,140906,1,8,0:0:0:0:
224,160,141031,1,0,0:0:0:0:
288,160,141156,1,8,0:0:0:0:
224,160,141281,1,0,0:0:0:0:
224,160,141531,1,0,0:0:0:0:
288,160,141781,1,8,0:0:0:0:
224,160,142031,1,0,0:0:0:0:
288,160,142281,1,8,0:0:0:0:
224,160,142406,1,0,0:0:0:0:
288,160,142531,1,8,0:0:0:0:
288,160,142656,1,8,0:0:0:0:
224,160,142781,1,0,0:0:0:0:
288,160,142822,1,8,0:0:0:0:
288,160,142864,1,8,0:0:0:0:
224,160,142906,1,0,0:0:0:0:
224,160,142968,1,0,0:0:0:0:
288,160,143031,1,8,0:0:0:0:
288,224,143781,1,12,0:0:0:0:
224,224,144031,1,4,0:0:0:0:
224,160,144156,1,0,0:0:0:0:
288,160,144281,1,8,0:0:0:0:
224,160,144406,1,0,0:0:0:0:
288,160,144468,1,8,0:0:0:0:
224,160,144531,1,0,0:0:0:0:
288,160,144593,1,8,0:0:0:0:
224,160,144656,1,0,0:0:0:0:
288,160,144781,1,8,0:0:0:0:
224,160,144906,1,0,0:0:0:0:
224,160,144968,1,0,0:0:0:0:
288,160,145031,1,8,0:0:0:0:
288,160,145156,1,8,0:0:0:0:
224,160,145281,1,0,0:0:0:0:
288,160,145406,1,8,0:0:0:0:
288,160,145468,1,8,0:0:0:0:
224,160,145531,1,0,0:0:0:0:
224,160,145656,1,0,0:0:0:0:
288,160,145781,1,8,0:0:0:0:
288,160,145843,1,8,0:0:0:0:
224,160,145906,1,0,0:0:0:0:
288,160,145968,1,8,0:0:0:0:
224,160,146031,1,0,0:0:0:0:
224,160,146156,1,0,0:0:0:0:
224,160,146197,1,0,0:0:0:0:
224,160,146239,1,0,0:0:0:0:
288,160,146281,1,8,0:0:0:0:
224,160,146406,1,0,0:0:0:0:
288,160,146468,1,8,0:0:0:0:
224,160,146531,1,0,0:0:0:0:
224,160,146656,1,0,0:0:0:0:
288,224,146781,1,12,0:0:0:0:
288,224,146906,1,12,0:0:0:0:
224,160,147031,1,0,0:0:0:0:
224,160,147156,1,0,0:0:0:0:
288,160,147281,1,8,0:0:0:0:
224,160,147406,1,0,0:0:0:0:
224,160,147468,1,0,0:0:0:0:
224,160,147531,1,0,0:0:0:0:
224,160,147656,1,0,0:0:0:0:
288,160,147781,1,8,0:0:0:0:
288,160,147843,1,8,0:0:0:0:
224,160,147906,1,0,0:0:0:0:
288,160,147968,1,8,0:0:0:0:
288,160,148031,1,8,0:0:0:0:
224,160,148156,1,0,0:0:0:0:
224,160,148218,1,0,0:0:0:0:
288,160,148281,1,8,0:0:0:0:
288,160,148343,1,8,0:0:0:0:
224,160,148406,1,0,0:0:0:0:
288,160,148468,1,8,0:0:0:0:
224,160,148531,1,0,0:0:0:0:
288,160,148656,1,8,0:0:0:0:
288,160,148781,1,8,0:0:0:0:
288,160,148843,1,8,0:0:0:0:
224,160,148906,1,0,0:0:0:0:
288,160,149031,1,8,0:0:0:0:
224,160,149156,1,0,0:0:0:0:
224,160,149197,1,0,0:0:0:0:
224,160,149239,1,0,0:0:0:0:
288,160,149281,1,8,0:0:0:0:
288,160,149406,1,8,0:0:0:0:
288,160,149468,1,8,0:0:0:0:
224,160,149531,1,0,0:0:0:0:
288,160,149593,1,8,0:0:0:0:
224,160,149656,1,0,0:0:0:0:
224,160,149781,1,0,0:0:0:0:
288,160,149843,1,8,0:0:0:0:
288,160,149906,1,8,0:0:0:0:
288,160,149968,1,8,0:0:0:0:
224,160,150031,1,0,0:0:0:0:
224,160,150406,1,0,0:0:0:0:
288,160,150531,1,8,0:0:0:0:
288,160,150781,1,8,0:0:0:0:
288,160,150906,1,8,0:0:0:0:
224,160,151031,1,0,0:0:0:0:
224,160,151093,1,0,0:0:0:0:
224,160,151156,1,0,0:0:0:0:
224,160,151218,1,0,0:0:0:0:
288,160,151281,1,8,0:0:0:0:
288,160,151343,1,8,0:0:0:0:
288,160,151406,1,8,0:0:0:0:
288,160,151468,1,8,0:0:0:0:
224,160,151531,1,0,0:0:0:0:
288,160,151593,1,8,0:0:0:0:
224,160,151656,1,0,0:0:0:0:
224,160,151718,1,0,0:0:0:0:
288,160,151781,1,8,0:0:0:0:
224,224,152031,1,4,0:0:0:0:
224,224,152281,1,4,0:0:0:0:
224,224,152531,1,4,0:0:0:0:
224,160,152781,1,0,0:0:0:0:
288,160,152843,1,8,0:0:0:0:
224,160,152906,1,0,0:0:0:0:
224,160,152968,1,0,0:0:0:0:
288,160,153031,1,8,0:0:0:0:
224,160,153156,1,0,0:0:0:0:
288,160,153281,1,8,0:0:0:0:
288,160,153343,1,8,0:0:0:0:
288,160,153406,1,8,0:0:0:0:
224,160,153531,1,0,0:0:0:0:
288,160,153593,1,8,0:0:0:0:
224,160,153656,1,0,0:0:0:0:
288,160,153718,1,8,0:0:0:0:
288,160,153781,1,8,0:0:0:0:
288,160,153843,1,8,0:0:0:0:
224,160,153906,1,0,0:0:0:0:
224,160,154031,1,0,0:0:0:0:
288,160,154156,1,8,0:0:0:0:
288,160,154197,1,8,0:0:0:0:
288,160,154239,1,8,0:0:0:0:
224,160,154281,1,0,0:0:0:0:
224,160,154406,1,0,0:0:0:0:
288,160,154468,1,8,0:0:0:0:
224,160,154531,1,0,0:0:0:0:
224,160,154656,1,0,0:0:0:0:
288,224,154781,1,12,0:0:0:0:
288,224,154906,1,12,0:0:0:0:
224,160,155031,1,0,0:0:0:0:
224,160,155156,1,0,0:0:0:0:
288,160,155281,1,8,0:0:0:0:
224,160,155406,1,0,0:0:0:0:
224,160,155468,1,0,0:0:0:0:
224,160,155531,1,0,0:0:0:0:
224,160,155656,1,0,0:0:0:0:
288,160,155781,1,8,0:0:0:0:
288,160,155843,1,8,0:0:0:0:
224,160,155906,1,0,0:0:0:0:
288,160,155968,1,8,0:0:0:0:
288,160,156031,1,8,0:0:0:0:
224,160,156156,1,0,0:0:0:0:
224,160,156218,1,0,0:0:0:0:
288,160,156281,1,8,0:0:0:0:
288,160,156406,1,8,0:0:0:0:
288,160,156468,1,8,0:0:0:0:
224,160,156531,1,0,0:0:0:0:
288,160,156593,1,8,0:0:0:0:
224,160,156656,1,0,0:0:0:0:
224,160,156718,1,0,0:0:0:0:
288,160,156781,1,8,0:0:0:0:
224,160,156906,1,0,0:0:0:0:
288,160,157031,1,8,0:0:0:0:
224,160,157156,1,0,0:0:0:0:
224,160,157197,1,0,0:0:0:0:
224,160,157239,1,0,0:0:0:0:
288,160,157281,1,8,0:0:0:0:
288,160,157406,1,8,0:0:0:0:
288,160,157468,1,8,0:0:0:0:
224,160,157531,1,0,0:0:0:0:
224,160,157656,1,0,0:0:0:0:
224,160,157697,1,0,0:0:0:0:
224,160,157739,1,0,0:0:0:0:
288,160,157781,1,8,0:0:0:0:
288,160,157843,1,8,0:0:0:0:
224,160,157906,1,0,0:0:0:0:
288,160,157968,1,8,0:0:0:0:
224,160,158031,1,0,0:0:0:0:
224,160,158406,1,0,0:0:0:0:
288,160,158531,1,8,0:0:0:0:
288,160,158656,1,8,0:0:0:0:
288,160,158781,1,8,0:0:0:0:
288,160,158906,1,8,0:0:0:0:
224,160,159031,1,0,0:0:0:0:
224,160,159093,1,0,0:0:0:0:
224,160,159156,1,0,0:0:0:0:
224,160,159218,1,0,0:0:0:0:
288,160,159281,1,8,0:0:0:0:
288,160,159343,1,8,0:0:0:0:
288,160,159406,1,8,0:0:0:0:
288,160,159468,1,8,0:0:0:0:
224,160,159531,1,0,0:0:0:0:
288,160,159593,1,8,0:0:0:0:
224,160,159656,1,0,0:0:0:0:
224,160,159718,1,0,0:0:0:0:
288,160,159781,1,8,0:0:0:0:
224,224,160031,1,4,0:0:0:0:
224,160,160156,1,0,0:0:0:0:
224,160,160281,1,0,0:0:0:0:
224,160,160406,1,0,0:0:0:0:
224,160,160531,1,0,0:0:0:0:
224,160,160656,1,0,0:0:0:0:
224,160,160781,1,0,0:0:0:0:
224,160,160906,1,0,0:0:0:0:
288,160,160968,1,8,0:0:0:0:
224,160,161031,1,0,0:0:0:0:
224,160,161156,1,0,0:0:0:0:
288,160,161281,1,8,0:0:0:0:
224,160,161406,1,0,0:0:0:0:
288,160,161531,1,8,0:0:0:0:
288,160,161593,1,8,0:0:0:0:
224,160,161656,1,0,0:0:0:0:
288,160,161718,1,8,0:0:0:0:
224,160,161781,1,0,0:0:0:0:
224,160,161906,1,0,0:0:0:0:
288,160,161947,1,8,0:0:0:0:
288,160,161989,1,8,0:0:0:0:
224,160,162031,1,0,0:0:0:0:
224,160,162156,1,0,0:0:0:0:
288,160,162281,1,8,0:0:0:0:
224,160,162406,1,0,0:0:0:0:
224,160,162531,1,8,0:0:0:0:
224,160,162572,1,8,0:0:0:0:
224,160,162614,1,0,0:0:0:0:
224,160,162656,1,0,0:0:0:0:
224,160,162718,1,0,0:0:0:0:
288,160,162781,1,8,0:0:0:0:
288,160,162906,1,8,0:0:0:0:
288,160,162947,1,8,0:0:0:0:
288,160,162989,1,8,0:0:0:0:
224,160,163031,1,0,0:0:0:0:
224,160,163156,1,0,0:0:0:0:
288,160,163281,1,8,0:0:0:0:
288,160,163343,1,8,0:0:0:0:
224,160,163406,1,0,0:0:0:0:
224,160,163468,1,0,0:0:0:0:
224,160,163531,1,0,0:0:0:0:
288,224,163781,1,12,0:0:0:0:
224,224,164031,1,4,0:0:0:0:
224,160,164156,1,0,0:0:0:0:
224,160,164281,1,0,0:0:0:0:
224,160,164406,1,0,0:0:0:0:
224,160,164531,1,0,0:0:0:0:
224,160,164656,1,0,0:0:0:0:
224,160,164781,1,0,0:0:0:0:
288,160,164906,1,8,0:0:0:0:
288,160,164968,1,8,0:0:0:0:
224,160,165031,1,0,0:0:0:0:
224,160,165156,1,0,0:0:0:0:
288,160,165281,1,8,0:0:0:0:
224,160,165406,1,0,0:0:0:0:
288,160,165531,1,8,0:0:0:0:
288,160,165593,1,8,0:0:0:0:
288,160,165656,1,8,0:0:0:0:
288,160,165718,1,8,0:0:0:0:
224,160,165781,1,0,0:0:0:0:
288,160,165906,1,8,0:0:0:0:
288,160,165947,1,8,0:0:0:0:
288,160,165989,1,8,0:0:0:0:
224,160,166031,1,0,0:0:0:0:
224,160,166093,1,0,0:0:0:0:
288,160,166156,1,8,0:0:0:0:
288,160,166281,1,8,0:0:0:0:
224,160,166322,1,0,0:0:0:0:
224,160,166364,1,0,0:0:0:0:
288,160,166406,1,8,0:0:0:0:
224,160,166468,1,0,0:0:0:0:
288,160,166531,1,8,0:0:0:0:
288,160,166572,1,8,0:0:0:0:
288,160,166614,1,8,0:0:0:0:
224,160,166656,1,0,0:0:0:0:
224,160,166781,1,0,0:0:0:0:
224,160,166843,1,0,0:0:0:0:
288,160,166906,1,8,0:0:0:0:
288,160,166947,1,8,0:0:0:0:
288,160,166989,1,8,0:0:0:0:
224,160,167031,1,0,0:0:0:0:
224,160,167281,1,0,0:0:0:0:
224,160,167531,1,0,0:0:0:0:
288,224,167781,1,12,0:0:0:0:
224,224,168031,1,4,0:0:0:0:
224,160,168281,1,0,0:0:0:0:
288,160,168531,1,8,0:0:0:0:
224,160,168656,1,0,0:0:0:0:
224,160,168781,1,0,0:0:0:0:
288,160,168906,1,8,0:0:0:0:
224,160,169156,1,0,0:0:0:0:
288,160,169281,1,8,0:0:0:0:
224,160,169406,1,0,0:0:0:0:
288,160,169531,1,8,0:0:0:0:
288,160,169656,1,8,0:0:0:0:
224,160,169781,1,0,0:0:0:0:
288,160,169906,1,8,0:0:0:0:
224,224,170031,1,4,0:0:0:0:
288,160,170281,1,8,0:0:0:0:
224,160,170406,1,0,0:0:0:0:
288,160,170531,1,8,0:0:0:0:
224,160,170656,1,0,0:0:0:0:
224,160,170781,1,0,0:0:0:0:
288,160,170906,1,8,0:0:0:0:
224,160,171156,1,0,0:0:0:0:
288,160,171281,1,8,0:0:0:0:
288,160,171406,1,8,0:0:0:0:
224,160,171531,1,0,0:0:0:0:
224,160,171656,1,0,0:0:0:0:
288,160,171781,1,8,0:0:0:0:
224,160,171906,1,0,0:0:0:0:
224,224,172031,1,4,0:0:0:0:
288,160,172156,1,8,0:0:0:0:
288,160,172281,1,8,0:0:0:0:
224,160,172406,1,0,0:0:0:0:
224,160,172468,1,0,0:0:0:0:
288,160,172531,1,8,0:0:0:0:
288,160,172656,1,8,0:0:0:0:
224,224,172781,1,4,0:0:0:0:
288,160,172906,1,8,0:0:0:0:
288,160,172968,1,8,0:0:0:0:
224,160,173031,1,0,0:0:0:0:
224,160,173093,1,0,0:0:0:0:
288,160,173156,1,8,0:0:0:0:
224,160,173281,1,0,0:0:0:0:
288,160,173406,1,8,0:0:0:0:
224,160,173531,1,0,0:0:0:0:
288,160,173593,1,8,0:0:0:0:
224,160,173656,1,0,0:0:0:0:
224,160,173718,1,0,0:0:0:0:
288,160,173781,1,8,0:0:0:0:
288,160,173906,1,8,0:0:0:0:
224,160,174031,1,0,0:0:0:0:
224,160,174093,1,0,0:0:0:0:
288,160,174156,1,8,0:0:0:0:
224,160,174218,1,0,0:0:0:0:
288,160,174281,1,8,0:0:0:0:
288,160,174343,1,8,0:0:0:0:
224,160,174406,1,0,0:0:0:0:
288,160,174468,1,8,0:0:0:0:
288,160,174531,1,8,0:0:0:0:
224,160,174593,1,0,0:0:0:0:
288,160,174656,1,8,0:0:0:0:
224,160,174718,1,0,0:0:0:0:
288,160,174781,1,8,0:0:0:0:
288,160,174822,1,8,0:0:0:0:
288,160,174864,1,8,0:0:0:0:
224,160,174906,1,0,0:0:0:0:
224,160,174968,1,0,0:0:0:0:
288,160,175031,1,8,0:0:0:0:
288,224,175781,1,12,0:0:0:0:
224,224,176031,1,4,0:0:0:0:
224,160,176281,1,0,0:0:0:0:
224,160,176406,1,0,0:0:0:0:
288,160,176531,1,8,0:0:0:0:
288,160,176656,1,8,0:0:0:0:
224,160,176781,1,0,0:0:0:0:
288,160,176906,1,8,0:0:0:0:
224,160,177156,1,0,0:0:0:0:
288,160,177281,1,8,0:0:0:0:
224,160,177406,1,0,0:0:0:0:
288,160,177531,1,8,0:0:0:0:
224,160,177656,1,0,0:0:0:0:
288,160,177718,1,8,0:0:0:0:
224,160,177781,1,0,0:0:0:0:
288,160,177906,1,8,0:0:0:0:
224,160,178031,1,0,0:0:0:0:
224,160,178281,1,0,0:0:0:0:
224,160,178406,1,0,0:0:0:0:
288,160,178531,1,8,0:0:0:0:
288,160,178656,1,8,0:0:0:0:
224,160,178781,1,0,0:0:0:0:
288,160,178906,1,8,0:0:0:0:
224,160,179156,1,0,0:0:0:0:
288,160,179281,1,8,0:0:0:0:
288,160,179406,1,8,0:0:0:0:
288,160,179531,1,8,0:0:0:0:
224,160,179656,1,0,0:0:0:0:
224,160,179718,1,0,0:0:0:0:
288,160,179781,1,8,0:0:0:0:
288,160,179906,1,8,0:0:0:0:
224,160,180031,1,0,0:0:0:0:
224,160,180281,1,0,0:0:0:0:
224,160,180406,1,0,0:0:0:0:
288,160,180531,1,8,0:0:0:0:
224,160,180656,1,0,0:0:0:0:
224,160,180781,1,0,0:0:0:0:
288,160,180906,1,8,0:0:0:0:
224,160,181156,1,0,0:0:0:0:
288,160,181281,1,8,0:0:0:0:
224,160,181406,1,0,0:0:0:0:
288,160,181531,1,8,0:0:0:0:
224,160,181656,1,0,0:0:0:0:
288,160,181718,1,8,0:0:0:0:
224,160,181781,1,0,0:0:0:0:
288,160,181906,1,8,0:0:0:0:
224,160,182031,1,0,0:0:0:0:
224,160,182281,1,0,0:0:0:0:
224,160,182406,1,0,0:0:0:0:
288,160,182531,1,8,0:0:0:0:
224,160,182656,1,0,0:0:0:0:
224,160,182781,1,0,0:0:0:0:
288,160,182906,1,8,0:0:0:0:
224,160,183156,1,0,0:0:0:0:
288,160,183281,1,8,0:0:0:0:
288,160,183406,1,8,0:0:0:0:
224,160,183531,1,0,0:0:0:0:
288,160,183593,1,8,0:0:0:0:
288,160,183656,1,8,0:0:0:0:
224,160,183718,1,0,0:0:0:0:
288,160,183781,1,8,0:0:0:0:
224,160,183906,1,0,0:0:0:0:
224,224,184031,1,4,0:0:0:0:
288,160,184281,1,8,0:0:0:0:
224,160,184406,1,0,0:0:0:0:
288,160,184531,1,8,0:0:0:0:
288,160,184656,1,8,0:0:0:0:
224,160,184781,1,0,0:0:0:0:
288,160,184906,1,8,0:0:0:0:
224,160,185156,1,0,0:0:0:0:
288,160,185281,1,8,0:0:0:0:
288,160,185406,1,8,0:0:0:0:
288,160,185468,1,8,0:0:0:0:
224,160,185531,1,0,0:0:0:0:
224,160,185656,1,0,0:0:0:0:
288,160,185781,1,8,0:0:0:0:
288,160,185906,1,8,0:0:0:0:
224,160,186031,1,0,0:0:0:0:
288,160,186281,1,8,0:0:0:0:
224,160,186406,1,0,0:0:0:0:
288,160,186531,1,8,0:0:0:0:
288,160,186656,1,8,0:0:0:0:
224,160,186781,1,0,0:0:0:0:
288,160,186906,1,8,0:0:0:0:
288,160,186968,1,8,0:0:0:0:
224,160,187031,1,0,0:0:0:0:
224,160,187156,1,0,0:0:0:0:
288,160,187281,1,8,0:0:0:0:
224,160,187343,1,0,0:0:0:0:
288,160,187406,1,8,0:0:0:0:
224,160,187531,1,0,0:0:0:0:
224,160,187656,1,0,0:0:0:0:
224,160,187718,1,0,0:0:0:0:
288,160,187781,1,8,0:0:0:0:
224,224,188031,1,4,0:0:0:0:
288,160,188156,1,8,0:0:0:0:
288,160,188281,1,8,0:0:0:0:
224,160,188406,1,0,0:0:0:0:
224,160,188468,1,0,0:0:0:0:
288,160,188531,1,8,0:0:0:0:
288,160,188656,1,8,0:0:0:0:
224,160,188781,1,0,0:0:0:0:
288,160,188906,1,8,0:0:0:0:
288,160,188968,1,8,0:0:0:0:
224,160,189031,1,0,0:0:0:0:
288,160,189156,1,8,0:0:0:0:
224,160,189281,1,0,0:0:0:0:
288,160,189343,1,8,0:0:0:0:
224,160,189406,1,0,0:0:0:0:
224,160,189468,1,0,0:0:0:0:
288,160,189531,1,8,0:0:0:0:
288,160,189656,1,8,0:0:0:0:
288,160,189781,1,8,0:0:0:0:
288,160,189843,1,8,0:0:0:0:
224,160,189906,1,0,0:0:0:0:
224,160,190031,1,0,0:0:0:0:
288,160,190093,1,8,0:0:0:0:
288,160,190156,1,8,0:0:0:0:
224,160,190218,1,0,0:0:0:0:
288,160,190281,1,8,0:0:0:0:
288,160,190343,1,8,0:0:0:0:
224,160,190406,1,0,0:0:0:0:
224,160,190468,1,0,0:0:0:0:
288,160,190531,1,8,0:0:0:0:
288,160,190593,1,8,0:0:0:0:
224,160,190656,1,0,0:0:0:0:
288,160,190718,1,8,0:0:0:0:
224,160,190781,1,0,0:0:0:0:
288,224,190906,1,12,0:0:0:0:
224,160,191156,1,0,0:0:0:0:
288,224,191281,1,12,0:0:0:0:
288,160,191406,1,8,0:0:0:0:
224,224,191531,1,4,0:0:0:0:
224,160,191656,1,0,0:0:0:0:
288,224,191781,1,12,0:0:0:0:
224,224,192031,1,4,0:0:0:0:
224,160,192156,1,0,0:0:0:0:
224,160,192218,1,0,0:0:0:0:
288,160,192281,1,8,0:0:0:0:
224,160,192406,1,0,0:0:0:0:
288,160,192531,1,8,0:0:0:0:
224,160,192593,1,0,0:0:0:0:
224,160,192656,1,0,0:0:0:0:
224,160,192718,1,0,0:0:0:0:
288,160,192781,1,8,0:0:0:0:
288,160,192906,1,8,0:0:0:0:
288,160,192968,1,8,0:0:0:0:
224,160,193031,1,0,0:0:0:0:
288,160,193156,1,8,0:0:0:0:
224,160,193281,1,0,0:0:0:0:
224,160,193343,1,0,0:0:0:0:
288,160,193406,1,8,0:0:0:0:
224,160,193531,1,0,0:0:0:0:
288,160,193593,1,8,0:0:0:0:
288,160,193718,1,8,0:0:0:0:
224,160,193781,1,0,0:0:0:0:
224,160,193843,1,0,0:0:0:0:
288,160,193906,1,8,0:0:0:0:
288,160,193968,1,8,0:0:0:0:
224,160,194031,1,0,0:0:0:0:
224,160,194156,1,0,0:0:0:0:
288,160,194281,1,8,0:0:0:0:
224,160,194406,1,0,0:0:0:0:
224,160,194468,1,0,0:0:0:0:
288,160,194531,1,8,0:0:0:0:
224,160,194593,1,0,0:0:0:0:
224,160,194656,1,0,0:0:0:0:
288,160,194781,1,8,0:0:0:0:
288,160,194906,1,8,0:0:0:0:
288,160,194968,1,8,0:0:0:0:
224,160,195031,1,0,0:0:0:0:
288,160,195156,1,8,0:0:0:0:
288,160,195218,1,8,0:0:0:0:
288,160,195281,1,8,0:0:0:0:
224,160,195406,1,0,0:0:0:0:
288,224,195531,1,12,0:0:0:0:
288,224,195781,1,12,0:0:0:0:
224,160,196031,1,0,0:0:0:0:
224,160,196093,1,0,0:0:0:0:
288,160,196156,1,8,0:0:0:0:
288,160,196281,1,8,0:0:0:0:
224,160,196406,1,0,0:0:0:0:
224,160,196468,1,0,0:0:0:0:
288,160,196531,1,8,0:0:0:0:
288,160,196593,1,8,0:0:0:0:
224,160,196656,1,0,0:0:0:0:
288,160,196781,1,8,0:0:0:0:
224,160,196906,1,0,0:0:0:0:
288,160,196968,1,8,0:0:0:0:
224,160,197031,1,0,0:0:0:0:
288,160,197156,1,8,0:0:0:0:
224,160,197281,1,0,0:0:0:0:
224,160,197343,1,0,0:0:0:0:
224,160,197406,1,0,0:0:0:0:
288,160,197531,1,8,0:0:0:0:
224,160,197593,1,0,0:0:0:0:
224,160,197718,1,0,0:0:0:0:
288,160,197781,1,8,0:0:0:0:
288,160,197843,1,8,0:0:0:0:
224,160,197906,1,0,0:0:0:0:
288,160,197968,1,8,0:0:0:0:
224,160,198031,1,0,0:0:0:0:
224,160,198156,1,0,0:0:0:0:
288,160,198281,1,8,0:0:0:0:
224,160,198406,1,0,0:0:0:0:
288,160,198468,1,8,0:0:0:0:
224,160,198531,1,0,0:0:0:0:
288,160,198656,1,8,0:0:0:0:
224,160,198781,1,0,0:0:0:0:
224,160,198906,1,0,0:0:0:0:
288,160,198968,1,8,0:0:0:0:
224,160,199031,1,0,0:0:0:0:
224,160,199093,1,0,0:0:0:0:
288,160,199156,1,8,0:0:0:0:
224,160,199218,1,0,0:0:0:0:
288,160,199281,1,8,0:0:0:0:
288,160,199343,1,8,0:0:0:0:
224,160,199406,1,0,0:0:0:0:
288,160,199468,1,8,0:0:0:0:
224,160,199531,1,0,0:0:0:0:
288,160,199593,1,8,0:0:0:0:
288,160,199656,1,8,0:0:0:0:
224,160,199718,1,0,0:0:0:0:
288,160,199781,1,8,0:0:0:0:
224,224,200031,1,4,0:0:0:0:
224,160,200156,1,0,0:0:0:0:
288,160,200218,1,8,0:0:0:0:
224,160,200281,1,0,0:0:0:0:
288,160,200406,1,8,0:0:0:0:
224,160,200531,1,0,0:0:0:0:
288,160,200593,1,8,0:0:0:0:
224,160,200656,1,0,0:0:0:0:
224,160,200718,1,0,0:0:0:0:
288,160,200781,1,8,0:0:0:0:
288,160,200906,1,8,0:0:0:0:
288,160,200968,1,8,0:0:0:0:
224,160,201031,1,0,0:0:0:0:
288,160,201156,1,8,0:0:0:0:
224,160,201281,1,0,0:0:0:0:
224,160,201343,1,0,0:0:0:0:
288,160,201406,1,8,0:0:0:0:
288,160,201468,1,8,0:0:0:0:
224,160,201531,1,0,0:0:0:0:
288,160,201593,1,8,0:0:0:0:
288,160,201718,1,8,0:0:0:0:
224,160,201781,1,0,0:0:0:0:
288,160,201906,1,8,0:0:0:0:
224,160,202031,1,0,0:0:0:0:
224,160,202093,1,0,0:0:0:0:
288,160,202156,1,8,0:0:0:0:
224,160,202218,1,0,0:0:0:0:
288,160,202281,1,8,0:0:0:0:
224,160,202406,1,0,0:0:0:0:
288,160,202531,1,8,0:0:0:0:
288,160,202593,1,8,0:0:0:0:
224,160,202656,1,0,0:0:0:0:
288,160,202718,1,8,0:0:0:0:
224,160,202781,1,0,0:0:0:0:
224,160,202843,1,0,0:0:0:0:
288,160,202906,1,8,0:0:0:0:
224,160,203031,1,0,0:0:0:0:
288,160,203156,1,8,0:0:0:0:
288,160,203218,1,8,0:0:0:0:
288,160,203281,1,8,0:0:0:0:
224,160,203406,1,0,0:0:0:0:
288,224,203531,1,12,0:0:0:0:
288,224,203781,1,12,0:0:0:0:
224,160,204031,1,0,0:0:0:0:
288,160,204156,1,8,0:0:0:0:
224,160,204281,1,0,0:0:0:0:
288,160,204406,1,8,0:0:0:0:
288,160,204468,1,8,0:0:0:0:
224,160,204531,1,0,0:0:0:0:
224,160,204593,1,0,0:0:0:0:
288,160,204656,1,8,0:0:0:0:
224,160,204781,1,0,0:0:0:0:
288,160,204843,1,8,0:0:0:0:
224,160,204906,1,0,0:0:0:0:
224,160,204968,1,0,0:0:0:0:
288,160,205031,1,8,0:0:0:0:
288,160,205156,1,8,0:0:0:0:
224,160,205281,1,0,0:0:0:0:
224,160,205343,1,0,0:0:0:0:
288,160,205406,1,8,0:0:0:0:
224,160,205468,1,0,0:0:0:0:
288,160,205531,1,8,0:0:0:0:
288,160,205593,1,8,0:0:0:0:
224,160,205656,1,0,0:0:0:0:
288,160,205718,1,8,0:0:0:0:
224,160,205781,1,0,0:0:0:0:
288,160,205906,1,8,0:0:0:0:
224,160,206031,1,0,0:0:0:0:
288,160,206093,1,8,0:0:0:0:
288,160,206156,1,8,0:0:0:0:
224,160,206218,1,0,0:0:0:0:
288,160,206281,1,8,0:0:0:0:
288,160,206343,1,8,0:0:0:0:
224,160,206406,1,0,0:0:0:0:
288,160,206468,1,8,0:0:0:0:
288,160,206531,1,8,0:0:0:0:
288,160,206593,1,8,0:0:0:0:
224,160,206656,1,0,0:0:0:0:
288,160,206718,1,8,0:0:0:0:
224,160,206781,1,0,0:0:0:0:
224,160,206843,1,0,0:0:0:0:
288,160,206906,1,8,0:0:0:0:
224,160,207031,1,0,0:0:0:0:
224,160,207093,1,0,0:0:0:0:
288,160,207156,1,8,0:0:0:0:
288,160,207218,1,8,0:0:0:0:
288,160,207281,1,8,0:0:0:0:
224,160,207343,1,0,0:0:0:0:
288,160,207406,1,8,0:0:0:0:
224,160,207468,1,0,0:0:0:0:
288,160,207531,1,8,0:0:0:0:
288,160,207593,1,8,0:0:0:0:
224,160,207656,1,0,0:0:0:0:
288,160,207718,1,8,0:0:0:0:
288,160,207781,1,8,0:0:0:0:
224,224,208031,1,4,0:0:0:0:
288,160,208156,1,8,0:0:0:0:
288,160,208218,1,8,0:0:0:0:
224,160,208281,1,0,0:0:0:0:
224,160,208343,1,0,0:0:0:0:
288,160,208406,1,8,0:0:0:0:
224,160,208531,1,0,0:0:0:0:
224,160,208593,1,0,0:0:0:0:
288,160,208656,1,8,0:0:0:0:
224,160,208718,1,0,0:0:0:0:
224,160,208781,1,0,0:0:0:0:
224,160,208843,1,0,0:0:0:0:
288,160,208906,1,8,0:0:0:0:
288,160,208968,1,8,0:0:0:0:
224,160,209031,1,0,0:0:0:0:
288,160,209156,1,8,0:0:0:0:
224,160,209218,1,0,0:0:0:0:
224,160,209281,1,0,0:0:0:0:
224,160,209343,1,0,0:0:0:0:
288,160,209406,1,8,0:0:0:0:
288,160,209531,1,8,0:0:0:0:
288,160,209593,1,8,0:0:0:0:
224,160,209656,1,0,0:0:0:0:
224,160,209718,1,0,0:0:0:0:
288,160,209781,1,8,0:0:0:0:
288,160,209843,1,8,0:0:0:0:
224,160,209906,1,0,0:0:0:0:
288,160,209968,1,8,0:0:0:0:
224,160,210031,1,0,0:0:0:0:
288,160,210156,1,8,0:0:0:0:
224,160,210218,1,0,0:0:0:0:
224,160,210281,1,0,0:0:0:0:
224,160,210343,1,0,0:0:0:0:
288,160,210406,1,8,0:0:0:0:
224,160,210531,1,0,0:0:0:0:
224,160,210593,1,0,0:0:0:0:
288,160,210656,1,8,0:0:0:0:
288,160,210718,1,8,0:0:0:0:
224,160,210781,1,0,0:0:0:0:
288,160,210843,1,8,0:0:0:0:
288,160,210906,1,8,0:0:0:0:
288,160,210968,1,8,0:0:0:0:
224,160,211031,1,0,0:0:0:0:
288,160,211156,1,8,0:0:0:0:
288,160,211218,1,8,0:0:0:0:
288,160,211281,1,8,0:0:0:0:
224,160,211406,1,0,0:0:0:0:
288,224,211531,1,12,0:0:0:0:
288,224,211781,1,12,0:0:0:0:
224,160,212031,1,0,0:0:0:0:
224,160,212093,1,0,0:0:0:0:
288,160,212156,1,8,0:0:0:0:
288,160,212218,1,8,0:0:0:0:
224,160,212281,1,0,0:0:0:0:
224,160,212343,1,0,0:0:0:0:
288,160,212406,1,8,0:0:0:0:
224,160,212531,1,0,0:0:0:0:
288,160,212593,1,8,0:0:0:0:
224,160,212656,1,0,0:0:0:0:
288,160,212718,1,8,0:0:0:0:
224,160,212781,1,0,0:0:0:0:
224,160,212843,1,0,0:0:0:0:
288,160,212906,1,8,0:0:0:0:
288,160,212968,1,8,0:0:0:0:
224,160,213031,1,0,0:0:0:0:
224,160,213093,1,0,0:0:0:0:
288,160,213156,1,8,0:0:0:0:
224,160,213281,1,0,0:0:0:0:
288,160,213406,1,8,0:0:0:0:
288,160,213468,1,8,0:0:0:0:
224,160,213531,1,0,0:0:0:0:
224,160,213593,1,0,0:0:0:0:
288,160,213656,1,8,0:0:0:0:
224,160,213718,1,0,0:0:0:0:
288,160,213781,1,8,0:0:0:0:
288,160,213843,1,8,0:0:0:0:
224,160,213906,1,0,0:0:0:0:
224,160,214031,1,0,0:0:0:0:
224,160,214093,1,0,0:0:0:0:
224,160,214156,1,0,0:0:0:0:
288,160,214218,1,8,0:0:0:0:
224,160,214281,1,0,0:0:0:0:
224,160,214343,1,0,0:0:0:0:
288,160,214406,1,8,0:0:0:0:
288,160,214468,1,8,0:0:0:0:
224,160,214531,1,0,0:0:0:0:
224,160,214593,1,0,0:0:0:0:
288,160,214656,1,8,0:0:0:0:
288,160,214718,1,8,0:0:0:0:
288,160,214781,1,8,0:0:0:0:
224,160,214843,1,0,0:0:0:0:
288,160,214906,1,8,0:0:0:0:
224,160,215031,1,0,0:0:0:0:
224,160,215093,1,0,0:0:0:0:
288,160,215156,1,8,0:0:0:0:
224,160,215218,1,0,0:0:0:0:
288,160,215281,1,8,0:0:0:0:
288,160,215343,1,8,0:0:0:0:
288,160,215406,1,8,0:0:0:0:
224,160,215468,1,0,0:0:0:0:
224,160,215531,1,0,0:0:0:0:
288,160,215593,1,8,0:0:0:0:
288,160,215656,1,8,0:0:0:0:
224,160,215718,1,0,0:0:0:0:
288,160,215781,1,8,0:0:0:0:
224,224,216031,1,4,0:0:0:0:
224,224,216406,1,4,0:0:0:0:
224,224,216781,1,4,0:0:0:0:
224,224,217156,1,4,0:0:0:0:
224,224,217531,1,4,0:0:0:0:
224,224,217781,1,4,0:0:0:0:
224,224,217906,1,4,0:0:0:0:
224,224,218031,1,4,0:0:0:0:
288,160,218156,1,8,0:0:0:0:
224,160,218218,1,0,0:0:0:0:
224,160,218281,1,0,0:0:0:0:
224,160,218343,1,0,0:0:0:0:
288,160,218406,1,8,0:0:0:0:
288,160,218468,1,8,0:0:0:0:
224,160,218531,1,0,0:0:0:0:
288,160,218593,1,8,0:0:0:0:
224,160,218656,1,0,0:0:0:0:
224,160,218718,1,0,0:0:0:0:
288,160,218781,1,8,0:0:0:0:
224,160,218843,1,0,0:0:0:0:
288,160,218906,1,8,0:0:0:0:
288,160,218968,1,8,0:0:0:0:
224,160,219031,1,0,0:0:0:0:
288,160,219156,1,8,0:0:0:0:
288,160,219218,1,8,0:0:0:0:
288,160,219281,1,8,0:0:0:0:
224,160,219406,1,0,0:0:0:0:
288,224,219531,1,12,0:0:0:0:
288,224,219781,1,12,0:0:0:0:
224,224,220031,1,4,0:0:0:0:
224,160,220156,1,0,0:0:0:0:
288,160,220281,1,8,0:0:0:0:
224,160,220406,1,0,0:0:0:0:
224,160,220531,1,0,0:0:0:0:
224,160,220656,1,0,0:0:0:0:
288,160,220781,1,8,0:0:0:0:
224,160,220906,1,0,0:0:0:0:
224,224,221031,1,4,0:0:0:0:
224,160,221156,1,0,0:0:0:0:
288,160,221281,1,8,0:0:0:0:
288,160,221343,1,8,0:0:0:0:
224,160,221406,1,0,0:0:0:0:
224,160,221468,1,0,0:0:0:0:
224,160,221531,1,0,0:0:0:0:
288,160,221656,1,8,0:0:0:0:
224,160,221781,1,0,0:0:0:0:
288,160,221906,1,8,0:0:0:0:
288,160,222031,1,8,0:0:0:0:
224,160,222093,1,0,0:0:0:0:
224,160,222156,1,0,0:0:0:0:
288,160,222218,1,8,0:0:0:0:
224,160,222281,1,0,0:0:0:0:
224,160,222343,1,0,0:0:0:0:
288,160,222406,1,8,0:0:0:0:
224,160,222468,1,0,0:0:0:0:
288,160,222531,1,8,0:0:0:0:
288,160,222593,1,8,0:0:0:0:
224,160,222656,1,0,0:0:0:0:
288,160,222718,1,8,0:0:0:0:
288,160,222781,1,8,0:0:0:0:
288,160,222843,1,8,0:0:0:0:
224,160,222906,1,0,0:0:0:0:
288,160,222968,1,8,0:0:0:0:
224,160,223031,1,0,0:0:0:0:
224,160,223093,1,0,0:0:0:0:
288,160,223156,1,8,0:0:0:0:
224,160,223218,1,0,0:0:0:0:
288,160,223281,1,8,0:0:0:0:
288,160,223343,1,8,0:0:0:0:
288,160,223406,1,8,0:0:0:0:
224,160,223468,1,0,0:0:0:0:
224,160,223531,1,0,0:0:0:0:
288,160,223593,1,8,0:0:0:0:
224,160,223656,1,0,0:0:0:0:
288,160,223718,1,8,0:0:0:0:
288,160,223781,1,8,0:0:0:0:
224,224,224031,1,4,0:0:0:0:
224,160,224156,1,0,0:0:0:0:
224,160,224218,1,0,0:0:0:0:
288,160,224281,1,8,0:0:0:0:
288,160,224406,1,8,0:0:0:0:
224,160,224531,1,0,0:0:0:0:
224,160,224656,1,0,0:0:0:0:
288,160,224781,1,8,0:0:0:0:
224,160,224906,1,0,0:0:0:0:
288,160,224968,1,8,0:0:0:0:
224,160,225031,1,0,0:0:0:0:
224,160,225093,1,0,0:0:0:0:
288,160,225156,1,8,0:0:0:0:
288,160,225281,1,8,0:0:0:0:
224,160,225406,1,0,0:0:0:0:
224,160,225531,1,0,0:0:0:0:
224,160,225593,1,0,0:0:0:0:
288,160,225718,1,8,0:0:0:0:
224,160,225781,1,0,0:0:0:0:
288,160,225906,1,8,0:0:0:0:
224,160,226031,1,0,0:0:0:0:
288,160,226156,1,8,0:0:0:0:
224,160,226281,1,0,0:0:0:0:
288,160,226406,1,8,0:0:0:0:
288,160,226468,1,8,0:0:0:0:
224,160,226531,1,0,0:0:0:0:
224,160,226593,1,0,0:0:0:0:
288,160,226656,1,8,0:0:0:0:
288,160,226781,1,8,0:0:0:0:
224,160,226843,1,0,0:0:0:0:
224,160,226906,1,0,0:0:0:0:
224,160,226968,1,0,0:0:0:0:
288,160,227031,1,8,0:0:0:0:
224,160,227156,1,0,0:0:0:0:
288,160,227281,1,8,0:0:0:0:
288,160,227406,1,8,0:0:0:0:
224,224,227531,1,4,0:0:0:0:
288,224,227781,1,12,0:0:0:0:
224,160,228031,1,0,0:0:0:0:
288,160,228156,1,8,0:0:0:0:
288,160,228218,1,8,0:0:0:0:
224,160,228281,1,0,0:0:0:0:
288,160,228406,1,8,0:0:0:0:
224,160,228531,1,0,0:0:0:0:
288,160,228656,1,8,0:0:0:0:
224,160,228718,1,0,0:0:0:0:
288,160,228781,1,8,0:0:0:0:
288,160,228843,1,8,0:0:0:0:
224,160,228906,1,0,0:0:0:0:
288,160,228968,1,8,0:0:0:0:
224,160,229031,1,0,0:0:0:0:
288,160,229156,1,8,0:0:0:0:
288,160,229281,1,8,0:0:0:0:
288,160,229343,1,8,0:0:0:0:
224,160,229406,1,0,0:0:0:0:
224,160,229531,1,0,0:0:0:0:
288,160,229593,1,8,0:0:0:0:
288,160,229718,1,8,0:0:0:0:
224,160,229781,1,0,0:0:0:0:
224,160,229843,1,0,0:0:0:0:
288,160,229906,1,8,0:0:0:0:
224,160,230031,1,0,0:0:0:0:
224,160,230156,1,0,0:0:0:0:
288,160,230218,1,8,0:0:0:0:
224,160,230281,1,0,0:0:0:0:
288,160,230406,1,8,0:0:0:0:
224,160,230531,1,0,0:0:0:0:
224,160,230656,1,0,0:0:0:0:
224,160,230718,1,0,0:0:0:0:
288,160,230781,1,8,0:0:0:0:
288,160,230843,1,8,0:0:0:0:
224,160,230906,1,0,0:0:0:0:
288,160,231031,1,8,0:0:0:0:
288,160,231093,1,8,0:0:0:0:
288,160,231156,1,8,0:0:0:0:
288,160,231218,1,8,0:0:0:0:
224,160,231281,1,0,0:0:0:0:
224,160,231343,1,0,0:0:0:0:
288,160,231406,1,8,0:0:0:0:
224,160,231531,1,0,0:0:0:0:
288,160,231593,1,8,0:0:0:0:
224,160,231656,1,0,0:0:0:0:
224,160,231718,1,0,0:0:0:0:
288,160,231781,1,8,0:0:0:0:
288,160,231843,1,8,0:0:0:0:
224,160,231906,1,0,0:0:0:0:
224,224,232031,1,4,0:0:0:0:
288,160,232156,1,8,0:0:0:0:
224,160,232218,1,0,0:0:0:0:
288,160,232281,1,8,0:0:0:0:
224,160,232406,1,0,0:0:0:0:
288,160,232531,1,8,0:0:0:0:
224,160,232593,1,0,0:0:0:0:
288,160,232656,1,8,0:0:0:0:
288,160,232718,1,8,0:0:0:0:
224,160,232781,1,0,0:0:0:0:
224,160,232843,1,0,0:0:0:0:
288,160,232906,1,8,0:0:0:0:
224,160,233031,1,0,0:0:0:0:
288,160,233156,1,8,0:0:0:0:
288,160,233218,1,8,0:0:0:0:
224,160,233281,1,0,0:0:0:0:
288,160,233406,1,8,0:0:0:0:
224,160,233531,1,0,0:0:0:0:
224,160,233593,1,0,0:0:0:0:
288,160,233718,1,8,0:0:0:0:
224,160,233781,1,0,0:0:0:0:
224,160,233843,1,0,0:0:0:0:
288,160,233906,1,8,0:0:0:0:
224,160,234031,1,0,0:0:0:0:
224,160,234156,1,0,0:0:0:0:
224,160,234218,1,0,0:0:0:0:
224,160,234281,1,0,0:0:0:0:
288,160,234406,1,8,0:0:0:0:
224,160,234531,1,0,0:0:0:0:
224,160,234593,1,0,0:0:0:0:
224,160,234656,1,0,0:0:0:0:
224,160,234718,1,0,0:0:0:0:
288,160,234781,1,8,0:0:0:0:
224,160,234906,1,0,0:0:0:0:
288,160,235031,1,8,0:0:0:0:
224,160,235156,1,0,0:0:0:0:
224,160,235218,1,0,0:0:0:0:
288,160,235281,1,8,0:0:0:0:
288,160,235406,1,8,0:0:0:0:
224,224,235531,1,4,0:0:0:0:
288,224,235781,1,12,0:0:0:0:
224,160,236031,1,0,0:0:0:0:
224,160,236156,1,0,0:0:0:0:
288,160,236281,1,8,0:0:0:0:
224,160,236406,1,0,0:0:0:0:
224,160,236531,1,0,0:0:0:0:
224,160,236656,1,0,0:0:0:0:
288,224,236781,1,12,0:0:0:0:
224,160,237031,1,0,0:0:0:0:
224,160,237156,1,0,0:0:0:0:
288,160,237281,1,8,0:0:0:0:
288,160,237343,1,8,0:0:0:0:
224,160,237406,1,0,0:0:0:0:
288,160,237468,1,8,0:0:0:0:
224,160,237531,1,0,0:0:0:0:
224,160,237656,1,0,0:0:0:0:
288,224,237781,1,12,0:0:0:0:
224,160,238031,1,0,0:0:0:0:
224,160,238156,1,0,0:0:0:0:
288,224,238281,1,12,0:0:0:0:
224,160,238406,1,0,0:0:0:0:
288,160,238468,1,8,0:0:0:0:
224,160,238531,1,0,0:0:0:0:
224,160,238593,1,0,0:0:0:0:
288,160,238656,1,8,0:0:0:0:
224,160,238718,1,0,0:0:0:0:
288,160,238781,1,8,0:0:0:0:
288,160,238843,1,8,0:0:0:0:
224,160,238906,1,0,0:0:0:0:
288,160,238968,1,8,0:0:0:0:
224,160,239031,1,0,0:0:0:0:
288,160,239156,1,8,0:0:0:0:
224,160,239218,1,0,0:0:0:0:
288,160,239281,1,8,0:0:0:0:
288,160,239343,1,8,0:0:0:0:
224,160,239406,1,0,0:0:0:0:
288,160,239468,1,8,0:0:0:0:
224,160,239531,1,0,0:0:0:0:
224,160,239593,1,0,0:0:0:0:
224,160,239656,1,0,0:0:0:0:
224,160,239718,1,0,0:0:0:0:
288,160,239781,1,8,0:0:0:0:
288,160,239843,1,8,0:0:0:0:
224,160,239906,1,0,0:0:0:0:
288,224,240031,1,12,0:0:0:0:
256,192,240156,12,0,242906,0:0:0:0:
