osu file format v14

[General]
AudioFilename: audio.mp3
AudioLeadIn: 0
PreviewTime: 13570
Countdown: 0
SampleSet: Normal
StackLeniency: 0.7
Mode: 1
LetterboxInBreaks: 0
WidescreenStoryboard: 1

[Editor]
Bookmarks: 117460
DistanceSpacing: 1
BeatDivisor: 8
GridSize: 32
TimelineZoom: 3.099999

[Metadata]
Title:OTENAMI Hurricane
TitleUnicode:OTENAMI Hurricane
Artist:t+pazolite
ArtistUnicode:t+pazolite
Creator:Kaxei
Version:incan's Hell Oni
Source:beatmania IIDX 24 SINOBUZ
Tags:BEMANI Series BEMANIシリーズ Pop Breakcore Electronic Video Game Instrumental Konami incandescence Taikocracy
BeatmapID:2249748
BeatmapSetID:992992

[Difficulty]
HPDrainRate:6
CircleSize:2
OverallDifficulty:6.5
ApproachRate:10
SliderMultiplier:1.4
SliderTickRate:1

[Events]
//Background and Video events
0,0,"a.jpg",0,40
//Break Periods
//Storyboard Layer 0 (Background)
//Storyboard Layer 1 (Fail)
//Storyboard Layer 2 (Pass)
//Storyboard Layer 3 (Foreground)
//Storyboard Layer 4 (Overlay)
//Storyboard Sound Samples

[TimingPoints]
175,279.06976744186,4,1,0,100,1,0
4012,-40,4,1,0,75,0,0
4151,-125,4,1,0,75,0,0
8547,-121.212121212121,4,1,0,80,0,0
8826,-117.64705882353,4,1,0,85,0,0
8965,-114.285714285714,4,1,0,90,0,0
9105,-111.111111111111,4,1,0,100,0,0
12733,-108.695652173913,4,1,0,100,0,0
12872,-106.382978723404,4,1,0,100,0,0
13012,-104.166666666667,4,1,0,100,0,0
13151,-102.040816326531,4,1,0,100,0,0
13291,-100,4,1,0,100,0,0
31430,-111.111111111111,4,1,0,80,0,0
35616,-105.263157894737,4,1,0,90,0,0
35895,-100,4,1,0,100,0,0
53756,-133.333333333333,4,1,0,100,0,0
61570,-129.032258064516,4,1,0,100,0,0
61709,-125,4,1,0,100,0,0
61779,-121.951219512195,4,1,0,100,0,0
61849,-119.047619047619,4,1,0,100,0,0
61988,-116.279069767442,4,1,0,100,0,0
62058,-113.636363636364,4,1,0,100,0,0
62128,-111.111111111111,4,1,0,100,0,0
62198,-108.695652173913,4,1,0,100,0,0
62268,-106.382978723404,4,1,0,100,0,0
62302,-105.263157894737,4,1,0,100,0,0
62407,-104.166666666667,4,1,0,100,0,0
62454,-103.092783505155,4,1,0,100,0,0
62500,-102.040816326531,4,1,0,100,0,0
62547,-101.010101010101,4,1,0,100,0,0
62686,-100,4,1,0,100,0,0
71895,-125,4,1,0,80,0,0
75942,-121.212121212121,4,1,0,82,0,0
76081,-117.647058823529,4,1,0,85,0,0
80407,-114.285714285714,4,1,0,87,0,0
80547,-111.111111111111,4,1,0,90,0,0
84872,-105.263157894737,4,1,0,95,0,0
85012,-100,4,1,0,100,0,0
89058,-80,4,1,0,100,0,0
89198,-66.6666666666667,4,1,0,100,0,0
89477,-90.9090909090909,4,1,0,100,0,1
98128,-90.9090909090909,4,1,0,100,0,0
98407,-90.9090909090909,4,1,0,100,0,1
106779,-92.5925925925926,4,1,0,100,0,1
106919,-94.3396226415094,4,1,0,100,0,1
107058,-96.1538461538461,4,1,0,100,0,1
107198,-98.0392156862745,4,1,0,100,0,1
107337,-100,4,1,0,100,0,0

[HitObjects]
256,192,4081,5,12,0:0:0:0:
256,192,4361,1,0,0:0:0:0:
256,192,4500,1,0,0:0:0:0:
256,192,4640,1,8,0:0:0:0:
256,192,4919,1,0,0:0:0:0:
256,192,5198,1,8,0:0:0:0:
256,192,5337,1,8,0:0:0:0:
256,192,5407,1,8,0:0:0:0:
256,192,5477,1,0,0:0:0:0:
256,192,5616,1,8,0:0:0:0:
256,192,5756,1,0,0:0:0:0:
256,192,5895,1,8,0:0:0:0:
256,192,6035,1,0,0:0:0:0:
256,192,6314,1,8,0:0:0:0:
256,192,6593,1,0,0:0:0:0:
256,192,6733,1,0,0:0:0:0:
256,192,6872,1,8,0:0:0:0:
256,192,7151,1,0,0:0:0:0:
256,192,7430,1,8,0:0:0:0:
256,192,7570,1,8,0:0:0:0:
256,192,7640,1,0,0:0:0:0:
256,192,7709,1,8,0:0:0:0:
256,192,7849,1,0,0:0:0:0:
256,192,7988,1,8,0:0:0:0:
256,192,8128,1,0,0:0:0:0:
256,192,8268,1,0,0:0:0:0:
256,192,8547,1,8,0:0:0:0:
256,192,8826,1,0,0:0:0:0:
256,192,8965,1,0,0:0:0:0:
256,192,9105,1,12,0:0:0:0:
256,192,9244,1,0,0:0:0:0:
256,192,9314,1,0,0:0:0:0:
256,192,9384,1,8,0:0:0:0:
256,192,9523,1,4,0:0:0:0:
256,192,9663,1,8,0:0:0:0:
256,192,9733,1,0,0:0:0:0:
256,192,9802,1,8,0:0:0:0:
256,192,10081,1,0,0:0:0:0:
256,192,10221,1,12,0:0:0:0:
256,192,10361,1,8,0:0:0:0:
256,192,10430,1,8,0:0:0:0:
256,192,10500,1,0,0:0:0:0:
256,192,10640,1,4,0:0:0:0:
256,192,10779,1,8,0:0:0:0:
256,192,10849,1,8,0:0:0:0:
256,192,10919,1,0,0:0:0:0:
256,192,10965,1,0,0:0:0:0:
256,192,11012,1,0,0:0:0:0:
256,192,11058,1,8,0:0:0:0:
256,192,11198,1,0,0:0:0:0:
256,192,11268,1,0,0:0:0:0:
256,192,11337,1,8,0:0:0:0:
256,192,11477,1,8,0:0:0:0:
256,192,11616,1,0,0:0:0:0:
256,192,11686,1,0,0:0:0:0:
256,192,11756,1,8,0:0:0:0:
256,192,11826,1,8,0:0:0:0:
256,192,11895,1,0,0:0:0:0:
256,192,11965,1,8,0:0:0:0:
256,192,12035,1,0,0:0:0:0:
256,192,12105,1,0,0:0:0:0:
256,192,12174,1,8,0:0:0:0:
256,192,12221,1,8,0:0:0:0:
256,192,12268,1,8,0:0:0:0:
256,192,12314,1,0,0:0:0:0:
256,192,12384,1,0,0:0:0:0:
256,192,12454,1,8,0:0:0:0:
256,192,12733,1,8,0:0:0:0:
256,192,12872,1,8,0:0:0:0:
256,192,13012,1,0,0:0:0:0:
256,192,13151,1,4,0:0:0:0:
256,192,13291,1,12,0:0:0:0:
256,192,13570,1,4,0:0:0:0:
256,192,13709,1,8,0:0:0:0:
256,192,13849,1,0,0:0:0:0:
256,192,13988,1,0,0:0:0:0:
256,192,14058,1,0,0:0:0:0:
256,192,14128,1,8,0:0:0:0:
256,192,14268,1,0,0:0:0:0:
256,192,14407,1,8,0:0:0:0:
256,192,14477,1,8,0:0:0:0:
256,192,14547,1,0,0:0:0:0:
256,192,14686,1,8,0:0:0:0:
256,192,14826,1,0,0:0:0:0:
256,192,14895,1,0,0:0:0:0:
256,192,14965,1,8,0:0:0:0:
256,192,15012,1,8,0:0:0:0:
256,192,15058,1,8,0:0:0:0:
256,192,15105,1,0,0:0:0:0:
256,192,15174,1,0,0:0:0:0:
256,192,15244,1,8,0:0:0:0:
256,192,15384,1,0,0:0:0:0:
256,192,15523,1,8,0:0:0:0:
256,192,15802,1,4,0:0:0:0:
256,192,15942,1,8,0:0:0:0:
256,192,16012,1,0,0:0:0:0:
256,192,16081,1,0,0:0:0:0:
256,192,16221,1,8,0:0:0:0:
256,192,16361,1,0,0:0:0:0:
256,192,16430,1,8,0:0:0:0:
256,192,16500,1,0,0:0:0:0:
256,192,16570,1,0,0:0:0:0:
256,192,16640,1,8,0:0:0:0:
256,192,16779,1,4,0:0:0:0:
256,192,17058,1,8,0:0:0:0:
256,192,17128,1,8,0:0:0:0:
256,192,17198,1,0,0:0:0:0:
256,192,17337,1,8,0:0:0:0:
256,192,17477,1,0,0:0:0:0:
256,192,17756,1,8,0:0:0:0:
256,192,17791,1,8,0:0:0:0:
256,192,17895,1,8,0:0:0:0:
256,192,17930,1,8,0:0:0:0:
256,192,18035,1,4,0:0:0:0:
256,192,18174,1,0,0:0:0:0:
256,192,18244,1,0,0:0:0:0:
256,192,18314,1,8,0:0:0:0:
256,192,18384,1,8,0:0:0:0:
256,192,18454,1,0,0:0:0:0:
256,192,18523,1,8,0:0:0:0:
256,192,18593,1,0,0:0:0:0:
256,192,18733,1,8,0:0:0:0:
256,192,18802,1,8,0:0:0:0:
256,192,18872,1,0,0:0:0:0:
256,192,18919,1,8,0:0:0:0:
256,192,18965,1,8,0:0:0:0:
256,192,19012,1,0,0:0:0:0:
256,192,19081,1,0,0:0:0:0:
256,192,19151,1,8,0:0:0:0:
256,192,19291,1,8,0:0:0:0:
256,192,19361,1,8,0:0:0:0:
256,192,19430,1,0,0:0:0:0:
256,192,19570,1,8,0:0:0:0:
256,192,19709,1,4,0:0:0:0:
256,192,19849,1,8,0:0:0:0:
256,192,19988,1,8,0:0:0:0:
256,192,20058,1,8,0:0:0:0:
256,192,20128,1,0,0:0:0:0:
256,192,20268,1,4,0:0:0:0:
256,192,20407,1,0,0:0:0:0:
256,192,20547,1,8,0:0:0:0:
256,192,20686,1,8,0:0:0:0:
256,192,20756,1,8,0:0:0:0:
256,192,20826,1,0,0:0:0:0:
256,192,20965,1,0,0:0:0:0:
256,192,21035,1,0,0:0:0:0:
256,192,21105,1,8,0:0:0:0:
256,192,21174,1,0,0:0:0:0:
256,192,21244,1,8,0:0:0:0:
256,192,21384,1,0,0:0:0:0:
256,192,21523,1,0,0:0:0:0:
256,192,21593,1,0,0:0:0:0:
256,192,21663,1,8,0:0:0:0:
256,192,21733,1,0,0:0:0:0:
256,192,21802,1,8,0:0:0:0:
256,192,21872,1,8,0:0:0:0:
256,192,21942,1,0,0:0:0:0:
256,192,22221,1,8,0:0:0:0:
256,192,22500,1,12,0:0:0:0:
256,192,22640,1,0,0:0:0:0:
256,192,22779,1,8,0:0:0:0:
256,192,22919,1,8,0:0:0:0:
256,192,22988,1,8,0:0:0:0:
256,192,23058,1,0,0:0:0:0:
256,192,23198,1,8,0:0:0:0:
256,192,23337,1,0,0:0:0:0:
256,192,23407,1,0,0:0:0:0:
256,192,23477,1,8,0:0:0:0:
256,192,23616,1,0,0:0:0:0:
256,192,23756,1,8,0:0:0:0:
256,192,23826,1,8,0:0:0:0:
256,192,23895,1,0,0:0:0:0:
256,192,23942,1,0,0:0:0:0:
256,192,23988,1,0,0:0:0:0:
256,192,24035,1,8,0:0:0:0:
256,192,24174,1,0,0:0:0:0:
256,192,24454,1,8,0:0:0:0:
256,192,24593,1,8,0:0:0:0:
256,192,24733,1,4,0:0:0:0:
256,192,24872,1,0,0:0:0:0:
256,192,24942,1,0,0:0:0:0:
256,192,25012,1,8,0:0:0:0:
256,192,25151,1,0,0:0:0:0:
256,192,25291,1,8,0:0:0:0:
256,192,25361,1,0,0:0:0:0:
256,192,25430,1,8,0:0:0:0:
256,192,25570,1,8,0:0:0:0:
256,192,25709,1,4,0:0:0:0:
256,192,25988,1,8,0:0:0:0:
256,192,26058,1,8,0:0:0:0:
256,192,26128,1,0,0:0:0:0:
256,192,26268,1,0,0:0:0:0:
256,192,26407,1,12,0:0:0:0:
256,192,26547,1,0,0:0:0:0:
256,192,26686,1,12,0:0:0:0:
256,192,26826,1,8,0:0:0:0:
256,192,26965,1,4,0:0:0:0:
256,192,27105,1,0,0:0:0:0:
256,192,27174,1,0,0:0:0:0:
256,192,27244,1,8,0:0:0:0:
256,192,27384,1,8,0:0:0:0:
256,192,27454,1,0,0:0:0:0:
256,192,27523,1,8,0:0:0:0:
256,192,27663,1,0,0:0:0:0:
256,192,27802,1,8,0:0:0:0:
256,192,27872,1,8,0:0:0:0:
256,192,27942,1,0,0:0:0:0:
256,192,28012,1,8,0:0:0:0:
256,192,28081,1,0,0:0:0:0:
256,192,28221,1,0,0:0:0:0:
256,192,28291,1,0,0:0:0:0:
256,192,28361,1,8,0:0:0:0:
256,192,28407,1,0,0:0:0:0:
256,192,28454,1,0,0:0:0:0:
256,192,28500,1,8,0:0:0:0:
256,192,28640,1,0,0:0:0:0:
256,192,28919,1,12,0:0:0:0:
256,192,29198,1,8,0:0:0:0:
256,192,29337,1,0,0:0:0:0:
256,192,29384,1,0,0:0:0:0:
256,192,29430,1,0,0:0:0:0:
256,192,29477,1,8,0:0:0:0:
256,192,29616,1,8,0:0:0:0:
256,192,29756,1,8,0:0:0:0:
256,192,29826,1,0,0:0:0:0:
256,192,29895,1,8,0:0:0:0:
256,192,29965,1,8,0:0:0:0:
256,192,30035,1,0,0:0:0:0:
256,192,30174,1,8,0:0:0:0:
256,192,30314,12,0,31430,0:0:0:0:
256,192,31570,5,8,0:0:0:0:
256,192,31709,1,8,0:0:0:0:
256,192,31849,1,0,0:0:0:0:
256,192,31988,1,8,0:0:0:0:
256,192,32128,1,8,0:0:0:0:
256,192,32268,1,0,0:0:0:0:
256,192,32407,1,8,0:0:0:0:
256,192,32547,1,0,0:0:0:0:
256,192,32686,1,0,0:0:0:0:
256,192,32826,1,8,0:0:0:0:
256,192,32965,1,8,0:0:0:0:
256,192,33105,1,0,0:0:0:0:
256,192,33384,1,8,0:0:0:0:
256,192,33802,1,8,0:0:0:0:
256,192,33872,1,8,0:0:0:0:
256,192,33942,1,8,0:0:0:0:
256,192,34081,1,0,0:0:0:0:
256,192,34221,1,8,0:0:0:0:
256,192,34361,1,8,0:0:0:0:
256,192,34500,1,0,0:0:0:0:
256,192,34640,1,8,0:0:0:0:
256,192,34779,1,0,0:0:0:0:
256,192,34919,1,0,0:0:0:0:
256,192,35058,1,8,0:0:0:0:
256,192,35198,1,0,0:0:0:0:
256,192,35337,1,8,0:0:0:0:
256,192,35616,1,0,0:0:0:0:
256,192,35895,1,12,0:0:0:0:
256,192,36035,1,0,0:0:0:0:
256,192,36105,1,0,0:0:0:0:
256,192,36174,1,8,0:0:0:0:
256,192,36314,1,0,0:0:0:0:
256,192,36454,1,8,0:0:0:0:
256,192,36523,1,8,0:0:0:0:
256,192,36593,1,8,0:0:0:0:
256,192,36733,1,0,0:0:0:0:
256,192,36872,1,8,0:0:0:0:
256,192,37012,1,0,0:0:0:0:
256,192,37151,1,0,0:0:0:0:
256,192,37291,1,8,0:0:0:0:
256,192,37430,1,8,0:0:0:0:
256,192,37570,1,0,0:0:0:0:
256,192,37605,1,8,0:0:0:0:
256,192,37849,1,8,0:0:0:0:
256,192,38128,1,4,0:0:0:0:
256,192,38268,1,8,0:0:0:0:
256,192,38337,1,0,0:0:0:0:
256,192,38407,1,8,0:0:0:0:
256,192,38547,1,0,0:0:0:0:
256,192,38686,1,8,0:0:0:0:
256,192,38756,1,8,0:0:0:0:
256,192,38826,1,0,0:0:0:0:
256,192,38965,1,8,0:0:0:0:
256,192,39105,1,0,0:0:0:0:
256,192,39244,1,0,0:0:0:0:
256,192,39314,1,0,0:0:0:0:
256,192,39384,1,8,0:0:0:0:
256,192,39454,1,0,0:0:0:0:
256,192,39523,1,8,0:0:0:0:
256,192,39663,1,0,0:0:0:0:
256,192,39802,1,8,0:0:0:0:
256,192,40081,1,8,0:0:0:0:
256,192,40174,1,0,0:0:0:0:
256,192,40268,1,8,0:0:0:0:
256,192,40361,1,4,0:0:0:0:
256,192,40500,1,8,0:0:0:0:
256,192,40570,1,0,0:0:0:0:
256,192,40640,1,8,0:0:0:0:
256,192,40709,1,8,0:0:0:0:
256,192,40779,1,0,0:0:0:0:
256,192,40919,1,8,0:0:0:0:
256,192,41058,1,0,0:0:0:0:
256,192,41128,1,0,0:0:0:0:
256,192,41198,1,8,0:0:0:0:
256,192,41337,1,0,0:0:0:0:
256,192,41477,1,8,0:0:0:0:
256,192,41547,1,8,0:0:0:0:
256,192,41616,1,8,0:0:0:0:
256,192,41756,1,0,0:0:0:0:
256,192,41895,1,8,0:0:0:0:
256,192,42035,1,0,0:0:0:0:
256,192,42174,1,0,0:0:0:0:
256,192,42314,1,0,0:0:0:0:
256,192,42454,1,0,0:0:0:0:
256,192,42593,1,4,0:0:0:0:
256,192,42733,1,0,0:0:0:0:
256,192,42802,1,0,0:0:0:0:
256,192,42872,1,8,0:0:0:0:
256,192,42942,1,0,0:0:0:0:
256,192,43012,1,8,0:0:0:0:
256,192,43081,1,8,0:0:0:0:
256,192,43151,1,0,0:0:0:0:
256,192,43291,1,0,0:0:0:0:
256,192,43361,1,0,0:0:0:0:
256,192,43430,1,8,0:0:0:0:
256,192,43570,1,0,0:0:0:0:
256,192,43709,1,8,0:0:0:0:
256,192,43849,1,8,0:0:0:0:
256,192,43988,1,0,0:0:0:0:
256,192,44128,1,8,0:0:0:0:
256,192,44198,1,8,0:0:0:0:
256,192,44268,1,8,0:0:0:0:
256,192,44547,1,0,0:0:0:0:
256,192,44581,1,8,0:0:0:0:
256,192,44826,1,12,0:0:0:0:
256,192,44965,1,0,0:0:0:0:
256,192,45035,1,0,0:0:0:0:
256,192,45105,1,8,0:0:0:0:
256,192,45174,1,0,0:0:0:0:
256,192,45244,1,8,0:0:0:0:
256,192,45384,1,0,0:0:0:0:
256,192,45523,1,8,0:0:0:0:
256,192,45593,1,0,0:0:0:0:
256,192,45663,1,8,0:0:0:0:
256,192,45802,1,0,0:0:0:0:
256,192,45942,1,8,0:0:0:0:
256,192,46012,1,8,0:0:0:0:
256,192,46081,1,0,0:0:0:0:
256,192,46128,1,0,0:0:0:0:
256,192,46174,1,0,0:0:0:0:
256,192,46221,1,8,0:0:0:0:
256,192,46361,1,0,0:0:0:0:
256,192,46500,1,8,0:0:0:0:
256,192,46535,1,0,0:0:0:0:
256,192,46779,1,8,0:0:0:0:
256,192,47058,1,4,0:0:0:0:
256,192,47198,1,8,0:0:0:0:
256,192,47268,1,8,0:0:0:0:
256,192,47337,1,0,0:0:0:0:
256,192,47407,1,0,0:0:0:0:
256,192,47477,1,8,0:0:0:0:
256,192,47547,1,0,0:0:0:0:
256,192,47616,1,8,0:0:0:0:
256,192,47686,1,8,0:0:0:0:
256,192,47756,1,0,0:0:0:0:
256,192,47826,1,8,0:0:0:0:
256,192,47895,1,0,0:0:0:0:
256,192,48035,1,8,0:0:0:0:
256,192,48174,1,0,0:0:0:0:
256,192,48314,1,0,0:0:0:0:
256,192,48384,1,0,0:0:0:0:
256,192,48454,1,8,0:0:0:0:
256,192,48523,1,0,0:0:0:0:
256,192,48593,1,8,0:0:0:0:
256,192,48733,1,0,0:0:0:0:
256,192,49012,1,0,0:0:0:0:
256,192,49081,1,8,0:0:0:0:
256,192,49151,1,0,0:0:0:0:
256,192,49221,1,8,0:0:0:0:
256,192,49291,1,0,0:0:0:0:
256,192,49430,1,8,0:0:0:0:
256,192,49477,1,8,0:0:0:0:
256,192,49523,1,8,0:0:0:0:
256,192,49570,1,0,0:0:0:0:
256,192,49640,1,0,0:0:0:0:
256,192,49709,1,8,0:0:0:0:
256,192,49779,1,0,0:0:0:0:
256,192,49849,1,8,0:0:0:0:
256,192,49988,1,8,0:0:0:0:
256,192,50058,1,8,0:0:0:0:
256,192,50128,1,0,0:0:0:0:
256,192,50268,1,8,0:0:0:0:
256,192,50407,1,4,0:0:0:0:
256,192,50547,1,8,0:0:0:0:
256,192,50593,1,0,0:0:0:0:
256,192,50640,1,0,0:0:0:0:
256,192,50686,1,8,0:0:0:0:
256,192,50756,1,0,0:0:0:0:
256,192,50826,1,8,0:0:0:0:
256,192,50895,1,8,0:0:0:0:
256,192,50965,1,0,0:0:0:0:
256,192,51012,1,0,0:0:0:0:
256,192,51058,1,0,0:0:0:0:
256,192,51105,1,8,0:0:0:0:
256,192,51244,1,0,0:0:0:0:
256,192,51384,1,8,0:0:0:0:
256,192,51523,1,4,0:0:0:0:
256,192,51663,1,8,0:0:0:0:
256,192,51733,1,0,0:0:0:0:
256,192,51802,1,8,0:0:0:0:
256,192,51872,1,8,0:0:0:0:
256,192,51942,1,0,0:0:0:0:
256,192,52012,1,0,0:0:0:0:
256,192,52081,1,8,0:0:0:0:
256,192,52151,1,8,0:0:0:0:
256,192,52221,1,8,0:0:0:0:
256,192,52361,1,0,0:0:0:0:
256,192,52500,1,8,0:0:0:0:
256,192,52640,12,0,53477,0:0:0:0:
256,192,53756,5,8,0:0:0:0:
256,192,54174,1,0,0:0:0:0:
256,192,54314,1,8,0:0:0:0:
256,192,54733,1,0,0:0:0:0:
256,192,54872,1,8,0:0:0:0:
256,192,55012,1,0,0:0:0:0:
256,192,55081,1,0,0:0:0:0:
256,192,55151,1,8,0:0:0:0:
256,192,55291,1,0,0:0:0:0:
256,192,55430,1,8,0:0:0:0:
256,192,55709,1,0,0:0:0:0:
256,192,55988,1,8,0:0:0:0:
256,192,56407,1,0,0:0:0:0:
256,192,56547,1,8,0:0:0:0:
256,192,56965,1,8,0:0:0:0:
256,192,57105,1,0,0:0:0:0:
256,192,57244,1,8,0:0:0:0:
256,192,57314,1,0,0:0:0:0:
256,192,57384,1,8,0:0:0:0:
256,192,57523,1,0,0:0:0:0:
256,192,57663,1,8,0:0:0:0:
256,192,57942,1,8,0:0:0:0:
256,192,58081,1,0,0:0:0:0:
256,192,58151,1,0,0:0:0:0:
256,192,58221,1,8,0:0:0:0:
256,192,58640,1,0,0:0:0:0:
256,192,58779,1,8,0:0:0:0:
256,192,59198,1,0,0:0:0:0:
256,192,59337,1,8,0:0:0:0:
256,192,59477,1,0,0:0:0:0:
256,192,59547,1,0,0:0:0:0:
256,192,59616,1,8,0:0:0:0:
256,192,59756,1,0,0:0:0:0:
256,192,59895,1,8,0:0:0:0:
256,192,60174,1,0,0:0:0:0:
256,192,60454,1,8,0:0:0:0:
256,192,60872,1,8,0:0:0:0:
256,192,61012,1,0,0:0:0:0:
256,192,61291,1,0,0:0:0:0:
256,192,61570,1,8,0:0:0:0:
256,192,61709,1,0,0:0:0:0:
256,192,61779,1,0,0:0:0:0:
256,192,61849,1,8,0:0:0:0:
256,192,61988,1,8,0:0:0:0:
256,192,62058,1,0,0:0:0:0:
256,192,62128,1,8,0:0:0:0:
256,192,62198,1,8,0:0:0:0:
256,192,62268,1,8,0:0:0:0:
256,192,62302,1,8,0:0:0:0:
256,192,62407,1,8,0:0:0:0:
256,192,62454,1,8,0:0:0:0:
256,192,62500,1,8,0:0:0:0:
256,192,62547,1,0,0:0:0:0:
256,192,62686,1,12,0:0:0:0:
256,192,62965,1,12,0:0:0:0:
256,192,63105,1,0,0:0:0:0:
256,192,63244,1,12,0:0:0:0:
256,192,63523,1,12,0:0:0:0:
256,192,63663,1,0,0:0:0:0:
256,192,63802,1,12,0:0:0:0:
256,192,63942,1,8,0:0:0:0:
256,192,64012,1,0,0:0:0:0:
256,192,64081,1,8,0:0:0:0:
256,192,64221,1,0,0:0:0:0:
256,192,64361,1,12,0:0:0:0:
256,192,64640,1,0,0:0:0:0:
256,192,64919,1,12,0:0:0:0:
256,192,65058,1,0,0:0:0:0:
256,192,65128,1,0,0:0:0:0:
256,192,65198,1,8,0:0:0:0:
256,192,65337,1,0,0:0:0:0:
256,192,65477,1,12,0:0:0:0:
256,192,65616,1,8,0:0:0:0:
256,192,65686,1,0,0:0:0:0:
256,192,65756,1,8,0:0:0:0:
256,192,65895,1,0,0:0:0:0:
256,192,66035,1,12,0:0:0:0:
256,192,66174,1,8,0:0:0:0:
256,192,66244,1,8,0:0:0:0:
256,192,66314,1,0,0:0:0:0:
256,192,66454,1,0,0:0:0:0:
256,192,66593,1,12,0:0:0:0:
256,192,66733,1,8,0:0:0:0:
256,192,66872,1,0,0:0:0:0:
256,192,67012,1,0,0:0:0:0:
256,192,67151,1,12,0:0:0:0:
256,192,67430,1,12,0:0:0:0:
256,192,67570,1,0,0:0:0:0:
256,192,67709,1,12,0:0:0:0:
256,192,67988,1,12,0:0:0:0:
256,192,68128,1,0,0:0:0:0:
256,192,68268,1,12,0:0:0:0:
256,192,68407,1,8,0:0:0:0:
256,192,68477,1,8,0:0:0:0:
256,192,68547,1,0,0:0:0:0:
256,192,68686,1,0,0:0:0:0:
256,192,68826,1,12,0:0:0:0:
256,192,69105,1,12,0:0:0:0:
256,192,69384,1,4,0:0:0:0:
256,192,69523,1,4,0:0:0:0:
256,192,69663,1,12,0:0:0:0:
256,192,69802,1,12,0:0:0:0:
256,192,69942,1,0,0:0:0:0:
256,192,70012,1,0,0:0:0:0:
256,192,70081,1,8,0:0:0:0:
256,192,70151,1,0,0:0:0:0:
256,192,70221,1,8,0:0:0:0:
256,192,70361,1,0,0:0:0:0:
256,192,70500,1,8,0:0:0:0:
256,192,70547,1,8,0:0:0:0:
256,192,70593,1,8,0:0:0:0:
256,192,70640,1,0,0:0:0:0:
256,192,70709,1,0,0:0:0:0:
256,192,70779,1,8,0:0:0:0:
256,192,70849,1,0,0:0:0:0:
256,192,70919,1,8,0:0:0:0:
256,192,70988,1,8,0:0:0:0:
256,192,71058,1,0,0:0:0:0:
256,192,71105,1,8,0:0:0:0:
256,192,71151,1,8,0:0:0:0:
256,192,71198,1,0,0:0:0:0:
256,192,71268,1,0,0:0:0:0:
256,192,71337,1,8,0:0:0:0:
256,192,71384,1,8,0:0:0:0:
256,192,71430,1,8,0:0:0:0:
256,192,71477,1,8,0:0:0:0:
256,192,71523,1,8,0:0:0:0:
256,192,71570,1,8,0:0:0:0:
256,192,71616,1,0,0:0:0:0:
256,192,71895,1,0,0:0:0:0:
256,192,72035,1,0,0:0:0:0:
256,192,72174,1,8,0:0:0:0:
256,192,72314,1,0,0:0:0:0:
256,192,72454,1,8,0:0:0:0:
256,192,72593,1,8,0:0:0:0:
256,192,72733,1,0,0:0:0:0:
256,192,72872,1,0,0:0:0:0:
256,192,73012,1,8,0:0:0:0:
256,192,73151,1,0,0:0:0:0:
256,192,73430,1,8,0:0:0:0:
256,192,73570,1,0,0:0:0:0:
256,192,73709,1,0,0:0:0:0:
256,192,73988,1,0,0:0:0:0:
256,192,74268,1,0,0:0:0:0:
256,192,74407,1,8,0:0:0:0:
256,192,74686,1,8,0:0:0:0:
256,192,74826,1,0,0:0:0:0:
256,192,74965,1,8,0:0:0:0:
256,192,75802,1,0,0:0:0:0:
256,192,75942,1,8,0:0:0:0:
256,192,76081,1,0,0:0:0:0:
256,192,76361,1,0,0:0:0:0:
256,192,76640,1,8,0:0:0:0:
256,192,76919,1,8,0:0:0:0:
256,192,77058,1,0,0:0:0:0:
256,192,77198,1,8,0:0:0:0:
256,192,77337,1,8,0:0:0:0:
256,192,77477,1,0,0:0:0:0:
256,192,77616,1,0,0:0:0:0:
256,192,77756,1,8,0:0:0:0:
256,192,78035,1,8,0:0:0:0:
256,192,78174,1,0,0:0:0:0:
256,192,78314,1,0,0:0:0:0:
256,192,78593,1,0,0:0:0:0:
256,192,78872,1,8,0:0:0:0:
256,192,79151,1,0,0:0:0:0:
256,192,79291,1,0,0:0:0:0:
256,192,79430,1,8,0:0:0:0:
256,192,79570,1,0,0:0:0:0:
256,192,79709,1,0,0:0:0:0:
256,192,79988,1,8,0:0:0:0:
256,192,80268,1,0,0:0:0:0:
256,192,80407,1,0,0:0:0:0:
256,192,80547,1,12,0:0:0:0:
256,192,80826,1,8,0:0:0:0:
256,192,80965,1,8,0:0:0:0:
256,192,81105,1,0,0:0:0:0:
256,192,81384,1,8,0:0:0:0:
256,192,81523,1,8,0:0:0:0:
256,192,81663,1,0,0:0:0:0:
256,192,81802,1,0,0:0:0:0:
256,192,81872,1,0,0:0:0:0:
256,192,81942,1,8,0:0:0:0:
256,192,82081,1,0,0:0:0:0:
256,192,82361,1,8,0:0:0:0:
256,192,82500,1,0,0:0:0:0:
256,192,82640,1,0,0:0:0:0:
256,192,82919,1,0,0:0:0:0:
256,192,83198,1,0,0:0:0:0:
256,192,83337,1,8,0:0:0:0:
256,192,83616,1,8,0:0:0:0:
256,192,83756,1,8,0:0:0:0:
256,192,83895,1,0,0:0:0:0:
256,192,84035,12,8,84593,0:0:0:0:
256,192,84733,5,0,0:0:0:0:
256,192,84872,1,0,0:0:0:0:
256,192,85012,1,12,0:0:0:0:
256,192,85151,1,0,0:0:0:0:
256,192,85221,1,0,0:0:0:0:
256,192,85291,1,8,0:0:0:0:
256,192,85430,1,4,0:0:0:0:
256,192,85570,1,8,0:0:0:0:
256,192,85640,1,0,0:0:0:0:
256,192,85709,1,8,0:0:0:0:
256,192,85988,1,0,0:0:0:0:
256,192,86128,1,12,0:0:0:0:
256,192,86268,1,0,0:0:0:0:
256,192,86337,1,8,0:0:0:0:
256,192,86407,1,0,0:0:0:0:
256,192,86547,1,4,0:0:0:0:
256,192,86686,1,8,0:0:0:0:
256,192,86826,1,0,0:0:0:0:
256,192,86895,1,0,0:0:0:0:
256,192,86965,1,8,0:0:0:0:
256,192,87012,1,8,0:0:0:0:
256,192,87058,1,8,0:0:0:0:
256,192,87105,1,0,0:0:0:0:
256,192,87174,1,0,0:0:0:0:
256,192,87244,1,8,0:0:0:0:
256,192,87384,1,0,0:0:0:0:
256,192,87454,1,0,0:0:0:0:
256,192,87523,1,8,0:0:0:0:
256,192,87593,1,8,0:0:0:0:
256,192,87663,1,8,0:0:0:0:
256,192,87802,1,0,0:0:0:0:
256,192,87942,1,8,0:0:0:0:
256,192,88012,1,8,0:0:0:0:
256,192,88081,1,0,0:0:0:0:
256,192,88128,1,0,0:0:0:0:
256,192,88174,1,0,0:0:0:0:
256,192,88221,1,8,0:0:0:0:
256,192,88291,1,8,0:0:0:0:
256,192,88361,1,0,0:0:0:0:
256,192,88500,2,0,L|160:192,3,70
256,192,89058,1,0,0:0:0:0:
256,192,89198,1,12,0:0:0:0:
256,192,89477,1,4,0:0:0:0:
256,192,89616,1,8,0:0:0:0:
256,192,89756,1,0,0:0:0:0:
256,192,89826,1,0,0:0:0:0:
256,192,89895,1,8,0:0:0:0:
256,192,89965,1,0,0:0:0:0:
256,192,90035,1,8,0:0:0:0:
256,192,90174,1,0,0:0:0:0:
256,192,90314,1,8,0:0:0:0:
256,192,90454,1,8,0:0:0:0:
256,192,90523,1,8,0:0:0:0:
256,192,90593,1,4,0:0:0:0:
256,192,90733,1,8,0:0:0:0:
256,192,90802,1,0,0:0:0:0:
256,192,90872,1,8,0:0:0:0:
256,192,91012,1,4,0:0:0:0:
256,192,91291,1,8,0:0:0:0:
256,192,91361,1,8,0:0:0:0:
256,192,91430,1,0,0:0:0:0:
256,192,91570,1,8,0:0:0:0:
256,192,91709,1,0,0:0:0:0:
256,192,91849,1,0,0:0:0:0:
256,192,91919,1,0,0:0:0:0:
256,192,91988,1,8,0:0:0:0:
256,192,92058,1,0,0:0:0:0:
256,192,92128,1,8,0:0:0:0:
256,192,92268,1,0,0:0:0:0:
256,192,92407,1,8,0:0:0:0:
256,192,92477,1,8,0:0:0:0:
256,192,92547,1,0,0:0:0:0:
256,192,92686,1,0,0:0:0:0:
256,192,92826,1,8,0:0:0:0:
256,192,92895,1,0,0:0:0:0:
256,192,92965,1,8,0:0:0:0:
256,192,93035,1,0,0:0:0:0:
256,192,93105,1,8,0:0:0:0:
256,192,93244,1,8,0:0:0:0:
256,192,93384,1,0,0:0:0:0:
256,192,93663,1,8,0:0:0:0:
256,192,93802,1,0,0:0:0:0:
256,192,93942,1,8,0:0:0:0:
256,192,94081,1,0,0:0:0:0:
256,192,94151,1,0,0:0:0:0:
256,192,94221,1,8,0:0:0:0:
256,192,94291,1,8,0:0:0:0:
256,192,94361,1,8,0:0:0:0:
256,192,94500,1,0,0:0:0:0:
256,192,94640,1,8,0:0:0:0:
256,192,94709,1,8,0:0:0:0:
256,192,94779,1,0,0:0:0:0:
256,192,94826,1,8,0:0:0:0:
256,192,94872,1,8,0:0:0:0:
256,192,94919,1,0,0:0:0:0:
256,192,94988,1,0,0:0:0:0:
256,192,95058,1,8,0:0:0:0:
256,192,95198,1,0,0:0:0:0:
256,192,95337,1,0,0:0:0:0:
256,192,95407,1,0,0:0:0:0:
256,192,95477,1,8,0:0:0:0:
256,192,95547,1,0,0:0:0:0:
256,192,95616,1,8,0:0:0:0:
256,192,95686,1,8,0:0:0:0:
256,192,95756,1,0,0:0:0:0:
256,192,95826,1,0,0:0:0:0:
256,192,95895,1,8,0:0:0:0:
256,192,96035,1,0,0:0:0:0:
256,192,96174,1,12,0:0:0:0:
256,192,96314,1,0,0:0:0:0:
256,192,96384,1,0,0:0:0:0:
256,192,96454,1,0,0:0:0:0:
256,192,96593,1,12,0:0:0:0:
256,192,96733,1,0,0:0:0:0:
256,192,96802,1,0,0:0:0:0:
256,192,96872,1,8,0:0:0:0:
256,192,97012,1,4,0:0:0:0:
256,192,97151,1,0,0:0:0:0:
256,192,97291,1,12,0:0:0:0:
256,192,97430,1,8,0:0:0:0:
256,192,97500,1,8,0:0:0:0:
256,192,97570,1,0,0:0:0:0:
256,192,97640,1,8,0:0:0:0:
256,192,97709,1,0,0:0:0:0:
256,192,97779,1,0,0:0:0:0:
256,192,97849,1,8,0:0:0:0:
256,192,97988,1,0,0:0:0:0:
256,192,98128,1,8,0:0:0:0:
256,192,98163,1,8,0:0:0:0:
256,192,98268,1,8,0:0:0:0:
256,192,98302,1,8,0:0:0:0:
256,192,98407,1,4,0:0:0:0:
256,192,98547,1,8,0:0:0:0:
256,192,98616,1,0,0:0:0:0:
256,192,98686,1,8,0:0:0:0:
256,192,98756,1,8,0:0:0:0:
256,192,98826,1,8,0:0:0:0:
256,192,98895,1,0,0:0:0:0:
256,192,98965,1,8,0:0:0:0:
256,192,99105,1,0,0:0:0:0:
256,192,99244,1,8,0:0:0:0:
256,192,99384,1,8,0:0:0:0:
256,192,99454,1,8,0:0:0:0:
256,192,99523,1,4,0:0:0:0:
256,192,99663,1,8,0:0:0:0:
256,192,99733,1,0,0:0:0:0:
256,192,99802,1,8,0:0:0:0:
256,192,99942,1,4,0:0:0:0:
256,192,100081,1,8,0:0:0:0:
256,192,100221,1,0,0:0:0:0:
256,192,100291,1,0,0:0:0:0:
256,192,100361,1,8,0:0:0:0:
256,192,100430,1,0,0:0:0:0:
256,192,100500,1,8,0:0:0:0:
256,192,100640,1,0,0:0:0:0:
256,192,100779,1,8,0:0:0:0:
256,192,100849,1,8,0:0:0:0:
256,192,100919,1,0,0:0:0:0:
256,192,101058,1,8,0:0:0:0:
256,192,101128,1,8,0:0:0:0:
256,192,101198,1,0,0:0:0:0:
256,192,101268,1,8,0:0:0:0:
256,192,101337,1,8,0:0:0:0:
256,192,101407,1,8,0:0:0:0:
256,192,101477,1,0,0:0:0:0:
256,192,101616,1,8,0:0:0:0:
256,192,101756,1,0,0:0:0:0:
256,192,101826,1,8,0:0:0:0:
256,192,101895,1,0,0:0:0:0:
256,192,101965,1,8,0:0:0:0:
256,192,102035,1,0,0:0:0:0:
256,192,102174,1,0,0:0:0:0:
256,192,102314,1,8,0:0:0:0:
256,192,102593,1,8,0:0:0:0:
256,192,102733,1,0,0:0:0:0:
256,192,102872,1,8,0:0:0:0:
256,192,103012,1,0,0:0:0:0:
256,192,103081,1,0,0:0:0:0:
256,192,103151,1,8,0:0:0:0:
256,192,103221,1,0,0:0:0:0:
256,192,103291,1,8,0:0:0:0:
256,192,103430,1,0,0:0:0:0:
256,192,103500,1,0,0:0:0:0:
256,192,103570,1,8,0:0:0:0:
256,192,103616,1,8,0:0:0:0:
256,192,103663,1,8,0:0:0:0:
256,192,103709,1,0,0:0:0:0:
256,192,103779,1,0,0:0:0:0:
256,192,103849,1,8,0:0:0:0:
256,192,103919,1,0,0:0:0:0:
256,192,103988,1,8,0:0:0:0:
256,192,104128,1,0,0:0:0:0:
256,192,104198,1,0,0:0:0:0:
256,192,104268,1,8,0:0:0:0:
256,192,104337,1,8,0:0:0:0:
256,192,104407,1,0,0:0:0:0:
256,192,104477,1,8,0:0:0:0:
256,192,104547,1,0,0:0:0:0:
256,192,104616,1,0,0:0:0:0:
256,192,104686,1,8,0:0:0:0:
256,192,104756,1,0,0:0:0:0:
256,192,104826,1,8,0:0:0:0:
256,192,104965,1,0,0:0:0:0:
256,192,105105,1,12,0:0:0:0:
256,192,105244,1,0,0:0:0:0:
256,192,105314,1,0,0:0:0:0:
256,192,105384,1,8,0:0:0:0:
256,192,105523,1,12,0:0:0:0:
256,192,105663,1,8,0:0:0:0:
256,192,105709,1,8,0:0:0:0:
256,192,105756,1,8,0:0:0:0:
256,192,105802,1,0,0:0:0:0:
256,192,105942,1,12,0:0:0:0:
256,192,106081,1,0,0:0:0:0:
256,192,106221,1,12,0:0:0:0:
256,192,106500,1,8,0:0:0:0:
256,192,106779,1,0,0:0:0:0:
256,192,106919,1,0,0:0:0:0:
256,192,107058,1,8,0:0:0:0:
256,192,107198,1,8,0:0:0:0:
256,192,107337,1,4,0:0:0:0:
256,192,107477,1,8,0:0:0:0:
256,192,107547,1,0,0:0:0:0:
256,192,107616,1,8,0:0:0:0:
256,192,107686,1,8,0:0:0:0:
256,192,107756,1,0,0:0:0:0:
256,192,107895,1,8,0:0:0:0:
256,192,108035,1,0,0:0:0:0:
256,192,108105,1,0,0:0:0:0:
256,192,108174,1,8,0:0:0:0:
256,192,108314,1,0,0:0:0:0:
256,192,108593,1,8,0:0:0:0:
256,192,108663,1,0,0:0:0:0:
256,192,108733,1,8,0:0:0:0:
256,192,108802,1,0,0:0:0:0:
256,192,108872,1,0,0:0:0:0:
256,192,109012,1,8,0:0:0:0:
256,192,109151,1,0,0:0:0:0:
256,192,109221,1,0,0:0:0:0:
256,192,109291,1,8,0:0:0:0:
256,192,109430,1,0,0:0:0:0:
256,192,109570,1,8,0:0:0:0:
256,192,109640,1,0,0:0:0:0:
256,192,109709,1,8,0:0:0:0:
256,192,109779,1,0,0:0:0:0:
256,192,109849,1,8,0:0:0:0:
256,192,109988,1,8,0:0:0:0:
256,192,110058,1,8,0:0:0:0:
256,192,110128,1,0,0:0:0:0:
256,192,110198,1,0,0:0:0:0:
256,192,110268,1,8,0:0:0:0:
256,192,110337,1,0,0:0:0:0:
256,192,110407,1,8,0:0:0:0:
256,192,110547,1,8,0:0:0:0:
256,192,110686,1,0,0:0:0:0:
256,192,110756,1,0,0:0:0:0:
256,192,110826,1,8,0:0:0:0:
256,192,110895,1,0,0:0:0:0:
256,192,110965,1,8,0:0:0:0:
256,192,111012,1,8,0:0:0:0:
256,192,111058,1,8,0:0:0:0:
256,192,111105,1,0,0:0:0:0:
256,192,111174,1,0,0:0:0:0:
256,192,111244,1,8,0:0:0:0:
256,192,111523,1,0,0:0:0:0:
256,192,111663,1,0,0:0:0:0:
256,192,111802,1,12,0:0:0:0:
256,192,111942,1,8,0:0:0:0:
256,192,112012,1,8,0:0:0:0:
256,192,112081,1,0,0:0:0:0:
256,192,112151,1,0,0:0:0:0:
256,192,112221,1,8,0:0:0:0:
256,192,112361,1,8,0:0:0:0:
256,192,112500,1,0,0:0:0:0:
256,192,112570,1,0,0:0:0:0:
256,192,112640,1,8,0:0:0:0:
256,192,112686,1,8,0:0:0:0:
256,192,112733,1,8,0:0:0:0:
256,192,112779,1,0,0:0:0:0:
256,192,112849,1,0,0:0:0:0:
256,192,112919,1,8,0:0:0:0:
256,192,113058,1,8,0:0:0:0:
256,192,113128,1,8,0:0:0:0:
256,192,113198,1,0,0:0:0:0:
256,192,113337,1,8,0:0:0:0:
256,192,113477,1,0,0:0:0:0:
256,192,113756,1,12,0:0:0:0:
256,192,114035,1,4,0:0:0:0:
256,192,114174,1,8,0:0:0:0:
256,192,114244,1,8,0:0:0:0:
256,192,114314,1,8,0:0:0:0:
256,192,114454,1,4,0:0:0:0:
256,192,114593,1,8,0:0:0:0:
256,192,114663,1,8,0:0:0:0:
256,192,114733,1,0,0:0:0:0:
256,192,114872,1,12,0:0:0:0:
256,192,115012,1,0,0:0:0:0:
256,192,115151,1,12,0:0:0:0:
256,192,115291,1,0,0:0:0:0:
256,192,115361,1,0,0:0:0:0:
256,192,115430,1,8,0:0:0:0:
256,192,115500,1,8,0:0:0:0:
256,192,115570,1,8,0:0:0:0:
256,192,115640,1,8,0:0:0:0:
256,192,115709,1,0,0:0:0:0:
256,192,115849,1,12,0:0:0:0:
256,192,115988,1,0,0:0:0:0:
256,192,116128,1,12,0:0:0:0:
256,192,116268,1,0,0:0:0:0:
256,192,116407,12,0,117384,0:0:0:0:
