osu file format v14

[General]
AudioFilename: audio.mp3
AudioLeadIn: 0
PreviewTime: -1
Countdown: 0
SampleSet: None
StackLeniency: 1
Mode: 0
LetterboxInBreaks: 0
WidescreenStoryboard: 0

[Editor]
DistanceSpacing: 2
BeatDivisor: 8
GridSize: 4
TimelineZoom: 1

[Metadata]
Title:OTENAMI Hurricane
TitleUnicode:OTENAMI Hurricane
Artist:t+pazolite
ArtistUnicode:t+pazolite
Creator:Aezis
Version:Typhoon
Source:
Tags:
BeatmapID:2061338
BeatmapSetID:985210

[Difficulty]
HPDrainRate:6
CircleSize:4
OverallDifficulty:9
ApproachRate:10
SliderMultiplier:2.4
SliderTickRate:1

[Events]
//Background and Video events
//Break Periods
//Storyboard Layer 0 (Background)
//Storyboard Layer 1 (Fail)
//Storyboard Layer 2 (Pass)
//Storyboard Layer 3 (Foreground)
//Storyboard Sound Samples

[TimingPoints]
264,279.06976744186,4,1,0,32,1,0
9194,-95.2380952380952,4,1,0,32,0,0
17566,-125,4,1,0,32,0,0
17845,-95.2380952380952,4,1,0,32,0,0

[HitObjects]
256,192,1380,12,0,4170,0:0:0:0:
185,251,4450,6,0,P|157:201|159:170,1,60
243,116,4589,2,0,P|271:166|269:197,1,60
253,288,4729,2,0,P|212:323|108:265,1,180
76,159,5008,2,0,B|86:195|86:195|139:38,1,180
21,109,5287,2,0,P|2:160|3:175,1,60
5,182,5426,1,0,0:0:0:0:
10,199,5496,1,0,0:0:0:0:
17,215,5566,2,0,L|51:291,1,60
135,329,5705,2,0,L|101:253,1,60
76,159,5845,6,0,L|165:120,1,60
248,160,5984,2,0,L|159:199,1,60
260,82,6124,2,0,P|323:133|296:223,1,180
222,311,6403,2,0,L|318:285,1,60
396,330,6543,2,0,L|300:356,1,60
411,250,6682,2,0,P|455:275|469:292,1,60
474,305,6822,1,0,0:0:0:0:
248,160,6961,6,0,P|184:107|213:18,1,180
326,38,7240,2,0,B|456:58|456:58|403:105,1,180
319,202,7519,2,0,P|280:234|260:240,1,60
254,242,7659,1,0,0:0:0:0:
235,241,7729,1,0,0:0:0:0:
217,237,7798,2,0,L|124:228,1,60
50,171,7938,2,0,L|147:169,1,60
248,160,8077,2,0,B|216:137|216:137|363:122,1,180
319,202,8357,2,0,P|410:194|442:107,1,180
348,48,8636,2,0,B|253:31|253:31|162:62,1,180
158,67,8915,1,0,0:0:0:0:
76,319,9194,6,0,L|182:302,1,62.9999980773926
276,286,9333,1,0,0:0:0:0:
291,275,9403,1,0,0:0:0:0:
303,261,9473,2,0,P|319:214|316:188,1,62.9999980773926
205,143,9612,2,0,P|189:190|192:216,1,62.9999980773926
194,221,9752,1,0,0:0:0:0:
199,239,9822,1,0,0:0:0:0:
202,257,9891,1,0,0:0:0:0:
198,275,9961,1,0,0:0:0:0:
191,292,10031,2,0,L|136:345,1,62.9999980773926
130,347,10170,5,0,0:0:0:0:
111,350,10240,1,0,0:0:0:0:
93,343,10310,2,0,P|50:318|31:274,1,62.9999980773926
34,283,10450,1,0,0:0:0:0:
34,258,10519,1,0,0:0:0:0:
46,236,10589,1,0,0:0:0:0:
66,221,10659,1,0,0:0:0:0:
110,217,10729,5,0,0:0:0:0:
150,200,10798,1,0,0:0:0:0:
175,163,10868,2,0,L|183:101,3,62.9999980773926
214,97,11147,1,0,0:0:0:0:
245,94,11217,1,0,0:0:0:0:
276,91,11287,1,0,0:0:0:0:
307,88,11357,1,0,0:0:0:0:
387,83,11426,2,0,P|375:129|353:154,1,62.9999980773926
354,156,11566,1,0,0:0:0:0:
337,164,11636,1,0,0:0:0:0:
263,176,11705,6,0,L|256:210,1,31.4999990386963
228,189,11775,2,0,L|221:223,1,31.4999990386963
194,182,11845,2,0,L|187:216,1,31.4999990386963
175,163,11915,2,0,L|168:197,1,31.4999990386963
163,144,11984,5,0,0:0:0:0:
152,128,12054,1,0,0:0:0:0:
134,122,12124,1,0,0:0:0:0:
115,120,12194,1,0,0:0:0:0:
98,128,12263,2,0,L|63:152,6,31.4999990386963
206,283,12822,5,0,0:0:0:0:
263,176,12961,1,0,0:0:0:0:
432,109,13101,5,0,0:0:0:0:
353,148,13240,1,0,0:0:0:0:
321,230,13380,1,0,0:0:0:0:
330,317,13519,1,0,0:0:0:0:
206,283,13659,6,0,L|152:238,1,62.9999980773926
142,230,13798,1,0,0:0:0:0:
132,213,13868,1,0,0:0:0:0:
127,194,13938,1,0,0:0:0:0:
130,175,14008,1,0,0:0:0:0:
147,135,14077,5,0,0:0:0:0:
188,119,14147,1,0,0:0:0:0:
231,124,14217,2,0,L|320:148,1,62.9999980773926
432,109,14357,2,0,L|341:81,1,62.9999980773926
236,43,14496,1,0,0:0:0:0:
198,39,14566,1,0,0:0:0:0:
160,35,14636,1,0,0:0:0:0:
122,31,14705,1,0,0:0:0:0:
27,25,14775,6,0,L|48:117,1,62.9999980773926
45,105,14915,1,0,0:0:0:0:
48,123,14984,1,0,0:0:0:0:
59,159,15054,2,0,L|37:199,1,31.4999990386963
89,186,15124,2,0,L|75:232,1,31.4999990386963
124,206,15194,2,0,L|125:263,1,31.4999990386963
168,234,15263,2,0,L|198:288,1,31.4999990386963
222,284,15333,5,0,0:0:0:0:
366,334,15473,1,0,0:0:0:0:
415,190,15612,1,0,0:0:0:0:
272,141,15752,1,0,0:0:0:0:
411,267,15891,2,0,P|456:255|480:231,1,62.9999980773926
482,232,16031,1,0,0:0:0:0:
491,215,16101,1,0,0:0:0:0:
495,196,16170,2,0,P|477:141|458:124,1,62.9999980773926
459,125,16310,6,0,L|469:81,1,31.4999990386963
432,114,16380,2,0,L|427:67,1,31.4999990386963
404,113,16450,2,0,L|341:126,1,62.9999980773926
272,141,16589,1,0,0:0:0:0:
197,155,16659,1,0,0:0:0:0:
122,169,16729,1,0,0:0:0:0:
104,174,16798,1,0,0:0:0:0:
91,188,16868,2,0,P|73:238|83:284,1,62.9999980773926
243,330,17147,5,0,0:0:0:0:
267,325,17217,1,0,0:0:0:0:
280,303,17287,1,0,0:0:0:0:
304,307,17357,1,0,0:0:0:0:
320,288,17426,1,0,0:0:0:0:
345,290,17496,1,0,0:0:0:0:
357,268,17566,2,0,P|400:216|311:216,1,192
149,228,18124,6,0,L|118:167,1,62.9999980773926
227,238,18263,2,0,L|214:157,1,62.9999980773926
197,49,18403,1,0,0:0:0:0:
210,77,18473,1,0,0:0:0:0:
234,96,18543,1,0,0:0:0:0:
262,108,18612,1,0,0:0:0:0:
293,111,18682,2,0,L|385:83,1,62.9999980773926
472,44,18822,5,0,0:0:0:0:
449,66,18891,1,0,0:0:0:0:
437,95,18961,2,0,L|408:134,1,31.4999990386963
441,142,19031,2,0,L|430:191,1,31.4999990386963
466,171,19101,2,0,P|490:217|488:251,1,62.9999980773926
428,337,19240,2,0,L|334:314,1,62.9999980773926
241,295,19380,2,0,L|207:333,1,31.4999990386963
206,271,19450,2,0,L|169:290,1,31.4999990386963
186,238,19519,2,0,P|178:202|193:154,1,62.9999980773926
293,111,19659,5,0,0:0:0:0:
428,337,19798,1,0,0:0:0:0:
241,295,19938,2,0,L|207:333,1,31.4999990386963
206,271,20008,2,0,L|169:290,1,31.4999990386963
186,238,20077,2,0,P|178:202|193:154,1,62.9999980773926
476,81,20357,6,0,P|431:113|388:114,1,62.9999980773926
293,111,20496,1,0,0:0:0:0:
274,136,20566,1,0,0:0:0:0:
275,167,20636,2,0,P|291:218|274:254,1,62.9999980773926
291,352,20775,1,0,0:0:0:0:
305,324,20845,1,0,0:0:0:0:
322,297,20915,1,0,0:0:0:0:
476,81,21054,2,0,L|428:148,1,62.9999980773926
391,203,21194,2,0,L|361:243,6,31.4999990386963
