osu file format v14

[General]
AudioFilename: audio.mp3
AudioLeadIn: 0
PreviewTime: 128316
Countdown: 0
SampleSet: Normal
StackLeniency: 0.4
Mode: 0
LetterboxInBreaks: 0
WidescreenStoryboard: 1

[Editor]
DistanceSpacing: 1.5
BeatDivisor: 4
GridSize: 4
TimelineZoom: 3.699999

[Metadata]
Title:OMGWTFYAWP
TitleUnicode:OMGWTFYAWP
Artist:t+pazolite
ArtistUnicode:t+pazolite
Creator:Mashed
Version:Distortion
Source:
Tags:
BeatmapID:1533856
BeatmapSetID:726543

[Difficulty]
HPDrainRate:7
CircleSize:3.7
OverallDifficulty:8
ApproachRate:9.3
SliderMultiplier:2
SliderTickRate:1

[Events]
//Background and Video events
0,0,"bg.jpg",0,0
//Break Periods
//Storyboard Layer 0 (Background)
//Storyboard Layer 1 (Fail)
//Storyboard Layer 2 (Pass)
//Storyboard Layer 3 (Foreground)
//Storyboard Sound Samples

[TimingPoints]
8346,500,4,1,0,50,1,0
8346,-200,4,1,0,20,0,0
30346,-133.333333333333,4,1,0,20,0,0
30846,-100,4,1,0,20,0,0
32346,-80,4,1,0,20,0,0
33721,-100,4,1,0,20,0,0
34096,-80,4,1,0,20,0,0
35721,-100,4,1,0,20,0,0
36096,-80,4,1,0,20,0,0
37721,-100,4,1,0,20,0,0
38096,-80,4,1,0,20,0,0
48346,250,4,1,0,50,1,0
247346,500,4,1,0,50,1,0

[HitObjects]
15,65,8346,6,0,P|61:55|104:23,1,100
182,47,9096,1,0,0:0:0:0:
217,58,9221,1,0,0:0:0:0:
252,68,9346,1,0,0:0:0:0:
336,55,9596,2,0,L|384:27,1,50
304,134,10096,1,0,0:0:0:0:
263,209,10346,6,0,L|210:241,1,50
256,355,10846,2,0,L|223:302,1,50
110,347,11346,2,0,L|162:314,1,50
116,202,11846,2,0,L|148:254,1,50
246,81,12346,6,0,P|225:126|189:159,1,100
220,235,13096,1,0,0:0:0:0:
255,246,13221,1,0,0:0:0:0:
290,256,13346,1,0,0:0:0:0:
372,281,13596,2,0,L|349:336,1,50
351,203,14096,1,0,0:0:0:0:
331,123,14346,6,0,L|349:76,1,50
271,40,14846,2,0,L|224:21,1,50
195,100,15346,2,0,L|176:146,1,50
254,182,15846,2,0,L|300:200,1,50
186,339,16346,6,0,P|206:293|249:267,1,100
328,281,17096,1,0,0:0:0:0:
363,292,17221,1,0,0:0:0:0:
398,302,17346,1,0,0:0:0:0:
480,325,17596,2,0,L|475:267,1,50
414,216,18096,1,0,0:0:0:0:
456,94,18346,6,0,L|459:143,1,50
325,138,18846,2,0,L|374:134,1,50
370,268,19346,2,0,L|366:218,1,50
500,223,19846,2,0,L|450:226,1,50
414,60,20346,6,0,P|443:87|458:151,1,100
408,223,21096,1,0,0:0:0:0:
397,258,21221,1,0,0:0:0:0:
387,293,21346,1,0,0:0:0:0:
336,365,21596,2,0,L|282:334,1,50
254,266,22096,1,0,0:0:0:0:
196,202,22346,6,0,L|191:143,1,50
147,61,22846,2,0,L|206:56,1,50
288,12,23346,2,0,L|293:71,1,50
337,152,23846,2,0,L|278:157,1,50
396,296,24346,6,0,P|361:250|305:230,1,100
242,226,25096,1,0,0:0:0:0:
207,237,25221,1,0,0:0:0:0:
172,248,25346,1,0,0:0:0:0:
102,301,25596,2,0,L|82:240,1,50
128,179,26096,1,0,0:0:0:0:
202,141,26346,6,0,L|247:167,1,50
241,288,26846,2,0,L|266:244,1,50
389,249,27346,2,0,L|345:224,1,50
349,101,27846,2,0,L|324:144,1,50
207,14,28346,6,0,P|245:40|264:96,1,100
233,166,29096,1,0,0:0:0:0:
231,202,29221,1,0,0:0:0:0:
229,239,29346,1,0,0:0:0:0:
203,324,29596,2,0,L|265:320,1,50
333,343,30096,1,0,0:0:0:0:
486,298,30346,6,0,L|406:303,1,75.0000028610231
420,98,30846,2,0,L|429:210,1,100
332,226,31346,5,0,0:0:0:0:
144,121,31596,1,0,0:0:0:0:
291,81,31846,1,0,0:0:0:0:
189,270,32096,1,0,0:0:0:0:
65,161,32346,6,0,L|121:193,1,62.5
238,178,32596,1,0,0:0:0:0:
244,68,32846,6,0,L|167:93,1,62.5
187,97,33096,2,0,L|246:77,1,62.5
345,79,33346,5,0,0:0:0:0:
424,134,33471,1,0,0:0:0:0:
447,226,33596,1,0,0:0:0:0:
342,312,33721,6,0,P|291:306|256:271,1,100
327,229,34096,2,0,B|349:219|349:219|369:196|369:196|391:188,1,62.5
345,79,34346,6,0,P|288:98|248:156,1,125
327,229,34721,1,0,0:0:0:0:
257,272,34846,6,0,P|232:291|216:318,1,62.5
222,323,35096,2,0,P|238:296|263:277,1,62.5
327,229,35346,5,0,0:0:0:0:
403,197,35471,1,0,0:0:0:0:
483,186,35596,1,0,0:0:0:0:
398,346,35721,6,0,P|353:368|302:360,1,100
339,289,36096,2,0,B|307:283|307:283|269:290,1,62.5
113,294,36346,6,0,L|128:227,1,62.5
149,128,36596,1,0,0:0:0:0:
126,233,36721,1,0,0:0:0:0:
227,194,36846,6,0,L|242:127,1,62.5
247,133,37096,2,0,L|233:193,1,62.5
255,274,37346,5,0,0:0:0:0:
317,329,37471,1,0,0:0:0:0:
398,346,37596,1,0,0:0:0:0:
481,232,37721,6,0,P|452:192|399:174,1,100
405,255,38096,2,0,B|373:248|373:248|342:225,1,62.5
